osu file format v14

[General]
AudioFilename: audio.mp3
AudioLeadIn: 0
PreviewTime: -1
Countdown: 1
SampleSet: Normal
StackLeniency: 0.7
Mode: 0
LetterboxInBreaks: 0
WidescreenStoryboard: 0

[Editor]
DistanceSpacing: 1.1
BeatDivisor: 4
GridSize: 8
TimelineZoom: 2.2

[Metadata]
Title:Corpse Party Blood Covered OST - Chapter 5 s Main Building Theme 2 Extended
TitleUnicode:Corpse Party Blood Covered OST - Chapter 5 s Main Building Theme 2 Extended
Artist:Team GrisGris
ArtistUnicode:Team GrisGris
Creator:Gnomeirl
Version:fun diff
Source:Corpse party (ps game)
Tags:corpse party
BeatmapID:1631022
BeatmapSetID:776257

[Difficulty]
HPDrainRate:6.5
CircleSize:4
OverallDifficulty:6
ApproachRate:9
SliderMultiplier:1.4
SliderTickRate:1

[Events]
//Background and Video events
//Break Periods
//Storyboard Layer 0 (Background)
//Storyboard Layer 1 (Fail)
//Storyboard Layer 2 (Pass)
//Storyboard Layer 3 (Foreground)
//Storyboard Sound Samples

[TimingPoints]
5971.87026991729,451.127819548872,4,1,0,100,1,0
7663,-66.6666666666667,4,1,0,100,0,0
50633,-100,4,1,0,100,0,0

[HitObjects]
80,156,558,5,0,0:0:0:0:
96,120,1009,1,0,0:0:0:0:
288,160,1460,1,0,0:0:0:0:
424,272,1911,1,0,0:0:0:0:
124,92,2362,5,0,0:0:0:0:
164,72,2813,1,0,0:0:0:0:
292,228,3265,1,0,0:0:0:0:
144,312,3716,1,0,0:0:0:0:
440,160,4167,5,0,0:0:0:0:
416,120,4618,1,0,0:0:0:0:
224,232,5069,1,0,0:0:0:0:
392,312,5520,1,0,0:0:0:0:
472,120,5971,5,0,0:0:0:0:
460,156,6084,1,0,0:0:0:0:
444,188,6197,1,0,0:0:0:0:
288,320,6422,5,0,0:0:0:0:
256,328,6535,1,0,0:0:0:0:
224,320,6648,1,0,0:0:0:0:
44,184,6874,5,0,0:0:0:0:
52,156,6986,1,0,0:0:0:0:
72,128,7099,1,0,0:0:0:0:
220,64,7325,5,0,0:0:0:0:
252,52,7438,1,0,0:0:0:0:
284,64,7550,1,0,0:0:0:0:
460,160,7776,2,0,P|460:208|408:260,1,105.000004005432
288,288,8227,1,0,0:0:0:0:
168,288,8453,1,0,0:0:0:0:
40,224,8678,2,0,P|40:176|80:120,1,105.000004005432
200,56,9129,1,0,0:0:0:0:
336,56,9355,1,0,0:0:0:0:
432,88,9580,6,0,P|408:144|348:164,1,105.000004005432
68,232,10032,1,0,0:0:0:0:
68,232,10257,5,0,0:0:0:0:
128,128,10483,2,0,P|148:160|208:200,1,105.000004005432
260,204,10934,2,0,P|296:192|328:136,1,105.000004005432
192,64,11385,6,0,L|288:116,1,105.000004005432
444,72,11836,1,0,0:0:0:0:
444,72,12062,5,0,0:0:0:0:
416,168,12287,1,0,0:0:0:0:
416,168,12513,2,0,L|304:168,1,105.000004005432
252,168,12851,1,0,0:0:0:0:
192,168,12964,5,0,0:0:0:0:
136,192,13077,1,0,0:0:0:0:
112,256,13189,2,0,L|236:288,1,105.000004005432
425,327,13641,1,0,0:0:0:0:
433,315,13753,1,0,0:0:0:0:
441,307,13866,1,0,0:0:0:0:
449,299,13979,1,0,0:0:0:0:
457,291,14092,6,0,P|373:291|333:283,1,105.000004005432
200,312,14543,1,0,0:0:0:0:
200,312,14768,5,0,0:0:0:0:
92,208,14994,1,0,0:0:0:0:
68,184,15220,1,0,0:0:0:0:
52,156,15445,1,0,0:0:0:0:
52,124,15671,5,0,0:0:0:0:
72,104,15896,2,0,P|112:72|184:72,1,105.000004005432
288,64,16235,5,0,0:0:0:0:
320,72,16347,1,0,0:0:0:0:
336,104,16460,1,0,0:0:0:0:
320,136,16573,1,0,0:0:0:0:
296,160,16686,1,0,0:0:0:0:
264,176,16798,6,0,P|204:228|184:256,1,105.000004005432
168,280,17137,1,0,0:0:0:0:
160,320,17250,2,0,L|272:272,1,105.000004005432
248,264,17701,2,0,L|160:196,1,105.000004005432
176,184,18152,2,0,L|252:108,1,105.000004005432,2|2,0:0|0:0,0:0:0:0:
340,76,18603,5,0,0:0:0:0:
400,108,18829,1,0,0:0:0:0:
452,144,19054,1,0,0:0:0:0:
476,204,19280,1,0,0:0:0:0:
416,208,19505,6,0,L|264:208,1,105.000004005432
44,100,19956,1,0,0:0:0:0:
36,128,20069,1,0,0:0:0:0:
40,156,20182,1,0,0:0:0:0:
48,188,20295,1,0,0:0:0:0:
56,208,20407,6,0,P|104:252|140:248,1,105.000004005432
160,240,20746,1,0,0:0:0:0:
176,232,20859,1,0,0:0:0:0:
208,112,21084,1,0,0:0:0:0:
208,112,21310,2,0,P|252:100|320:116,1,105.000004005432
464,220,21761,1,0,0:0:0:0:
464,220,21986,5,0,0:0:0:0:
344,272,22212,6,0,L|232:272,1,105.000004005432
212,272,22663,2,0,L|300:200,1,105.000004005432
320,184,23114,2,0,L|236:88,1,105.000004005432
224,88,23565,2,0,L|112:88,1,105.000004005432
56,96,24017,6,0,L|104:192,1,105.000004005432
200,312,24468,1,0,0:0:0:0:
224,312,24580,1,0,0:0:0:0:
252,312,24693,1,0,0:0:0:0:
376,312,24919,2,0,P|408:312|440:280,1,52.5000020027161
444,276,25144,2,0,P|464:244|464:208,1,52.5000020027161
464,192,25370,2,0,P|456:156|420:132,1,52.5000020027161
416,116,25595,2,0,P|388:104|352:104,1,52.5000020027161
256,104,25821,5,0,0:0:0:0:
136,104,26047,1,0,0:0:0:0:
48,152,26272,6,0,P|52:208|104:240,1,105.000004005432
208,256,26723,5,0,0:0:0:0:
236,256,26836,1,0,0:0:0:0:
264,256,26949,1,0,0:0:0:0:
292,248,27062,1,0,0:0:0:0:
308,240,27174,1,0,0:0:0:0:
328,228,27287,5,0,0:0:0:0:
344,216,27400,1,0,0:0:0:0:
360,204,27513,1,0,0:0:0:0:
372,196,27626,6,0,P|358:148|324:104,1,105.000004005432
324,104,28077,2,0,P|264:88|184:112,1,105.000004005432
108,136,28415,5,0,0:0:0:0:
108,136,28528,2,0,P|60:176|128:284,1,210.000008010865
216,300,29092,1,0,0:0:0:0:
232,300,29205,5,0,0:0:0:0:
436,156,29430,2,0,L|436:264,1,105.000004005432
436,261,29881,1,0,0:0:0:0:
80,216,30107,5,0,0:0:0:0:
80,216,30332,2,0,L|152:128,1,105.000004005432
196,76,30671,1,0,0:0:0:0:
228,76,30783,1,0,0:0:0:0:
256,76,30896,5,0,0:0:0:0:
284,76,31009,5,0,0:0:0:0:
312,76,31122,1,0,0:0:0:0:
348,76,31235,6,0,P|346:144|320:204,1,105.000004005432
316,204,31573,1,0,0:0:0:0:
296,224,31686,2,0,P|232:236|188:208,1,105.000004005432
140,180,32024,1,0,0:0:0:0:
92,124,32137,2,0,L|184:64,1,105.000004005432
208,52,32475,1,0,0:0:0:0:
232,44,32588,2,0,L|336:88,1,105.000004005432
416,120,32926,1,0,0:0:0:0:
464,328,33039,5,0,0:0:0:0:
296,160,33265,1,0,0:0:0:0:
296,328,33490,1,0,0:0:0:0:
464,160,33716,1,0,0:0:0:0:
452,284,33941,2,0,B|381:284|381:284|328:248,1,105.000004005432
224,168,34392,5,0,0:0:0:0:
172,136,34505,1,0,0:0:0:0:
112,120,34618,1,0,0:0:0:0:
52,128,34731,1,0,0:0:0:0:
40,196,34844,2,0,B|96:248|96:248|144:216,1,105.000004005432
208,176,35182,5,0,0:0:0:0:
232,160,35295,1,0,0:0:0:0:
252,144,35407,1,0,0:0:0:0:
276,128,35520,1,0,0:0:0:0:
300,112,35633,1,0,0:0:0:0:
328,100,35746,2,0,B|352:80|352:80|400:96,2,52.5000020027161
116,100,36197,5,0,0:0:0:0:
224,296,36423,1,0,0:0:0:0:
392,160,36648,1,0,0:0:0:0:
144,92,37776,5,0,0:0:0:0:
216,92,38002,1,0,0:0:0:0:
288,96,38227,1,0,2:0:0:0:
360,96,38453,1,0,0:0:0:0:
192,304,39355,5,0,0:0:0:0:
352,128,40257,5,0,0:0:0:0:
168,92,41611,5,0,0:0:0:0:
200,92,41723,1,0,0:0:0:0:
228,92,41836,1,0,0:0:0:0:
260,92,41949,1,0,0:0:0:0:
288,92,42062,1,0,0:0:0:0:
360,196,43866,5,0,0:0:0:0:
104,248,44994,5,0,0:0:0:0:
176,248,45220,1,0,0:0:0:0:
176,320,45445,1,0,0:0:0:0:
248,320,45671,1,0,0:0:0:0:
380,88,46573,5,0,0:0:0:0:
256,188,47024,1,0,0:0:0:0:
116,296,47475,1,0,0:0:0:0:
184,96,49280,1,0,0:0:0:0:
136,92,51084,6,0,L|176:92,1,35
232,92,51310,1,0,0:0:0:0:
232,152,51535,2,0,L|232:224,1,70
232,288,51987,5,0,0:0:0:0:
376,104,52212,5,0,0:0:0:0:
376,164,52438,1,0,0:0:0:0:
376,224,52663,1,0,0:0:0:0:
376,292,52889,2,0,L|316:292,1,35
304,292,53114,2,0,L|224:292,1,70
176,284,53566,5,0,0:0:0:0:
176,224,53791,6,0,L|176:172,1,35
176,128,54017,2,0,L|176:48,1,70
96,288,54468,5,0,0:0:0:0:
168,288,54693,6,0,L|216:288,1,35
264,288,54919,1,0,0:0:0:0:
340,288,55144,6,0,L|340:192,1,70
224,292,55596,5,0,0:0:0:0:
96,292,55821,1,0,0:0:0:0:
124,72,56047,5,0,0:0:0:0:
156,72,56160,1,0,0:0:0:0:
188,72,56272,1,0,0:0:0:0:
216,72,56385,1,0,0:0:0:0:
248,72,56498,5,0,0:0:0:0:
448,160,56723,5,0,0:0:0:0:
448,160,56949,2,0,P|428:200|384:232,1,70
256,304,57400,5,0,0:0:0:0:
256,304,57626,1,0,0:0:0:0:
232,76,57851,1,0,0:0:0:0:
68,164,58077,5,0,0:0:0:0:
108,312,58302,2,0,L|180:256,1,70
408,84,58754,6,0,L|408:184,1,70
252,68,59204,5,0,0:0:0:0:
260,280,59430,1,0,0:0:0:0:
196,88,59656,5,0,0:0:0:0:
312,248,59881,1,0,0:0:0:0:
152,128,60107,1,0,0:0:0:0:
444,92,60332,5,0,0:0:0:0:
444,92,60558,2,0,L|372:144,1,70
252,268,61009,5,0,0:0:0:0:
252,268,61235,1,0,0:0:0:0:
252,76,61460,5,0,0:0:0:0:
252,76,61686,1,0,0:0:0:0:
84,80,61911,2,0,L|152:140,1,70
456,244,62363,2,0,P|404:244|368:252,1,70
260,320,62813,1,0,0:0:0:0:
224,320,63039,1,0,0:0:0:0:
68,312,63265,5,0,0:0:0:0:
67,301,63378,5,0,0:0:0:0:
67,289,63490,1,0,0:0:0:0:
67,277,63603,1,0,0:0:0:0:
67,265,63716,1,0,0:0:0:0:
32,40,63941,2,0,L|128:40,1,70
248,48,64393,5,0,0:0:0:0:
280,48,64505,1,0,0:0:0:0:
320,48,64618,1,0,0:0:0:0:
352,48,64731,1,0,0:0:0:0:
400,64,64844,5,0,0:0:0:0:
432,104,64957,1,0,0:0:0:0:
440,160,65069,1,0,0:0:0:0:
424,224,65182,1,0,0:0:0:0:
392,280,65295,1,0,0:0:0:0:
344,328,65408,1,0,0:0:0:0:
200,336,65520,5,0,0:0:0:0:
200,336,65746,1,0,0:0:0:0:
200,336,65972,2,0,L|200:264,1,70
428,84,66423,5,0,0:0:0:0:
428,84,66648,1,0,0:0:0:0:
428,84,66874,2,0,L|428:164,1,70
92,68,67325,5,0,0:0:0:0:
92,68,67551,1,0,0:0:0:0:
92,68,67776,2,0,L|92:148,1,70
252,64,68227,5,0,0:0:0:0:
256,68,68453,1,0,0:0:0:0:
256,68,68678,2,0,L|256:160,1,70
452,64,69130,5,0,0:0:0:0:
452,64,69355,1,0,0:0:0:0:
452,64,69581,2,0,L|380:116,1,70
254,138,70032,5,0,0:0:0:0:
123,226,70257,1,0,0:0:0:0:
255,298,70483,1,0,0:0:0:0:
396,229,70708,1,0,0:0:0:0:
324,168,70934,5,0,0:0:0:0:
288,192,71047,1,0,0:0:0:0:
260,204,71160,1,0,0:0:0:0:
224,200,71272,1,0,0:0:0:0:
196,188,71385,1,0,0:0:0:0:
168,164,71498,5,0,0:0:0:0:
156,132,71611,1,0,0:0:0:0:
152,100,71724,1,0,0:0:0:0:
168,80,71836,1,0,0:0:0:0:
196,72,71949,1,0,0:0:0:0:
224,68,72062,5,0,0:0:0:0:
256,72,72175,1,0,0:0:0:0:
284,76,72287,1,0,0:0:0:0:
308,100,72400,1,0,0:0:0:0:
324,124,72513,1,0,0:0:0:0:
344,180,72738,6,0,L|256:228,1,70
248,236,73077,1,0,0:0:0:0:
192,248,73190,2,0,L|136:200,1,70
116,184,73528,1,0,0:0:0:0:
96,128,73641,2,0,P|152:96|172:100,1,70
216,92,73979,1,0,0:0:0:0:
248,96,74092,5,0,0:0:0:0:
280,108,74204,1,0,0:0:0:0:
308,120,74318,1,0,0:0:0:0:
336,136,74430,1,0,0:0:0:0:
360,152,74543,2,0,L|412:184,1,35
408,184,74769,2,0,L|348:256,1,70
252,304,75220,5,0,0:0:0:0:
88,284,75445,2,0,P|72:256|96:208,1,70
124,118,75896,2,0,P|128:82|164:82,1,70
444,116,76348,6,0,P|400:132|400:168,1,70
408,311,76799,1,0,0:0:0:0:
408,311,77024,1,0,0:0:0:0:
252,320,77250,6,0,L|252:232,1,70
168,264,77701,5,0,0:0:0:0:
64,212,77927,1,0,0:0:0:0:
60,128,78152,6,0,L|156:128,1,70
140,48,78603,5,0,0:0:0:0:
248,40,78829,1,0,0:0:0:0:
336,32,79054,2,0,L|336:108,1,70
252,64,79505,5,0,0:0:0:0:
207,77,79618,1,0,0:0:0:0:
168,80,79731,1,0,0:0:0:0:
131,91,79844,1,0,0:0:0:0:
111,112,79957,1,0,0:0:0:0:
64,224,80182,6,0,L|124:277,1,70
184,80,80520,1,0,0:0:0:0:
184,80,80633,6,0,L|264:80,1,70
392,136,81084,1,0,0:0:0:0:
404,140,81197,1,0,0:0:0:0:
412,144,81310,5,0,0:0:0:0:
420,148,81423,1,0,0:0:0:0:
428,152,81536,1,0,0:0:0:0:
436,156,81648,1,0,0:0:0:0:
440,160,81761,6,0,P|439:228|368:264,1,140
104,306,82438,1,0,0:0:0:0:
104,306,82550,1,0,0:0:0:0:
104,306,82663,6,0,L|106:228,1,70
68,80,83114,2,0,P|86:111|116:108,1,70
388,84,83566,5,0,0:0:0:0:
388,84,83791,1,0,0:0:0:0:
388,84,84017,1,0,0:0:0:0:
388,84,84242,1,0,0:0:0:0:
104,304,84468,2,0,L|160:256,1,70
416,312,84919,5,0,0:0:0:0:
400,300,85032,1,0,0:0:0:0:
388,292,85145,1,0,0:0:0:0:
376,284,85257,1,0,0:0:0:0:
364,276,85370,2,0,L|296:232,1,70
80,80,85821,5,0,0:0:0:0:
80,80,86047,1,0,0:0:0:0:
80,80,86272,2,0,L|140:144,1,70
440,72,86724,6,0,L|376:128,1,70
80,104,87175,2,0,P|112:140|128:136,1,70
221,115,87513,1,0,0:0:0:0:
221,115,87626,2,0,P|281:115|297:131,1,70
456,228,88077,2,0,L|379:227,1,70
221,262,88528,2,0,P|213:215|182:171,1,70
64,56,88979,2,0,L|64:140,1,70
74,278,89430,2,0,P|114:310|146:314,1,70
372,100,89881,6,0,P|328:160|328:164,1,70
324,184,90219,1,0,0:0:0:0:
324,216,90333,2,0,L|240:216,1,70
122,264,90784,5,0,0:0:0:0:
63,177,91009,1,0,0:0:0:0:
128,84,91235,1,0,0:0:0:0:
272,48,91460,5,0,0:0:0:0:
272,136,91686,5,0,0:0:0:0:
272,160,91799,1,0,0:0:0:0:
264,192,91912,1,0,0:0:0:0:
240,216,92024,1,0,0:0:0:0:
216,232,92137,5,0,0:0:0:0:
184,248,92250,1,0,0:0:0:0:
160,264,92363,1,0,0:0:0:0:
128,280,92475,1,0,0:0:0:0:
104,328,92588,6,0,L|191:329,1,70
128,124,93039,2,0,L|180:124,1,35
256,192,93265,2,0,L|296:192,1,35
444,240,93490,2,0,L|444:144,1,70
240,72,93941,1,0,0:0:0:0:
240,72,94167,5,0,0:0:0:0:
400,132,94393,2,0,L|352:220,1,70
92,96,94844,5,0,0:0:0:0:
92,96,95069,1,0,0:0:0:0:
92,208,95295,2,0,L|156:260,1,70
368,280,95746,5,0,0:0:0:0:
340,280,95859,1,0,0:0:0:0:
308,284,95972,1,0,0:0:0:0:
280,284,96085,1,0,0:0:0:0:
248,288,96197,6,0,B|184:264|228:356|316:316,1,140
400,264,96874,5,0,0:0:0:0:
464,112,97100,2,0,L|464:196,1,70
328,332,97438,1,0,0:0:0:0:
328,332,97551,2,0,L|232:332,1,70
192,260,98002,5,0,0:0:0:0:
88,216,98227,1,0,0:0:0:0:
212,160,98453,1,0,0:0:0:0:
88,100,98679,5,0,0:0:0:0:
88,100,98904,2,0,L|12:36,1,70
68,312,99355,5,0,0:0:0:0:
68,312,99468,1,0,0:0:0:0:
68,312,99580,2,0,L|100:232,1,70
120,176,99919,1,0,0:0:0:0:
152,148,100032,5,0,0:0:0:0:
192,160,100145,1,0,0:0:0:0:
220,188,100257,1,0,0:0:0:0:
244,216,100370,1,0,0:0:0:0:
276,236,100483,5,0,0:0:0:0:
308,216,100596,1,0,0:0:0:0:
320,172,100709,1,0,0:0:0:0:
348,148,100821,1,0,0:0:0:0:
376,156,100934,5,0,0:0:0:0:
400,188,101047,1,0,0:0:0:0:
408,216,101160,1,0,0:0:0:0:
412,252,101272,1,0,0:0:0:0:
408,336,101385,2,0,L|308:336,1,70
424,172,102288,5,0,0:0:0:0:
424,172,102513,1,0,0:0:0:0:
124,160,102739,5,0,0:0:0:0:
336,280,102964,1,0,0:0:0:0:
260,80,103190,1,0,0:0:0:0:
172,280,103415,1,0,0:0:0:0:
84,144,103641,5,0,0:0:0:0:
84,144,103866,1,0,0:0:0:0:
188,280,104092,1,0,0:0:0:0:
392,252,104318,5,0,0:0:0:0:
240,80,104543,1,0,0:0:0:0:
120,264,104994,1,0,0:0:0:0:
224,80,105220,5,0,0:0:0:0:
224,280,105897,1,0,0:0:0:0:
280,192,106573,5,0,0:0:0:0:
256,168,106686,1,0,0:0:0:0:
236,192,106799,1,0,0:0:0:0:
256,208,106912,1,0,0:0:0:0:
256,192,107024,1,0,0:0:0:0:
208,164,107701,5,0,0:0:0:0:
312,140,108603,5,0,0:0:0:0:
172,224,108829,1,0,0:0:0:0:
352,112,109506,5,0,0:0:0:0:
200,268,109957,5,0,0:0:0:0:
136,104,110182,1,0,0:0:0:0:
344,100,110408,1,0,0:0:0:0:
316,268,110633,1,0,0:0:0:0:
224,64,111310,5,0,0:0:0:0:
308,256,111536,1,0,0:0:0:0:
168,284,111987,5,0,0:0:0:0:
116,104,112212,1,0,0:0:0:0:
312,72,112438,1,0,0:0:0:0:
208,120,113115,5,0,0:0:0:0:
264,112,114242,5,0,0:0:0:0:
208,116,116047,5,0,0:0:0:0:
368,148,116498,5,0,0:0:0:0:
120,212,116949,5,0,0:0:0:0:
208,52,117175,5,0,0:0:0:0:
268,292,117400,1,0,0:0:0:0:
284,52,117626,1,0,0:0:0:0:
192,288,117852,1,0,0:0:0:0:
336,116,118303,5,0,0:0:0:0:
192,184,118754,5,0,0:0:0:0:
332,240,119205,5,0,0:0:0:0:
120,116,119656,5,0,0:0:0:0:
264,76,120107,5,0,0:0:0:0:
128,248,120558,5,0,0:0:0:0:
320,252,121009,5,0,0:0:0:0:
344,268,121122,1,0,0:0:0:0:
368,280,121235,1,0,0:0:0:0:
392,296,121348,1,0,0:0:0:0:
420,312,121461,5,0,0:0:0:0:
300,96,121912,5,0,0:0:0:0:
112,96,122363,5,0,0:0:0:0:
144,248,122588,1,0,0:0:0:0:
144,56,122814,1,0,0:0:0:0:
324,56,123040,1,0,0:0:0:0:
324,252,123265,5,0,0:0:0:0:
204,136,123716,5,0,0:0:0:0:
320,224,124167,5,0,0:0:0:0:
244,64,124393,1,0,0:0:0:0:
388,192,124618,1,0,0:0:0:0:
108,152,124844,1,0,0:0:0:0:
248,280,125070,5,0,0:0:0:0:
280,116,125521,5,0,0:0:0:0:
128,216,125972,5,0,0:0:0:0:
368,264,126423,5,0,0:0:0:0:
96,120,126874,5,0,0:0:0:0:
404,72,127325,5,0,0:0:0:0:
112,312,127776,5,0,0:0:0:0:
480,356,128227,5,0,0:0:0:0:
464,336,128340,1,0,0:0:0:0:
440,312,128453,1,0,0:0:0:0:
424,292,128566,1,0,0:0:0:0:
404,264,128679,1,0,0:0:0:0:
256,192,129130,12,0,130483,0:0:0:0:
