osu file format v14

[General]
AudioFilename: audio.mp3
AudioLeadIn: 0
PreviewTime: 68532
Countdown: 0
SampleSet: Soft
StackLeniency: 0.7
Mode: 0
LetterboxInBreaks: 0
WidescreenStoryboard: 0

[Editor]
DistanceSpacing: 0.5
BeatDivisor: 12
GridSize: 16
TimelineZoom: 6.199996

[Metadata]
Title:Grievous Lady -nothing is but what is not-
TitleUnicode:Grievous Lady -nothing is but what is not-
Artist:Team Grimoire vs. Laur
ArtistUnicode:Team Grimoire vs. Laur
Creator:captin1
Version:Anomaly
Source:Arcaea
Tags:memories of conflict sound collection original soundtrack m3 video game instrumental electronic CHUNITHM AMAZON PLUS GROOVE COASTER 4MAX DIAMOND GALAXY
BeatmapID:2252249
BeatmapSetID:1076403

[Difficulty]
HPDrainRate:5
CircleSize:4.2
OverallDifficulty:9.8
ApproachRate:9.9
SliderMultiplier:1.8
SliderTickRate:1

[Events]
//Background and Video events
0,0,"77072400_p0.jpg",0,0
//Break Periods
2,84738,86339
2,144167,145767
2,262952,264624
//Storyboard Layer 0 (Background)
//Storyboard Layer 1 (Fail)
//Storyboard Layer 2 (Pass)
//Storyboard Layer 3 (Foreground)
//Storyboard Layer 4 (Overlay)
//Storyboard Sound Samples

[TimingPoints]
10861,363.636363636364,3,2,1,30,1,0
10861,-133.333333333333,3,2,1,30,0,0
27224,375,4,2,1,30,1,0
27224,-133.333333333333,4,2,1,30,0,0
27974,-181.818181818182,4,2,1,30,0,0
28724,363.636363636364,3,2,1,50,1,0
28724,-133.333333333333,3,2,1,50,0,0
41814,408.163265306122,3,2,1,50,1,0
41814,-133.333333333333,3,2,1,50,0,0
43038,422.535211267606,3,2,1,50,1,0
43038,-133.333333333333,3,2,1,50,0,0
44305,483.870967741935,3,2,1,50,1,0
45756,552.995391705069,4,2,1,50,1,0
47898,-100,4,2,1,5,0,0
47967,285.714285714286,4,2,1,60,1,0
52538,-100,4,2,1,70,0,0
57109,-133.333333333333,4,2,1,50,0,0
63967,-133.333333333333,4,2,1,60,0,0
68538,-133.333333333333,4,2,1,50,0,0
68824,-133.333333333333,4,2,1,45,0,0
73109,-133.333333333333,4,2,1,50,0,0
73681,-100,4,2,1,50,0,0
77681,-100,4,2,1,55,0,0
86824,-100,4,2,1,70,0,0
86967,-100,4,2,1,60,0,0
95967,-66.6666666666667,4,2,1,70,0,0
100752,-66.6666666666667,4,2,1,5,0,0
100824,-66.6666666666667,4,2,1,70,0,0
101609,-66.6666666666667,4,2,1,5,0,0
101681,-66.6666666666667,4,2,1,70,0,0
103967,-250,4,2,1,50,0,0
104467,-250,4,2,1,5,0,0
104538,-250,4,2,1,50,0,0
105109,-55.5555555555556,4,2,1,60,0,1
105181,-55.5555555555556,4,2,1,60,0,0
111967,-62.5,4,2,1,60,0,0
113109,-50,4,2,1,60,0,0
114395,-55.5555555555556,4,2,1,60,0,0
119967,-50,4,2,1,70,0,0
121109,-100,4,2,1,70,0,0
121395,-66.6666666666667,4,2,1,70,0,0
121681,-50,4,2,1,70,0,0
121967,-40,4,2,1,70,0,0
122967,-50,4,2,1,70,0,0
123395,-50,4,2,1,70,0,1
132538,-45.4545454545455,4,2,1,70,0,1
141681,-45.4545454545455,4,2,1,50,0,0
143967,-45.4545454545455,4,2,1,5,0,0
146252,-45.4545454545455,4,2,1,40,0,0
146538,-200,4,2,1,40,0,0
191895,-200,4,2,1,5,0,0
191967,-133.333333333333,4,2,1,50,0,0
201109,-100,4,2,1,50,0,0
212538,-66.6666666666667,4,2,1,60,0,0
212967,-83.3333333333333,4,2,1,60,0,0
214824,-66.6666666666667,4,2,1,60,0,0
215395,-83.3333333333333,4,2,1,60,0,0
218252,-66.6666666666667,4,2,1,60,0,0
218538,-58.8235294117647,4,2,1,60,0,0
220538,-58.8235294117647,4,2,1,40,0,0
221681,-55.5555555555556,4,2,1,70,0,1
238824,-50,4,2,1,70,0,1
257109,-45.4545454545455,4,2,1,70,0,1
260467,-45.4545454545455,4,2,1,5,0,1
260538,-400,4,2,1,50,0,0
262752,-400,4,2,1,5,0,0
265109,-400,4,2,1,50,0,0
268824,-133.333333333333,4,2,1,50,0,0
285681,-83.3333333333333,4,2,1,50,0,0
303681,-83.3333333333333,4,2,1,5,0,0
303967,-50,4,2,1,70,0,1
325681,-45.4545454545455,4,2,1,70,0,1
326824,-50,4,2,1,70,0,1
335967,-50,4,2,1,80,0,1
337109,-43.4782608695652,4,2,1,80,0,1
340538,-100,4,2,1,60,0,0
341109,-111.111111111111,4,2,1,50,0,0
341681,-125,4,2,1,40,0,0
342252,-142.857142857143,4,2,1,30,0,0
343681,-142.857142857143,4,2,1,40,0,0
343967,294.117647058824,4,2,1,50,1,0
344555,-100,4,2,1,40,0,0
345143,303.030303030303,4,2,1,40,1,0
345446,-100,4,2,1,50,0,0
346355,-100,4,2,1,40,0,0
346658,-100,4,2,1,50,0,0
347567,315.789473684211,4,2,1,40,1,0
348830,333.333333333334,4,2,1,30,1,8
349166,375,4,2,1,30,1,8
349541,400,4,2,1,20,1,0
349941,750,4,2,1,20,1,0
350691,750,4,2,1,20,1,0

[Colours]
Combo1 : 255,0,0
Combo2 : 192,192,192
Combo3 : 128,128,128
Combo4 : 0,149,149
Combo5 : 196,147,0
Combo6 : 255,128,192
Combo7 : 128,0,255
Combo8 : 217,108,0

[HitObjects]
149,218,10497,5,2,2:0:0:0:
149,218,10861,2,0,P|128:180|120:135,1,67.5000000000002,2|0,2:0|2:0,2:0:0:0:
215,270,11224,2,0,P|192:307|157:336,1,67.5000000000002,0|0,2:0|2:0,2:0:0:0:
228,187,11588,2,0,P|271:187|314:203,1,67.5000000000002,0|0,2:0|2:0,2:0:0:0:
435,136,11951,6,0,P|402:143|368:143,1,67.5000000000002,0|2,2:0|2:0,2:0:0:0:
378,235,12315,1,2,2:0:0:0:
398,320,12497,1,2,2:0:0:0:
287,104,12679,1,2,2:0:0:0:
307,19,12861,1,2,2:0:0:0:
142,79,13042,102,0,P|187:67|219:66,1,67.5000000000002,2|0,2:0|2:0,2:0:0:0:
194,162,13406,2,0,P|181:206|166:235,1,67.5000000000002,2|0,2:0|2:0,2:0:0:0:
96,165,13770,2,0,P|63:132|46:104,1,67.5000000000002,0|0,2:0|2:0,2:0:0:0:
81,259,14133,6,0,L|66:346,1,67.5000000000002,0|0,2:0|2:0,2:0:0:0:
231,367,14497,2,0,L|216:280,1,67.5000000000002,0|2,2:0|2:0,2:0:0:0:
361,258,14861,1,2,2:0:0:0:
442,294,15042,1,2,2:0:0:0:
488,156,15224,102,0,P|457:176|426:209,1,67.5000000000002,2|0,2:0|2:0,2:0:0:0:
414,47,15588,2,0,P|446:62|490:73,1,67.5000000000002,0|0,2:0|2:0,2:0:0:0:
356,164,15951,2,0,P|353:127|340:84,1,67.5000000000002,0|0,2:0|2:0,2:0:0:0:
64,205,16315,6,0,P|94:225|125:258,1,67.5000000000002,2|0,2:0|2:0,2:0:0:0:
138,96,16679,2,0,P|105:111|61:122,1,67.5000000000002,0|0,2:0|2:0,2:0:0:0:
196,213,17042,2,0,P|198:176|211:133,1,67.5000000000002,0|0,2:0|2:0,2:0:0:0:
346,0,17406,102,0,P|359:42|364:77,1,67.5000000000002,2|0,2:0|2:0,2:0:0:0:
485,147,17770,2,0,P|442:137|409:124,1,67.5000000000002,0|0,2:0|2:0,2:0:0:0:
289,193,18133,2,0,P|318:160|346:138,1,67.5000000000002,0|0,2:0|2:0,2:0:0:0:
409,259,18497,6,0,P|396:301|391:336,1,67.5000000000002,0|0,2:0|2:0,2:0:0:0:
231,303,18861,1,2,2:0:0:0:
315,277,19042,1,2,2:0:0:0:
159,359,19224,1,2,2:0:0:0:
75,333,19406,1,2,2:0:0:0:
46,249,19588,102,0,P|62:207|70:169,1,67.5000000000002,2|0,2:0|2:0,2:0:0:0:
84,74,19951,2,0,P|112:108|141:134,1,67.5000000000002,0|0,2:0|2:0,2:0:0:0:
216,194,20315,2,0,P|171:201|134:213,1,67.5000000000002,0|0,2:0|2:0,2:0:0:0:
296,361,20679,6,0,P|328:369|361:374,1,67.5000000000002,0|2,2:0|2:0,2:0:0:0:
490,248,21042,1,2,2:0:0:0:
403,272,21224,1,2,2:0:0:0:
283,159,21406,2,0,P|316:163|348:172,1,67.5000000000002,2|0,2:0|2:0,2:0:0:0:
492,75,21770,102,0,P|457:95|419:105,1,67.5000000000002,2|0,2:0|2:0,2:0:0:0:
239,49,22133,2,0,P|270:59|299:76,1,67.5000000000002,0|0,2:0|2:0,2:0:0:0:
197,198,22497,1,0,2:0:0:0:
169,114,22679,1,0,2:0:0:0:
44,160,22861,6,0,P|79:168|120:184,1,67.5000000000002,0|0,2:0|2:0,2:0:0:0:
130,265,23224,1,2,2:0:0:0:
101,347,23406,1,2,2:0:0:0:
313,288,23588,1,2,2:0:0:0:
284,206,23770,1,2,2:0:0:0:
469,283,23951,102,0,P|424:267|381:263,1,67.5000000000002,2|0,2:0|2:0,2:0:0:0:
284,206,24315,2,0,P|320:175|345:139,1,67.5000000000002,0|0,2:0|2:0,2:0:0:0:
443,84,24679,2,0,P|451:130|469:170,1,67.5000000000002,0|0,2:0|2:0,2:0:0:0:
278,157,25042,6,0,P|233:173|190:177,1,67.5000000000002,2|0,2:0|2:0,2:0:0:0:
93,234,25406,2,0,P|129:264|154:300,1,67.5000000000002,0|0,2:0|2:0,2:0:0:0:
252,356,25770,2,0,P|260:309|278:269,1,67.5000000000002,0|0,2:0|2:0,2:0:0:0:
128,145,26133,102,0,P|141:113|152:71,1,67.5000000000002,2|0,2:0|2:0,2:0:0:0:
278,157,26497,2,0,P|299:184|330:214,1,67.5000000000002,0|0,2:0|2:0,2:0:0:0:
165,317,26861,1,0,2:0:0:0:
191,232,27042,1,0,2:0:0:0:
367,133,27224,6,0,P|413:126|457:109,1,67.5000000000002,2|0,2:0|2:0,2:0:0:0:
333,304,27599,2,0,P|287:297|243:280,1,67.5000000000002,2|0,2:0|2:0,2:0:0:0:
74,162,27974,2,0,P|118:153|149:140,1,65.9999999999999,2|2,2:0|2:0,2:0:0:0:
211,91,28724,102,0,P|189:123|170:236,1,135,2|0,2:0|2:0,2:0:0:0:
191,308,29269,1,0,2:0:0:0:
101,282,29451,2,0,P|57:267|24:261,1,67.5000000000002,0|0,2:0|2:0,2:0:0:0:
254,241,29814,6,0,P|298:226|331:220,1,67.5000000000002,0|0,2:0|2:0,2:0:0:0:
464,375,30178,1,0,2:0:0:0:
417,288,30360,1,0,2:0:0:0:
295,114,30542,1,0,2:0:0:0:
342,27,30724,1,0,2:0:0:0:
458,130,30905,102,0,P|414:115|381:109,1,67.5000000000002,0|0,2:0|2:0,2:0:0:0:
217,167,31269,2,0,P|167:111|189:35,1,135,0|0,2:0|2:0,2:0:0:0:
256,22,31814,1,0,2:0:0:0:
104,183,31996,6,0,P|65:201|30:208,1,67.5000000000002,2|0,2:0|2:0,2:0:0:0:
181,317,32360,2,0,P|186:271|193:242,1,67.5000000000002,2|0,2:0|2:0,2:0:0:0:
425,231,32724,1,2,2:0:0:0:
273,288,32905,1,2,2:0:0:0:
390,101,33087,102,0,P|366:139|344:236,1,135,2|0,2:0|2:0,2:0:0:0:
364,321,33633,1,0,2:0:0:0:
213,220,33814,2,0,P|176:210|137:207,1,67.5000000000002,0|0,2:0|2:0,2:0:0:0:
47,58,34178,22,0,P|72:64|104:67,1,45.0000000000001,2|2,2:0|2:0,2:0:0:0:
228,41,34420,1,0,2:0:0:0:
258,108,34542,2,0,P|235:114|213:115,1,45.0000000000001,2|2,2:0|2:0,2:0:0:0:
76,235,34784,1,0,2:0:0:0:
17,182,34905,2,0,P|44:167|69:158,1,45.0000000000001,2|2,2:0|2:0,2:0:0:0:
248,193,35148,1,0,2:0:0:0:
279,267,35269,6,0,P|269:297|265:324,1,45.0000000000001,2|2,2:0|2:0,2:0:0:0:
402,302,35511,1,0,2:0:0:0:
356,237,35633,2,0,P|347:213|342:185,1,45.0000000000001,2|2,2:0|2:0,2:0:0:0:
406,41,35875,1,0,2:0:0:0:
413,158,35996,2,0,P|425:124|428:101,1,45.0000000000001,2|2,2:0|2:0,2:0:0:0:
331,63,36239,1,0,2:0:0:0:
226,41,36360,6,0,P|253:28|270:24,1,45.0000000000001,2|2,2:0|2:0,2:0:0:0:
267,200,36602,1,0,2:0:0:0:
220,134,36724,2,0,P|246:122|270:117,1,45.0000000000001,2|2,2:0|2:0,2:0:0:0:
331,257,36966,1,0,2:0:0:0:
251,277,37087,2,0,P|214:267|188:250,1,45.0000000000001,2|2,2:0|2:0,2:0:0:0:
69,183,37330,1,0,2:0:0:0:
69,183,37451,54,0,B|122:175|178:187|227:267|161:349|161:349|115:341|87:316|87:316|77:347|45:371,1,405.000000000001,2|0,2:0|2:0,2:0:0:0:
131,249,38905,5,2,2:0:0:0:
229,234,39087,1,2,2:0:0:0:
293,158,39269,1,2,2:0:0:0:
391,143,39451,1,2,2:0:0:0:
479,77,39633,102,0,B|418:103|384:156|369:239|418:304|418:304|448:293|471:266|471:266|473:303|502:341,1,405.000000000001,2|0,2:0|2:0,2:0:0:0:
283,350,41087,5,2,2:0:0:0:
268,252,41269,1,2,2:0:0:0:
192,188,41451,1,2,2:0:0:0:
177,90,41633,1,2,2:0:0:0:
262,121,41814,102,0,B|207:178|128:183|66:123|66:123|72:90|97:75,1,270.000000000001,2|2,2:0|2:0,2:0:0:0:
189,50,43038,6,0,P|178:112|167:203,2,135,2|2|2,2:0|2:0|2:0,2:0:0:0:
292,29,44305,1,2,2:0:0:0:
256,192,44425,12,0,47898,2:0:0:0:
354,175,47967,5,4,1:2:0:0:
398,248,48109,1,0,2:0:0:0:
354,175,48252,2,0,L|372:283,1,90,2|2,2:0|2:0,2:0:0:0:
174,116,48538,5,2,2:0:0:0:
130,189,48681,1,0,2:0:0:0:
174,116,48824,2,0,L|156:224,1,90,2|0,2:0|2:0,2:0:0:0:
434,72,49109,5,2,1:2:0:0:
478,145,49252,1,0,2:0:0:0:
434,72,49395,2,0,L|452:180,1,90,2|2,2:0|2:0,2:0:0:0:
94,30,49681,85,2,2:0:0:0:
50,103,49824,1,0,2:0:0:0:
94,30,49967,2,0,L|76:138,1,90,2|0,2:0|2:0,2:0:0:0:
82,343,50252,5,2,1:2:0:0:
186,318,50395,1,0,2:0:0:0:
161,214,50538,1,2,2:0:0:0:
57,239,50681,1,2,2:0:0:0:
261,242,50824,5,2,2:0:0:0:
352,297,50967,1,0,2:0:0:0:
408,206,51109,1,2,2:0:0:0:
316,150,51252,1,0,2:0:0:0:
420,377,51395,86,0,P|453:326|463:294,1,90,2|0,1:2|2:0,2:0:0:0:
260,68,51681,2,0,P|227:119|217:151,1,90,2|2,2:0|2:0,2:0:0:0:
57,239,51967,5,2,2:0:0:0:
161,214,52109,1,0,2:0:0:0:
261,242,52252,1,2,2:0:0:0:
408,206,52395,1,0,2:0:0:0:
218,353,52538,6,0,L|233:258,1,90,4|0,1:0|2:0,2:0:0:0:
135,40,52824,2,0,B|122:76|122:76|134:152,1,90,2|2,1:2|2:0,2:0:0:0:
149,290,53109,85,2,1:2:0:0:
232,149,53252,1,0,1:2:0:0:
41,81,53395,1,2,1:2:0:0:
41,81,53538,1,0,1:2:0:0:
168,206,53681,6,0,L|59:191,1,90,0|0,1:2|2:0,2:0:0:0:
302,314,53967,1,2,1:2:0:0:
467,265,54109,1,2,1:2:0:0:
385,354,54252,5,2,2:0:0:0:
423,173,54395,1,0,1:2:0:0:
316,35,54538,1,2,1:2:0:0:
354,216,54681,1,0,2:0:0:0:
155,108,54824,86,0,B|186:85|186:85|254:81,1,90,0|0,1:2|2:0,2:0:0:0:
488,28,55109,2,0,B|457:51|457:51|389:55,1,90,2|2,1:2|2:0,2:0:0:0:
269,291,55395,5,2,1:2:0:0:
328,117,55538,1,0,1:2:0:0:
481,220,55681,1,2,1:2:0:0:
248,180,55824,1,0,1:2:0:0:
161,363,55967,6,0,L|149:267,1,90,0|0,1:2|2:0,2:0:0:0:
214,71,56252,1,2,1:2:0:0:
279,265,56395,1,2,1:2:0:0:
97,117,56538,85,2,2:0:0:0:
331,33,56681,1,0,1:2:0:0:
415,267,56824,1,2,1:2:0:0:
181,351,56967,1,0,2:0:0:0:
97,117,57109,86,0,B|167:71|256:125|191:135|269:201|342:175|342:175|357:116|317:80|317:80|314:104|291:117,1,405.000000000001,6|0,2:0|2:0,2:0:0:0:
196,255,58252,6,0,B|190:206|152:180|152:180|118:208|110:266|144:322|144:322|82:341|82:341|41:309|49:223,1,405.000000000001,2|0,2:0|2:0,2:0:0:0:
232,337,59395,102,0,B|290:315|374:312|336:359|426:358|472:330|472:330|485:288|472:251|472:251|434:274|379:268,1,405.000000000001,2|0,2:0|2:0,2:0:0:0:
430,103,60538,6,1,B|474:164|421:225|339:193|356:125|356:125|368:64|323:14|238:11|200:124|284:161,1,472.500000000001,2|0,2:0|2:0,2:0:0:0:
365,298,61681,101,2,2:0:0:0:
132,119,62824,6,0,L|130:90,1,16.875,2|2,2:0|2:0,2:0:0:0:
256,192,63967,101,4,1:0:0:0:
256,192,64038,12,0,68467,2:0:0:0:
206,251,68538,22,0,L|88:272,1,101.25,4|0,1:0|2:0,2:0:0:0:
52,341,68824,2,0,P|27:314|17:278,1,67.5000000000002,2|0,2:0|2:0,2:0:0:0:
139,71,69109,1,2,2:0:0:0:
154,165,69252,1,2,2:0:0:0:
321,147,69395,1,2,2:0:0:0:
232,102,69538,1,2,2:0:0:0:
209,256,69681,5,2,2:0:0:0:
191,351,69824,1,2,2:0:0:0:
335,242,69967,1,2,2:0:0:0:
321,147,70109,1,2,2:0:0:0:
282,320,70252,2,0,L|420:334,1,135,2|2,2:0|2:0,2:0:0:0:
142,190,70824,6,0,P|92:220|16:219,1,135,2|0,2:0|2:0,2:0:0:0:
220,49,71395,2,0,L|231:161,1,101.25,2|0,2:0|2:0,2:0:0:0:
255,172,71645,2,0,L|281:161,1,16.875,2|2,2:0|2:0,2:0:0:0:
449,352,71967,2,0,L|438:240,1,101.25,2|0,2:0|2:0,2:0:0:0:
414,229,72217,2,0,L|388:240,1,16.875,2|2,2:0|2:0,2:0:0:0:
129,302,72538,1,2,2:0:0:0:
303,258,72824,1,2,2:0:0:0:
226,349,73109,85,4,1:0:0:0:
239,153,73252,1,2,2:0:0:0:
380,265,73395,1,2,2:0:0:0:
280,260,73538,1,2,2:0:0:0:
457,195,73681,2,0,P|479:242|487:299,1,90,2|0,2:0|2:0,2:0:0:0:
262,272,73967,2,0,L|238:107,1,157.5,2|2,2:0|2:0,2:0:0:0:
258,107,74252,6,0,P|212:63|86:76,1,180,2|0,2:0|2:0,2:0:0:0:
121,248,74681,1,0,2:0:0:0:
121,248,74824,1,2,2:0:0:0:
163,157,74967,1,2,2:0:0:0:
21,254,75109,2,0,L|4:354,1,90,2|0,2:0|2:0,2:0:0:0:
255,226,75395,6,0,P|271:170|274:119,1,90,2|0,2:0|2:0,2:0:0:0:
407,69,75681,1,2,2:0:0:0:
186,129,75824,1,2,2:0:0:0:
379,95,75967,2,0,L|361:195,1,90,2|0,2:0|2:0,2:0:0:0:
452,327,76252,2,0,P|403:274|315:291,1,157.5,2|2,2:0|2:0,2:0:0:0:
347,309,76538,86,0,L|150:282,1,180,2|0,2:0|2:0,2:0:0:0:
74,65,76967,1,0,2:0:0:0:
37,248,77109,2,0,P|19:200|12:143,1,90,2|0,2:0|2:0,2:0:0:0:
180,26,77395,2,0,P|198:74|205:131,1,90,0|0,2:0|2:0,2:0:0:0:
76,368,77681,5,6,1:2:0:0:
108,136,77824,1,2,2:0:0:0:
205,284,77967,1,2,2:0:0:0:
48,218,78109,1,2,2:0:0:0:
211,92,78252,2,0,P|254:103|294:124,1,90,2|0,2:0|2:0,2:0:0:0:
469,45,78538,1,2,1:2:0:0:
407,247,78681,1,0,2:0:0:0:
407,247,78752,1,0,2:0:0:0:
407,247,78824,6,0,B|372:162|372:162|392:56,1,180,6|0,1:2|2:0,2:0:0:0:
489,202,79252,1,0,2:0:0:0:
282,243,79395,1,2,1:2:0:0:
421,64,79538,1,2,2:0:0:0:
402,274,79681,2,0,L|387:373,1,90,2|0,2:0|2:0,2:0:0:0:
214,148,79967,85,6,1:2:0:0:
256,192,80038,12,0,81609,2:0:0:0:
297,243,81681,6,0,L|309:335,1,90,6|0,1:2|2:0,2:0:0:0:
355,157,81967,1,0,1:0:0:0:
228,297,82109,1,0,1:0:0:0:
172,116,82252,1,6,1:2:0:0:
256,192,82324,12,4,84538,2:3:0:0:
255,153,86824,5,4,1:0:0:0:
102,57,86967,1,0,2:0:0:0:
102,57,87109,1,0,2:0:0:0:
320,220,87252,85,2,2:0:0:0:
416,67,87395,1,0,2:0:0:0:
416,67,87538,1,0,2:0:0:0:
253,285,87681,5,2,2:0:0:0:
406,381,87824,1,0,2:0:0:0:
406,381,87967,1,0,2:0:0:0:
188,218,88109,5,2,2:0:0:0:
92,371,88252,1,0,2:0:0:0:
92,371,88395,1,0,2:0:0:0:
345,314,88538,85,4,1:0:0:0:
308,76,88681,1,0,2:0:0:0:
107,204,88824,2,0,L|124:309,1,90,0|0,2:0|2:0,2:0:0:0:
288,377,89109,5,4,1:0:0:0:
256,186,89252,1,0,2:0:0:0:
288,377,89395,1,0,2:0:0:0:
417,140,89538,5,2,2:0:0:0:
385,331,89681,1,0,2:0:0:0:
417,140,89824,1,0,2:0:0:0:
205,274,89967,85,2,2:0:0:0:
173,83,90109,1,0,2:0:0:0:
205,274,90252,1,0,2:0:0:0:
95,161,90395,5,2,2:0:0:0:
63,352,90538,1,0,2:0:0:0:
95,161,90681,1,0,2:0:0:0:
359,215,90824,5,4,1:0:0:0:
103,258,90967,1,4,1:0:0:0:
363,219,91109,2,0,B|460:234|460:234|421:194,1,135,4|0,1:0|2:0,2:0:0:0:
386,139,91395,85,4,1:0:0:0:
411,357,91538,1,0,2:0:0:0:
411,357,91681,1,0,2:0:0:0:
142,266,91824,5,2,2:0:0:0:
360,241,91967,1,0,2:0:0:0:
360,241,92109,1,0,2:0:0:0:
187,380,92252,5,2,2:0:0:0:
212,162,92395,1,0,2:0:0:0:
212,162,92538,1,0,2:0:0:0:
332,39,92681,85,2,2:0:0:0:
114,64,92824,1,0,2:0:0:0:
114,64,92967,1,0,2:0:0:0:
246,305,93109,6,0,P|269:251|272:203,1,90,4|0,1:0|2:0,2:0:0:0:
15,57,93395,2,0,P|22:101|41:141,1,90,4|0,1:0|2:0,2:0:0:0:
203,371,93681,5,4,1:0:0:0:
176,207,93824,1,0,2:0:0:0:
149,43,93967,1,0,2:0:0:0:
317,209,94109,85,2,2:0:0:0:
194,188,94252,1,0,2:0:0:0:
70,168,94395,1,0,2:0:0:0:
177,276,94538,5,2,2:0:0:0:
341,249,94681,1,0,2:0:0:0:
505,222,94824,1,0,2:0:0:0:
338,86,94967,5,2,2:0:0:0:
317,209,95109,1,0,2:0:0:0:
297,333,95252,1,0,2:0:0:0:
505,191,95395,85,4,1:0:0:0:
253,244,95538,1,4,1:0:0:0:
1,297,95681,2,0,L|28:152,1,135,4|0,1:0|2:0,2:0:0:0:
4,135,95967,6,0,B|90:162|90:162|104:151|104:151|148:192|148:192|164:183|164:183|248:205,1,270,4|0,1:0|2:0,2:0:0:0:
512,267,96395,2,0,P|423:233|296:336,1,270,4|0,1:2|2:0,2:0:0:0:
198,81,96824,6,0,B|233:38|233:38|251:126|251:126|234:151|234:151|254:250,1,270,4|0,1:0|2:0,2:0:0:0:
29,356,97252,2,0,B|58:326|89:320|89:320|53:227|68:163|68:163|113:149,1,270,4|0,1:2|2:0,2:0:0:0:
421,345,97681,85,4,1:0:0:0:
145,218,97824,1,4,1:0:0:0:
384,29,97967,1,4,1:2:0:0:
384,29,98252,6,0,B|344:47|312:92|312:92|243:90|185:44|185:44|140:63,1,270,4|0,1:0|2:0,2:0:0:0:
44,307,98681,2,0,B|111:294|111:294|127:299|127:299|192:286|192:286|201:274|201:274|254:266|254:266|298:289,1,270,4|0,1:2|2:0,2:0:0:0:
422,126,99109,6,0,B|425:172|406:209|406:209|439:205|467:215|467:215|471:292|448:270|463:364,1,270,4|0,1:0|2:0,2:0:0:0:
106,368,99538,2,0,B|157:305|119:222|86:261|61:174|116:110,1,270,4|0,1:2|2:0,2:0:0:0:
408,51,99967,86,0,B|439:31|439:31|320:44,1,135,4|0,1:0|2:0,2:0:0:0:
44,126,100252,2,0,B|13:106|13:106|132:119,1,135,4|0,1:0|2:0,2:0:0:0:
425,210,100538,6,0,B|368:174|368:174|226:197,1,202.5,4|0,1:0|2:0,2:0:0:0:
207,200,100824,1,0,2:0:0:0:
120,34,100967,2,0,B|38:69|24:197|24:197|107:248,1,270,4|0,1:2|2:0,2:0:0:0:
404,337,101395,6,0,L|366:120,1,202.5,4|0,1:0|2:0,2:0:0:0:
389,112,101681,1,0,2:0:0:0:
492,299,101824,2,0,B|447:253|447:253|358:240|312:307|312:307|288:300|256:275,1,270,4|0,1:2|2:0,2:0:0:0:
112,137,102252,85,4,1:0:0:0:
383,25,102395,1,4,1:0:0:0:
282,378,102538,1,4,1:2:0:0:
282,378,102824,5,4,1:2:0:0:
138,158,102967,1,0,2:0:0:0:
379,195,103109,1,0,2:0:0:0:
231,34,103252,5,4,1:2:0:0:
269,269,103395,1,0,2:0:0:0:
43,186,103538,1,0,2:0:0:0:
463,118,103681,38,0,B|498:175|498:175|477:246,1,135,4|0,1:2|2:0,2:0:0:0:
246,345,103967,6,0,L|267:204,1,126,4|0,2:3|2:0,2:0:0:0:
256,192,104538,5,2,2:0:0:0:
256,192,104824,1,2,2:0:0:0:
256,192,105109,54,2,B|68:158|68:158|115:133,1,243,14|0,1:0|2:0,2:1:0:0:
166,86,105395,2,2,L|138:252,1,162,10|2,1:0|2:0,2:1:0:0:
83,328,105609,1,2,2:0:0:0:
120,312,105681,1,10,1:0:0:0:
160,310,105752,1,2,2:0:0:0:
199,319,105824,1,2,2:0:0:0:
236,334,105895,1,2,2:0:0:0:
276,341,105967,1,10,1:0:0:0:
316,337,106038,1,2,2:0:0:0:
345,309,106109,2,2,L|330:215,1,80.9999999999999,2|2,2:1|2:0,2:0:0:0:
445,25,106252,6,2,B|406:202|406:202|426:179|474:161,1,243,10|0,1:0|2:0,2:0:0:0:
512,317,106538,2,2,B|487:359|487:359|465:204,1,162,10|0,1:0|2:0,2:1:0:0:
348,137,106752,1,2,2:0:0:0:
310,121,106824,1,10,1:0:0:0:
270,125,106895,1,2,2:0:0:0:
236,148,106967,1,2,2:0:0:0:
209,178,107038,1,2,2:0:0:0:
171,192,107109,2,2,P|133:171|98:132,1,80.9999999999999,10|2,1:0|2:0,2:0:0:0:
155,9,107252,2,2,P|166:45|166:103,1,80.9999999999999,10|2,1:0|2:0,2:0:0:0:
33,183,107395,6,0,L|8:360,1,162,10|0,1:0|2:0,2:0:0:0:
487,209,107681,2,0,L|512:386,1,162,10|0,1:0|2:0,2:0:0:0:
71,62,107967,2,0,B|45:139|45:139|92:240,1,162,10|0,1:0|2:0,2:0:0:0:
461,101,108252,2,0,B|487:178|487:178|440:279,1,162,10|0,1:0|2:0,2:0:0:0:
240,365,108538,86,0,L|252:268,1,80.9999999999999,10|0,1:0|2:0,2:0:0:0:
320,238,108681,1,2,2:0:0:0:
346,197,108752,1,2,2:0:0:0:
332,149,108824,1,10,1:2:0:0:
292,121,108895,1,2,2:0:0:0:
243,111,108967,1,2,2:0:0:0:
213,72,109038,1,2,2:0:0:0:
224,25,109109,2,2,B|260:7|260:7|318:19,1,80.9999999999999,10|2,1:0|2:0,2:0:0:0:
423,159,109252,5,10,1:0:0:0:
379,136,109324,1,2,2:0:0:0:
332,149,109395,1,2,2:0:0:0:
291,177,109467,1,2,2:0:0:0:
255,209,109538,1,10,1:2:0:0:
208,222,109609,1,2,2:0:0:0:
161,207,109681,6,2,B|122:169|122:169|111:41,1,162,10|0,1:0|2:0,2:1:0:0:
266,100,109895,1,2,2:0:0:0:
266,100,109967,2,2,B|243:118|243:118|175:110,1,80.9999999999999,10|2,1:0|2:0,2:0:0:0:
39,151,110109,1,2,2:0:0:0:
21,187,110181,1,2,2:0:0:0:
29,226,110252,1,10,1:0:0:0:
59,252,110324,1,2,2:0:0:0:
97,263,110395,1,2,2:0:0:0:
136,251,110467,1,2,2:0:0:0:
175,245,110538,1,10,1:0:0:0:
213,257,110609,1,2,2:0:0:0:
243,284,110681,1,2,2:0:0:0:
249,323,110752,1,2,2:0:0:0:
228,358,110824,86,2,B|167:388|104:346|130:335|63:281|-3:333,1,243,10|0,1:0|2:0,2:1:0:0:
51,384,111109,2,0,L|64:293,1,80.9999999999999,10|0,1:0|2:0,2:0:0:0:
175,245,111252,2,0,L|162:154,1,80.9999999999999,10|0,1:0|2:0,2:0:0:0:
285,10,111395,1,10,1:0:0:0:
292,50,111467,1,0,2:0:0:0:
299,89,111538,2,0,L|285:147,2,40.5,0|0|0,1:0|1:0|1:0,1:0:0:0:
271,163,111681,6,0,B|310:157|310:157|347:185,1,80.9999999999999,10|0,1:0|2:0,2:0:0:0:
498,259,111824,2,0,B|459:253|459:253|422:281,1,80.9999999999999,10|0,1:0|2:0,2:0:0:0:
309,383,111967,6,0,L|286:226,1,144,10|0,1:0|2:0,2:0:0:0:
263,281,112181,1,2,2:0:0:0:
203,373,112252,2,0,L|180:216,1,144,10|0,1:0|2:0,2:0:0:0:
160,74,112467,1,2,2:0:0:0:
143,37,112538,86,0,L|120:194,1,144,10|0,1:0|2:0,2:0:0:0:
97,139,112752,1,2,2:0:0:0:
37,47,112824,2,0,L|14:204,1,144,10|0,1:0|2:0,2:0:0:0:
76,297,113038,1,2,2:0:0:0:
76,297,113109,6,2,B|135:336|224:274|175:270|241:204|328:236,1,270,10|0,1:0|2:0,2:1:0:0:
456,314,113395,2,0,B|411:322|411:322|358:301,1,90,10|0,1:0|2:0,2:0:0:0:
225,138,113538,2,0,L|243:41,1,90,2|0,2:1|2:0,2:0:0:0:
472,134,113681,6,0,B|508:173|508:173|403:154|403:154|380:122|380:122|285:101,1,270,2|0,2:0|2:0,2:0:0:0:
159,77,113967,1,0,2:0:0:0:
136,91,114038,1,0,2:0:0:0:
117,110,114109,1,0,2:0:0:0:
107,135,114181,1,0,2:0:0:0:
104,161,114252,1,0,2:0:0:0:
202,320,114395,86,0,P|201:277|188:230,1,80.9999999999999,8|0,1:0|2:0,2:0:0:0:
0,146,114538,2,0,P|-9:217|14:328,1,162,10|2,1:0|2:0,2:0:0:0:
67,366,114752,1,2,2:0:0:0:
109,341,114824,1,10,1:0:0:0:
157,337,114895,1,2,2:0:0:0:
204,347,114967,1,2,2:0:0:0:
244,372,115038,1,2,2:0:0:0:
290,384,115109,1,10,1:0:0:0:
337,372,115181,1,2,2:0:0:0:
372,339,115252,2,2,P|388:303|392:247,1,80.9999999999999,0|0,2:0|2:0,2:0:0:0:
294,93,115395,6,2,B|251:77|189:96|189:96|148:72|95:77|95:77|125:123,1,243,10|0,1:0|2:0,2:1:0:0:
9,214,115681,2,2,B|38:207|51:193|51:193|100:217|162:199,1,162,10|0,1:0|2:0,2:1:0:0:
288,279,115895,1,0,2:0:0:0:
288,279,115967,2,0,P|275:233|276:181,1,80.9999999999999,10|0,1:0|2:0,2:0:0:0:
408,24,116109,1,8,1:0:0:0:
401,80,116181,1,8,1:0:0:0:
394,135,116252,2,0,L|410:239,1,80.9999999999999,10|0,1:0|2:0,2:0:0:0:
371,373,116395,2,0,B|382:333|382:333|364:269,1,80.9999999999999,8|0,1:0|2:0,2:0:0:0:
193,286,116538,6,0,P|148:314|25:340,1,162,10|0,1:0|2:0,2:0:0:0:
267,64,116824,2,0,P|222:36|99:10,1,162,10|0,1:0|2:0,2:0:0:0:
0,200,117109,2,0,L|97:183,1,80.9999999999999,10|0,1:0|2:0,2:0:0:0:
257,150,117252,2,0,L|354:167,1,80.9999999999999,8|0,1:0|2:0,2:0:0:0:
484,293,117395,2,0,L|404:306,1,80.9999999999999,10|0,1:0|2:0,2:0:0:0:
227,270,117538,2,0,L|147:256,1,80.9999999999999,8|0,1:0|2:0,2:0:0:0:
61,69,117681,86,0,B|85:50|85:50|175:46,1,80.9999999999999,10|0,1:0|2:0,2:0:0:0:
336,24,117824,1,2,2:0:0:0:
290,57,117895,1,2,2:0:0:0:
273,111,117967,1,10,1:2:0:0:
288,165,118038,1,2,2:0:0:0:
335,194,118109,1,2,2:0:0:0:
367,241,118181,1,2,2:0:0:0:
364,297,118252,2,2,B|348:341|348:341|285:377,1,80.9999999999999,10|2,1:0|2:0,2:0:0:0:
6,347,118395,5,10,1:2:0:0:
48,308,118467,1,2,2:0:0:0:
103,300,118538,1,10,1:2:0:0:
146,335,118609,1,2,2:0:0:0:
202,344,118681,1,10,1:2:0:0:
245,308,118752,1,2,2:0:0:0:
256,251,118824,1,14,1:2:0:0:
59,44,118967,6,0,P|43:81|41:131,1,80.9999999999999,10|0,1:0|2:0,2:0:0:0:
284,88,119109,2,0,P|202:82|108:107,1,162,10|2,1:0|2:0,2:0:0:0:
101,187,119324,1,2,2:0:0:0:
105,210,119395,1,10,1:2:0:0:
109,234,119467,1,2,2:0:0:0:
113,257,119538,1,2,2:0:0:0:
117,280,119609,1,2,2:0:0:0:
121,304,119681,1,10,1:2:0:0:
125,327,119752,1,2,2:0:0:0:
129,351,119824,2,2,B|167:363|167:363|210:349,1,80.9999999999999,0|0,2:0|2:0,2:0:0:0:
408,225,119967,86,2,B|358:194|292:223|292:223|261:175|261:175|199:190|199:190|242:214,1,270,10|0,1:0|2:0,2:1:0:0:
353,295,120252,2,2,L|370:383,1,90,10|2,1:0|2:0,2:0:0:0:
502,188,120395,1,2,2:0:0:0:
474,130,120467,1,2,2:0:0:0:
415,106,120538,1,10,1:0:0:0:
352,110,120609,1,2,2:0:0:0:
303,151,120681,1,10,1:0:0:0:
287,211,120752,1,2,2:0:0:0:
237,250,120824,1,10,1:0:0:0:
174,251,120895,1,2,2:0:0:0:
121,215,120967,1,10,1:0:0:0:
102,155,121038,1,2,2:0:0:0:
132,100,121109,38,0,P|199:95|271:84,1,135,10|0,1:0|2:0,2:0:0:0:
502,188,121395,6,0,P|405:194|297:208,1,202.5,2|0,2:1|2:0,2:0:0:0:
162,279,121681,6,0,B|152:190|152:190|103:129|103:129|95:28,1,270,10|0,1:0|2:0,2:0:0:0:
360,46,121967,6,0,B|374:187|374:187|352:237|352:237|369:378,1,337.5,2|0,2:1|2:0,2:0:0:0:
255,185,122252,21,10,1:0:0:0:
480,21,122395,1,2,2:0:0:0:
467,92,122467,1,2,2:0:0:0:
456,162,122538,1,2,2:1:0:0:
101,358,122681,1,2,2:0:0:0:
88,287,122752,1,2,2:0:0:0:
77,217,122824,1,2,2:1:0:0:
359,36,122967,6,0,B|337:57|337:57|318:117,1,90,2|0,2:1|2:0,2:0:0:0:
339,359,123109,2,0,B|332:329|332:329|289:283,1,90,2|0,2:1|2:0,2:0:0:0:
69,180,123252,2,0,B|98:189|98:189|160:175,1,90,2|0,2:1|2:0,2:0:0:0:
499,261,123395,6,0,P|423:204|325:212,1,180,14|0,1:0|2:0,2:0:0:0:
244,186,123609,1,0,2:0:0:0:
203,98,123681,2,0,P|192:53|200:-8,1,90,10|0,1:0|2:0,2:0:0:0:
180,264,123824,2,0,P|190:307|188:352,1,90,0|0,2:0|2:0,2:0:0:0:
44,157,123967,85,10,1:0:0:0:
287,55,124109,1,0,2:0:0:0:
358,69,124181,1,0,2:0:0:0:
427,83,124252,2,0,B|444:115|444:115|449:177,1,90,10|0,1:0|2:0,2:0:0:0:
180,264,124395,1,0,2:0:0:0:
251,250,124467,1,0,2:0:0:0:
320,236,124538,6,0,B|337:204|337:204|342:142,1,90,10|0,1:0|2:0,2:0:0:0:
88,119,124681,1,0,2:0:0:0:
88,119,124752,1,0,2:0:0:0:
88,119,124824,2,0,P|163:157|265:152,1,180,10|0,1:0|2:0,2:0:0:0:
180,81,125038,1,0,2:0:0:0:
180,81,125109,6,0,L|159:181,1,90,10|0,1:0|2:0,2:0:0:0:
38,237,125252,2,0,L|59:337,1,90,10|0,1:0|2:0,2:0:0:0:
345,165,125395,2,0,L|366:265,1,90,10|0,1:0|2:0,2:0:0:0:
213,266,125538,2,0,L|192:366,1,90,10|0,1:0|2:0,2:0:0:0:
454,357,125681,86,0,B|492:337|492:337|513:270|475:181,1,180,10|0,1:0|2:0,2:0:0:0:
413,119,125895,1,0,2:0:0:0:
471,26,125967,2,0,B|483:58|483:58|457:130,1,90,10|0,1:0|2:0,2:0:0:0:
274,199,126109,2,0,B|262:167|262:167|280:114,1,90,0|0,2:0|2:0,2:0:0:0:
141,16,126252,5,10,1:0:0:0:
405,263,126395,1,0,2:0:0:0:
334,280,126467,1,0,2:0:0:0:
264,296,126538,2,0,L|154:276,1,90,10|0,1:0|2:0,2:0:0:0:
19,143,126681,1,0,2:0:0:0:
90,126,126752,1,0,2:0:0:0:
160,110,126824,6,0,B|247:128|247:128|304:204,1,180,10|0,1:0|2:0,2:0:0:0:
441,78,127038,1,0,2:0:0:0:
441,78,127109,2,0,P|381:101|323:108,1,90,10|0,1:0|2:0,2:0:0:0:
494,251,127252,2,0,P|434:228|376:221,1,90,10|0,1:0|2:0,2:0:0:0:
384,367,127395,85,10,1:0:0:0:
228,173,127538,1,8,1:0:0:0:
336,239,127681,1,10,1:0:0:0:
305,304,127752,1,0,1:0:0:0:
242,340,127824,1,0,1:0:0:0:
175,316,127895,1,0,1:0:0:0:
134,256,127967,6,0,B|85:208|85:208|61:80,1,180,14|0,1:0|2:0,2:0:0:0:
252,39,128181,1,0,2:0:0:0:
177,83,128252,2,0,P|162:123|152:174,1,90,10|0,1:0|2:0,2:0:0:0:
55,364,128395,2,0,P|46:319|30:277,1,90,0|0,2:0|2:0,2:0:0:0:
35,94,128538,5,10,1:0:0:0:
310,107,128681,1,0,2:0:0:0:
377,133,128752,1,0,2:0:0:0:
398,203,128824,2,0,P|411:243|407:319,1,90,10|0,1:0|2:0,2:0:0:0:
222,160,128967,1,0,2:0:0:0:
155,186,129038,1,0,2:0:0:0:
134,256,129109,86,0,P|121:296|125:372,1,90,10|0,1:0|2:0,2:0:0:0:
327,364,129252,1,0,2:0:0:0:
327,364,129324,1,0,2:0:0:0:
327,364,129395,2,0,B|333:291|291:232|291:232|278:278,1,180,10|0,1:0|2:0,2:0:0:0:
414,323,129609,1,0,2:0:0:0:
414,323,129681,6,0,P|457:349|499:358,1,90,10|0,1:0|2:0,2:0:0:0:
398,203,129824,2,0,P|448:200|488:184,1,90,10|0,1:0|2:0,2:0:0:0:
237,40,129967,2,0,P|193:38|150:23,1,90,10|0,1:0|2:0,2:0:0:0:
221,160,130109,2,0,P|184:183|140:194,1,90,10|0,1:0|2:0,2:0:0:0:
16,343,130252,6,0,P|4:268|54:155,1,180,10|0,1:0|2:0,2:0:0:0:
109,114,130467,1,0,2:0:0:0:
77,32,130538,1,10,1:0:0:0:
274,236,130681,1,0,2:0:0:0:
283,325,130752,1,0,2:0:0:0:
210,378,130824,86,0,P|163:366|120:346,1,90,10|0,1:0|2:0,2:0:0:0:
366,287,130967,2,0,P|407:268|450:257,1,90,8|0,1:0|2:0,2:0:0:0:
296,57,131109,2,0,P|316:111|317:164,1,90,10|0,1:0|2:0,2:0:0:0:
343,372,131252,2,0,P|348:327|365:286,1,90,8|0,1:0|2:0,2:0:0:0:
501,192,131395,6,0,P|427:132|335:132,1,180,10|0,1:0|2:0,2:0:0:0:
210,265,131609,1,0,2:0:0:0:
72,228,131681,2,0,P|146:168|238:168,1,180,10|0,1:0|2:0,2:0:0:0:
265,322,131895,1,0,2:0:0:0:
196,346,131967,5,10,1:0:0:0:
142,298,132038,1,8,1:0:0:0:
144,226,132109,1,10,1:0:0:0:
204,186,132181,1,8,1:0:0:0:
252,132,132252,85,10,1:0:0:0:
240,60,132324,1,8,1:0:0:0:
180,19,132395,1,10,1:0:0:0:
108,28,132467,1,8,1:0:0:0:
65,85,132538,6,0,B|46:158|12:188|12:188|49:214|74:271,1,198,14|0,1:0|2:0,2:0:0:0:
207,225,132752,1,0,2:0:0:0:
146,315,132824,2,0,P|94:328|46:351,1,98.9999999999999,10|0,1:0|2:0,2:0:0:0:
320,209,132967,2,0,P|365:229|413:240,1,98.9999999999999,0|0,2:0|2:0,2:0:0:0:
442,62,133109,6,0,P|406:114|395:165,1,98.9999999999999,10|0,1:0|2:0,2:0:0:0:
411,353,133252,1,0,2:0:0:0:
481,315,133324,1,0,2:0:0:0:
505,240,133395,2,0,L|482:125,1,98.9999999999999,10|0,1:0|2:0,2:0:0:0:
220,3,133538,1,0,2:0:0:0:
290,41,133609,1,0,2:0:0:0:
314,116,133681,86,0,L|291:231,1,98.9999999999999,10|0,1:0|2:0,2:0:0:0:
61,287,133824,1,0,2:0:0:0:
51,269,133895,1,0,2:0:0:0:
41,251,133967,2,0,P|97:196|225:207,1,198,10|0,1:0|2:0,2:0:0:0:
204,338,134181,1,0,2:0:0:0:
182,357,134252,6,0,B|157:336|157:336|143:251,1,98.9999999999999,10|0,1:0|2:0,2:0:0:0:
244,7,134395,2,0,B|258:36|258:36|238:119,1,98.9999999999999,10|0,1:0|2:0,2:0:0:0:
40,344,134538,2,0,B|25:314|25:314|45:231,1,98.9999999999999,10|0,1:0|2:0,2:0:0:0:
98,0,134681,2,0,B|123:21|123:21|137:106,1,98.9999999999999,10|0,1:0|2:0,2:0:0:0:
291,199,134824,6,0,B|241:226|187:192|212:185|160:156|104:183,1,198,14|0,1:0|2:0,2:0:0:0:
289,301,135038,1,0,2:0:0:0:
378,253,135109,2,0,P|395:200|378:137,1,98.9999999999999,10|0,1:0|2:0,2:0:0:0:
508,19,135252,2,0,B|487:41|487:41|465:126,1,98.9999999999999,0|0,2:0|2:0,2:0:0:0:
452,323,135395,86,0,B|416:353|416:353|343:360,1,98.9999999999999,10|0,1:0|2:0,2:0:0:0:
77,318,135538,2,0,B|113:288|113:288|186:281,1,98.9999999999999,0|0,2:0|2:0,2:0:0:0:
353,144,135681,1,10,1:0:0:0:
317,214,135752,1,8,1:0:0:0:
239,202,135824,1,8,1:0:0:0:
230,125,135895,1,8,1:0:0:0:
298,83,135967,6,0,P|360:128|484:128,1,198,10|0,1:0|2:0,2:0:0:0:
247,10,136181,1,0,2:0:0:0:
247,10,136252,2,0,P|190:40|147:48,1,98.9999999999999,10|0,1:0|2:0,2:0:0:0:
0,72,136395,2,0,P|47:99|86:139,1,98.9999999999999,10|0,1:0|2:0,2:0:0:0:
195,350,136538,6,0,B|182:274|182:274|203:238|203:238|183:140,1,198,10|0,1:0|2:0,2:0:0:0:
370,313,136824,2,0,L|258:292,1,98.9999999999999,10|0,1:0|2:0,2:0:0:0:
3,184,136967,1,0,1:0:0:0:
22,179,137038,1,0,1:0:0:0:
41,175,137109,86,0,B|95:194|137:169|137:169|179:177|225:219,1,198,14|0,1:0|2:0,2:0:0:0:
380,110,137324,1,0,2:0:0:0:
284,135,137395,2,0,P|229:109|194:69,1,98.9999999999999,10|0,1:0|2:0,2:0:0:0:
426,205,137538,2,0,P|447:252|457:309,1,98.9999999999999,0|0,2:0|2:0,2:0:0:0:
267,384,137681,6,0,L|297:268,1,98.9999999999999,10|0,1:0|2:0,2:0:0:0:
126,62,137824,1,0,2:0:0:0:
146,137,137895,1,0,2:0:0:0:
167,213,137967,2,0,B|179:247|179:247|152:323,1,98.9999999999999,10|0,1:0|2:0,2:0:0:0:
389,337,138109,1,0,2:0:0:0:
369,262,138181,1,0,2:0:0:0:
348,186,138252,6,0,B|336:152|336:152|363:76,1,98.9999999999999,14|0,1:0|2:0,2:0:0:0:
51,24,138395,1,0,2:0:0:0:
51,24,138467,1,0,2:0:0:0:
51,24,138538,2,0,P|10:84|58:214,1,198,10|0,1:0|2:0,2:0:0:0:
149,216,138752,1,0,2:0:0:0:
149,216,138824,86,0,P|111:275|95:318,1,98.9999999999999,10|0,1:0|2:0,2:0:0:0:
432,181,138967,2,0,P|470:122|486:79,1,98.9999999999999,10|0,1:0|2:0,2:0:0:0:
192,290,139109,2,0,P|193:360|204:405,1,98.9999999999999,10|0,1:0|2:0,2:0:0:0:
388,98,139252,2,0,P|386:27|375:-16,1,98.9999999999999,10|0,1:0|2:0,2:0:0:0:
207,97,139395,6,0,B|256:110|256:110|314:95,1,98.9999999999999,14|0,1:0|2:0,2:0:0:0:
441,327,139538,2,0,B|394:314|394:314|345:327,1,98.9999999999999,8|0,1:0|2:0,2:0:0:0:
2,327,139681,2,0,B|74:305|74:305|124:314|124:314|220:280,1,198,10|0,1:0|2:0,2:0:0:0:
271,273,139895,1,0,2:0:0:0:
323,335,139967,5,10,1:0:0:0:
121,160,140109,1,0,2:0:0:0:
113,82,140181,1,0,2:0:0:0:
158,19,140252,1,10,1:0:0:0:
400,80,140395,1,8,1:0:0:0:
408,158,140467,1,0,2:0:0:0:
363,221,140538,86,0,B|330:261|330:261|331:317,1,98.9999999999999,2|0,2:1|2:0,2:0:0:0:
127,363,140681,2,0,B|160:323|160:323|159:267,1,98.9999999999999,8|0,1:0|2:0,2:0:0:0:
229,6,140824,2,0,B|261:42|254:118|235:88|212:142|257:209,1,198,10|0,1:0|2:0,2:0:0:0:
5,209,141109,5,10,1:0:0:0:
54,146,141181,1,8,1:0:0:0:
121,104,141252,1,10,1:0:0:0:
200,112,141324,1,8,1:0:0:0:
262,159,141395,1,10,1:0:0:0:
312,220,141467,1,8,1:0:0:0:
383,253,141538,1,10,1:0:0:0:
460,241,141609,1,8,1:0:0:0:
512,180,141681,1,14,1:0:0:0:
256,192,141752,12,0,143967,2:0:0:0:
147,206,146252,5,8,2:0:0:0:
147,206,146538,6,0,P|184:197|204:195,1,45,2|0,2:0|2:0,2:0:0:0:
398,119,146824,2,0,P|375:115|354:109,1,45,2|0,2:0|2:0,2:0:0:0:
228,341,147109,2,0,P|219:316|215:285,1,45,2|0,2:0|2:0,2:0:0:0:
297,34,147395,2,0,B|225:105|291:228|320:169|390:283|311:366,1,360,2|0,2:0|2:0,2:0:0:0:
456,224,148824,6,0,P|421:210|407:199,1,45,2|0,2:0|2:0,2:0:0:0:
223,52,149109,2,0,P|226:84|232:107,1,45,2|0,2:0|2:0,2:0:0:0:
136,290,149395,2,0,P|162:270|173:257,1,45,2|0,2:0|2:0,2:0:0:0:
290,159,149681,2,0,B|223:207|146:169|189:157|123:98|61:85|4:128|19:208|79:214,1,360,2|0,2:0|2:0,2:0:0:0:
325,246,151109,102,0,P|311:269|297:288,1,45,2|0,2:0|2:0,2:0:0:0:
228,96,151395,2,0,P|224:74|223:52,1,45,2|0,2:0|2:0,2:0:0:0:
482,120,151681,2,0,P|461:130|437:146,1,45,2|0,2:0|2:0,2:0:0:0:
204,179,151967,2,0,P|225:189|249:205,1,45,2|0,2:0|2:0,2:0:0:0:
470,231,152252,2,0,P|453:238|429:257,1,45,2|0,2:0|2:0,2:0:0:0:
256,276,152538,2,0,P|272:283|294:301,1,45,2|0,2:0|2:0,2:0:0:0:
372,367,152824,2,0,P|379:340|381:317,1,45,2|0,2:0|2:0,2:0:0:0:
294,137,153109,6,0,P|300:107|309:86,1,45,2|0,2:0|2:0,2:0:0:0:
184,300,153395,2,0,P|178:330|169:351,1,45,2|0,2:0|2:0,2:0:0:0:
60,175,153681,2,0,P|80:184|98:197,1,45,2|0,2:0|2:0,2:0:0:0:
291,235,153967,2,0,P|316:251|337:260,1,45,2|0,2:0|2:0,2:0:0:0:
425,51,154252,2,0,P|394:65|365:74,1,45,2|0,2:0|2:0,2:0:0:0:
206,181,154538,2,0,P|210:208|216:231,1,45,2|0,2:0|2:0,2:0:0:0:
80,99,154824,2,0,P|111:113|140:122,1,45,2|0,2:0|2:0,2:0:0:0:
299,229,155109,2,0,P|295:256|289:279,1,45,2|0,2:0|2:0,2:0:0:0:
225,357,155395,102,0,P|213:328|207:307,1,45,2|0,2:0|2:0,2:0:0:0:
361,173,155681,2,0,P|385:189|400:202,1,45,2|0,2:0|2:0,2:0:0:0:
138,273,155967,2,0,P|114:257|99:244,1,45,2|0,2:0|2:0,2:0:0:0:
138,58,156252,1,2,2:0:0:0:
196,210,156395,1,2,2:0:0:0:
52,360,156538,2,0,P|66:328|70:311,1,45,2|0,2:0|2:0,2:0:0:0:
216,85,156824,2,0,P|217:115|222:142,1,45,2|0,2:0|2:0,2:0:0:0:
423,281,157109,2,0,P|388:288|291:343,1,135,2|0,2:0|2:0,2:0:0:0:
435,191,157681,6,0,P|455:199|477:205,1,45,2|0,2:0|2:0,2:0:0:0:
223,303,157967,2,0,P|201:308|180:317,1,45,2|0,2:0|2:0,2:0:0:0:
13,153,158252,2,0,P|34:148|55:140,1,45,2|0,2:0|2:0,2:0:0:0:
261,227,158538,1,2,2:0:0:0:
107,359,158681,1,2,2:0:0:0:
85,54,158824,102,0,P|111:74|224:106,1,135,2|0,2:0|2:0,2:0:0:0:
512,65,159395,2,0,P|467:57|352:123,1,180,2|0,2:0|2:0,2:0:0:0:
442,360,160109,5,2,2:0:0:0:
477,229,160252,1,2,2:0:0:0:
302,47,160395,1,2,2:0:0:0:
317,191,160538,2,0,P|258:172|174:164,1,135,2|0,2:0|2:0,2:0:0:0:
49,79,161109,102,0,P|43:57|40:34,1,45,0|0,2:0|2:0,2:0:0:0:
107,223,161395,2,0,P|104:245|98:267,1,45,2|0,2:0|2:0,2:0:0:0:
28,175,161681,1,2,2:0:0:0:
202,84,161824,1,2,2:0:0:0:
277,236,161967,2,0,P|239:230|173:206,1,90,2|0,2:0|2:0,2:0:0:0:
273,26,162395,5,2,2:0:0:0:
357,193,162538,1,2,2:0:0:0:
187,273,162681,1,2,2:0:0:0:
347,91,162824,2,0,P|377:80|392:70,1,45,2|0,2:0|2:0,2:0:0:0:
288,269,163109,2,0,P|280:297|277:320,1,45,2|0,2:0|2:0,2:0:0:0:
198,122,163395,102,0,P|169:111|140:104,1,45,2|0,2:0|2:0,2:0:0:0:
391,205,163681,2,0,P|417:201|439:194,1,45,2|0,2:0|2:0,2:0:0:0:
115,183,163967,2,0,P|86:201|68:216,1,45,2|0,2:0|2:0,2:0:0:0:
270,64,164252,2,0,P|280:25|282:12,1,45,2|0,2:0|2:0,2:0:0:0:
105,281,164538,6,0,B|69:331|95:389|95:389|112:386|126:367,1,135,2|0,2:0|2:0,2:0:0:0:
338,353,165109,2,0,B|252:325|286:366|206:338,1,135,2|0,2:0|2:0,2:0:0:0:
414,285,165681,2,0,P|437:275|458:262,1,45,2|0,2:0|2:0,2:0:0:0:
97,197,165967,2,0,P|74:207|53:220,1,45,2|0,2:0|2:0,2:0:0:0:
314,231,166395,101,2,2:0:0:0:
294,137,166538,1,2,2:0:0:0:
370,3,166681,1,2,2:0:0:0:
390,97,166824,2,0,B|283:120|321:58|201:83,1,180,2|0,2:0|2:0,2:0:0:0:
126,23,167538,5,2,2:0:0:0:
186,184,167681,1,2,2:0:0:0:
49,322,167824,1,2,2:0:0:0:
34,218,167967,2,0,B|135:224|94:277|202:283,1,180,2|0,2:0|2:0,2:0:0:0:
498,286,168681,101,2,2:0:0:0:
392,356,168824,1,2,2:0:0:0:
310,256,168967,1,2,2:0:0:0:
431,52,169109,6,0,P|427:79|427:106,1,45,2|0,2:0|2:0,2:0:0:0:
447,217,169395,2,0,P|451:190|451:163,1,45,2|0,2:0|2:0,2:0:0:0:
238,30,169681,2,0,P|242:57|242:84,1,45,2|0,2:0|2:0,2:0:0:0:
222,195,169967,2,0,P|218:168|218:141,1,45,2|0,2:0|2:0,2:0:0:0:
29,78,170252,2,0,P|25:105|25:132,1,45,2|0,2:0|2:0,2:0:0:0:
45,243,170538,2,0,P|49:216|49:189,1,45,2|0,2:0|2:0,2:0:0:0:
343,94,170824,101,2,2:0:0:0:
322,225,170967,1,2,2:0:0:0:
159,359,171109,1,2,2:0:0:0:
138,228,171252,1,2,2:0:0:0:
397,301,171395,6,0,P|422:292|441:286,1,45,2|0,2:0|2:0,2:0:0:0:
248,187,171681,2,0,P|223:178|204:172,1,45,2|0,2:0|2:0,2:0:0:0:
359,120,171967,2,0,P|367:148|371:176,1,45,2|0,2:0|2:0,2:0:0:0:
331,347,172252,2,0,P|323:319|319:291,1,45,2|0,2:0|2:0,2:0:0:0:
205,145,172538,2,0,P|226:152|248:160,1,45,2|0,2:0|2:0,2:0:0:0:
439,259,172824,2,0,P|418:266|397:274,1,45,2|0,2:0|2:0,2:0:0:0:
238,351,173109,101,2,2:0:0:0:
140,243,173252,1,2,2:0:0:0:
0,286,173395,1,2,2:0:0:0:
118,323,173538,1,2,2:0:0:0:
66,140,173681,6,0,P|57:172|54:192,1,45,2|0,2:0|2:0,2:0:0:0:
207,339,173967,2,0,P|216:307|219:287,1,45,2|0,2:0|2:0,2:0:0:0:
210,121,174252,2,0,P|203:142|199:164,1,45,2|0,2:0|2:0,2:0:0:0:
61,358,174538,2,0,P|67:336|71:314,1,45,2|0,2:0|2:0,2:0:0:0:
87,132,174824,2,0,P|78:164|75:184,1,45,2|0,2:0|2:0,2:0:0:0:
228,331,175109,2,0,P|237:299|240:279,1,45,2|0,2:0|2:0,2:0:0:0:
231,113,175395,2,0,P|224:134|220:156,1,45,2|0,2:0|2:0,2:0:0:0:
100,364,175681,1,2,2:0:0:0:
150,233,175824,1,2,2:0:0:0:
325,334,175967,102,0,P|349:328|373:318,1,45,2|0,2:0|2:0,2:0:0:0:
499,146,176252,2,0,P|478:137|456:132,1,45,2|0,2:0|2:0,2:0:0:0:
301,365,176538,2,0,P|346:358|400:338,1,90,2|0,2:0|2:0,2:0:0:0:
448,239,176967,1,2,2:0:0:0:
381,26,177109,2,0,P|370:53|366:72,1,45,2|0,2:0|2:0,2:0:0:0:
323,264,177395,2,0,P|317:242|308:221,1,45,2|0,2:0|2:0,2:0:0:0:
116,111,177681,2,0,B|193:126|175:87|254:113,1,135,2|0,2:0|2:0,2:0:0:0:
60,322,178252,6,0,P|32:333|8:346,1,45,2|0,2:0|2:0,2:0:0:0:
169,208,178538,2,0,P|197:219|221:232,1,45,2|0,2:0|2:0,2:0:0:0:
461,344,178824,2,0,P|483:336|503:326,1,45,2|0,2:0|2:0,2:0:0:0:
364,215,179109,2,0,P|342:207|322:197,1,45,2|0,2:0|2:0,2:0:0:0:
280,351,179395,2,0,P|286:323|288:292,1,45,2|0,2:0|2:0,2:0:0:0:
252,79,179681,2,0,P|246:107|244:138,1,45,2|0,2:0|2:0,2:0:0:0:
186,308,179967,101,2,2:0:0:0:
368,268,180109,1,2,2:0:0:0:
322,121,180252,1,2,2:0:0:0:
257,233,180395,1,2,2:0:0:0:
140,125,180538,6,0,P|151:148|161:172,1,45,2|0,2:0|2:0,2:0:0:0:
76,332,180824,2,0,P|84:311|94:291,1,45,2|0,2:0|2:0,2:0:0:0:
8,98,181109,2,0,P|40:91|64:83,1,45,2|0,2:0|2:0,2:0:0:0:
267,247,181395,2,0,P|235:254|211:262,1,45,2|0,2:0|2:0,2:0:0:0:
98,324,181681,2,0,P|106:303|116:283,1,45,2|0,2:0|2:0,2:0:0:0:
161,116,181967,2,0,P|170:136|179:156,1,45,2|0,2:0|2:0,2:0:0:0:
262,335,182252,101,2,2:0:0:0:
104,193,182395,1,2,2:0:0:0:
276,69,182538,2,0,P|304:77|338:84,1,45,2|0,2:0|2:0,2:0:0:0:
462,346,182824,6,0,P|454:321|449:293,1,45,2|0,2:0|2:0,2:0:0:0:
320,117,183109,2,0,P|312:142|307:170,1,45,2|0,2:0|2:0,2:0:0:0:
311,360,183395,2,0,P|319:335|324:307,1,45,2|0,2:0|2:0,2:0:0:0:
445,89,183681,2,0,P|453:114|458:142,1,45,2|0,2:0|2:0,2:0:0:0:
485,332,183967,102,0,P|477:307|472:279,1,45,2|0,2:0|2:0,2:0:0:0:
343,103,184252,2,0,P|335:128|330:156,1,45,2|0,2:0|2:0,2:0:0:0:
334,346,184538,2,0,P|342:321|347:293,1,45,2|0,2:0|2:0,2:0:0:0:
468,75,184824,2,0,P|476:100|481:128,1,45,2|0,2:0|2:0,2:0:0:0:
450,302,185109,5,2,2:0:0:0:
308,160,185252,1,0,2:0:0:0:
322,316,185395,1,2,2:0:0:0:
456,132,185538,1,0,2:0:0:0:
458,290,185681,101,2,2:0:0:0:
301,152,185824,1,0,2:0:0:0:
315,308,185967,1,2,2:0:0:0:
464,119,186109,1,0,2:0:0:0:
443,303,186252,5,2,2:0:0:0:
385,96,186395,1,2,2:0:0:0:
203,166,186538,1,2,2:0:0:0:
358,218,186681,1,0,2:0:0:0:
251,54,186824,101,2,2:0:0:0:
75,171,186967,1,2,2:0:0:0:
233,162,187109,1,2,2:0:0:0:
94,43,187252,1,0,2:0:0:0:
36,290,187395,5,2,2:0:0:0:
256,192,187467,12,0,191895,2:0:0:0:
212,251,191967,6,0,B|149:247|174:230|97:218,1,101.25,4|0,1:0|2:0,2:0:0:0:
83,235,192252,2,0,L|94:311,1,67.5000000000002,0|0,2:0|2:0,2:0:0:0:
200,156,192538,1,2,2:0:0:0:
183,47,192681,1,2,2:0:0:0:
63,20,192824,2,2,P|72:54|88:91,1,67.5000000000002,2|0,2:0|2:0,2:0:0:0:
303,213,193109,6,0,B|363:200|363:200|376:205|376:205|456:185,1,135,2|0,2:0|2:0,2:0:0:0:
397,117,193538,1,0,2:0:0:0:
350,288,193681,2,0,P|333:327|325:364,1,67.5000000000002,2|0,2:0|2:0,2:0:0:0:
125,353,193967,2,0,P|154:316|171:243,1,118.125,2|2,2:0|2:0,2:0:0:0:
149,235,194252,6,0,P|172:200|274:214,1,135,2|0,2:0|2:0,2:0:0:0:
311,271,194681,1,2,2:0:0:0:
257,112,194824,2,0,P|248:78|242:36,1,67.5000000000002,0|0,2:0|2:0,2:0:0:0:
428,127,195109,2,0,P|437:161|443:203,1,67.5000000000002,2|0,2:0|2:0,2:0:0:0:
283,363,195395,86,0,L|305:281,1,67.5000000000002,2|0,2:0|2:0,2:0:0:0:
332,187,195681,1,0,2:0:0:0:
48,249,195967,1,2,2:0:0:0:
154,304,196109,1,2,2:0:0:0:
239,219,196252,2,0,L|218:94,1,118.125,2|2,2:0|2:0,2:0:0:0:
241,94,196538,6,0,P|185:51|102:63,1,135,2|0,2:0|2:0,2:0:0:0:
481,250,197109,1,2,2:0:0:0:
383,181,197252,1,2,2:0:0:0:
304,271,197395,2,0,B|336:301|336:301|328:377,1,118.125,2|2,2:0|2:0,2:0:0:0:
301,377,197681,6,0,B|225:334|244:383|156:344,1,135,2|0,2:0|2:0,2:0:0:0:
30,306,198109,2,0,P|67:293|97:276,1,67.5000000000002,2|0,2:0|2:0,2:0:0:0:
160,51,198538,1,2,2:0:0:0:
63,124,198788,1,2,2:0:0:0:
63,124,198824,86,0,P|92:159|189:171,1,135,2|0,2:0|2:0,2:0:0:0:
380,172,199252,2,0,B|326:158|326:158|317:146|317:146|237:125,1,135,2|0,2:0|2:0,2:0:0:0:
218,258,199681,1,2,2:0:0:0:
218,258,199967,6,0,P|205:295|196:334,1,67.5000000000002,2|0,2:0|2:0,2:0:0:0:
449,276,200252,2,0,P|462:239|471:200,1,67.5000000000002,2|0,2:0|2:0,2:0:0:0:
337,44,200538,2,0,B|318:79|318:79|333:190,1,135,2|0,2:0|2:0,2:0:0:0:
331,174,201109,6,0,B|266:125|188:154|219:169|132:207|76:157,1,270,6|0,1:2|2:0,2:0:0:0:
105,59,201681,1,2,2:0:0:0:
259,233,201824,1,2,2:0:0:0:
168,360,201967,2,0,P|154:316|148:272,1,90,2|0,2:0|2:0,2:0:0:0:
333,25,202252,86,0,P|357:83|364:159,1,135,2|0,2:0|2:0,2:0:0:0:
360,181,202538,2,0,L|450:158,1,90,0|0,2:0|2:0,2:0:0:0:
445,347,202824,2,0,P|438:302|425:259,1,90,2|0,2:0|2:0,2:0:0:0:
220,47,203109,2,0,P|226:91|239:134,1,90,2|0,2:0|2:0,2:0:0:0:
307,241,203359,1,2,2:0:0:0:
307,241,203395,6,0,P|251:183|154:176,1,180,2|0,2:0|2:0,2:0:0:0:
45,361,203824,1,2,2:0:0:0:
81,205,203967,2,0,L|101:308,1,90,2|0,2:0|2:0,2:0:0:0:
283,358,204252,2,0,L|303:255,1,90,2|0,2:0|2:0,2:0:0:0:
35,63,204538,6,0,B|139:97|139:97|155:140|155:140|267:172,1,270,2|0,2:0|2:0,2:0:0:0:
428,317,205109,1,2,2:0:0:0:
353,148,205252,1,2,2:0:0:0:
489,46,205395,1,2,2:0:0:0:
351,261,205645,1,2,2:0:0:0:
351,261,205681,86,0,P|294:263|188:338,1,180,6|0,1:2|2:0,2:0:0:0:
276,360,206109,1,0,2:0:0:0:
57,212,206252,1,2,2:0:0:0:
164,93,206395,1,2,2:0:0:0:
302,158,206538,1,2,1:2:0:0:
74,14,206824,6,0,P|130:58|245:62,1,180,6|0,1:2|2:0,2:0:0:0:
325,11,207252,1,0,2:0:0:0:
233,258,207395,2,0,L|216:158,1,90,2|2,2:0|2:0,2:0:0:0:
468,22,207681,2,0,L|446:160,1,135,2|0,1:2|2:0,2:0:0:0:
459,187,207967,5,6,1:2:0:0:
459,187,208252,2,0,P|411:206|373:233,1,90,0|0,1:0|1:0,2:0:0:0:
226,357,208538,1,0,1:0:0:0:
248,238,208681,1,0,2:0:0:0:
292,24,208824,1,0,1:0:0:0:
314,143,208967,1,0,2:0:0:0:
167,278,209109,86,0,P|122:260|105:127,1,180,2|0,1:2|2:0,2:0:0:0:
166,71,209538,1,0,1:0:0:0:
36,282,209681,2,0,P|14:332|3:371,1,90,0|0,1:0|2:0,2:0:0:0:
298,169,209967,2,0,P|284:125|266:85,1,90,0|0,1:0|2:0,2:0:0:0:
34,29,210252,6,0,B|55:115|101:94|118:201,1,180,6|0,1:2|2:0,2:0:0:0:
36,282,210681,1,0,1:0:0:0:
208,225,210824,1,0,1:0:0:0:
166,71,210967,1,0,2:0:0:0:
128,291,211109,2,0,P|103:338|92:374,1,90,0|0,1:0|2:0,2:0:0:0:
397,309,211395,6,0,B|328:329|328:329|282:318|282:318|199:337,1,180,2|0,1:2|2:0,2:0:0:0:
357,131,211824,1,0,2:0:0:0:
331,239,211967,1,0,1:0:0:0:
271,59,212109,1,0,1:0:0:0:
460,115,212252,2,0,P|475:177|476:276,1,135,0|0,1:0|2:0,2:0:0:0:
456,267,212538,86,0,B|395:232|395:232|315:240,1,135,12|0,1:0|2:0,2:0:0:0:
128,184,212824,1,0,2:0:0:0:
210,114,212967,2,0,P|226:158|225:227,1,108,2|2,2:0|2:0,2:0:0:0:
90,310,213252,1,0,2:0:0:0:
133,51,213395,5,2,2:0:0:0:
133,51,213538,2,0,B|223:87|194:36|305:80,1,162,2|0,2:0|2:0,2:0:0:0:
317,45,213824,2,0,L|340:280,1,216,2|0,2:0|2:0,2:0:0:0:
503,161,214252,6,0,P|453:134|399:120,1,108,4|0,1:2|2:0,2:0:0:0:
151,268,214538,2,0,P|202:253|250:227,1,108,0|0,1:0|2:0,2:0:0:0:
512,372,214824,86,0,B|462:328|462:328|383:327,1,135,12|0,1:0|2:0,2:0:0:0:
304,133,215109,1,0,2:0:0:0:
80,345,215252,1,2,2:0:0:0:
74,249,215395,2,0,P|131:271|177:310,1,108,2|0,2:0|2:0,2:0:0:0:
407,184,215681,5,2,2:0:0:0:
247,239,215824,2,0,B|206:198|206:198|193:81,1,162,2|0,2:0|2:0,2:0:0:0:
226,75,216109,2,0,P|161:53|51:153,1,216,2|0,2:0|2:0,2:0:0:0:
187,342,216538,5,4,1:0:0:0:
285,153,216681,1,0,1:0:0:0:
13,229,216824,1,4,1:0:0:0:
13,229,217109,6,8,P|37:283|46:340,1,108,8|0,1:0|2:0,1:0:0:0:
362,129,217395,2,0,P|338:75|329:18,1,108,8|0,1:0|2:0,2:0:0:0:
58,30,217681,2,0,P|47:82|25:131,1,108,8|0,1:0|2:0,2:0:0:0:
318,341,217967,2,0,P|328:288|351:240,1,108,8|0,1:0|2:0,2:0:0:0:
483,58,218252,6,0,L|409:75,1,67.5,8|0,1:0|2:0,2:0:0:0:
244,128,218395,2,0,L|170:145,1,67.5,8|0,1:0|2:0,2:0:0:0:
79,271,218538,6,0,L|159:289,1,76.5,8|0,1:0|2:0,2:0:0:0:
318,341,218681,2,0,L|399:359,1,76.5,8|0,1:0|2:0,2:0:0:0:
248,350,218824,5,8,1:0:0:0:
236,326,218895,5,8,1:0:0:0:
241,298,218967,5,8,1:0:0:0:
255,273,219038,5,8,1:0:0:0:
289,258,219109,5,8,1:0:0:0:
337,212,219181,5,8,1:0:0:0:
371,143,219252,5,8,1:0:0:0:
337,46,219324,5,8,1:0:0:0:
236,16,219395,5,4,1:0:0:0:
236,16,220538,5,2,1:3:0:0:
59,158,220681,1,0,1:0:0:0:
71,162,220752,1,0,1:0:0:0:
83,166,220824,1,0,1:0:0:0:
310,351,220967,101,2,1:3:0:0:
262,128,221109,1,2,1:3:0:0:
465,245,221252,1,0,1:0:0:0:
453,249,221324,1,0,1:0:0:0:
441,253,221395,1,0,1:0:0:0:
429,257,221467,1,0,1:0:0:0:
417,261,221538,1,0,1:0:0:0:
156,199,221681,70,0,B|213:219|213:219|274:206|274:206|337:229|337:229|278:252,1,243,14|0,1:0|2:0,2:0:0:0:
200,366,221967,1,8,1:0:0:0:
196,350,222038,1,0,2:0:0:0:
192,334,222109,2,0,L|214:246,1,80.9999999999999,2|0,2:1|2:0,2:0:0:0:
102,55,222252,2,0,B|61:93|61:93|82:217,1,162,8|0,1:0|2:0,2:0:0:0:
48,269,222467,1,0,2:0:0:0:
89,332,222538,1,10,1:0:0:0:
332,188,222681,1,0,2:0:0:0:
379,178,222752,1,0,2:0:0:0:
427,168,222824,6,0,B|443:129|443:129|433:71,1,80.9999999999999,10|0,1:0|2:0,2:0:0:0:
352,293,222967,2,0,B|336:332|336:332|346:390,1,80.9999999999999,0|0,2:0|2:0,2:0:0:0:
172,162,223109,1,8,1:0:0:0:
172,162,223181,1,0,2:0:0:0:
172,162,223252,2,0,L|341:189,1,162,2|8,2:1|1:0,2:0:0:0:
366,123,223467,1,0,2:0:0:0:
338,55,223538,1,0,2:0:0:0:
225,214,223681,2,0,P|216:255|212:296,1,80.9999999999999,10|0,1:0|2:0,2:0:0:0:
45,121,223824,2,0,P|40:77|32:39,1,80.9999999999999,8|0,1:0|2:0,2:0:0:0:
130,319,223967,6,0,P|169:368|281:342,1,162,10|0,1:0|2:0,2:0:0:0:
464,120,224252,1,8,1:0:0:0:
453,132,224324,1,0,2:0:0:0:
442,144,224395,2,0,L|425:234,1,80.9999999999999,2|0,2:1|2:0,2:0:0:0:
390,367,224538,2,0,B|351:343|351:343|328:207,1,162,8|0,1:0|2:0,2:0:0:0:
307,48,224752,1,0,2:0:0:0:
307,48,224824,2,0,P|333:90|342:137,1,80.9999999999999,10|0,1:0|2:0,2:0:0:0:
210,264,224967,1,8,1:0:0:0:
224,192,225038,1,8,1:0:0:0:
238,120,225109,86,0,B|168:74|168:74|91:85,1,162,10|0,1:0|2:0,2:0:0:0:
499,256,225395,1,8,1:0:0:0:
469,330,225467,1,0,2:0:0:0:
392,309,225538,2,0,B|231:274|231:274|291:336,1,243,10|0,1:0|2:0,2:0:0:0:
308,352,225824,2,0,L|293:243,1,80.9999999999999,8|0,1:0|2:0,2:0:0:0:
80,46,225967,2,0,L|65:155,1,80.9999999999999,10|0,1:0|2:0,2:0:0:0:
392,309,226109,2,0,L|377:200,1,80.9999999999999,8|0,1:0|2:0,2:0:0:0:
163,87,226252,6,0,B|149:173|149:173|111:209|111:209|104:267|104:267|124:314,1,243,10|0,1:0|2:0,2:0:0:0:
297,272,226538,1,8,1:0:0:0:
280,269,226609,1,0,2:0:0:0:
264,265,226681,2,0,L|182:252,1,80.9999999999999,2|0,2:1|2:0,2:0:0:0:
395,342,226824,2,0,B|422:268|422:268|385:194,1,162,8|0,1:0|2:0,2:0:0:0:
449,153,227038,1,0,2:0:0:0:
434,80,227109,2,0,L|452:-6,1,80.9999999999999,10|0,1:0|2:0,2:0:0:0:
268,190,227252,2,0,L|250:104,1,80.9999999999999,8|0,1:0|2:0,2:0:0:0:
40,77,227395,6,0,P|113:26|201:57,1,162,10|0,1:0|2:0,2:0:0:0:
76,344,227681,2,0,B|63:326|63:326|84:244,1,80.9999999999999,8|0,1:0|2:0,2:0:0:0:
131,155,227824,2,0,B|179:177|179:177|209:296,1,162,10|0,1:0|2:0,2:0:0:0:
484,284,228109,2,0,L|376:261,1,80.9999999999999,8|0,1:0|2:0,2:0:0:0:
314,384,228252,2,0,L|333:291,1,80.9999999999999,2|0,2:1|2:0,2:0:0:0:
417,62,228395,1,8,1:0:0:0:
430,143,228467,1,0,2:0:0:0:
363,190,228538,86,0,P|326:178|274:153,1,80.9999999999999,10|0,1:0|2:0,2:0:0:0:
78,270,228681,2,0,P|114:253|153:240,1,80.9999999999999,8|0,1:0|2:0,2:0:0:0:
232,21,228824,2,0,B|218:89|218:89|221:108|221:108|203:201,1,162,8|2,1:0|2:1,2:0:0:0:
227,372,229038,1,0,2:0:0:0:
284,320,229109,2,0,L|265:225,1,80.9999999999999,8|0,1:0|2:0,2:0:0:0:
51,61,229252,2,0,P|9:108|28:209,1,162,8|2,1:0|2:1,2:0:0:0:
348,212,229538,6,0,P|388:205|440:188,1,80.9999999999999,8|0,1:0|2:0,2:0:0:0:
151,353,229681,2,0,P|110:338|59:329,1,80.9999999999999,10|0,1:0|2:0,2:0:0:0:
368,292,229824,2,0,P|407:300|460:316,1,80.9999999999999,8|0,1:0|2:0,2:0:0:0:
121,107,229967,2,0,P|125:146|138:202,1,80.9999999999999,8|0,1:0|2:0,2:0:0:0:
320,379,230109,2,0,P|329:337|337:284,1,80.9999999999999,10|0,1:0|2:0,2:0:0:0:
468,72,230252,5,0,2:0:0:0:
425,48,230324,1,0,2:0:0:0:
376,45,230395,1,0,2:0:0:0:
330,63,230467,1,0,2:0:0:0:
314,174,230538,85,2,2:1:0:0:
330,157,230609,1,0,2:0:0:0:
338,135,230681,1,0,2:0:0:0:
341,112,230752,1,0,2:0:0:0:
338,88,230824,5,6,2:1:0:0:
415,306,230967,2,0,L|399:213,1,80.9999999999999,8|0,1:0|2:0,2:0:0:0:
246,110,231109,2,0,B|199:178|199:178|210:279,1,162,8|2,1:0|2:1,2:0:0:0:
237,343,231324,1,0,2:0:0:0:
206,356,231395,1,8,1:0:0:0:
11,170,231538,1,0,2:0:0:0:
58,161,231609,1,0,2:0:0:0:
106,153,231681,2,0,B|122:117|122:117|112:52,1,80.9999999999999,10|0,1:0|2:0,2:0:0:0:
38,274,231824,2,0,B|31:315|31:315|47:351,1,80.9999999999999,0|0,2:0|2:0,2:0:0:0:
277,329,231967,6,0,L|110:304,1,162,10|0,1:0|2:0,2:0:0:0:
350,209,232252,1,8,1:0:0:0:
387,240,232324,1,0,2:0:0:0:
395,287,232395,2,0,P|389:311|364:363,1,80.9999999999999,2|0,2:1|2:0,2:0:0:0:
248,203,232538,2,0,P|276:126|343:48,1,162,8|0,1:0|2:0,2:0:0:0:
489,112,232752,1,0,2:0:0:0:
489,112,232824,2,0,L|384:125,1,80.9999999999999,10|0,1:0|2:0,2:0:0:0:
199,80,232967,2,0,L|94:67,1,80.9999999999999,8|0,1:0|2:0,2:0:0:0:
330,297,233109,86,0,B|370:322|370:322|347:194,1,162,10|0,1:0|2:0,2:0:0:0:
307,92,233324,1,0,2:0:0:0:
324,63,233395,1,8,1:0:0:0:
354,48,233467,1,0,2:0:0:0:
388,48,233538,2,0,B|436:92|436:92|423:206,1,162,2|8,2:1|1:0,2:0:0:0:
201,337,233824,2,0,B|229:331|229:331|307:353,1,80.9999999999999,0|0,2:0|2:0,2:0:0:0:
435,304,233967,1,10,1:0:0:0:
380,289,234038,1,8,1:0:0:0:
325,275,234109,1,8,1:0:0:0:
269,260,234181,1,8,1:0:0:0:
214,246,234252,6,0,L|132:266,1,80.9999999999999,10|0,1:0|2:0,2:0:0:0:
8,149,234395,1,0,2:0:0:0:
8,149,234467,1,0,2:0:0:0:
8,149,234538,2,0,L|107:169,1,80.9999999999999,8|0,1:0|2:0,2:0:0:0:
151,5,234681,2,0,P|192:30|188:158,1,162,2|8,2:1|1:0,2:0:0:0:
38,294,234967,1,0,2:0:0:0:
218,351,235109,2,0,L|200:253,1,80.9999999999999,10|0,1:0|2:0,2:0:0:0:
295,32,235252,1,0,2:0:0:0:
341,89,235324,1,0,2:0:0:0:
313,156,235395,6,0,L|331:247,1,80.9999999999999,14|0,1:0|2:0,2:0:0:0:
87,165,235538,2,0,L|105:74,1,80.9999999999999,0|0,2:0|2:0,2:0:0:0:
409,272,235681,1,8,1:0:0:0:
409,272,235752,1,0,2:0:0:0:
409,272,235824,2,0,B|295:254|295:254|242:292,1,162,2|8,2:1|1:0,2:0:0:0:
81,364,236109,2,0,L|99:263,1,80.9999999999999,0|0,2:0|2:0,2:0:0:0:
206,76,236252,2,0,B|168:122|168:122|187:253,1,162,10|0,1:0|2:0,2:0:0:0:
254,360,236467,1,0,2:0:0:0:
260,202,236538,86,0,P|194:236|196:334,1,162,14|0,1:0|2:0,2:0:0:0:
340,345,236752,1,0,2:0:0:0:
365,320,236824,2,0,L|377:229,1,80.9999999999999,8|0,1:0|2:0,2:0:0:0:
443,0,236967,2,0,B|456:59|456:59|448:88|448:88|468:183,1,162,2|8,2:1|1:0,2:0:0:0:
109,346,237252,1,0,2:0:0:0:
109,346,237324,1,0,2:0:0:0:
109,346,237395,2,0,L|89:255,1,80.9999999999999,10|0,1:0|2:0,2:0:0:0:
288,87,237538,2,0,L|268:178,1,80.9999999999999,8|0,1:0|2:0,2:0:0:0:
29,206,237681,6,0,B|60:180|60:180|105:181,1,80.9999999999999,10|0,1:0|2:0,2:0:0:0:
400,272,237824,1,0,2:0:0:0:
393,295,237895,1,0,2:0:0:0:
386,318,237967,1,0,2:0:0:0:
30,64,238109,6,0,B|70:63|70:63|101:89,1,80.9999999999999,10|0,1:0|2:0,2:0:0:0:
369,319,238252,1,0,2:0:0:0:
376,342,238324,1,0,2:0:0:0:
383,365,238395,1,0,2:0:0:0:
434,58,238538,86,0,P|439:102|451:154,1,80.9999999999999,10|0,1:0|2:0,2:0:0:0:
249,285,238681,2,0,P|245:327|232:381,1,80.9999999999999,10|0,1:0|2:0,2:0:0:0:
17,231,238824,6,2,B|62:221|62:221|92:227|92:227|174:205|174:205|148:195,1,180,10|0,1:0|2:0,2:1:0:0:
466,289,239038,2,2,B|478:323|478:323|424:282|424:282|403:278|403:278|358:217,1,180,10|0,1:0|2:0,2:1:0:0:
226,8,239252,2,2,B|261:48|261:48|236:70|236:70|257:98|257:98|274:164,1,180,10|0,1:0|2:0,2:1:0:0:
256,347,239467,1,0,2:0:0:0:
256,347,239538,6,0,B|265:319|265:319|242:245,1,90,2|0,2:1|2:0,2:0:0:0:
46,86,239681,2,0,B|72:75|72:75|145:94,1,90,10|0,1:0|2:0,2:0:0:0:
436,144,239824,2,0,L|479:131,3,30,2|0|0|0,1:0|1:0|1:0|1:0,1:0:0:0:
355,227,239967,85,2,2:1:0:0:
379,4,240109,2,0,P|362:31|340:102,1,90,8|0,1:0|2:0,2:0:0:0:
184,327,240252,1,8,1:0:0:0:
248,292,240324,1,0,2:0:0:0:
234,220,240395,2,0,L|218:125,1,90,2|0,2:1|2:0,2:0:0:0:
27,159,240538,2,0,B|68:181|68:181|211:154,1,180,8|0,1:0|2:0,2:0:0:0:
445,243,240752,1,0,2:0:0:0:
435,278,240824,2,0,P|401:207|281:222,1,180,10|0,1:0|2:0,2:0:0:0:
318,377,241038,1,0,2:0:0:0:
345,358,241109,6,0,L|354:233,1,90,10|0,1:0|2:0,2:0:0:0:
398,40,241252,1,0,2:0:0:0:
456,85,241324,1,0,2:0:0:0:
436,153,241395,2,0,L|445:243,1,90,8|0,1:0|2:0,2:0:0:0:
242,309,241538,2,0,L|233:219,1,90,2|0,2:1|2:0,2:0:0:0:
220,99,241681,1,8,1:0:0:0:
23,295,241824,1,0,2:0:0:0:
97,325,241895,1,0,2:0:0:0:
147,263,241967,2,0,B|165:233|165:233|156:161,1,90,10|0,1:0|2:0,2:0:0:0:
323,24,242109,2,0,B|305:54|305:54|314:126,1,90,8|0,1:0|2:0,2:0:0:0:
30,112,242252,6,0,B|137:133|137:133|212:105,1,180,10|0,1:0|2:0,2:0:0:0:
465,297,242538,2,0,L|360:266,1,90,8|0,1:0|2:0,2:0:0:0:
284,235,242681,1,2,2:1:0:0:
470,110,242824,2,0,B|453:134|453:134|387:165,1,90,8|0,1:0|2:0,2:0:0:0:
97,325,242967,2,0,B|114:301|114:301|168:275,1,90,8|0,1:0|2:0,2:0:0:0:
467,366,243109,2,0,B|450:342|450:342|384:311,1,90,10|0,1:0|2:0,2:0:0:0:
125,92,243252,2,0,B|142:116|142:116|208:147,1,90,8|0,1:0|2:0,2:0:0:0:
273,372,243395,86,0,B|307:321|307:321|288:266|288:266|298:176,1,180,10|0,1:0|2:0,2:0:0:0:
66,24,243681,1,8,1:0:0:0:
80,34,243752,1,0,2:0:0:0:
94,44,243824,2,0,L|109:140,1,90,2|0,2:1|2:0,2:0:0:0:
57,308,243967,1,8,1:0:0:0:
119,342,244038,1,8,1:0:0:0:
185,315,244109,1,8,1:0:0:0:
200,244,244181,2,0,L|206:197,3,30,0|0|0|10,1:0|1:0|1:0|1:0,1:0:0:0:
348,135,244324,1,8,1:0:0:0:
348,135,244395,2,0,L|357:184,3,30,8|0|0|0,2:0|2:0|2:0|2:0,2:0:0:0:
422,238,244538,6,0,B|401:272|401:272|392:337,1,90,10|0,1:0|2:0,2:0:0:0:
254,107,244681,2,0,B|275:73|275:73|284:8,1,90,8|0,1:0|2:0,2:0:0:0:
456,170,244824,2,0,L|479:365,1,180,8|2,1:0|2:1,2:0:0:0:
459,346,245038,1,0,2:0:0:0:
441,343,245109,1,8,1:0:0:0:
185,253,245252,1,0,2:0:0:0:
200,244,245324,1,0,2:0:0:0:
215,235,245395,2,0,P|259:237|334:252,1,90,10|0,1:0|2:0,2:0:0:0:
467,51,245538,2,0,P|423:53|348:68,1,90,8|0,1:0|2:0,2:0:0:0:
109,207,245681,6,0,B|225:240|284:144|284:144|305:180|358:184,1,270,10|0,1:0|2:0,2:0:0:0:
477,196,245967,2,0,B|434:189|434:189|385:228,1,90,8|0,1:0|2:0,2:0:0:0:
197,350,246109,2,0,B|240:357|240:357|289:318,1,90,2|0,2:1|2:0,2:0:0:0:
173,121,246252,2,0,B|31:90|31:90|57:122,1,180,8|0,1:0|2:0,2:0:0:0:
74,220,246467,1,0,2:0:0:0:
109,207,246538,1,10,1:0:0:0:
305,33,246681,1,8,1:0:0:0:
291,44,246752,1,0,2:0:0:0:
277,55,246824,86,0,L|293:157,1,90,10|0,1:0|2:0,2:0:0:0:
391,351,246967,2,0,L|375:249,1,90,8|0,1:0|2:0,2:0:0:0:
500,108,247109,2,0,L|398:124,1,90,8|0,1:0|2:0,2:0:0:0:
176,293,247252,2,0,L|278:277,1,90,10|0,1:0|2:0,2:0:0:0:
478,301,247395,2,0,L|462:199,1,90,8|0,1:0|2:0,2:0:0:0:
196,103,247538,2,0,L|212:205,1,90,8|0,1:0|2:0,2:0:0:0:
373,257,247681,1,10,1:0:0:0:
388,159,247752,1,8,1:0:0:0:
291,144,247824,1,8,1:0:0:0:
275,241,247895,1,8,1:0:0:0:
377,262,247967,6,0,B|495:234|495:234|443:298,1,180,10|0,1:0|2:0,2:0:0:0:
303,348,248181,1,0,2:0:0:0:
303,348,248252,2,0,L|192:327,1,90,8|0,1:0|2:0,2:0:0:0:
40,242,248395,2,0,L|151:221,1,90,2|0,2:1|2:0,2:0:0:0:
225,36,248538,1,8,1:0:0:0:
143,368,248681,1,8,1:0:0:0:
151,91,248824,1,10,1:0:0:0:
175,166,248895,1,8,1:0:0:0:
128,225,248967,2,0,L|136:278,3,30,8|0|0|0,1:0|1:0|1:0|1:0,1:0:0:0:
250,179,249109,6,0,B|368:200|368:200|412:181|412:181|446:233|446:233|396:260,1,270,14|0,1:0|2:0,2:0:0:0:
326,346,249395,1,8,1:0:0:0:
340,356,249467,1,0,2:0:0:0:
354,366,249538,2,0,L|340:263,1,90,2|0,2:1|2:0,2:0:0:0:
403,26,249681,2,0,B|343:51|343:51|325:168,1,180,8|0,1:0|2:0,2:0:0:0:
232,307,249895,1,0,2:0:0:0:
232,307,249967,2,0,B|188:316|188:316|133:274,1,90,10|0,1:0|2:0,2:0:0:0:
208,81,250109,2,0,B|237:98|237:98|245:179,1,90,8|0,1:0|2:0,2:0:0:0:
0,225,250252,86,0,B|74:169|74:169|165:194,1,180,10|0,1:0|2:0,2:0:0:0:
468,271,250538,1,8,1:0:0:0:
462,287,250609,1,0,2:0:0:0:
455,304,250681,2,0,L|345:286,1,90,2|0,2:1|2:0,2:0:0:0:
265,352,250824,2,0,B|250:333|250:333|258:250,1,90,8|0,1:0|2:0,2:0:0:0:
477,62,250967,1,8,1:0:0:0:
407,89,251038,1,8,1:0:0:0:
337,116,251109,2,0,B|343:148|343:148|326:216,1,90,10|0,1:0|2:0,2:0:0:0:
31,355,251252,1,8,1:0:0:0:
101,328,251324,1,8,1:0:0:0:
171,301,251395,6,0,B|165:269|165:269|182:201,1,90,10|0,1:0|2:0,2:0:0:0:
99,70,251538,2,0,L|122:156,1,90,0|0,2:0|2:0,2:0:0:0:
233,359,251681,1,8,1:0:0:0:
233,359,251752,1,0,2:0:0:0:
233,359,251824,2,0,B|324:344,1,90,2|0,2:1|2:0,2:0:0:0:
336,110,251967,2,0,P|363:152|379:206,1,90,8|0,1:0|2:0,2:0:0:0:
512,275,252109,2,0,B|459:247|459:247|319:276,1,180,8|2,1:0|2:1,2:0:0:0:
141,122,252395,2,0,L|149:151,3,30,0|0|0|0,1:0|1:0|1:0|1:0,1:0:0:0:
135,259,252538,6,0,B|160:224|160:224|163:177,1,90,10|0,1:0|2:0,2:0:0:0:
271,24,252681,2,0,B|228:19|228:19|185:40,1,90,8|0,1:0|2:0,2:0:0:0:
0,24,252824,2,0,B|17:63|17:63|57:89,1,90,8|0,1:0|2:0,2:0:0:0:
225,307,252967,1,2,2:1:0:0:
225,307,253038,1,0,2:0:0:0:
225,307,253109,2,0,L|18:270,1,180,8|0,1:0|2:0,2:0:0:0:
51,349,253324,1,0,2:0:0:0:
121,364,253395,1,10,1:0:0:0:
339,148,253538,2,0,L|346:107,3,30,0|0|0|0,1:0|1:0|1:0|1:0,1:0:0:0:
320,336,253681,86,0,B|303:255|303:255|281:242|281:242|263:162,1,180,14|0,1:0|2:0,2:0:0:0:
467,246,253895,1,0,2:0:0:0:
467,246,253967,2,0,L|352:215,1,90,8|0,1:0|2:0,2:0:0:0:
111,148,254109,2,0,L|212:125,1,90,2|0,2:1|2:0,2:0:0:0:
299,0,254252,2,0,P|358:62|324:161,1,180,8|0,1:0|2:0,2:0:0:0:
264,162,254467,1,0,2:0:0:0:
206,113,254538,1,10,1:0:0:0:
155,353,254681,2,0,L|175:255,1,90,8|0,1:0|2:0,2:0:0:0:
59,38,254824,6,0,B|-6:152|91:225|91:225|96:181|128:162,1,270,14|0,1:0|2:0,2:0:0:0:
255,244,255109,1,8,1:0:0:0:
267,257,255181,1,0,2:0:0:0:
279,269,255252,2,0,L|266:367,1,90,2|0,2:1|2:0,2:0:0:0:
441,212,255395,2,0,B|407:231|407:231|335:225,1,90,8|0,1:0|2:0,2:0:0:0:
104,201,255538,2,0,B|138:182|138:182|188:186,1,90,8|0,1:0|2:0,2:0:0:0:
374,48,255681,2,0,B|393:82|393:82|388:132,1,90,10|0,1:0|2:0,2:0:0:0:
171,365,255824,2,0,B|152:331|152:331|158:259,1,90,8|0,1:0|2:0,2:0:0:0:
381,302,255967,6,0,B|266:320|266:320|248:361|248:361|291:354,1,180,10|0,1:0|2:0,2:0:0:0:
0,296,256181,2,0,B|49:289|49:289|76:296|76:296|93:282|93:282|162:271|162:271|147:292,1,180,10|0,1:0|2:0,2:0:0:0:
470,282,256395,86,0,B|355:264|355:264|337:223|337:223|380:230,1,180,10|0,1:0|2:0,2:0:0:0:
33,169,256609,2,0,B|82:176|82:176|109:169|109:169|126:183|126:183|195:194|195:194|180:173,1,180,10|0,1:0|2:0,2:0:0:0:
477,145,256824,2,0,L|431:156,1,45,10|0,1:0|2:0,2:0:0:0:
151,75,256967,2,0,L|197:86,1,45,10|0,1:0|2:0,2:0:0:0:
505,42,257109,6,0,B|446:59|446:59|397:34|397:34|356:60|356:60|423:82,1,198,14|0,1:0|2:0,2:0:0:0:
12,249,257324,2,0,B|77:256|77:256|111:224|111:224|159:232|159:232|183:204,1,198,14|0,1:0|2:0,2:0:0:0:
500,264,257538,6,0,B|441:247|441:247|392:272|392:272|351:246|351:246|418:224,1,198,14|0,1:0|2:0,2:0:0:0:
16,19,257752,2,0,B|81:11|81:11|115:43|115:43|163:35|163:35|187:63,1,198,14|0,1:0|2:0,2:0:0:0:
323,320,257967,85,8,1:0:0:0:
262,370,258038,1,8,1:0:0:0:
183,359,258109,1,8,1:0:0:0:
103,348,258181,1,8,1:0:0:0:
56,284,258252,1,14,1:0:0:0:
256,192,258324,12,0,260467,2:0:0:0:
327,255,260538,38,0,B|256:310|172:260|221:258|124:205|61:242|61:242|65:278|98:302,1,348.75,2|0,2:0|2:0,2:0:0:0:
257,194,265109,5,2,2:0:0:0:
250,287,265395,1,0,2:0:0:0:
257,194,265681,1,0,2:0:0:0:
170,226,265967,1,0,2:0:0:0:
257,194,266252,1,0,2:0:0:0:
458,289,266538,1,2,2:0:0:0:
501,46,266824,1,0,2:0:0:0:
414,78,267109,1,2,2:0:0:0:
371,321,267395,101,0,2:0:0:0:
458,289,267681,1,2,2:0:0:0:
284,289,267967,1,0,2:0:0:0:
371,321,268252,1,0,2:0:0:0:
197,321,268538,1,0,2:0:0:0:
284,289,268824,2,0,P|292:254|291:215,1,67.5000000000002,2|2,2:0|2:0,2:0:0:0:
148,32,269109,1,2,2:0:0:0:
180,119,269395,1,2,2:0:0:0:
117,300,269681,5,2,2:0:0:0:
149,213,269967,1,0,2:0:0:0:
0,106,270252,1,2,2:0:0:0:
87,138,270538,1,0,2:0:0:0:
327,80,270824,1,2,2:0:0:0:
240,48,271109,1,0,2:0:0:0:
55,227,271395,1,2,2:0:0:0:
415,117,271681,1,2,2:0:0:0:
394,282,271967,101,2,2:0:0:0:
362,195,272252,1,0,2:0:0:0:
362,195,272824,2,0,P|370:159|374:123,1,67.5000000000002,2|2,2:0|2:0,2:0:0:0:
216,234,273109,1,2,2:0:0:0:
303,266,273395,1,0,2:0:0:0:
98,357,273681,1,0,2:0:0:0:
130,270,273967,1,0,2:0:0:0:
109,59,274252,5,2,2:0:0:0:
77,146,274538,1,0,2:0:0:0:
17,74,274824,1,0,2:0:0:0:
292,117,275109,1,2,2:0:0:0:
45,233,275395,1,0,2:0:0:0:
77,146,275681,1,0,2:0:0:0:
350,180,275967,1,2,2:0:0:0:
292,117,276252,1,0,2:0:0:0:
109,344,276538,101,2,2:0:0:0:
141,257,276824,1,0,2:0:0:0:
141,257,277395,1,0,2:0:0:0:
324,30,277681,1,2,2:0:0:0:
292,117,277967,1,0,2:0:0:0:
441,324,278252,1,2,2:0:0:0:
409,237,278538,1,0,2:0:0:0:
346,305,278824,5,0,2:0:0:0:
129,94,279109,1,2,2:0:0:0:
216,62,279395,1,0,2:0:0:0:
376,100,279681,1,2,2:0:0:0:
89,210,279967,1,2,2:0:0:0:
176,178,280252,1,0,2:0:0:0:
512,279,280538,1,2,2:0:0:0:
425,247,280824,1,0,2:0:0:0:
305,366,281109,101,2,2:0:0:0:
273,279,281395,1,0,2:0:0:0:
273,279,281967,1,0,2:0:0:0:
360,247,282252,1,2,2:0:0:0:
311,88,282538,1,0,2:0:0:0:
152,137,282824,1,0,2:0:0:0:
201,296,283109,1,0,2:0:0:0:
256,192,283395,21,4,1:0:0:0:
256,192,283538,1,0,2:0:0:0:
54,62,283681,1,2,2:0:0:0:
75,165,283824,1,0,2:0:0:0:
140,359,283967,1,2,2:0:0:0:
161,256,284109,1,0,2:0:0:0:
198,12,284252,1,2,2:0:0:0:
219,115,284395,1,0,2:0:0:0:
417,351,284538,5,2,2:0:0:0:
317,317,284681,1,0,2:0:0:0:
489,159,284824,1,2,2:0:0:0:
509,262,284967,1,0,2:0:0:0:
287,193,285109,1,2,2:0:0:0:
366,123,285252,1,0,2:0:0:0:
399,239,285395,1,2,2:0:0:0:
199,289,285538,1,0,2:0:0:0:
0,112,285681,6,0,B|46:156|115:148|86:123|157:118|209:166,1,216,0|0,2:0|2:0,2:0:0:0:
122,229,286109,1,0,2:0:0:0:
67,47,286252,1,2,2:0:0:0:
170,26,286395,1,0,2:0:0:0:
402,139,286538,1,2,2:0:0:0:
299,118,286681,1,0,2:0:0:0:
200,291,286824,85,2,2:0:0:0:
212,283,286871,1,2,2:0:0:0:
227,285,286919,1,2,2:0:0:0:
239,277,286967,2,0,L|353:305,1,108,0|0,2:0|2:0,2:0:0:0:
512,331,287252,1,2,2:0:0:0:
480,338,287324,1,2,2:0:0:0:
447,344,287395,2,0,B|395:235|474:246|437:125,1,216,2|0,2:0|2:0,2:0:0:0:
375,33,287824,1,0,2:0:0:0:
288,200,287967,5,0,2:0:0:0:
288,200,288109,1,0,2:0:0:0:
383,227,288252,1,2,2:0:0:0:
461,158,288395,1,2,2:0:0:0:
260,93,288538,1,2,2:0:0:0:
161,60,288681,1,2,2:0:0:0:
205,266,288824,1,2,2:0:0:0:
226,369,288967,1,2,2:0:0:0:
309,299,289109,5,0,2:0:0:0:
309,299,289252,1,0,2:0:0:0:
25,232,289395,1,2,2:0:0:0:
124,199,289538,1,2,2:0:0:0:
359,126,289681,1,2,2:0:0:0:
260,93,289824,1,0,2:0:0:0:
205,266,289967,1,2,2:0:0:0:
226,369,290109,1,2,2:0:0:0:
462,162,290252,86,0,B|467:121|511:100|511:100|539:142|516:244|494:211|463:273|517:343,1,324,2|0,2:0|2:0,2:0:0:0:
347,165,290824,1,2,2:0:0:0:
368,268,290967,1,2,2:0:0:0:
260,93,291109,1,2,2:0:0:0:
239,196,291252,1,2,2:0:0:0:
83,363,291395,5,2,2:0:0:0:
62,260,291538,1,2,2:0:0:0:
65,240,291586,1,2,2:0:0:0:
50,229,291633,1,2,2:0:0:0:
53,212,291681,1,2,2:0:0:0:
166,287,291824,1,0,2:0:0:0:
377,59,291967,5,2,2:0:0:0:
130,171,292109,1,2,2:0:0:0:
356,162,292252,85,2,2:0:0:0:
109,68,292395,1,0,2:0:0:0:
270,255,292538,5,0,2:0:0:0:
270,255,292681,1,2,2:0:0:0:
222,124,292824,1,2,2:0:0:0:
168,348,292967,1,2,2:0:0:0:
102,172,293109,1,2,2:0:0:0:
109,266,293252,1,2,2:0:0:0:
23,89,293395,1,2,2:0:0:0:
3,320,293538,1,2,2:0:0:0:
270,255,293681,5,0,2:0:0:0:
270,255,293824,1,0,2:0:0:0:
361,350,293967,1,2,2:0:0:0:
315,144,294109,1,2,2:0:0:0:
407,275,294252,1,2,2:0:0:0:
420,181,294395,1,2,2:0:0:0:
499,348,294538,1,2,2:0:0:0:
508,124,294681,1,2,2:0:0:0:
345,228,294824,85,0,2:0:0:0:
345,228,294967,1,0,2:0:0:0:
145,314,295109,1,2,2:0:0:0:
340,332,295252,1,0,2:0:0:0:
205,242,295395,1,2,2:0:0:0:
277,276,295538,1,0,2:0:0:0:
127,201,295681,1,2,2:0:0:0:
290,160,295824,1,0,2:0:0:0:
41,164,295967,5,2,2:0:0:0:
230,215,296109,1,0,2:0:0:0:
110,113,296252,1,2,2:0:0:0:
222,92,296395,1,0,2:0:0:0:
52,47,296538,1,2,2:0:0:0:
316,63,296681,1,0,2:0:0:0:
175,155,296824,1,2,2:0:0:0:
436,105,296967,1,2,2:0:0:0:
413,347,297109,6,0,B|293:413|166:317|286:262|130:98|3:157|-41:259|-26:342|28:390|116:378|153:321|87:285,1,648,2|0,2:0|2:0,2:0:0:0:
345,251,298252,6,0,B|324:188|366:46|481:59|510:133|491:183|440:194,1,324,2|0,2:0|2:0,2:0:0:0:
233,124,298824,6,0,B|214:58|149:-12|97:-40|19:35|35:111|147:110,1,324,2|0,2:0|2:0,2:0:0:0:
190,284,299395,1,0,2:0:0:0:
190,284,299443,1,0,2:0:0:0:
467,182,300538,69,2,2:0:0:0:
319,273,300824,1,2,2:0:0:0:
250,230,300967,2,0,L|256:175,2,54,2|0|0,2:0|2:0|2:0,2:0:0:0:
187,279,301205,2,0,L|191:319,3,36,2|0|0|0,2:0|2:0|2:0|2:0,2:0:0:0:
127,224,301395,2,0,L|123:184,3,36,2|0|0|0,2:0|2:0|2:0|2:0,2:0:0:0:
191,132,301681,5,2,1:2:0:0:
256,192,301752,12,0,303681,2:0:0:0:
91,44,303967,6,0,B|107:118|107:118|100:148|100:148|115:227,1,180,14|0,1:0|2:0,2:0:0:0:
428,351,304252,1,8,1:0:0:0:
389,315,304324,1,0,2:0:0:0:
356,275,304395,2,0,L|369:169,1,90,2|0,2:1|2:0,2:0:0:0:
416,28,304538,2,0,L|426:117,1,90,8|0,1:0|2:0,2:0:0:0:
294,335,304681,1,0,2:0:0:0:
243,318,304752,1,0,2:0:0:0:
192,297,304824,2,0,B|159:309|159:309|100:290,1,90,10|0,1:0|2:0,2:0:0:0:
0,165,304967,1,0,2:0:0:0:
0,165,305038,1,0,2:0:0:0:
0,165,305109,6,0,P|77:112|178:151,1,180,10|0,1:0|2:0,2:0:0:0:
494,97,305395,1,8,1:0:0:0:
441,109,305467,1,0,2:0:0:0:
388,121,305538,2,0,L|294:144,1,90,2|0,2:1|2:0,2:0:0:0:
85,57,305681,2,0,B|95:117|95:117|124:137|124:137|139:227,1,180,8|0,1:0|2:0,2:0:0:0:
62,239,305895,1,0,2:0:0:0:
36,262,305967,2,0,L|17:355,1,90,10|0,1:0|2:0,2:0:0:0:
215,238,306109,1,2,1:0:0:0:
230,290,306181,1,2,1:0:0:0:
245,341,306252,6,0,B|290:347|290:347|345:306,1,90,14|0,1:0|2:0,2:0:0:0:
402,137,306395,1,0,2:0:0:0:
372,119,306467,2,0,B|344:154|344:154|352:223,1,90,2|8,2:1|1:0,2:0:0:0:
470,356,306609,1,0,2:0:0:0:
500,339,306681,2,0,B|482:297|482:297|419:269,1,90,2|0,2:1|2:0,2:0:0:0:
254,145,306824,86,0,P|208:151|144:169,1,90,10|0,1:0|2:0,2:0:0:0:
6,78,306967,1,0,2:0:0:0:
14,45,307038,2,0,P|58:51|124:69,1,90,2|8,2:1|1:0,2:0:0:0:
302,276,307252,1,10,1:0:0:0:
230,290,307324,1,8,1:0:0:0:
159,304,307395,6,0,L|63:324,1,90,14|0,1:0|2:0,2:0:0:0:
367,326,307538,1,0,2:0:0:0:
432,296,307609,2,0,B|455:258|455:258|439:200,1,90,2|8,2:1|1:0,2:0:0:0:
386,21,307752,1,0,2:0:0:0:
332,12,307824,1,10,1:0:0:0:
289,45,307895,1,2,2:1:0:0:
285,99,307967,6,2,P|303:141|304:191,3,90,2|2|10|2,2:0|2:1|1:0|2:1,2:1:0:0:
292,262,308252,1,10,1:0:0:0:
234,217,308324,1,2,2:1:0:0:
164,201,308395,1,10,1:0:0:0:
94,222,308467,1,2,2:1:0:0:
47,276,308538,86,0,B|31:311|31:311|38:365,1,90,14|0,1:0|2:0,2:0:0:0:
80,133,308681,1,0,2:0:0:0:
109,151,308752,2,0,B|125:116|125:116|118:62,1,90,2|8,2:1|1:0,2:0:0:0:
263,235,308895,1,0,2:0:0:0:
234,217,308967,2,0,B|218:252|218:252|225:306,1,90,2|0,2:1|2:0,2:0:0:0:
459,220,309109,6,0,P|413:224|345:239,1,90,10|0,1:0|2:0,2:0:0:0:
246,63,309252,1,0,2:0:0:0:
213,64,309324,2,0,P|239:101|286:153,1,90,2|8,2:1|1:0,2:0:0:0:
183,326,309467,1,0,2:0:0:0:
200,355,309538,2,0,P|219:313|240:246,1,90,10|0,1:0|2:0,2:0:0:0:
390,78,309681,6,0,B|364:100|364:100|343:166,1,90,14|0,1:0|2:0,2:0:0:0:
371,331,309824,1,0,2:0:0:0:
357,362,309895,2,0,B|331:340|331:340|310:274,1,90,2|8,2:1|1:0,2:0:0:0:
243,166,310038,1,0,2:0:0:0:
229,135,310109,2,0,B|203:157|203:157|182:223,1,90,10|0,1:0|2:0,2:0:0:0:
56,332,310252,86,0,P|83:295|101:249,1,90,2|0,2:1|2:0,2:0:0:0:
186,69,310395,1,8,1:0:0:0:
164,93,310467,2,0,P|137:56|119:10,1,90,2|0,2:1|2:0,2:0:0:0:
70,141,310609,1,0,2:0:0:0:
48,117,310681,2,0,P|21:154|3:200,1,90,10|0,1:0|2:0,2:0:0:0:
266,342,310824,5,10,1:2:0:0:
306,299,310895,1,2,2:0:0:0:
320,241,310967,1,10,1:2:0:0:
302,184,311038,1,2,2:0:0:0:
229,115,311109,5,10,1:2:0:0:
207,136,311181,1,2,2:0:0:0:
194,162,311252,1,2,2:0:0:0:
191,192,311324,1,2,2:0:0:0:
302,184,311395,85,10,1:2:0:0:
319,127,311467,1,2,2:0:0:0:
306,69,311538,1,10,1:2:0:0:
265,26,311609,1,2,2:0:0:0:
162,29,311681,5,2,2:0:0:0:
183,50,311752,1,2,2:0:0:0:
209,63,311824,1,10,1:2:0:0:
239,66,311895,1,2,2:0:0:0:
366,44,311967,6,0,P|323:33|278:34,1,90,10|0,1:0|2:0,2:0:0:0:
32,169,312109,2,0,P|69:158|123:159,1,90,8|2,1:0|2:1,2:0:0:0:
479,276,312252,86,0,P|434:277|390:265,1,90,8|0,1:0|2:0,2:0:0:0:
103,345,312395,2,0,P|140:356|194:355,1,90,10|0,1:0|2:0,2:0:0:0:
328,384,312538,5,10,1:0:0:0:
320,340,312609,1,8,1:0:0:0:
312,295,312681,1,8,1:0:0:0:
304,251,312752,1,10,1:0:0:0:
362,185,312824,5,8,1:0:0:0:
354,141,312895,1,8,1:0:0:0:
346,96,312967,1,10,1:0:0:0:
338,52,313038,1,8,1:0:0:0:
407,0,313109,85,2,2:1:0:0:
91,82,313252,2,0,B|138:80|138:80|200:105,1,90,8|0,1:0|2:0,2:0:0:0:
459,196,313395,2,0,B|415:232|415:232|270:209,1,180,8|2,1:0|2:1,2:0:0:0:
223,166,313609,1,0,2:0:0:0:
214,196,313681,1,8,1:0:0:0:
69,341,313824,1,0,2:0:0:0:
57,288,313895,1,0,2:0:0:0:
44,234,313967,2,0,B|31:170|31:170|41:137,1,90,10|0,1:0|2:0,2:0:0:0:
327,87,314109,1,0,2:0:0:0:
327,87,314181,1,0,2:0:0:0:
327,87,314252,6,0,B|303:165|303:165|311:186|311:186|282:288,1,180,10|0,1:0|2:0,2:0:0:0:
492,335,314538,1,8,1:0:0:0:
449,348,314609,1,0,2:0:0:0:
406,362,314681,2,0,P|388:326|374:272,1,90,2|0,2:1|2:0,2:0:0:0:
70,234,314824,2,0,P|128:184|243:207,1,180,8|0,1:0|2:0,2:0:0:0:
233,355,315038,1,0,2:0:0:0:
199,345,315109,2,0,B|181:337|181:337|160:256,1,90,10|0,1:0|2:0,2:0:0:0:
102,25,315252,1,10,1:0:0:0:
85,67,315324,1,0,2:0:0:0:
69,108,315395,6,0,P|81:151|89:203,1,90,10|0,1:0|2:0,2:0:0:0:
325,172,315538,1,0,2:0:0:0:
357,140,315609,2,0,P|312:129|264:109,1,90,2|8,2:1|1:0,2:0:0:0:
173,329,315752,1,0,2:0:0:0:
185,373,315824,2,0,P|216:340|257:308,1,90,2|0,2:1|2:0,2:0:0:0:
441,102,315967,86,0,L|459:217,1,90,10|0,1:0|2:0,2:0:0:0:
244,200,316109,1,0,2:0:0:0:
226,219,316181,1,2,2:1:0:0:
218,245,316252,1,8,1:0:0:0:
182,204,316324,1,8,1:0:0:0:
131,185,316395,1,10,1:0:0:0:
78,199,316467,1,8,1:0:0:0:
42,239,316538,6,0,B|67:368|67:368|91:297,1,180,10|0,1:0|2:0,2:0:0:0:
204,132,316752,2,0,B|179:3|179:3|155:74,1,180,10|0,1:0|2:0,2:0:0:0:
139,209,316967,1,10,1:0:0:0:
322,226,317109,5,10,1:0:0:0:
374,240,317181,1,0,1:0:0:0:
425,254,317252,2,0,L|454:260,3,30,0|0|0|0,1:0|1:0|1:0|1:0,1:0:0:0:
351,318,317395,1,8,1:0:0:0:
169,90,317538,2,0,L|139:96,3,30,0|0|0|0,1:0|1:0|1:0|1:0,1:0:0:0:
243,154,317681,86,0,L|345:129,1,90,14|0,1:0|2:0,2:0:0:0:
82,34,317824,1,0,2:0:0:0:
48,18,317895,2,0,B|32:45|32:45|50:140,1,90,2|8,2:1|1:0,2:0:0:0:
185,324,318038,1,0,2:0:0:0:
219,340,318109,2,0,B|235:313|235:313|217:218,1,90,2|0,2:1|2:0,2:0:0:0:
472,108,318252,6,0,B|452:81|452:81|372:58,1,90,10|0,1:0|2:0,2:0:0:0:
99,166,318395,1,0,2:0:0:0:
149,245,318467,2,0,P|164:211|180:155,1,90,2|8,2:1|1:0,2:0:0:0:
334,22,318609,1,0,2:0:0:0:
254,16,318681,2,0,P|266:59|283:100,1,90,2|0,2:1|2:0,2:0:0:0:
360,333,318824,6,0,B|337:310|337:310|319:228,1,90,10|0,1:0|2:0,2:0:0:0:
216,98,318967,1,0,2:0:0:0:
143,81,319038,2,0,B|166:104|166:104|184:186,1,90,2|8,2:1|1:0,2:0:0:0:
40,351,319181,1,0,2:0:0:0:
113,368,319252,2,0,B|90:345|90:345|72:263,1,90,2|0,2:1|2:0,2:0:0:0:
79,13,319395,86,0,P|63:48|51:109,1,90,10|0,1:0|2:0,2:0:0:0:
201,259,319538,1,0,2:0:0:0:
257,317,319609,2,0,P|247:273|229:231,1,90,2|8,2:1|1:0,2:0:0:0:
390,111,319752,1,0,2:0:0:0:
451,60,319824,2,0,P|441:103|423:145,1,90,10|0,1:0|2:0,2:0:0:0:
486,241,319967,5,10,1:0:0:0:
472,230,320038,1,2,2:0:0:0:
448,225,320109,1,2,2:0:0:0:
418,224,320181,1,2,2:0:0:0:
383,237,320252,1,2,2:0:0:0:
409,197,320324,1,2,2:0:0:0:
423,145,320395,1,10,1:2:0:0:
408,88,320467,1,2,2:0:0:0:
361,40,320538,5,2,2:0:0:0:
291,18,320609,1,2,2:0:0:0:
212,19,320681,1,2,2:0:0:0:
143,62,320752,1,2,2:0:0:0:
136,153,320824,1,10,1:2:0:0:
201,206,320895,1,2,2:0:0:0:
279,202,320967,1,10,1:2:0:0:
313,138,321038,1,2,2:0:0:0:
292,113,321109,85,10,1:2:0:0:
279,134,321181,1,2,2:0:0:0:
271,165,321252,1,2,2:0:0:0:
282,196,321324,1,10,1:2:0:0:
304,226,321395,1,2,2:0:0:0:
307,276,321467,1,2,2:0:0:0:
295,324,321538,1,10,1:2:0:0:
250,296,321609,5,2,2:0:0:0:
206,287,321681,1,2,2:0:0:0:
149,288,321752,1,2,2:0:0:0:
94,311,321824,1,10,1:0:0:0:
38,269,321895,1,2,2:0:0:0:
7,200,321967,1,10,1:0:0:0:
18,115,322038,1,2,2:0:0:0:
73,42,322109,1,10,1:0:0:0:
169,56,322181,1,2,2:0:0:0:
146,189,322252,6,0,B|127:182|127:182|100:105,1,90,2|0,2:1|2:0,2:0:0:0:
486,123,322395,2,0,L|378:148,1,90,12|0,1:0|2:0,2:0:0:0:
216,134,322538,2,0,B|269:151|269:151|306:146|306:146|396:173,1,180,12|2,1:0|2:1,2:0:0:0:
425,239,322752,1,0,2:0:0:0:
401,311,322824,1,8,1:0:0:0:
79,351,322967,1,0,2:0:0:0:
106,304,323038,1,0,2:0:0:0:
151,275,323109,2,0,B|171:269|171:269|242:293,1,90,10|0,1:0|2:0,2:0:0:0:
364,78,323252,1,0,2:0:0:0:
364,78,323324,1,0,2:0:0:0:
364,78,323395,86,0,B|310:96|310:96|269:153|312:231,1,180,10|0,1:0|2:0,2:0:0:0:
34,248,323681,1,8,1:0:0:0:
69,208,323752,1,0,2:0:0:0:
102,164,323824,2,0,P|104:128|90:62,1,90,2|0,2:1|2:0,2:0:0:0:
114,283,323967,2,0,P|143:332|285:330,1,180,8|0,1:0|2:0,2:0:0:0:
329,300,324181,1,0,2:0:0:0:
368,294,324252,1,10,1:0:0:0:
496,79,324395,1,8,1:0:0:0:
443,94,324467,1,8,1:0:0:0:
391,110,324538,6,0,L|294:136,1,90,14|0,1:0|2:0,2:0:0:0:
74,110,324681,1,0,2:0:0:0:
66,77,324752,2,0,P|102:72|152:109,1,90,2|8,2:1|1:0,2:0:0:0:
242,312,324895,1,0,2:0:0:0:
217,335,324967,2,0,P|194:306|201:244,1,90,2|0,2:1|2:0,2:0:0:0:
250,21,325109,6,0,B|231:61|231:61|240:112,1,90,10|0,1:0|2:0,2:0:0:0:
93,331,325252,2,0,B|112:291|112:291|103:240,1,90,8|2,1:0|2:1,2:0:0:0:
285,23,325395,86,0,B|258:58|258:58|256:110,1,90,8|0,1:0|2:0,2:0:0:0:
67,294,325538,2,0,B|94:258|94:258|96:207,1,90,10|0,1:0|2:0,2:0:0:0:
453,264,325681,6,0,B|405:274|405:274|384:250|384:250|326:245|326:245|273:204,1,198,10|0,1:0|2:0,2:0:0:0:
33,113,325895,2,0,B|-8:108|-8:108|62:89|62:89|88:97|88:97|159:80,1,198,10|0,1:0|2:0,2:0:0:0:
476,20,326109,2,0,B|450:37|450:37|415:107,1,98.9999999999999,10|0,1:0|2:0,2:0:0:0:
188,226,326252,5,10,1:0:0:0:
180,275,326324,1,0,1:0:0:0:
173,323,326395,2,0,L|183:366,3,33,0|0|0|0,1:0|1:0|1:0|1:0,1:0:0:0:
90,301,326538,2,0,B|75:271|75:271|88:200,1,98.9999999999999,2|0,1:0|1:0,2:0:0:0:
292,117,326681,2,0,L|302:74,3,33,0|0|0|0,1:0|1:0|1:0|1:0,1:0:0:0:
369,150,326824,86,0,L|442:67,1,90,14|0,1:0|2:0,2:0:0:0:
276,282,326967,2,0,L|313:386,1,90,8|2,1:0|2:1,2:0:0:0:
210,135,327109,2,0,L|101:114,1,90,8|0,1:0|2:0,2:0:0:0:
377,309,327252,1,0,2:0:0:0:
424,292,327324,1,0,2:0:0:0:
470,276,327395,6,0,P|477:243|482:171,1,90,10|0,1:0|2:0,2:0:0:0:
350,12,327538,1,0,2:0:0:0:
304,28,327609,2,0,P|297:61|292:133,1,90,2|8,2:1|1:0,2:0:0:0:
222,328,327752,1,0,2:0:0:0:
176,312,327824,2,0,P|169:279|164:207,1,90,10|0,1:0|2:0,2:0:0:0:
21,61,327967,6,0,B|66:56|66:56|116:74,1,90,10|0,1:0|2:0,2:0:0:0:
265,158,328109,1,0,2:0:0:0:
303,175,328181,2,0,B|284:216|284:216|244:250,1,90,2|8,2:1|1:0,2:0:0:0:
96,337,328324,1,0,2:0:0:0:
63,362,328395,2,0,B|36:325|36:325|26:273,1,90,2|0,2:1|2:0,2:0:0:0:
192,100,328538,86,0,B|174:119|174:119|159:194,1,90,10|0,1:0|2:0,2:0:0:0:
318,349,328681,1,0,2:0:0:0:
359,360,328752,2,0,B|341:341|341:341|326:266,1,90,2|8,2:1|1:0,2:0:0:0:
392,43,328895,1,0,2:0:0:0:
433,32,328967,2,0,B|415:51|415:51|400:126,1,90,2|0,2:1|2:0,2:0:0:0:
476,208,329109,6,2,B|434:220|434:220|376:200,1,90,10|2,1:2|2:0,2:0:0:0:
178,119,329252,1,2,1:2:0:0:
229,102,329324,1,2,1:2:0:0:
280,86,329395,2,2,B|302:106|302:106|311:194,1,90,10|2,1:2|2:0,2:0:0:0:
183,344,329538,1,2,1:2:0:0:
132,361,329609,1,2,1:2:0:0:
81,377,329681,2,2,B|59:357|59:357|50:269,1,90,10|2,1:2|2:0,2:0:0:0:
43,135,329824,5,10,1:2:0:0:
105,134,329895,1,2,1:2:0:0:
156,171,329967,1,2,1:2:0:0:
168,232,330038,1,2,1:2:0:0:
210,277,330109,1,10,1:2:0:0:
272,285,330181,1,2,1:2:0:0:
320,245,330252,86,0,P|362:230|412:227,1,90,14|0,1:0|2:0,2:0:0:0:
326,41,330395,1,0,2:0:0:0:
326,41,330467,2,0,L|334:130,1,90,2|8,2:1|1:0,2:0:0:0:
381,318,330609,1,0,2:0:0:0:
326,350,330681,1,10,1:0:0:0:
264,341,330752,1,8,1:0:0:0:
235,284,330824,6,0,B|217:260|217:260|211:170,1,90,10|0,1:0|2:0,2:0:0:0:
28,112,330967,1,0,2:0:0:0:
83,56,331038,2,0,B|119:101|103:155|93:141|66:187|117:240,1,180,10|0,1:0|2:0,2:0:0:0:
143,307,331252,2,0,L|135:336,3,30,0|0|0|0,1:0|1:0|1:0|1:0,1:0:0:0:
235,284,331395,6,0,B|310:273|310:273|335:279|335:279|422:262,1,180,14|0,1:0|2:0,2:0:0:0:
268,22,331681,1,8,1:0:0:0:
316,61,331752,1,0,2:0:0:0:
366,99,331824,2,0,L|343:205,1,90,2|0,2:1|2:0,2:0:0:0:
196,370,331967,2,0,B|156:339|156:339|133:201,1,180,8|0,1:0|2:0,2:0:0:0:
35,127,332181,1,0,2:0:0:0:
35,127,332252,2,0,B|67:98|67:98|122:97,1,90,10|0,1:0|2:0,2:0:0:0:
328,254,332395,2,0,B|281:253|281:253|249:224,1,90,8|0,1:0|2:0,2:0:0:0:
152,0,332538,86,0,P|208:66|199:153,1,180,10|0,1:0|2:0,2:0:0:0:
483,366,332824,1,8,1:0:0:0:
445,341,332895,1,0,2:0:0:0:
418,303,332967,2,0,P|408:265|401:209,1,90,2|0,2:1|2:0,2:0:0:0:
299,25,333109,2,0,P|309:63|316:119,1,90,8|0,1:0|2:0,2:0:0:0:
325,296,333252,1,0,2:0:0:0:
274,349,333324,1,0,2:0:0:0:
205,332,333395,2,0,L|109:318,1,90,10|0,1:0|2:0,2:0:0:0:
119,168,333538,2,0,L|23:182,1,90,8|0,1:0|2:0,2:0:0:0:
134,17,333681,6,0,L|230:31,1,90,14|0,1:0|2:0,2:0:0:0:
479,127,333824,1,0,2:0:0:0:
428,185,333895,2,0,B|401:147|401:147|403:93,1,90,2|8,2:1|1:0,2:0:0:0:
208,159,334038,1,0,2:0:0:0:
259,101,334109,2,0,B|286:139|286:139|284:193,1,90,2|0,2:1|2:0,2:0:0:0:
467,314,334252,6,0,L|374:296,1,90,10|0,1:0|2:0,2:0:0:0:
168,344,334395,1,0,1:0:0:0:
121,275,334467,2,0,B|182:261|182:261|225:282|225:282|311:263,1,180,10|0,1:0|2:0,2:0:0:0:
417,114,334681,2,0,L|422:77,3,30,2|0|0|0,1:0|1:0|1:0|1:0,1:0:0:0:
431,213,334824,86,0,P|404:163|393:120,1,90,14|0,1:0|2:0,2:0:0:0:
44,45,334967,2,0,P|71:95|82:138,1,90,8|2,1:0|2:1,2:0:0:0:
325,343,335109,2,0,P|338:300|361:261,1,90,8|0,1:0|2:0,2:0:0:0:
163,30,335252,1,2,2:1:0:0:
152,101,335324,1,0,2:0:0:0:
141,171,335395,6,0,P|127:213|104:252,1,90,10|0,1:0|2:0,2:0:0:0:
446,250,335538,1,0,2:0:0:0:
509,193,335609,2,0,B|466:173|466:173|414:176,1,90,2|8,2:1|1:0,2:0:0:0:
38,294,335752,1,0,2:0:0:0:
111,332,335824,2,0,L|149:321,3,30,10|0|0|0,1:0|1:0|1:0|1:0,1:0:0:0:
187,256,335967,6,2,B|275:207|393:269|300:318|416:377|509:335,1,360,14|10,1:0|1:0,2:1:0:0:
364,48,336395,1,2,1:0:0:0:
347,122,336467,1,2,1:0:0:0:
421,103,336538,86,2,B|308:83|308:83|278:94|278:94|193:79|193:79|239:51,1,270,10|0,1:0|2:0,2:1:0:0:
253,45,336824,2,0,L|235:140,1,90,8|0,1:0|2:0,2:0:0:0:
21,214,336967,2,0,L|39:309,1,90,8|0,1:0|2:0,2:0:0:0:
270,374,337109,6,0,B|236:357|221:328|221:328|250:312|267:285|267:285|260:250|217:222,1,207,14|0,1:0|2:0,2:0:0:0:
80,23,337324,2,0,B|34:10|34:10|33:66|33:66|79:103|96:179,1,207,10|0,1:0|2:0,2:0:0:0:
472,211,337538,2,0,B|447:188|447:188|370:180,1,103.5,10|0,1:0|2:0,2:0:0:0:
53,316,337681,6,0,B|45:362|45:362|100:301|100:301|100:272|100:272|154:201,1,207,14|0,1:0|2:0,2:0:0:0:
455,23,337895,2,0,B|415:48|415:48|377:24|377:24|326:50|317:134,1,207,10|0,1:0|2:0,2:0:0:0:
297,371,338109,2,0,P|296:334|280:260,1,103.5,10|0,1:0|2:0,2:0:0:0:
80,23,338252,86,0,L|53:135,1,103.5,10|0,1:0|2:0,2:0:0:0:
94,362,338395,1,8,1:0:0:0:
111,291,338467,1,8,1:0:0:0:
127,220,338538,2,0,L|154:108,1,103.5,8|0,1:0|2:0,2:0:0:0:
455,23,338681,2,0,L|428:135,1,103.5,8|0,1:0|2:0,2:0:0:0:
287,365,338824,5,8,1:0:0:0:
304,294,338895,1,8,1:0:0:0:
320,223,338967,2,0,L|347:111,1,103.5,8|0,1:0|2:0,2:0:0:0:
268,28,339109,1,8,1:0:0:0:
251,99,339181,1,8,1:0:0:0:
234,170,339252,1,8,1:0:0:0:
217,241,339324,1,8,1:0:0:0:
200,312,339395,6,0,P|149:315|82:348,5,103.5,10|0|0|0|0|0,1:0|2:0|2:0|2:0|2:0|2:0,2:0:0:0:
9,169,339824,85,10,1:0:0:0:
39,171,339895,1,0,2:0:0:0:
68,181,339967,1,0,2:0:0:0:
94,197,340038,1,0,2:0:0:0:
113,221,340109,1,0,2:0:0:0:
126,249,340181,1,0,2:0:0:0:
200,312,340252,5,10,1:0:0:0:
268,286,340324,1,8,1:0:0:0:
306,224,340395,1,8,1:0:0:0:
307,150,340467,1,8,1:0:0:0:
270,87,340538,22,0,P|226:105|178:115,1,90,14|0,1:0|2:0,2:0:0:0:
19,53,340824,2,0,P|63:71|111:81,1,90,8|0,1:0|2:0,2:0:0:0:
246,127,341109,2,0,P|205:147|144:163,1,81.0000000000001,8|0,1:0|2:0,2:0:0:0:
9,154,341395,2,0,P|45:172|83:184,1,81.0000000000001,8|0,1:0|2:0,2:0:0:0:
240,172,341681,6,0,P|205:190|163:202,1,72,8|0,1:0|2:0,2:0:0:0:
14,237,341967,2,0,P|49:255|91:267,1,72,8|0,1:0|2:0,2:0:0:0:
234,254,342252,2,0,P|202:270|174:279,1,62.9999999999999,8|0,1:0|2:0,2:0:0:0:
26,323,342538,2,0,P|58:339|86:348,1,62.9999999999999,8|0,1:0|2:0,2:0:0:0:
283,328,342824,102,0,P|315:312|343:303,1,62.9999999999999,0|0,1:0|2:0,2:0:0:0:
421,340,343109,5,0,2:0:0:0:
466,267,343395,1,2,2:0:0:0:
408,205,343681,1,2,2:0:0:0:
185,41,343967,101,2,2:0:0:0:
197,131,344261,1,2,2:0:0:0:
249,372,344555,5,2,2:0:0:0:
261,282,344849,1,2,2:0:0:0:
345,273,345143,85,0,2:0:0:0:
439,184,345446,5,2,2:0:0:0:
411,169,345749,1,2,2:0:0:0:
381,160,346052,1,2,2:0:0:0:
345,273,346355,101,0,2:0:0:0:
349,157,346658,21,2,2:0:0:0:
318,159,346961,1,2,2:0:0:0:
288,167,347264,1,2,2:0:0:0:
345,273,347567,85,0,2:0:0:0:
260,182,347882,5,2,2:0:0:0:
235,201,348198,1,2,2:0:0:0:
208,217,348514,1,2,2:0:0:0:
178,228,348830,1,2,2:0:0:0:
147,232,349166,1,2,2:0:0:0:
116,229,349541,1,2,2:0:0:0:
86,219,349941,1,2,2:0:0:0:
59,203,350691,101,0,2:0:0:0:
