osu file format v14

[General]
AudioFilename: audio.mp3
AudioLeadIn: 0
PreviewTime: 283389
Countdown: 0
SampleSet: Soft
StackLeniency: 0.7
Mode: 3
LetterboxInBreaks: 0
SpecialStyle: 0
WidescreenStoryboard: 1

[Editor]
Bookmarks: 37465
DistanceSpacing: 0.8
BeatDivisor: 4
GridSize: 32
TimelineZoom: 2.6

[Metadata]
Title:Grievous Lady -nothing is but what is not-
TitleUnicode:Grievous Lady -nothing is but what is not-
Artist:Team Grimoire vs. Laur
ArtistUnicode:Team Grimoire vs. Laur
Creator:Remilistrasza
Version:Disillusionment
Source:Arcaea
Tags:Sound Collection Video Game Soundtrack Memories of Conflict Tairitsu lowiro Vicious Labyrinth Instrumental Irocd-002 Electronic Hardcore
BeatmapID:2598596
BeatmapSetID:1242120

[Difficulty]
HPDrainRate:9
CircleSize:4
OverallDifficulty:8.3
ApproachRate:5
SliderMultiplier:1.4
SliderTickRate:1

[Events]
//Background and Video events
0,0,"82586629_p0.jpg",0,0
//Break Periods
//Storyboard Layer 0 (Background)
//Storyboard Layer 1 (Fail)
//Storyboard Layer 2 (Pass)
//Storyboard Layer 3 (Foreground)
//Storyboard Layer 4 (Overlay)
//Storyboard Sound Samples

[TimingPoints]
10867,363.636363636364,3,2,1,50,1,0
10867,-78.5714285714285,3,2,1,50,0,0
27594,402.684563758389,3,2,1,50,1,8
27594,-70.952380952381,3,2,1,50,0,8
27996,487.80487804878,3,2,1,50,1,8
27996,-58.5714285714286,3,2,1,50,0,8
28239,499.168053244592,3,2,1,50,1,8
28239,-57.2380952380953,3,2,1,50,0,8
28738,363.636363636364,3,2,1,50,1,0
28738,-78.5714285714285,3,2,1,50,0,0
41828,400,3,2,1,50,1,0
41828,-79.3650793650794,3,2,1,50,0,0
43028,428.571428571429,3,2,1,50,1,0
43028,-83.3333333333333,3,2,1,50,0,0
44313,461.538461538462,3,2,1,50,1,0
44313,-88.4955752212389,3,2,1,50,0,0
45236,500,3,2,1,50,1,8
45236,-81.3008130081301,3,2,1,50,0,8
45486,545.454545454546,3,2,1,50,1,8
45486,-74.6268656716418,3,2,1,50,0,8
45758,631.578947368421,3,2,1,50,1,0
45758,-75.187969924812,3,2,1,50,0,0
46468,-72.463768115942,3,2,1,50,0,0
46547,-69.4444444444444,3,2,1,50,0,0
46626,-67.1140939597315,3,2,1,50,0,0
46705,-64.5161290322581,3,2,1,50,0,0
46784,-62.5,3,2,1,50,0,0
46863,-60.2409638554217,3,2,1,50,0,0
46942,-58.4795321637427,3,2,1,50,0,0
47021,857.142857142857,3,2,1,50,1,8
47021,-41.6666666666667,3,2,1,50,0,8
47129,-40.3225806451613,3,2,1,50,0,8
47236,-39.2156862745098,3,2,1,50,0,8
47343,-38.1679389312977,3,2,1,50,0,8
47449,967.741935483871,3,2,1,50,1,8
47449,-33.2225913621262,3,2,1,50,0,8
47569,-31.8471337579618,3,2,1,50,0,8
47690,1081.08108108108,3,2,1,50,1,8
47690,-27.8551532033426,3,2,1,50,0,8
47825,-27.10027100271,3,2,1,50,0,8
47961,285.714285714286,4,2,1,50,1,0
47961,-33.3333333333333,4,2,1,50,0,0
47984,-200,4,2,1,50,0,0
48080,-100,4,2,1,50,0,0
50246,-50,4,2,1,50,0,0
50270,-200,4,2,1,50,0,0
50318,-100,4,2,1,50,0,0
52532,-33.3333333333333,4,2,1,50,0,0
52556,-200,4,2,1,50,0,0
52651,-100,4,2,1,50,0,0
54818,-50,4,2,1,50,0,0
54841,-200,4,2,1,50,0,0
54889,-100,4,2,1,50,0,0
84532,-10,4,2,1,50,0,0
84550,-500,4,2,1,50,0,0
85050,-25,4,2,1,50,0,0
85068,-1000,4,2,1,50,0,0
85193,-16.6666666666667,4,2,1,50,0,0
85211,-500,4,2,1,50,0,0
85746,-10,4,2,1,50,0,0
85764,-500,4,2,1,50,0,0
85978,-12.5,4,2,1,50,0,0
85981,-1000,4,2,1,50,0,0
86175,-10,4,2,1,50,0,0
86177,-500,4,2,1,50,0,0
86370,-10,4,2,1,50,0,0
86371,-500,4,2,1,50,0,0
86379,-462.963,4,2,1,50,0,0
86388,-431.034,4,2,1,50,0,0
86397,-403.226,4,2,1,50,0,0
86406,-378.788,4,2,1,50,0,0
86415,-357.143,4,2,1,50,0,0
86424,-337.838,4,2,1,50,0,0
86433,-320.513,4,2,1,50,0,0
86442,-304.878,4,2,1,50,0,0
86451,-290.698,4,2,1,50,0,0
86460,-277.778,4,2,1,50,0,0
86469,-265.957,4,2,1,50,0,0
86478,-255.102,4,2,1,50,0,0
86487,-245.098,4,2,1,50,0,0
86496,-235.849,4,2,1,50,0,0
86505,-227.273,4,2,1,50,0,0
86514,-219.298,4,2,1,50,0,0
86523,-211.864,4,2,1,50,0,0
86531,-204.918,4,2,1,50,0,0
86540,-198.413,4,2,1,50,0,0
86549,-192.308,4,2,1,50,0,0
86558,-186.567,4,2,1,50,0,0
86567,-181.159,4,2,1,50,0,0
86576,-176.056,4,2,1,50,0,0
86585,-171.233,4,2,1,50,0,0
86594,-166.667,4,2,1,50,0,0
86603,-162.338,4,2,1,50,0,0
86612,-158.228,4,2,1,50,0,0
86621,-154.321,4,2,1,50,0,0
86630,-150.602,4,2,1,50,0,0
86639,-147.059,4,2,1,50,0,0
86648,-143.678,4,2,1,50,0,0
86657,-140.449,4,2,1,50,0,0
86666,-137.363,4,2,1,50,0,0
86675,-134.409,4,2,1,50,0,0
86683,-131.579,4,2,1,50,0,0
86692,-128.866,4,2,1,50,0,0
86701,-126.263,4,2,1,50,0,0
86710,-123.762,4,2,1,50,0,0
86719,-121.359,4,2,1,50,0,0
86728,-119.048,4,2,1,50,0,0
86737,-116.822,4,2,1,50,0,0
86746,-114.679,4,2,1,50,0,0
86755,-112.613,4,2,1,50,0,0
86764,-110.619,4,2,1,50,0,0
86773,-108.696,4,2,1,50,0,0
86782,-106.838,4,2,1,50,0,0
86791,-105.042,4,2,1,50,0,0
86800,-103.306,4,2,1,50,0,0
86809,-101.626,4,2,1,50,0,0
86818,-55.5555555555556,4,2,1,50,0,0
86865,-166.666666666667,4,2,1,50,0,0
86961,-100,4,2,1,50,0,0
88389,-142.857142857143,4,2,1,50,0,0
88460,-76.9230769230769,4,2,1,50,0,0
88532,-55.5555555555556,4,2,1,50,0,0
88579,-166.666666666667,4,2,1,50,0,0
88675,-100,4,2,1,50,0,0
88961,-142.857142857143,4,2,1,50,0,0
89032,-76.9230769230769,4,2,1,50,0,0
89103,-55.5555555555556,4,2,1,50,0,0
89150,-166.666666666667,4,2,1,50,0,0
89246,-100,4,2,1,50,0,0
90675,-142.857142857143,4,2,1,50,0,0
90746,-76.9230769230769,4,2,1,50,0,0
90818,-55.5555555555556,4,2,1,50,0,0
90865,-166.666666666667,4,2,1,50,0,0
90961,-55.5555555555556,4,2,1,50,0,0
91008,-166.666666666667,4,2,1,50,0,0
91103,-55.5555555555556,4,2,1,50,0,0
91150,-166.666666666667,4,2,1,50,0,0
91246,-142.857142857143,4,2,1,50,0,0
91317,-76.9230769230769,4,2,1,50,0,0
91389,-55.5555555555556,4,2,1,50,0,0
91436,-166.666666666667,4,2,1,50,0,0
91532,-100,4,2,1,50,0,0
92961,-142.857142857143,4,2,1,50,0,0
93032,-76.9230769230769,4,2,1,50,0,0
93103,-55.5555555555556,4,2,1,50,0,0
93150,-166.666666666667,4,2,1,50,0,0
93246,-100,4,2,1,50,0,0
93389,-55.5555555555556,4,2,1,50,0,0
93436,-166.666666666667,4,2,1,50,0,0
93532,-142.857142857143,4,2,1,50,0,0
93603,-76.9230769230769,4,2,1,50,0,0
93675,-55.5555555555556,4,2,1,50,0,0
93722,-166.666666666667,4,2,1,50,0,0
93818,-100,4,2,1,50,0,0
95389,-55.5555555555556,4,2,1,50,0,0
95436,-166.666666666667,4,2,1,50,0,0
95532,-55.5555555555556,4,2,1,50,0,0
95579,-166.666666666667,4,2,1,50,0,0
95675,-55.5555555555556,4,2,1,50,0,0
95722,-166.666666666667,4,2,1,50,0,0
95818,-142.857142857143,4,2,1,50,0,0
95889,-76.9230769230769,4,2,1,50,0,0
95961,-33.3333333333333,4,2,1,50,0,0
96032,-200,4,2,1,50,0,0
96317,-100,4,2,1,50,0,0
96389,-40,4,2,1,50,0,0
96460,-200,4,2,1,50,0,0
96746,-66.6666666666667,4,2,1,50,0,0
96818,-50,4,2,1,50,0,0
96889,-200,4,2,1,50,0,0
97174,-50,4,2,1,50,0,0
97246,-40,4,2,1,50,0,0
97317,-200,4,2,1,50,0,0
97603,-66.6666666666667,4,2,1,50,0,0
97675,-50,4,2,1,50,0,0
97698,-200,4,2,1,50,0,0
97794,-50,4,2,1,50,0,0
97841,-200,4,2,1,50,0,0
97937,-50,4,2,1,50,0,0
97961,-66.6666666666667,4,2,1,50,0,0
98008,-200,4,2,1,50,0,0
98198,-40,4,2,1,50,0,0
98246,-33.3333333333333,4,2,1,50,0,0
98317,-200,4,2,1,50,0,0
98603,-100,4,2,1,50,0,0
98675,-40,4,2,1,50,0,0
98746,-200,4,2,1,50,0,0
99031,-66.6666666666667,4,2,1,50,0,0
99103,-50,4,2,1,50,0,0
99174,-200,4,2,1,50,0,0
99460,-50,4,2,1,50,0,0
99532,-40,4,2,1,50,0,0
99603,-200,4,2,1,50,0,0
99889,-66.6666666666667,4,2,1,50,0,0
99961,-50,4,2,1,50,0,0
100008,-200,4,2,1,50,0,0
100198,-50,4,2,1,50,0,0
100246,-28.5714285714286,4,2,1,50,0,0
100293,-200,4,2,1,50,0,0
100532,-33.3333333333333,4,2,1,50,0,0
100603,-200,4,2,1,50,0,0
100889,-100,4,2,1,50,0,0
100961,-40,4,2,1,50,0,0
101032,-200,4,2,1,50,0,0
101317,-66.6666666666667,4,2,1,50,0,0
101389,-50,4,2,1,50,0,0
101460,-200,4,2,1,50,0,0
101746,-50,4,2,1,50,0,0
101818,-40,4,2,1,50,0,0
101889,-200,4,2,1,50,0,0
102174,-66.6666666666667,4,2,1,50,0,0
102246,-50,4,2,1,50,0,0
102269,-200,4,2,1,50,0,0
102365,-50,4,2,1,50,0,0
102412,-200,4,2,1,50,0,0
102508,-50,4,2,1,50,0,0
102532,-66.6666666666667,4,2,1,50,0,0
102579,-200,4,2,1,50,0,0
102770,-40,4,2,1,50,0,0
102818,-100,4,2,1,50,0,0
102889,-200,4,2,1,50,0,0
103174,-33.3333333333333,4,2,1,50,0,0
103246,-66.6666666666667,4,2,1,50,0,0
103317,-200,4,2,1,50,0,0
103603,-40,4,2,1,50,0,0
103675,-100,4,2,1,50,0,0
103722,-200,4,2,1,50,0,0
103913,-33.3333333333333,4,2,1,50,0,0
103961,-333.333,4,2,1,50,0,0
103970,-321.608,4,2,1,50,0,0
103979,-310.68,4,2,1,50,0,0
103988,-300.469,4,2,1,50,0,0
103997,-290.909,4,2,1,50,0,0
104006,-281.938,4,2,1,50,0,0
104015,-273.504,4,2,1,50,0,0
104023,-265.56,4,2,1,50,0,0
104032,-258.065,4,2,1,50,0,0
104041,-250.98,4,2,1,50,0,0
104050,-244.275,4,2,1,50,0,0
104059,-237.918,4,2,1,50,0,0
104068,-231.884,4,2,1,50,0,0
104077,-226.148,4,2,1,50,0,0
104086,-220.69,4,2,1,50,0,0
104095,-215.488,4,2,1,50,0,0
104104,-210.526,4,2,1,50,0,0
104113,-205.788,4,2,1,50,0,0
104122,-201.258,4,2,1,50,0,0
104131,-196.923,4,2,1,50,0,0
104139,-192.771,4,2,1,50,0,0
104148,-188.791,4,2,1,50,0,0
104157,-184.971,4,2,1,50,0,0
104166,-181.303,4,2,1,50,0,0
104175,-177.778,4,2,1,50,0,0
104184,-174.387,4,2,1,50,0,0
104193,-171.123,4,2,1,50,0,0
104202,-167.979,4,2,1,50,0,0
104211,-164.948,4,2,1,50,0,0
104220,-162.025,4,2,1,50,0,0
104229,-159.204,4,2,1,50,0,0
104238,-156.479,4,2,1,50,0,0
104247,-153.846,4,2,1,50,0,0
104255,-151.3,4,2,1,50,0,0
104264,-148.837,4,2,1,50,0,0
104273,-146.453,4,2,1,50,0,0
104282,-144.144,4,2,1,50,0,0
104291,-141.907,4,2,1,50,0,0
104300,-139.738,4,2,1,50,0,0
104309,-137.634,4,2,1,50,0,0
104318,-135.593,4,2,1,50,0,0
104327,-133.612,4,2,1,50,0,0
104336,-131.687,4,2,1,50,0,0
104345,-129.817,4,2,1,50,0,0
104354,-128,4,2,1,50,0,0
104362,-126.233,4,2,1,50,0,0
104371,-124.514,4,2,1,50,0,0
104380,-122.841,4,2,1,50,0,0
104389,-121.212,4,2,1,50,0,0
104398,-119.626,4,2,1,50,0,0
104407,-118.081,4,2,1,50,0,0
104416,-116.576,4,2,1,50,0,0
104425,-115.108,4,2,1,50,0,0
104434,-113.677,4,2,1,50,0,0
104443,-112.281,4,2,1,50,0,0
104452,-110.919,4,2,1,50,0,0
104461,-109.589,4,2,1,50,0,0
104470,-108.291,4,2,1,50,0,0
104478,-107.023,4,2,1,50,0,0
104487,-105.785,4,2,1,50,0,0
104496,-104.575,4,2,1,50,0,0
104505,-103.393,4,2,1,50,0,0
104514,-102.236,4,2,1,50,0,0
104523,-101.106,4,2,1,50,0,0
104532,-100,4,2,1,50,0,0
105103,-100,4,2,1,50,0,1
141675,-100,4,2,1,50,0,0
212389,-200,4,2,1,50,0,0
212461,-66.6666666666667,4,2,1,50,0,0
212532,-10,1,2,1,50,0,0
212534,-10000,1,2,1,50,0,0
212552,-10,1,2,1,50,0,0
212554,-10000,1,2,1,50,0,0
212572,-10,1,2,1,50,0,0
212574,-10000,1,2,1,50,0,0
212593,-10,1,2,1,50,0,0
212595,-10000,1,2,1,50,0,0
212613,-10,1,2,1,50,0,0
212615,-10000,1,2,1,50,0,0
212634,-10,1,2,1,50,0,0
212636,-10000,1,2,1,50,0,0
212654,-10,1,2,1,50,0,0
212656,-10000,1,2,1,50,0,0
212675,-10,1,2,1,50,0,0
212677,-10000,1,2,1,50,0,0
212695,-10,1,2,1,50,0,0
212697,-10000,1,2,1,50,0,0
212715,-10,1,2,1,50,0,0
212717,-10000,1,2,1,50,0,0
212736,-10,1,2,1,50,0,0
212738,-10000,1,2,1,50,0,0
212756,-10,1,2,1,50,0,0
212758,-10000,1,2,1,50,0,0
212777,-10,1,2,1,50,0,0
212779,-10000,1,2,1,50,0,0
212797,-10,1,2,1,50,0,0
212799,-10000,1,2,1,50,0,0
212818,-10,1,2,1,50,0,0
212820,-10000,1,2,1,50,0,0
212838,-10,1,2,1,50,0,0
212840,-10000,1,2,1,50,0,0
212858,-10,1,2,1,50,0,0
212860,-10000,1,2,1,50,0,0
212879,-10,1,2,1,50,0,0
212881,-10000,1,2,1,50,0,0
212899,-10,1,2,1,50,0,0
212901,-10000,1,2,1,50,0,0
212920,-10,1,2,1,50,0,0
212922,-10000,1,2,1,50,0,0
212940,-10,1,2,1,50,0,0
212942,-10000,1,2,1,50,0,0
212961,-10,1,2,1,50,0,0
212963,-10000,1,2,1,50,0,0
212984,-10,1,2,1,50,0,0
212987,-10000,1,2,1,50,0,0
213008,-10,1,2,1,50,0,0
213010,-10000,1,2,1,50,0,0
213032,-10,1,2,1,50,0,0
213034,-10000,1,2,1,50,0,0
213056,-10,1,2,1,50,0,0
213058,-10000,1,2,1,50,0,0
213079,-10,1,2,1,50,0,0
213082,-10000,1,2,1,50,0,0
213103,-10,1,2,1,50,0,0
213106,-10000,1,2,1,50,0,0
213127,-10,1,2,1,50,0,0
213129,-10000,1,2,1,50,0,0
213151,-10,1,2,1,50,0,0
213153,-10000,1,2,1,50,0,0
213175,-10,1,2,1,50,0,0
213177,-10000,1,2,1,50,0,0
213198,-10,1,2,1,50,0,0
213201,-10000,1,2,1,50,0,0
213222,-10,1,2,1,50,0,0
213224,-10000,1,2,1,50,0,0
213246,-10,1,2,1,50,0,0
213248,-10000,1,2,1,50,0,0
213270,-10,1,2,1,50,0,0
213272,-10000,1,2,1,50,0,0
213293,-10,1,2,1,50,0,0
213296,-10000,1,2,1,50,0,0
213317,-10,1,2,1,50,0,0
213320,-10000,1,2,1,50,0,0
213341,-10,1,2,1,50,0,0
213343,-10000,1,2,1,50,0,0
213365,-10,1,2,1,50,0,0
213367,-10000,1,2,1,50,0,0
213389,-10,1,2,1,50,0,0
213391,-10000,1,2,1,50,0,0
213417,-10,1,2,1,50,0,0
213420,-10000,1,2,1,50,0,0
213446,-10,1,2,1,50,0,0
213449,-10000,1,2,1,50,0,0
213474,-10,1,2,1,50,0,0
213477,-10000,1,2,1,50,0,0
213503,-10,1,2,1,50,0,0
213506,-10000,1,2,1,50,0,0
213532,-10,1,2,1,50,0,0
213534,-10000,1,2,1,50,0,0
213560,-10,1,2,1,50,0,0
213563,-10000,1,2,1,50,0,0
213589,-10,1,2,1,50,0,0
213592,-10000,1,2,1,50,0,0
213617,-10,1,2,1,50,0,0
213620,-10000,1,2,1,50,0,0
213646,-10,1,2,1,50,0,0
213649,-10000,1,2,1,50,0,0
213675,-10,1,2,1,50,0,0
213677,-10000,1,2,1,50,0,0
213703,-10,1,2,1,50,0,0
213706,-10000,1,2,1,50,0,0
213732,-10,1,2,1,50,0,0
213735,-10000,1,2,1,50,0,0
213760,-10,1,2,1,50,0,0
213763,-10000,1,2,1,50,0,0
213789,-10,1,2,1,50,0,0
213792,-10000,1,2,1,50,0,0
213818,-10,1,2,1,50,0,0
213821,-10000,1,2,1,50,0,0
213853,-10,1,2,1,50,0,0
213857,-10000,1,2,1,50,0,0
213889,-10,1,2,1,50,0,0
213892,-10000,1,2,1,50,0,0
213925,-10,1,2,1,50,0,0
213928,-10000,1,2,1,50,0,0
213960,-10,1,2,1,50,0,0
213964,-10000,1,2,1,50,0,0
213996,-10,1,2,1,50,0,0
213999,-10000,1,2,1,50,0,0
214032,-10,1,2,1,50,0,0
214035,-10000,1,2,1,50,0,0
214067,-10,1,2,1,50,0,0
214071,-10000,1,2,1,50,0,0
214103,-10,1,2,1,50,0,0
214106,-10000,1,2,1,50,0,0
214139,-10,1,2,1,50,0,0
214142,-10000,1,2,1,50,0,0
214174,-10,1,2,1,50,0,0
214178,-10000,1,2,1,50,0,0
214210,-10,1,2,1,50,0,0
214213,-10000,1,2,1,50,0,0
214246,-100,1,2,1,50,0,0
214532,-133.333333333333,1,2,1,50,0,0
214722,-66.6666666666667,1,2,1,50,0,0
214818,-10,1,2,1,50,0,0
214820,-10000,1,2,1,50,0,0
214838,-10,1,2,1,50,0,0
214840,-10000,1,2,1,50,0,0
214858,-10,1,2,1,50,0,0
214860,-10000,1,2,1,50,0,0
214879,-10,1,2,1,50,0,0
214881,-10000,1,2,1,50,0,0
214899,-10,1,2,1,50,0,0
214901,-10000,1,2,1,50,0,0
214919,-10,1,2,1,50,0,0
214921,-10000,1,2,1,50,0,0
214940,-10,1,2,1,50,0,0
214942,-10000,1,2,1,50,0,0
214960,-10,1,2,1,50,0,0
214962,-10000,1,2,1,50,0,0
214981,-10,1,2,1,50,0,0
214983,-10000,1,2,1,50,0,0
215001,-10,1,2,1,50,0,0
215003,-10000,1,2,1,50,0,0
215021,-10,1,2,1,50,0,0
215023,-10000,1,2,1,50,0,0
215042,-10,1,2,1,50,0,0
215044,-10000,1,2,1,50,0,0
215062,-10,1,2,1,50,0,0
215064,-10000,1,2,1,50,0,0
215082,-10,1,2,1,50,0,0
215084,-10000,1,2,1,50,0,0
215103,-10,1,2,1,50,0,0
215105,-10000,1,2,1,50,0,0
215123,-10,1,2,1,50,0,0
215125,-10000,1,2,1,50,0,0
215144,-10,1,2,1,50,0,0
215146,-10000,1,2,1,50,0,0
215164,-10,1,2,1,50,0,0
215166,-10000,1,2,1,50,0,0
215184,-10,1,2,1,50,0,0
215186,-10000,1,2,1,50,0,0
215205,-10,1,2,1,50,0,0
215207,-10000,1,2,1,50,0,0
215225,-10,1,2,1,50,0,0
215227,-10000,1,2,1,50,0,0
215246,-10,1,2,1,50,0,0
215248,-10000,1,2,1,50,0,0
215269,-10,1,2,1,50,0,0
215272,-10000,1,2,1,50,0,0
215293,-10,1,2,1,50,0,0
215296,-10000,1,2,1,50,0,0
215317,-10,1,2,1,50,0,0
215319,-10000,1,2,1,50,0,0
215341,-10,1,2,1,50,0,0
215343,-10000,1,2,1,50,0,0
215365,-10,1,2,1,50,0,0
215367,-10000,1,2,1,50,0,0
215389,-10,1,2,1,50,0,0
215391,-10000,1,2,1,50,0,0
215412,-10,1,2,1,50,0,0
215415,-10000,1,2,1,50,0,0
215436,-10,1,2,1,50,0,0
215439,-10000,1,2,1,50,0,0
215460,-10,1,2,1,50,0,0
215462,-10000,1,2,1,50,0,0
215484,-10,1,2,1,50,0,0
215486,-10000,1,2,1,50,0,0
215508,-10,1,2,1,50,0,0
215510,-10000,1,2,1,50,0,0
215532,-10,1,2,1,50,0,0
215534,-10000,1,2,1,50,0,0
215555,-10,1,2,1,50,0,0
215558,-10000,1,2,1,50,0,0
215579,-10,1,2,1,50,0,0
215582,-10000,1,2,1,50,0,0
215603,-10,1,2,1,50,0,0
215605,-10000,1,2,1,50,0,0
215627,-10,1,2,1,50,0,0
215629,-10000,1,2,1,50,0,0
215651,-10,1,2,1,50,0,0
215653,-10000,1,2,1,50,0,0
215675,-10,1,2,1,50,0,0
215677,-10000,1,2,1,50,0,0
215703,-10,1,2,1,50,0,0
215706,-10000,1,2,1,50,0,0
215732,-10,1,2,1,50,0,0
215734,-10000,1,2,1,50,0,0
215760,-10,1,2,1,50,0,0
215763,-10000,1,2,1,50,0,0
215789,-10,1,2,1,50,0,0
215791,-10000,1,2,1,50,0,0
215817,-10,1,2,1,50,0,0
215820,-10000,1,2,1,50,0,0
215846,-10,1,2,1,50,0,0
215849,-10000,1,2,1,50,0,0
215874,-10,1,2,1,50,0,0
215877,-10000,1,2,1,50,0,0
215903,-10,1,2,1,50,0,0
215906,-10000,1,2,1,50,0,0
215931,-10,1,2,1,50,0,0
215934,-10000,1,2,1,50,0,0
215960,-10,1,2,1,50,0,0
215963,-10000,1,2,1,50,0,0
215988,-10,1,2,1,50,0,0
215991,-10000,1,2,1,50,0,0
216017,-10,1,2,1,50,0,0
216020,-10000,1,2,1,50,0,0
216045,-10,1,2,1,50,0,0
216048,-10000,1,2,1,50,0,0
216074,-10,1,2,1,50,0,0
216077,-10000,1,2,1,50,0,0
216103,-10,1,2,1,50,0,0
216106,-10000,1,2,1,50,0,0
216138,-10,1,2,1,50,0,0
216142,-10000,1,2,1,50,0,0
216174,-10,1,2,1,50,0,0
216178,-10000,1,2,1,50,0,0
216210,-10,1,2,1,50,0,0
216213,-10000,1,2,1,50,0,0
216246,-10,1,2,1,50,0,0
216249,-10000,1,2,1,50,0,0
216281,-10,1,2,1,50,0,0
216285,-10000,1,2,1,50,0,0
216317,-10,1,2,1,50,0,0
216321,-10000,1,2,1,50,0,0
216353,-10,1,2,1,50,0,0
216356,-10000,1,2,1,50,0,0
216389,-10,1,2,1,50,0,0
216392,-10000,1,2,1,50,0,0
216424,-10,1,2,1,50,0,0
216428,-10000,1,2,1,50,0,0
216460,-10,1,2,1,50,0,0
216464,-10000,1,2,1,50,0,0
216496,-10,1,2,1,50,0,0
216499,-10000,1,2,1,50,0,0
216532,-100,1,2,1,50,0,0
216818,-133.333333333333,1,2,1,50,0,0
217008,-66.6666666666667,1,2,1,50,0,0
217103,-133.333333333333,1,2,1,50,0,0
217294,-66.6666666666667,1,2,1,50,0,0
217389,-133.333333333333,1,2,1,50,0,0
217580,-66.6666666666667,1,2,1,50,0,0
217675,-133.333333333333,1,2,1,50,0,0
217865,-66.6666666666667,1,2,1,50,0,0
217961,-133.333333333333,1,2,1,50,0,0
218151,-66.6666666666667,1,2,1,50,0,0
218246,-250,4,2,1,50,0,0
218317,-62.5,4,2,1,50,0,0
218389,-277.10843373494,4,2,1,50,0,0
218463,-58.8235294117647,4,2,1,50,0,0
218532,-307.692307692308,4,2,1,50,0,0
218610,-55.2486187845304,4,2,1,50,0,0
218675,-342.465753424657,4,2,1,50,0,0
218756,-51.7711171662125,4,2,1,50,0,0
218818,-382.352941176471,4,2,1,50,0,0
218859,-48.3870967741935,4,2,1,50,0,0
218889,-428.571428571429,4,2,1,50,0,0
218933,-45.0928381962865,4,2,1,50,0,0
218961,-482.758620689655,4,2,1,50,0,0
219006,-41.8848167539267,4,2,1,50,0,0
219032,-547.169811320755,4,2,1,50,0,0
219078,-38.7596899224806,4,2,1,50,0,0
219103,-625,4,2,1,50,0,0
219152,-35.7142857142857,4,2,1,50,0,0
219175,-720.93023255814,4,2,1,50,0,0
219225,-32.7455919395466,4,2,1,50,0,0
219246,-842.105263157895,4,2,1,50,0,0
219298,-29.8507462686567,4,2,1,50,0,0
219318,-1000,4,2,1,50,0,0
219371,-27.027027027027,4,2,1,50,0,0
219389,-33.8753387533875,4,2,1,50,0,0
219407,-45.2488687782805,4,2,1,50,0,0
219425,-67.5675675675676,4,2,1,50,0,0
219443,-135.135135135135,4,2,1,50,0,0
219461,-10000,4,2,1,50,0,0
219675,-10,4,2,1,50,0,0
219680,-10000,4,2,1,50,0,0
219961,-10,4,2,1,50,0,0
219966,-10000,4,2,1,50,0,0
220103,-10,4,2,1,50,0,0
220108,-10000,4,2,1,50,0,0
220246,-10,4,2,1,50,0,0
220251,-10000,4,2,1,50,0,0
220264,-1666.66666666667,4,2,1,50,0,0
220282,-769.230769230769,4,2,1,50,0,0
220300,-526.315789473684,4,2,1,50,0,0
220318,-400,4,2,1,50,0,0
220336,-322.58064516129,4,2,1,50,0,0
220353,-263.157894736842,4,2,1,50,0,0
220371,-227.272727272727,4,2,1,50,0,0
220389,-200,4,2,1,50,0,0
220407,-178.571428571429,4,2,1,50,0,0
220425,-158.730158730159,4,2,1,50,0,0
220443,-144.927536231884,4,2,1,50,0,0
220461,-133.333333333333,4,2,1,50,0,0
220478,-123.456790123457,4,2,1,50,0,0
220496,-113.636363636364,4,2,1,50,0,0
220514,-106.382978723404,4,2,1,50,0,0
220532,-100,4,2,1,50,0,0
221675,-100,4,2,1,50,0,1
258318,-100,4,2,1,50,0,0
303675,-26.3157894736842,4,2,1,50,0,0
303711,-34.7222222222222,4,2,1,50,0,0
303746,-51.2820512820513,4,2,1,50,0,0
303782,-97.0873786407767,4,2,1,50,0,0
303818,-1000,4,2,1,50,0,0
303961,-100,4,2,1,50,0,1
340532,-100,4,2,1,50,0,0
343389,291.26213592233,4,2,1,50,1,8
343389,-98.0952380952381,4,2,1,50,0,8
343971,291.26213592233,4,2,1,50,1,0
343971,-98.0952380952381,4,2,1,50,0,0
345136,300,4,2,1,50,1,0
345136,-95.2380952380952,4,2,1,50,0,0
346336,309.278350515464,4,2,1,50,1,0
346336,-92.3809523809524,4,2,1,50,0,0
347573,320.855614973262,4,2,1,50,1,0
347573,-89.0476190476191,4,2,1,50,0,0
348856,333.333333333333,4,2,1,50,1,0
348856,-85.7142857142858,4,2,1,50,0,0
349189,359.281437125748,4,2,1,50,1,8
349189,-79.5238095238096,4,2,1,50,0,8
349548,422.535211267606,4,2,1,50,1,8
349548,-67.6190476190476,4,2,1,50,0,8
349970,714.285714285714,4,2,1,50,1,8
349970,-40,4,2,1,50,0,8
350684,714.285714285714,4,2,1,50,1,0
350684,-40,4,2,1,50,0,0

[HitObjects]
64,192,10503,5,0,0:0:0:0:
192,192,10867,1,0,0:0:0:0:
320,192,10889,1,0,0:0:0:0:
448,192,10912,1,0,0:0:0:0:
64,192,11048,1,0,0:0:0:0:
320,192,11230,1,0,0:0:0:0:
448,192,11230,1,0,0:0:0:0:
192,192,11412,1,0,0:0:0:0:
64,192,11594,1,0,0:0:0:0:
448,192,11594,1,0,0:0:0:0:
320,192,11776,1,0,0:0:0:0:
64,192,11957,1,0,0:0:0:0:
192,192,11957,1,0,0:0:0:0:
192,192,12139,1,0,0:0:0:0:
320,192,12139,1,0,0:0:0:0:
64,192,12321,1,0,0:0:0:0:
320,192,12321,1,0,0:0:0:0:
448,192,12344,1,0,0:0:0:0:
192,192,12503,1,0,0:0:0:0:
320,192,12503,1,0,0:0:0:0:
64,192,12685,1,0,0:0:0:0:
448,192,12685,1,0,0:0:0:0:
320,192,12867,1,0,0:0:0:0:
448,192,12867,1,0,0:0:0:0:
192,192,13048,1,0,0:0:0:0:
320,192,13048,1,0,0:0:0:0:
64,192,13071,1,0,0:0:0:0:
448,192,13230,1,0,0:0:0:0:
64,192,13412,1,0,0:0:0:0:
192,192,13412,1,0,0:0:0:0:
320,192,13594,1,0,0:0:0:0:
64,192,13776,1,0,0:0:0:0:
448,192,13776,1,0,0:0:0:0:
192,192,13957,1,0,0:0:0:0:
320,192,13957,1,0,0:0:0:0:
320,192,14139,1,0,0:0:0:0:
448,192,14139,1,0,0:0:0:0:
192,192,14321,1,0,0:0:0:0:
64,192,14503,1,0,0:0:0:0:
448,192,14503,1,0,0:0:0:0:
64,192,14685,1,0,0:0:0:0:
192,192,14685,1,0,0:0:0:0:
320,192,14867,1,0,0:0:0:0:
448,192,14867,1,0,0:0:0:0:
192,192,15048,1,0,0:0:0:0:
320,192,15048,1,0,0:0:0:0:
64,192,15230,1,0,0:0:0:0:
448,192,15230,1,0,0:0:0:0:
192,192,15253,1,0,0:0:0:0:
64,192,15412,1,0,0:0:0:0:
320,192,15594,1,0,0:0:0:0:
448,192,15594,1,0,0:0:0:0:
192,192,15776,1,0,0:0:0:0:
64,192,15957,1,0,0:0:0:0:
448,192,15957,1,0,0:0:0:0:
320,192,16139,1,0,0:0:0:0:
64,192,16321,1,0,0:0:0:0:
192,192,16321,1,0,0:0:0:0:
320,192,16503,1,0,0:0:0:0:
64,192,16685,1,0,0:0:0:0:
448,192,16685,1,0,0:0:0:0:
192,192,16867,1,0,0:0:0:0:
320,192,17048,1,0,0:0:0:0:
448,192,17048,1,0,0:0:0:0:
64,192,17230,1,0,0:0:0:0:
192,192,17412,1,0,0:0:0:0:
320,192,17412,1,0,0:0:0:0:
448,192,17457,1,0,0:0:0:0:
64,192,17594,1,0,0:0:0:0:
320,192,17776,1,0,0:0:0:0:
448,192,17776,1,0,0:0:0:0:
192,192,17957,1,0,0:0:0:0:
64,192,18139,1,0,0:0:0:0:
448,192,18139,1,0,0:0:0:0:
320,192,18321,1,0,0:0:0:0:
64,192,18503,1,0,0:0:0:0:
192,192,18503,1,0,0:0:0:0:
192,192,18685,1,0,0:0:0:0:
448,192,18685,1,0,0:0:0:0:
320,192,18867,1,0,0:0:0:0:
448,192,18867,1,0,0:0:0:0:
64,192,19048,1,0,0:0:0:0:
192,192,19048,1,0,0:0:0:0:
64,192,19230,1,0,0:0:0:0:
320,192,19230,1,0,0:0:0:0:
192,192,19412,1,0,0:0:0:0:
448,192,19412,1,0,0:0:0:0:
64,192,19594,1,0,0:0:0:0:
320,192,19594,1,0,0:0:0:0:
448,192,19617,1,0,0:0:0:0:
192,192,19776,1,0,0:0:0:0:
64,192,19957,1,0,0:0:0:0:
448,192,19957,1,0,0:0:0:0:
320,192,20139,1,0,0:0:0:0:
64,192,20321,1,0,0:0:0:0:
448,192,20321,1,0,0:0:0:0:
192,192,20503,1,0,0:0:0:0:
320,192,20685,1,0,0:0:0:0:
448,192,20685,1,0,0:0:0:0:
64,192,20867,1,0,0:0:0:0:
192,192,20867,1,0,0:0:0:0:
320,192,21048,1,0,0:0:0:0:
448,192,21048,1,0,0:0:0:0:
192,192,21230,1,0,0:0:0:0:
320,192,21230,1,0,0:0:0:0:
64,192,21412,1,0,0:0:0:0:
192,192,21412,1,0,0:0:0:0:
448,192,21594,1,0,0:0:0:0:
320,192,21776,1,0,0:0:0:0:
192,192,21776,1,0,0:0:0:0:
448,192,21957,1,0,0:0:0:0:
64,192,22139,1,0,0:0:0:0:
192,192,22139,1,0,0:0:0:0:
320,192,22321,1,0,0:0:0:0:
64,192,22503,1,0,0:0:0:0:
448,192,22503,1,0,0:0:0:0:
192,192,22685,1,0,0:0:0:0:
320,192,22685,1,0,0:0:0:0:
320,192,22867,1,0,0:0:0:0:
448,192,22867,1,0,0:0:0:0:
192,192,23048,1,0,0:0:0:0:
64,192,23230,1,0,0:0:0:0:
320,192,23230,1,0,0:0:0:0:
64,192,23412,1,0,0:0:0:0:
192,192,23412,1,0,0:0:0:0:
320,192,23594,1,0,0:0:0:0:
448,192,23594,1,0,0:0:0:0:
192,192,23776,1,0,0:0:0:0:
320,192,23776,1,0,0:0:0:0:
64,192,23957,1,0,0:0:0:0:
448,192,23957,1,0,0:0:0:0:
192,192,24003,1,0,0:0:0:0:
320,192,24139,1,0,0:0:0:0:
64,192,24321,1,0,0:0:0:0:
192,192,24321,1,0,0:0:0:0:
320,192,24503,1,0,0:0:0:0:
192,192,24685,1,0,0:0:0:0:
448,192,24685,1,0,0:0:0:0:
320,192,24867,1,0,0:0:0:0:
64,192,25048,1,0,0:0:0:0:
192,192,25048,1,0,0:0:0:0:
448,192,25230,1,0,0:0:0:0:
64,192,25412,1,0,0:0:0:0:
320,192,25412,1,0,0:0:0:0:
192,192,25594,1,0,0:0:0:0:
320,192,25776,1,0,0:0:0:0:
448,192,25776,1,0,0:0:0:0:
64,192,25957,1,0,0:0:0:0:
192,192,26139,1,0,0:0:0:0:
320,192,26139,1,0,0:0:0:0:
448,192,26185,1,0,0:0:0:0:
64,192,26321,1,0,0:0:0:0:
320,192,26503,1,0,0:0:0:0:
448,192,26503,1,0,0:0:0:0:
192,192,26685,1,0,0:0:0:0:
64,192,26867,1,0,0:0:0:0:
448,192,26867,1,0,0:0:0:0:
320,192,27048,1,0,0:0:0:0:
448,192,27048,1,0,0:0:0:0:
64,192,27230,1,0,0:0:0:0:
192,192,27230,1,0,0:0:0:0:
320,192,27412,1,0,0:0:0:0:
192,192,27594,1,0,0:0:0:0:
448,192,27594,1,0,0:0:0:0:
64,192,27795,1,0,0:0:0:0:
192,192,27996,1,0,0:0:0:0:
320,192,27996,1,0,0:0:0:0:
320,192,28239,1,0,0:0:0:0:
448,192,28239,1,0,0:0:0:0:
64,192,28738,128,0,28828:0:0:0:0:
448,192,28738,1,0,0:0:0:0:
192,192,28919,1,0,0:0:0:0:
64,192,29101,1,0,0:0:0:0:
320,192,29101,1,0,0:0:0:0:
192,192,29283,1,0,0:0:0:0:
320,192,29465,1,0,0:0:0:0:
448,192,29465,1,0,0:0:0:0:
192,192,29647,1,0,0:0:0:0:
64,192,29828,1,0,0:0:0:0:
448,192,29828,1,0,0:0:0:0:
320,192,30010,1,0,0:0:0:0:
64,192,30192,1,0,0:0:0:0:
192,192,30192,1,0,0:0:0:0:
320,192,30374,1,0,0:0:0:0:
192,192,30556,1,0,0:0:0:0:
448,192,30556,1,0,0:0:0:0:
320,192,30738,1,0,0:0:0:0:
64,192,30919,1,0,0:0:0:0:
448,192,30919,1,0,0:0:0:0:
192,192,31101,1,0,0:0:0:0:
64,192,31283,1,0,0:0:0:0:
320,192,31283,1,0,0:0:0:0:
192,192,31465,1,0,0:0:0:0:
320,192,31647,1,0,0:0:0:0:
448,192,31647,1,0,0:0:0:0:
192,192,31828,1,0,0:0:0:0:
64,192,32010,128,0,32101:0:0:0:0:
448,192,32010,1,0,0:0:0:0:
320,192,32192,1,0,0:0:0:0:
192,192,32374,128,0,32465:0:0:0:0:
448,192,32374,1,0,0:0:0:0:
64,192,32556,1,0,0:0:0:0:
192,192,32738,1,0,0:0:0:0:
320,192,32738,128,0,32828:0:0:0:0:
320,192,32919,1,0,0:0:0:0:
448,192,32919,128,0,33010:0:0:0:0:
64,192,33101,128,0,33192:0:0:0:0:
448,192,33101,1,0,0:0:0:0:
192,192,33283,1,0,0:0:0:0:
320,192,33465,1,0,0:0:0:0:
448,192,33465,1,0,0:0:0:0:
64,192,33647,1,0,0:0:0:0:
320,192,33828,1,0,0:0:0:0:
448,192,33828,1,0,0:0:0:0:
192,192,34010,1,0,0:0:0:0:
64,192,34192,1,0,0:0:0:0:
320,192,34192,1,0,0:0:0:0:
448,192,34313,1,0,0:0:0:0:
64,192,34434,1,0,0:0:0:0:
192,192,34556,1,0,0:0:0:0:
320,192,34556,1,0,0:0:0:0:
448,192,34677,1,0,0:0:0:0:
192,192,34798,1,0,0:0:0:0:
64,192,34919,1,0,0:0:0:0:
448,192,34919,1,0,0:0:0:0:
320,192,35041,1,0,0:0:0:0:
192,192,35162,1,0,0:0:0:0:
320,192,35283,1,0,0:0:0:0:
448,192,35283,1,0,0:0:0:0:
64,192,35404,1,0,0:0:0:0:
320,192,35525,1,0,0:0:0:0:
64,192,35647,1,0,0:0:0:0:
192,192,35647,1,0,0:0:0:0:
448,192,35768,1,0,0:0:0:0:
320,192,35889,1,0,0:0:0:0:
64,192,36010,1,0,0:0:0:0:
448,192,36010,1,0,0:0:0:0:
192,192,36131,1,0,0:0:0:0:
64,192,36253,1,0,0:0:0:0:
320,192,36374,1,0,0:0:0:0:
448,192,36374,1,0,0:0:0:0:
192,192,36495,1,0,0:0:0:0:
320,192,36616,1,0,0:0:0:0:
64,192,36738,1,0,0:0:0:0:
448,192,36738,1,0,0:0:0:0:
320,192,36859,1,0,0:0:0:0:
64,192,36980,1,0,0:0:0:0:
192,192,37101,1,0,0:0:0:0:
448,192,37101,1,0,0:0:0:0:
320,192,37222,1,0,0:0:0:0:
192,192,37344,1,0,0:0:0:0:
64,192,37465,1,0,0:0:0:0:
192,192,37495,1,0,0:0:0:0:
320,192,37525,1,0,0:0:0:0:
448,192,37647,1,0,0:0:0:0:
64,192,37828,1,0,0:0:0:0:
192,192,37828,1,0,0:0:0:0:
320,192,38010,1,0,0:0:0:0:
192,192,38192,1,0,0:0:0:0:
448,192,38192,1,0,0:0:0:0:
64,192,38374,1,0,0:0:0:0:
320,192,38556,1,0,0:0:0:0:
448,192,38556,1,0,0:0:0:0:
64,192,38738,1,0,0:0:0:0:
192,192,38919,1,0,0:0:0:0:
448,192,38919,1,0,0:0:0:0:
320,192,39101,1,0,0:0:0:0:
448,192,39101,1,0,0:0:0:0:
64,192,39283,1,0,0:0:0:0:
192,192,39283,1,0,0:0:0:0:
64,192,39465,1,0,0:0:0:0:
448,192,39465,1,0,0:0:0:0:
192,192,39647,1,0,0:0:0:0:
320,192,39647,1,0,0:0:0:0:
448,192,39828,1,0,0:0:0:0:
64,192,40010,1,0,0:0:0:0:
192,192,40010,1,0,0:0:0:0:
320,192,40192,1,0,0:0:0:0:
192,192,40374,1,0,0:0:0:0:
448,192,40374,1,0,0:0:0:0:
64,192,40556,1,0,0:0:0:0:
320,192,40738,1,0,0:0:0:0:
448,192,40738,1,0,0:0:0:0:
64,192,40919,1,0,0:0:0:0:
192,192,41101,1,0,0:0:0:0:
448,192,41101,1,0,0:0:0:0:
320,192,41283,1,0,0:0:0:0:
448,192,41283,1,0,0:0:0:0:
64,192,41465,1,0,0:0:0:0:
192,192,41465,1,0,0:0:0:0:
192,192,41647,1,0,0:0:0:0:
448,192,41647,1,0,0:0:0:0:
64,192,41828,1,0,0:0:0:0:
320,192,41828,1,0,0:0:0:0:
192,192,42028,1,0,0:0:0:0:
64,192,42228,1,0,0:0:0:0:
448,192,42228,1,0,0:0:0:0:
320,192,42428,1,0,0:0:0:0:
64,192,42628,1,0,0:0:0:0:
192,192,42628,1,0,0:0:0:0:
320,192,42828,1,0,0:0:0:0:
192,192,43028,1,0,0:0:0:0:
448,192,43028,1,0,0:0:0:0:
320,192,43242,1,0,0:0:0:0:
64,192,43456,1,0,0:0:0:0:
448,192,43456,1,0,0:0:0:0:
192,192,43670,1,0,0:0:0:0:
64,192,43885,1,0,0:0:0:0:
320,192,43885,1,0,0:0:0:0:
448,192,44099,1,0,0:0:0:0:
64,192,44313,1,0,0:0:0:0:
192,192,44313,1,0,0:0:0:0:
448,192,44543,1,0,0:0:0:0:
320,192,44774,1,0,0:0:0:0:
64,192,45005,1,0,0:0:0:0:
192,192,45005,1,0,0:0:0:0:
320,192,45236,1,0,0:0:0:0:
448,192,45236,1,0,0:0:0:0:
192,192,45486,1,0,0:0:0:0:
320,192,45486,1,0,0:0:0:0:
64,192,45758,1,0,0:0:0:0:
192,192,45758,1,0,0:0:0:0:
64,192,46073,1,0,0:0:0:0:
320,192,46389,1,0,0:0:0:0:
448,192,46389,1,0,0:0:0:0:
192,192,46468,1,0,0:0:0:0:
320,192,46547,1,0,0:0:0:0:
192,192,46626,1,0,0:0:0:0:
320,192,46705,1,0,0:0:0:0:
192,192,46784,1,0,0:0:0:0:
320,192,46863,1,0,0:0:0:0:
192,192,46942,1,0,0:0:0:0:
64,192,47021,1,0,0:0:0:0:
320,192,47021,1,0,0:0:0:0:
448,192,47128,1,0,0:0:0:0:
320,192,47235,1,0,0:0:0:0:
192,192,47342,1,0,0:0:0:0:
64,192,47449,1,0,0:0:0:0:
192,192,47569,1,0,0:0:0:0:
320,192,47690,1,0,0:0:0:0:
448,192,47825,1,0,0:0:0:0:
320,192,47961,1,0,0:0:0:50:kick_1.wav
64,192,47961,1,0,0:0:0:50:cymbal.wav
192,192,47961,1,0,0:0:0:50:finish.wav
448,192,47961,1,0,0:0:0:0:
64,192,48103,1,0,0:0:0:0:
64,192,48246,1,0,0:0:0:0:
64,192,48389,1,0,0:0:0:0:
320,192,48532,1,0,0:0:0:0:
320,192,48675,1,0,0:0:0:0:
320,192,48818,1,0,0:0:0:0:
320,192,48961,1,0,0:0:0:0:
64,192,49103,1,0,0:0:0:50:kick_1.wav
192,192,49103,1,0,0:0:0:0:
448,192,49103,1,0,0:0:0:0:
192,192,49246,1,0,0:0:0:0:
192,192,49389,1,0,0:0:0:0:
192,192,49532,1,0,0:0:0:0:
448,192,49675,1,0,0:0:0:0:
448,192,49818,1,0,0:0:0:0:
448,192,49961,1,0,0:0:0:0:
448,192,50103,1,0,0:0:0:0:
64,192,50246,1,0,0:0:0:50:kick_1.wav
192,192,50246,1,0,0:0:0:0:
320,192,50246,1,0,0:0:0:0:
64,192,50389,1,0,0:0:0:0:
64,192,50532,1,0,0:0:0:0:
64,192,50675,1,0,0:0:0:0:
320,192,50818,1,0,0:0:0:0:
320,192,50961,1,0,0:0:0:0:
320,192,51103,1,0,0:0:0:0:
320,192,51246,1,0,0:0:0:0:
64,192,51389,1,0,0:0:0:50:kick_1.wav
192,192,51389,1,0,0:0:0:0:
448,192,51389,1,0,0:0:0:0:
192,192,51532,1,0,0:0:0:0:
192,192,51675,1,0,0:0:0:0:
192,192,51818,1,0,0:0:0:0:
448,192,51961,1,0,0:0:0:0:
448,192,52103,1,0,0:0:0:0:
448,192,52246,1,0,0:0:0:0:
448,192,52389,1,0,0:0:0:0:
64,192,52532,1,0,0:0:0:50:kick_1.wav
192,192,52532,1,0,0:0:0:50:cymbal.wav
320,192,52532,1,0,0:0:0:50:finish.wav
448,192,52532,1,0,0:0:0:0:
64,192,52675,1,0,0:0:0:0:
64,192,52818,1,0,0:0:0:0:
64,192,52961,1,0,0:0:0:0:
320,192,53103,1,0,0:0:0:0:
320,192,53246,1,0,0:0:0:0:
320,192,53389,1,0,0:0:0:0:
320,192,53532,1,0,0:0:0:0:
64,192,53675,1,0,0:0:0:50:kick_1.wav
192,192,53675,1,0,0:0:0:0:
448,192,53675,1,0,0:0:0:0:
192,192,53818,1,0,0:0:0:0:
192,192,53961,1,0,0:0:0:0:
192,192,54103,1,0,0:0:0:0:
448,192,54246,1,0,0:0:0:0:
448,192,54389,1,0,0:0:0:0:
448,192,54532,1,0,0:0:0:0:
448,192,54675,1,0,0:0:0:0:
64,192,54818,1,0,0:0:0:50:kick_1.wav
192,192,54818,1,0,0:0:0:0:
320,192,54818,1,0,0:0:0:0:
64,192,54961,1,0,0:0:0:0:
64,192,55103,1,0,0:0:0:0:
64,192,55246,1,0,0:0:0:0:
320,192,55389,1,0,0:0:0:0:
320,192,55532,1,0,0:0:0:0:
320,192,55675,1,0,0:0:0:0:
320,192,55818,1,0,0:0:0:0:
64,192,55961,1,0,0:0:0:50:kick_1.wav
192,192,55961,1,0,0:0:0:0:
448,192,55961,1,0,0:0:0:0:
64,192,56103,1,0,0:0:0:0:
64,192,56246,1,0,0:0:0:0:
64,192,56389,1,0,0:0:0:0:
448,192,56532,1,0,0:0:0:0:
448,192,56675,1,0,0:0:0:0:
448,192,56818,1,0,0:0:0:0:
448,192,56961,1,0,0:0:0:0:
192,192,57103,1,0,0:0:0:50:cymbal.wav
320,192,57103,128,0,57675:0:0:0:50:finish.wav
448,192,57103,1,0,0:0:0:0:
64,192,57246,128,0,58246:0:0:0:0:
192,192,57389,128,0,57818:0:0:0:0:
448,192,57675,1,0,0:0:0:0:
320,192,57818,1,0,0:0:0:0:
192,192,57961,1,0,0:0:0:0:
320,192,58103,1,0,0:0:0:0:
448,192,58246,128,0,58961:0:0:0:0:
192,192,58389,128,0,58675:0:0:0:0:
64,192,58532,128,0,59389:0:0:0:0:
320,192,58675,1,0,0:0:0:0:
192,192,58818,1,0,0:0:0:0:
320,192,58961,1,0,0:0:0:0:
448,192,59103,1,0,0:0:0:0:
192,192,59389,128,0,59818:0:0:0:0:
320,192,59532,128,0,59961:0:0:0:0:
448,192,59675,128,0,60532:0:0:0:0:
64,192,59818,1,0,0:0:0:0:
192,192,59961,128,0,60032:0:0:0:0:
320,192,60103,1,0,0:0:0:0:
192,192,60246,128,0,60318:0:0:0:0:
64,192,60389,1,0,0:0:0:0:
320,192,60532,128,0,60818:0:0:0:0:
192,192,60675,128,0,61103:0:0:0:0:
64,192,60818,128,0,61532:0:0:0:0:
448,192,60818,128,0,60889:0:0:0:0:
320,192,60961,1,0,0:0:0:0:
448,192,61103,128,0,61175:0:0:0:0:
192,192,61246,1,0,0:0:0:0:
320,192,61389,128,0,61675:0:0:0:0:
192,192,61532,128,0,61675:0:0:0:0:
64,192,61675,128,0,61746:0:0:0:0:
448,192,61675,128,0,61746:0:0:0:0:
192,192,62818,128,0,62889:0:0:0:0:
320,192,62818,128,0,62889:0:0:0:0:
64,192,63961,128,0,68461:0:0:0:50:kick_1.wav
192,192,63961,128,0,68461:0:0:0:50:cymbal.wav
320,192,63961,128,0,68461:0:0:0:50:finish.wav
448,192,63961,128,0,68461:0:0:0:0:
64,192,68532,1,0,0:0:0:50:kick_1.wav
192,192,68532,1,0,0:0:0:50:cymbal.wav
320,192,68532,1,0,0:0:0:50:finish.wav
448,192,68532,1,0,0:0:0:0:
320,192,68818,1,0,0:0:0:0:
64,192,69103,1,0,0:0:0:0:
448,192,69103,1,0,0:0:0:0:
192,192,69246,1,0,0:0:0:0:
320,192,69389,1,0,0:0:0:0:
192,192,69532,1,0,0:0:0:0:
64,192,69675,1,0,0:0:0:0:
448,192,69675,1,0,0:0:0:0:
320,192,69818,1,0,0:0:0:0:
192,192,69961,1,0,0:0:0:0:
448,192,70103,1,0,0:0:0:0:
64,192,70246,1,0,0:0:0:0:
192,192,70246,1,0,0:0:0:0:
448,192,70532,1,0,0:0:0:0:
64,192,70818,128,0,71318:0:0:0:0:
320,192,70818,1,0,0:0:0:0:
192,192,71103,1,0,0:0:0:0:
64,192,71389,1,0,0:0:0:0:
320,192,71389,1,0,0:0:0:0:
192,192,71532,1,0,0:0:0:0:
320,192,71643,1,0,0:0:0:0:
448,192,71675,1,0,0:0:0:0:
192,192,71818,1,0,0:0:0:0:
64,192,71961,1,0,0:0:0:0:
448,192,71961,1,0,0:0:0:0:
320,192,72103,1,0,0:0:0:0:
192,192,72214,1,0,0:0:0:0:
64,192,72246,1,0,0:0:0:0:
320,192,72389,1,0,0:0:0:0:
64,192,72532,1,0,0:0:0:0:
448,192,72532,1,0,0:0:0:0:
192,192,72675,1,0,0:0:0:0:
320,192,72818,1,0,0:0:0:0:
448,192,72818,1,0,0:0:0:0:
192,192,72961,1,0,0:0:0:0:
64,192,73103,1,0,0:0:0:50:kick_1.wav
320,192,73103,1,0,0:0:0:50:cymbal.wav
448,192,73103,128,0,73246:0:0:0:50:finish.wav
192,192,73246,128,0,73389:0:0:0:0:
64,192,73389,128,0,73532:0:0:0:0:
448,192,73532,1,0,0:0:0:0:
64,192,73675,128,0,73818:0:0:0:0:
320,192,73818,1,0,0:0:0:0:
448,192,73961,128,0,74103:0:0:0:0:
192,192,74103,1,0,0:0:0:0:
320,192,74246,128,0,74389:0:0:0:0:
448,192,74246,1,0,0:0:0:0:
64,192,74389,1,0,0:0:0:0:
192,192,74532,1,0,0:0:0:0:
64,192,74675,1,0,0:0:0:0:
448,192,74818,128,0,74961:0:0:0:0:
320,192,74961,128,0,75103:0:0:0:0:
192,192,75103,128,0,75246:0:0:0:0:
320,192,75246,1,0,0:0:0:0:
64,192,75389,128,0,75532:0:0:0:0:
448,192,75389,1,0,0:0:0:0:
192,192,75532,1,0,0:0:0:0:
64,192,75675,1,0,0:0:0:0:
320,192,75675,128,0,75818:0:0:0:0:
192,192,75818,128,0,75961:0:0:0:0:
320,192,75961,1,0,0:0:0:0:
448,192,75961,128,0,76103:0:0:0:0:
64,192,76103,1,0,0:0:0:0:
192,192,76246,128,0,76389:0:0:0:0:
448,192,76389,1,0,0:0:0:0:
64,192,76532,128,0,76818:0:0:0:0:
320,192,76532,1,0,0:0:0:0:
448,192,76675,1,0,0:0:0:0:
192,192,76818,1,0,0:0:0:0:
320,192,76961,1,0,0:0:0:0:
192,192,77103,1,0,0:0:0:0:
448,192,77103,128,0,77389:0:0:0:0:
64,192,77246,1,0,0:0:0:0:
320,192,77389,1,0,0:0:0:0:
192,192,77532,1,0,0:0:0:0:
64,192,77675,128,0,77818:0:0:0:50:kick_1.wav
192,192,77675,1,0,0:0:0:50:cymbal.wav
320,192,77675,1,0,0:0:0:0:
448,192,77675,1,0,0:0:0:0:
320,192,77818,128,0,77961:0:0:0:0:
64,192,77961,1,0,0:0:0:0:
448,192,77961,128,0,78103:0:0:0:0:
320,192,78103,128,0,78246:0:0:0:0:
192,192,78246,128,0,78389:0:0:0:0:
64,192,78389,1,0,0:0:0:0:
320,192,78532,128,0,78675:0:0:0:50:kick_1.wav
448,192,78532,1,0,0:0:0:0:
64,192,78818,1,2,0:0:0:50:kick_1.wav
192,192,78818,1,0,0:0:0:50:cymbal.wav
320,192,78818,1,0,0:0:0:0:
448,192,78818,128,0,78961:0:0:0:0:
192,192,78961,1,0,0:0:0:0:
64,192,79103,128,2,79246:0:0:0:50:tom.wav
448,192,79103,1,0,0:0:0:0:
320,192,79246,1,0,0:0:0:0:
64,192,79389,1,0,0:0:0:50:tom.wav
192,192,79389,128,0,79532:0:0:0:0:
448,192,79389,1,0,0:0:0:0:
320,192,79532,128,0,79675:0:0:0:0:
448,192,79675,128,0,79818:0:0:0:0:
64,192,79818,1,0,0:0:0:0:
64,192,79961,128,2,80675:0:0:0:50:kick_1.wav
192,192,79961,1,0,0:0:0:50:cymbal.wav
320,192,79961,1,0,0:0:0:0:
448,192,79961,1,0,0:0:0:0:
192,192,80246,128,0,80675:0:0:0:0:
320,192,80389,128,0,80818:0:0:0:0:
448,192,80532,128,0,80818:0:0:0:0:
64,192,80818,128,0,81103:0:0:0:50:kick_1.wav
192,192,80818,128,0,81103:0:0:0:0:
448,192,80961,128,0,81532:0:0:0:0:
320,192,81103,128,0,81532:0:0:0:0:
64,192,81246,128,0,81818:0:0:0:50:kick_1.wav
192,192,81246,128,0,81532:0:0:0:0:
192,192,81675,128,2,82103:0:0:0:50:kick_1.wav
320,192,81675,128,0,82103:0:0:0:50:cymbal.wav
448,192,81675,128,0,81961:0:0:0:0:
64,192,81961,128,0,82103:0:0:0:0:
448,192,82103,128,0,82246:0:0:0:0:
64,192,82246,128,2,82818:0:0:0:50:kick_1.wav
192,192,82246,128,0,82532:0:0:0:50:cymbal.wav
320,192,82246,128,0,82389:0:0:0:0:
448,192,82389,128,0,82675:0:0:0:0:
320,192,82532,128,0,82961:0:0:0:0:
192,192,82675,128,0,82961:0:0:0:0:
448,192,82818,128,0,83103:0:0:0:0:
64,192,82961,128,0,83246:0:0:0:0:
192,192,83103,128,0,83532:0:0:0:50:kick_1.wav
320,192,83103,128,0,83389:0:0:0:0:
448,192,83246,128,0,83389:0:0:0:0:
64,192,83389,128,0,83675:0:0:0:0:
320,192,83532,128,0,83818:0:0:0:0:
448,192,83532,128,0,83818:0:0:0:0:
192,192,83675,128,0,83961:0:0:0:50:tom.wav
64,192,83818,128,0,84103:0:0:0:0:
320,192,83961,128,0,84389:0:0:0:50:tom.wav
448,192,83961,128,0,84246:0:0:0:0:
192,192,84103,128,0,84389:0:0:0:0:
64,192,84246,128,0,84532:0:0:0:0:
448,192,84389,128,0,84532:0:0:0:0:
192,192,84532,1,0,0:0:0:50:finish.wav
320,192,84532,1,0,0:0:0:0:
64,192,86818,1,0,0:0:0:50:kick_1.wav
192,192,86818,128,0,87246:0:0:0:50:cymbal.wav
320,192,86818,1,0,0:0:0:0:
448,192,86818,1,0,0:0:0:0:
448,192,86961,1,0,0:0:0:0:
448,192,87103,1,0,0:0:0:0:
64,192,87246,1,0,0:0:0:0:
320,192,87246,128,0,87675:0:0:0:0:
64,192,87389,1,0,0:0:0:0:
64,192,87532,1,0,0:0:0:0:
192,192,87675,128,0,88103:0:0:0:0:
448,192,87675,1,0,0:0:0:0:
448,192,87818,1,0,0:0:0:0:
448,192,87961,1,0,0:0:0:0:
64,192,88103,1,0,0:0:0:0:
320,192,88103,128,0,88532:0:0:0:0:
64,192,88246,1,0,0:0:0:0:
64,192,88389,1,0,0:0:0:0:
64,192,88532,128,0,88818:0:0:0:50:kick_1.wav
192,192,88532,1,0,0:0:0:50:cymbal.wav
448,192,88532,1,0,0:0:0:0:
448,192,88675,1,0,0:0:0:0:
192,192,88818,1,0,0:0:0:0:
448,192,88818,128,0,89103:0:0:0:0:
192,192,88961,1,0,0:0:0:0:
64,192,89103,128,0,89532:0:0:0:50:kick_1.wav
192,192,89103,1,0,0:0:0:50:cymbal.wav
320,192,89103,1,0,0:0:0:0:
320,192,89246,1,0,0:0:0:0:
320,192,89389,1,0,0:0:0:0:
192,192,89532,1,0,0:0:0:0:
448,192,89532,128,0,89961:0:0:0:0:
192,192,89675,1,0,0:0:0:0:
192,192,89818,1,0,0:0:0:0:
64,192,89961,128,0,90389:0:0:0:0:
320,192,89961,1,0,0:0:0:0:
320,192,90103,1,0,0:0:0:0:
320,192,90246,1,0,0:0:0:0:
192,192,90389,1,0,0:0:0:0:
448,192,90389,128,0,90818:0:0:0:0:
192,192,90532,1,0,0:0:0:0:
192,192,90675,1,0,0:0:0:0:
64,192,90818,1,0,0:0:0:50:kick_1.wav
192,192,90818,1,0,0:0:0:50:cymbal.wav
320,192,90818,1,0,0:0:0:0:
64,192,90961,1,0,0:0:0:50:kick_1.wav
320,192,90961,1,0,0:0:0:0:
448,192,90961,1,0,0:0:0:0:
64,192,91103,1,0,0:0:0:50:kick_1.wav
192,192,91103,1,0,0:0:0:0:
448,192,91103,1,0,0:0:0:0:
64,192,91389,1,0,0:0:0:50:kick_1.wav
192,192,91389,1,0,0:0:0:50:cymbal.wav
320,192,91389,128,0,91818:0:0:0:0:
448,192,91389,1,0,0:0:0:0:
64,192,91532,1,0,0:0:0:0:
64,192,91675,1,0,0:0:0:0:
192,192,91818,128,0,92246:0:0:0:0:
448,192,91818,1,0,0:0:0:0:
448,192,91961,1,0,0:0:0:0:
448,192,92103,1,0,0:0:0:0:
64,192,92246,1,0,0:0:0:0:
320,192,92246,128,0,92675:0:0:0:0:
64,192,92389,1,0,0:0:0:0:
64,192,92532,1,0,0:0:0:0:
192,192,92675,128,0,93103:0:0:0:0:
448,192,92675,1,0,0:0:0:0:
448,192,92818,1,0,0:0:0:0:
448,192,92961,1,0,0:0:0:0:
64,192,93103,1,0,0:0:0:50:kick_1.wav
320,192,93103,128,0,93389:0:0:0:50:cymbal.wav
448,192,93103,1,0,0:0:0:0:
64,192,93246,1,0,0:0:0:0:
64,192,93389,128,0,93675:0:0:0:50:kick_1.wav
192,192,93389,1,0,0:0:0:0:
448,192,93389,1,0,0:0:0:0:
448,192,93532,1,0,0:0:0:0:
192,192,93675,1,0,0:0:0:50:kick_1.wav
320,192,93675,1,0,0:0:0:50:cymbal.wav
448,192,93675,128,0,94103:0:0:0:0:
192,192,93818,1,0,0:0:0:0:
192,192,93961,1,0,0:0:0:0:
64,192,94103,128,0,94532:0:0:0:0:
320,192,94103,1,0,0:0:0:0:
320,192,94246,1,0,0:0:0:0:
320,192,94389,1,0,0:0:0:0:
192,192,94532,1,0,0:0:0:0:
448,192,94532,128,0,94961:0:0:0:0:
192,192,94675,1,0,0:0:0:0:
192,192,94818,1,0,0:0:0:0:
64,192,94961,128,0,95389:0:0:0:0:
320,192,94961,1,0,0:0:0:0:
320,192,95103,1,0,0:0:0:0:
320,192,95246,1,0,0:0:0:0:
192,192,95389,1,0,0:0:0:50:kick_1.wav
320,192,95389,1,0,0:0:0:50:cymbal.wav
448,192,95389,1,0,0:0:0:0:
64,192,95532,1,0,0:0:0:50:kick_1.wav
192,192,95532,1,0,0:0:0:0:
320,192,95532,1,0,0:0:0:0:
64,192,95675,1,0,0:0:0:50:kick_1.wav
320,192,95675,1,0,0:0:0:0:
448,192,95675,1,0,0:0:0:0:
64,192,95961,1,0,0:0:0:50:kick_1.wav
192,192,95961,1,0,0:0:0:50:cymbal.wav
320,192,95961,128,0,96389:0:0:0:0:
448,192,95961,1,0,0:0:0:0:
64,192,96389,1,0,0:0:0:50:kick_1.wav
192,192,96389,1,0,0:0:0:50:cymbal.wav
448,192,96389,128,0,96818:0:0:0:0:
64,192,96818,1,0,0:0:0:50:kick_1.wav
192,192,96818,128,0,97246:0:0:0:50:cymbal.wav
320,192,96818,1,0,0:0:0:0:
64,192,97246,128,0,97675:0:0:0:50:kick_1.wav
320,192,97246,1,0,0:0:0:50:cymbal.wav
448,192,97246,1,0,0:0:0:0:
192,192,97675,1,0,0:0:0:50:kick_1.wav
320,192,97675,1,0,0:0:0:50:cymbal.wav
448,192,97675,1,0,0:0:0:0:
192,192,97818,1,0,0:0:0:50:kick_1.wav
320,192,97818,1,0,0:0:0:0:
448,192,97818,1,0,0:0:0:0:
64,192,97961,1,0,0:0:0:50:kick_1.wav
192,192,97961,1,0,0:0:0:50:cymbal.wav
448,192,97961,128,0,98246:0:0:0:0:
64,192,98246,128,0,98675:0:0:0:50:kick_1.wav
192,192,98246,1,0,0:0:0:50:cymbal.wav
320,192,98246,1,0,0:0:0:0:
192,192,98675,1,0,0:0:0:50:kick_1.wav
320,192,98675,1,0,0:0:0:50:cymbal.wav
448,192,98675,128,0,99103:0:0:0:0:
64,192,99103,1,0,0:0:0:50:kick_1.wav
192,192,99103,1,0,0:0:0:50:cymbal.wav
320,192,99103,128,0,99532:0:0:0:0:
64,192,99532,128,0,99961:0:0:0:50:kick_1.wav
192,192,99532,1,0,0:0:0:50:cymbal.wav
448,192,99532,1,0,0:0:0:0:
192,192,99961,128,0,100246:0:0:0:50:kick_1.wav
320,192,99961,1,0,0:0:0:50:cymbal.wav
448,192,99961,1,0,0:0:0:0:
64,192,100246,1,0,0:0:0:50:kick_1.wav
320,192,100246,1,0,0:0:0:50:cymbal.wav
448,192,100246,128,0,100532:0:0:0:0:
64,192,100532,1,0,0:0:0:50:kick_1.wav
192,192,100532,128,0,100961:0:0:0:50:cymbal.wav
320,192,100532,1,0,0:0:0:0:
64,192,100961,1,0,0:0:0:50:kick_1.wav
320,192,100961,128,0,101389:0:0:0:50:cymbal.wav
448,192,100961,1,0,0:0:0:0:
64,192,101389,128,0,101818:0:0:0:50:kick_1.wav
192,192,101389,1,0,0:0:0:50:cymbal.wav
448,192,101389,1,0,0:0:0:0:
192,192,101818,1,0,0:0:0:50:kick_1.wav
320,192,101818,1,0,0:0:0:50:cymbal.wav
448,192,101818,128,0,102246:0:0:0:0:
64,192,102246,1,0,0:0:0:50:kick_1.wav
192,192,102246,1,0,0:0:0:50:cymbal.wav
320,192,102246,1,0,0:0:0:0:
64,192,102389,1,0,0:0:0:50:kick_1.wav
192,192,102389,1,0,0:0:0:0:
320,192,102389,1,0,0:0:0:0:
64,192,102532,128,0,102818:0:0:0:50:kick_1.wav
320,192,102532,1,0,0:0:0:50:cymbal.wav
448,192,102532,1,0,0:0:0:0:
192,192,102818,1,0,0:0:0:50:kick_1.wav
320,192,102818,128,0,103246:0:0:0:50:cymbal.wav
448,192,102818,1,0,0:0:0:0:
64,192,103246,1,0,0:0:0:50:kick_1.wav
192,192,103246,128,0,103675:0:0:0:50:cymbal.wav
448,192,103246,1,0,0:0:0:0:
64,192,103675,1,0,0:0:0:50:kick_1.wav
320,192,103675,1,0,0:0:0:50:cymbal.wav
448,192,103675,128,0,103961:0:0:0:0:
64,192,103961,128,0,104818:0:0:0:50:cymbal.wav
192,192,103961,1,0,0:0:0:50:finish.wav
320,192,103961,1,0,0:0:0:0:
320,192,104532,128,0,104603:0:0:0:0:
448,192,104532,128,0,104603:0:0:0:0:
192,192,104818,128,0,104889:0:0:0:0:
320,192,104818,128,0,104889:0:0:0:0:
64,192,105103,128,2,105175:0:0:0:50:kick_2.wav
192,192,105103,1,0,0:0:0:50:cymbal.wav
448,192,105103,1,0,0:0:0:0:
320,192,105175,1,0,0:0:0:0:
192,192,105246,1,0,0:0:0:0:
320,192,105318,1,0,0:0:0:0:
64,192,105389,1,2,0:0:0:50:kick_2.wav
448,192,105389,1,0,0:0:0:0:
192,192,105461,1,0,0:0:0:0:
320,192,105532,1,0,0:0:0:0:
192,192,105603,1,0,0:0:0:0:
64,192,105675,1,2,0:0:0:50:kick_2.wav
448,192,105675,1,0,0:0:0:0:
320,192,105746,1,0,0:0:0:0:
192,192,105818,1,0,0:0:0:0:
320,192,105889,1,0,0:0:0:0:
192,192,105961,1,2,0:0:0:50:kick_2.wav
448,192,105961,1,0,0:0:0:0:
64,192,106032,1,0,0:0:0:0:
448,192,106103,1,0,0:0:0:0:
64,192,106175,1,0,0:0:0:0:
192,192,106246,1,2,0:0:0:50:kick_2.wav
320,192,106246,1,0,0:0:0:0:
448,192,106318,1,0,0:0:0:0:
320,192,106389,1,0,0:0:0:0:
192,192,106461,1,0,0:0:0:0:
64,192,106532,1,2,0:0:0:50:kick_2.wav
448,192,106532,1,0,0:0:0:0:
192,192,106603,1,0,0:0:0:0:
320,192,106675,1,0,0:0:0:0:
448,192,106746,1,0,0:0:0:0:
64,192,106818,1,2,0:0:0:50:kick_2.wav
320,192,106818,1,0,0:0:0:0:
192,192,106889,1,0,0:0:0:0:
448,192,106961,1,0,0:0:0:0:
192,192,107032,1,0,0:0:0:0:
64,192,107103,1,2,0:0:0:50:kick_2.wav
448,192,107103,1,0,0:0:0:0:
320,192,107175,1,0,0:0:0:0:
64,192,107246,1,2,0:0:0:50:kick_2.wav
192,192,107246,1,0,0:0:0:0:
448,192,107318,1,0,0:0:0:0:
64,192,107389,1,2,0:0:0:50:kick_2.wav
192,192,107389,1,0,0:0:0:0:
448,192,107484,1,0,0:0:0:0:
320,192,107532,1,0,0:0:0:0:
192,192,107580,1,0,0:0:0:0:
64,192,107627,1,0,0:0:0:0:
320,192,107675,1,2,0:0:0:50:kick_2.wav
448,192,107675,1,0,0:0:0:0:
64,192,107770,1,0,0:0:0:0:
192,192,107818,1,0,0:0:0:0:
320,192,107865,1,0,0:0:0:0:
448,192,107913,1,0,0:0:0:0:
64,192,107961,1,2,0:0:0:50:kick_2.wav
192,192,107961,1,0,0:0:0:0:
448,192,108056,1,0,0:0:0:0:
320,192,108103,1,0,0:0:0:0:
64,192,108151,1,0,0:0:0:0:
192,192,108199,1,0,0:0:0:0:
320,192,108246,1,2,0:0:0:50:kick_2.wav
448,192,108246,1,0,0:0:0:0:
64,192,108341,1,0,0:0:0:0:
448,192,108389,1,0,0:0:0:0:
320,192,108437,1,0,0:0:0:0:
192,192,108484,1,0,0:0:0:0:
64,192,108532,1,2,0:0:0:50:kick_2.wav
448,192,108532,1,0,0:0:0:0:
320,192,108603,1,0,0:0:0:0:
192,192,108675,1,0,0:0:0:0:
320,192,108746,1,0,0:0:0:0:
64,192,108818,1,2,0:0:0:50:kick_2.wav
192,192,108818,1,0,0:0:0:0:
320,192,108889,1,0,0:0:0:0:
192,192,108961,1,0,0:0:0:0:
320,192,109032,1,0,0:0:0:0:
64,192,109103,1,2,0:0:0:50:kick_2.wav
192,192,109103,1,0,0:0:0:0:
448,192,109175,1,0,0:0:0:0:
64,192,109246,1,2,0:0:0:50:kick_2.wav
192,192,109246,1,0,0:0:0:0:
448,192,109318,1,0,0:0:0:0:
64,192,109389,1,0,0:0:0:0:
448,192,109461,1,0,0:0:0:0:
64,192,109532,1,2,0:0:0:50:kick_2.wav
192,192,109532,1,0,0:0:0:0:
448,192,109603,1,0,0:0:0:0:
64,192,109675,1,2,0:0:0:50:kick_2.wav
192,192,109675,1,0,0:0:0:0:
320,192,109746,1,0,0:0:0:0:
192,192,109818,1,0,0:0:0:0:
320,192,109889,1,0,0:0:0:0:
64,192,109961,1,2,0:0:0:50:kick_2.wav
448,192,109961,1,0,0:0:0:0:
192,192,110032,1,0,0:0:0:0:
320,192,110103,1,0,0:0:0:0:
192,192,110175,1,0,0:0:0:0:
64,192,110246,1,2,0:0:0:50:kick_2.wav
448,192,110246,1,0,0:0:0:0:
320,192,110318,1,0,0:0:0:0:
448,192,110389,1,0,0:0:0:0:
320,192,110461,1,0,0:0:0:0:
64,192,110532,1,2,0:0:0:50:kick_2.wav
192,192,110532,1,0,0:0:0:0:
448,192,110603,1,0,0:0:0:0:
192,192,110675,1,0,0:0:0:0:
448,192,110746,1,0,0:0:0:0:
64,192,110818,1,2,0:0:0:50:kick_2.wav
192,192,110818,1,0,0:0:0:0:
320,192,110889,1,0,0:0:0:0:
448,192,110961,1,0,0:0:0:0:
64,192,111032,1,0,0:0:0:0:
192,192,111103,1,2,0:0:0:50:kick_2.wav
320,192,111103,1,0,0:0:0:0:
448,192,111175,1,0,0:0:0:0:
64,192,111246,1,2,0:0:0:50:kick_2.wav
192,192,111246,1,0,0:0:0:0:
448,192,111318,1,0,0:0:0:0:
192,192,111389,1,2,0:0:0:50:kick_2.wav
320,192,111389,1,0,0:0:0:0:
64,192,111461,1,0,0:0:0:0:
448,192,111532,1,2,0:0:0:50:kick_2.wav
320,192,111568,1,2,0:0:0:50:kick_2.wav
192,192,111603,1,2,0:0:0:50:kick_2.wav
64,192,111639,1,2,0:0:0:50:kick_2.wav
320,192,111675,1,2,0:0:0:50:kick_2.wav
448,192,111675,1,0,0:0:0:0:
192,192,111746,1,0,0:0:0:0:
64,192,111818,1,2,0:0:0:50:kick_2.wav
448,192,111818,1,0,0:0:0:0:
320,192,111889,1,0,0:0:0:0:
64,192,111961,1,2,0:0:0:50:kick_2.wav
192,192,111961,1,0,0:0:0:0:
448,192,111961,1,0,0:0:0:0:
320,192,112103,1,0,0:0:0:0:
448,192,112103,1,0,0:0:0:0:
192,192,112175,1,0,0:0:0:0:
64,192,112246,1,2,0:0:0:50:kick_2.wav
320,192,112246,1,0,0:0:0:0:
448,192,112246,1,0,0:0:0:0:
64,192,112389,1,0,0:0:0:0:
192,192,112389,1,0,0:0:0:0:
320,192,112461,1,0,0:0:0:0:
64,192,112532,1,2,0:0:0:50:kick_2.wav
192,192,112532,1,0,0:0:0:0:
448,192,112532,1,0,0:0:0:0:
320,192,112675,1,0,0:0:0:0:
448,192,112675,1,0,0:0:0:0:
192,192,112746,1,0,0:0:0:0:
64,192,112818,1,2,0:0:0:50:kick_2.wav
320,192,112818,1,0,0:0:0:0:
448,192,112818,1,0,0:0:0:0:
64,192,112961,1,0,0:0:0:0:
192,192,112961,1,0,0:0:0:0:
320,192,113032,1,0,0:0:0:0:
64,192,113103,1,0,0:0:0:50:kick_2.wav
192,192,113103,1,0,0:0:0:0:
448,192,113103,1,0,0:0:0:0:
320,192,113151,1,0,0:0:0:0:
192,192,113199,1,0,0:0:0:0:
64,192,113246,1,0,0:0:0:0:
64,192,113389,1,0,0:0:0:50:kick_2.wav
192,192,113389,1,0,0:0:0:0:
448,192,113389,1,0,0:0:0:0:
320,192,113461,1,0,0:0:0:0:
192,192,113532,1,0,0:0:0:0:
448,192,113532,1,0,0:0:0:0:
64,192,113675,128,0,113818:0:0:0:0:
192,192,113746,128,0,113818:0:0:0:0:
320,192,113818,128,0,113889:0:0:0:0:
448,192,113818,128,0,113889:0:0:0:0:
64,192,113889,128,0,114175:0:0:0:0:
192,192,113889,128,0,114175:0:0:0:0:
320,192,113961,128,0,114175:0:0:0:0:
448,192,113961,128,0,114175:0:0:0:0:
64,192,114246,1,0,0:0:0:0:
192,192,114318,1,0,0:0:0:0:
320,192,114389,1,0,0:0:0:50:kick_2.wav
448,192,114389,1,0,0:0:0:0:
64,192,114461,1,0,0:0:0:0:
320,192,114532,1,0,0:0:0:50:kick_2.wav
448,192,114532,1,0,0:0:0:0:
192,192,114603,1,0,0:0:0:0:
64,192,114675,1,0,0:0:0:0:
320,192,114746,1,0,0:0:0:0:
192,192,114818,1,0,0:0:0:50:kick_2.wav
448,192,114818,1,0,0:0:0:0:
64,192,114889,1,0,0:0:0:0:
448,192,114961,1,0,0:0:0:0:
64,192,115032,1,0,0:0:0:0:
192,192,115103,1,0,0:0:0:50:kick_2.wav
320,192,115103,1,0,0:0:0:0:
448,192,115175,1,0,0:0:0:0:
192,192,115246,1,0,0:0:0:0:
448,192,115318,1,0,0:0:0:0:
64,192,115389,1,0,0:0:0:50:kick_2.wav
192,192,115389,1,0,0:0:0:0:
320,192,115461,1,0,0:0:0:0:
448,192,115532,1,0,0:0:0:0:
64,192,115603,1,0,0:0:0:0:
192,192,115675,1,0,0:0:0:50:kick_2.wav
320,192,115675,1,0,0:0:0:0:
448,192,115746,1,0,0:0:0:0:
320,192,115818,1,0,0:0:0:0:
192,192,115889,1,0,0:0:0:0:
64,192,115961,1,0,0:0:0:50:kick_2.wav
448,192,115961,1,0,0:0:0:0:
192,192,116032,1,0,0:0:0:0:
320,192,116103,1,0,0:0:0:50:kick_2.wav
448,192,116103,1,0,0:0:0:0:
64,192,116175,1,0,0:0:0:50:kick_2.wav
192,192,116175,1,0,0:0:0:0:
448,192,116246,1,0,0:0:0:0:
64,192,116318,1,0,0:0:0:0:
192,192,116389,1,0,0:0:0:50:kick_2.wav
320,192,116389,1,0,0:0:0:0:
448,192,116461,1,0,0:0:0:0:
64,192,116532,1,0,0:0:0:50:kick_2.wav
192,192,116532,1,0,0:0:0:0:
448,192,116627,1,0,0:0:0:0:
320,192,116675,1,0,0:0:0:0:
192,192,116722,1,0,0:0:0:0:
64,192,116770,1,0,0:0:0:0:
320,192,116818,1,0,0:0:0:50:kick_2.wav
448,192,116818,1,0,0:0:0:0:
64,192,116913,1,0,0:0:0:0:
192,192,116961,1,0,0:0:0:0:
320,192,117008,1,0,0:0:0:0:
448,192,117056,1,0,0:0:0:0:
64,192,117103,1,0,0:0:0:50:kick_2.wav
192,192,117103,1,0,0:0:0:0:
320,192,117199,1,0,0:0:0:0:
64,192,117246,1,0,0:0:0:50:kick_2.wav
192,192,117246,1,0,0:0:0:0:
448,192,117294,1,0,0:0:0:0:
320,192,117341,1,0,0:0:0:0:
64,192,117389,1,0,0:0:0:50:kick_2.wav
192,192,117389,1,0,0:0:0:0:
448,192,117484,1,0,0:0:0:0:
64,192,117532,1,0,0:0:0:50:kick_2.wav
192,192,117532,1,0,0:0:0:0:
320,192,117580,1,0,0:0:0:0:
448,192,117627,1,0,0:0:0:0:
64,192,117675,1,0,0:0:0:50:kick_2.wav
192,192,117675,1,0,0:0:0:0:
320,192,117746,1,0,0:0:0:0:
192,192,117818,1,0,0:0:0:0:
320,192,117889,1,0,0:0:0:0:
64,192,117961,1,0,0:0:0:50:kick_2.wav
192,192,117961,1,0,0:0:0:0:
320,192,118032,1,0,0:0:0:0:
192,192,118103,1,0,0:0:0:0:
320,192,118175,1,0,0:0:0:0:
64,192,118246,1,0,0:0:0:50:kick_2.wav
448,192,118246,1,0,0:0:0:0:
192,192,118318,1,0,0:0:0:0:
320,192,118389,1,0,0:0:0:50:kick_2.wav
448,192,118389,1,0,0:0:0:0:
192,192,118461,1,0,0:0:0:0:
320,192,118532,1,0,0:0:0:50:kick_2.wav
448,192,118532,1,0,0:0:0:0:
192,192,118603,1,0,0:0:0:0:
320,192,118675,1,0,0:0:0:50:kick_2.wav
448,192,118675,1,0,0:0:0:0:
192,192,118746,1,0,0:0:0:0:
448,192,118818,1,0,0:0:0:0:
320,192,118889,1,0,0:0:0:0:
64,192,118961,1,0,0:0:0:50:kick_2.wav
192,192,118961,1,0,0:0:0:0:
448,192,119032,1,0,0:0:0:0:
64,192,119103,1,0,0:0:0:50:kick_2.wav
192,192,119103,1,0,0:0:0:0:
320,192,119175,1,0,0:0:0:0:
192,192,119246,1,0,0:0:0:0:
320,192,119318,1,0,0:0:0:0:
64,192,119389,1,0,0:0:0:50:kick_2.wav
448,192,119389,1,0,0:0:0:0:
192,192,119461,1,0,0:0:0:0:
320,192,119532,1,0,0:0:0:0:
192,192,119603,1,0,0:0:0:0:
320,192,119675,1,0,0:0:0:50:kick_2.wav
448,192,119675,1,0,0:0:0:0:
64,192,119746,1,0,0:0:0:0:
448,192,119818,1,0,0:0:0:0:
192,192,119889,1,0,0:0:0:0:
320,192,119961,1,0,0:0:0:50:kick_2.wav
448,192,119961,1,0,0:0:0:0:
64,192,120008,1,0,0:0:0:0:
192,192,120056,1,0,0:0:0:0:
320,192,120103,1,0,0:0:0:0:
448,192,120151,1,0,0:0:0:0:
64,192,120246,1,0,0:0:0:50:kick_2.wav
192,192,120246,1,0,0:0:0:0:
448,192,120294,1,0,0:0:0:0:
320,192,120341,1,0,0:0:0:0:
192,192,120389,1,0,0:0:0:0:
64,192,120437,1,0,0:0:0:0:
320,192,120532,1,0,0:0:0:50:kick_2.wav
448,192,120532,1,0,0:0:0:0:
64,192,120603,1,0,0:0:0:0:
320,192,120675,1,0,0:0:0:50:kick_2.wav
448,192,120675,1,0,0:0:0:0:
64,192,120746,1,0,0:0:0:0:
320,192,120818,1,0,0:0:0:50:kick_2.wav
448,192,120818,1,0,0:0:0:0:
64,192,120889,1,0,0:0:0:0:
320,192,120961,1,0,0:0:0:50:kick_2.wav
448,192,120961,1,0,0:0:0:0:
64,192,121032,1,0,0:0:0:0:
320,192,121103,1,0,0:0:0:50:kick_2.wav
448,192,121103,1,0,0:0:0:0:
64,192,121199,1,0,0:0:0:0:
192,192,121246,1,0,0:0:0:0:
320,192,121294,1,0,0:0:0:0:
448,192,121341,1,0,0:0:0:0:
64,192,121389,1,0,0:0:0:0:
192,192,121437,1,0,0:0:0:0:
448,192,121484,1,0,0:0:0:0:
320,192,121532,1,0,0:0:0:0:
192,192,121580,1,0,0:0:0:0:
64,192,121627,1,0,0:0:0:0:
320,192,121675,1,0,0:0:0:50:kick_2.wav
448,192,121675,1,0,0:0:0:0:
192,192,121770,1,0,0:0:0:0:
64,192,121818,1,0,0:0:0:0:
448,192,121865,1,0,0:0:0:0:
320,192,121913,1,0,0:0:0:0:
192,192,121961,1,0,0:0:0:0:
64,192,122008,1,0,0:0:0:0:
320,192,122056,1,0,0:0:0:0:
448,192,122103,1,0,0:0:0:0:
64,192,122151,1,0,0:0:0:0:
192,192,122199,1,0,0:0:0:0:
320,192,122246,128,0,122532:0:0:0:50:kick_2.wav
448,192,122246,1,0,0:0:0:0:
64,192,122389,1,0,0:0:0:0:
448,192,122461,1,0,0:0:0:0:
64,192,122532,128,0,123103:0:0:0:0:
192,192,122532,1,0,0:0:0:0:
320,192,122675,1,0,0:0:0:0:
192,192,122746,1,0,0:0:0:0:
320,192,122818,128,0,123246:0:0:0:0:
448,192,122961,128,0,123246:0:0:0:0:
192,192,123103,128,0,123389:0:0:0:0:
64,192,123246,128,0,123389:0:0:0:0:
320,192,123389,1,0,0:0:0:50:kick_2.wav
448,192,123389,128,0,123461:0:0:0:50:cymbal.wav
64,192,123461,1,0,0:0:0:0:
192,192,123532,1,0,0:0:0:0:
64,192,123603,1,0,0:0:0:0:
320,192,123675,1,0,0:0:0:50:kick_2.wav
448,192,123675,128,0,123746:0:0:0:0:
192,192,123746,1,0,0:0:0:0:
64,192,123818,1,0,0:0:0:0:
320,192,123889,1,0,0:0:0:0:
64,192,123961,1,0,0:0:0:50:kick_2.wav
192,192,123961,128,0,124032:0:0:0:0:
448,192,124032,1,0,0:0:0:0:
192,192,124103,1,0,0:0:0:0:
448,192,124175,1,0,0:0:0:0:
64,192,124246,128,0,124318:0:0:0:50:kick_2.wav
320,192,124246,1,0,0:0:0:0:
448,192,124318,1,0,0:0:0:0:
192,192,124389,1,0,0:0:0:0:
320,192,124461,1,0,0:0:0:0:
64,192,124532,1,0,0:0:0:50:kick_2.wav
448,192,124532,128,0,124603:0:0:0:0:
192,192,124603,1,0,0:0:0:0:
320,192,124675,1,0,0:0:0:0:
192,192,124746,1,0,0:0:0:0:
64,192,124818,1,0,0:0:0:50:kick_2.wav
448,192,124818,128,0,124889:0:0:0:0:
320,192,124889,1,0,0:0:0:0:
192,192,124961,1,0,0:0:0:0:
320,192,125032,1,0,0:0:0:0:
64,192,125103,1,0,0:0:0:50:kick_2.wav
448,192,125103,128,0,125175:0:0:0:0:
192,192,125175,1,0,0:0:0:0:
320,192,125246,128,0,125318:0:0:0:50:kick_2.wav
448,192,125246,1,0,0:0:0:0:
64,192,125318,1,0,0:0:0:0:
192,192,125389,128,0,125461:0:0:0:50:kick_2.wav
320,192,125389,1,0,0:0:0:0:
448,192,125461,1,0,0:0:0:0:
64,192,125532,128,0,125603:0:0:0:50:kick_2.wav
192,192,125532,1,0,0:0:0:0:
320,192,125603,1,0,0:0:0:0:
64,192,125675,1,0,0:0:0:50:kick_2.wav
448,192,125675,128,0,125746:0:0:0:0:
192,192,125746,1,0,0:0:0:0:
320,192,125818,1,0,0:0:0:0:
192,192,125889,1,0,0:0:0:0:
64,192,125961,1,0,0:0:0:50:kick_2.wav
448,192,125961,128,0,126032:0:0:0:0:
320,192,126032,1,0,0:0:0:0:
192,192,126103,1,0,0:0:0:0:
448,192,126175,1,0,0:0:0:0:
64,192,126246,128,0,126318:0:0:0:50:kick_2.wav
320,192,126246,1,0,0:0:0:0:
448,192,126318,1,0,0:0:0:0:
192,192,126389,1,0,0:0:0:0:
320,192,126461,1,0,0:0:0:0:
64,192,126532,1,0,0:0:0:50:kick_2.wav
192,192,126532,128,0,126603:0:0:0:0:
448,192,126603,1,0,0:0:0:0:
64,192,126675,1,0,0:0:0:0:
320,192,126746,1,0,0:0:0:0:
192,192,126818,1,0,0:0:0:50:kick_2.wav
448,192,126818,128,0,126889:0:0:0:0:
64,192,126889,1,0,0:0:0:0:
320,192,126961,1,0,0:0:0:0:
192,192,127032,1,0,0:0:0:0:
64,192,127103,128,0,127175:0:0:0:50:kick_2.wav
448,192,127103,1,0,0:0:0:0:
192,192,127175,1,0,0:0:0:0:
320,192,127246,1,0,0:0:0:50:kick_2.wav
448,192,127246,128,0,127318:0:0:0:0:
64,192,127318,1,0,0:0:0:0:
192,192,127389,128,0,127461:0:0:0:50:kick_2.wav
320,192,127389,1,0,0:0:0:0:
64,192,127461,1,0,0:0:0:0:
320,192,127532,1,0,0:0:0:50:kick_2.wav
448,192,127532,1,0,0:0:0:0:
192,192,127603,1,0,0:0:0:0:
320,192,127675,128,0,127746:0:0:0:50:kick_2.wav
448,192,127675,1,0,0:0:0:0:
64,192,127746,1,0,0:0:0:50:kick_2.wav
192,192,127746,1,0,0:0:0:0:
320,192,127818,1,0,0:0:0:50:kick_2.wav
448,192,127818,1,0,0:0:0:0:
64,192,127889,1,0,0:0:0:0:
192,192,127961,1,0,0:0:0:50:kick_2.wav
448,192,127961,128,0,128032:0:0:0:50:cymbal.wav
320,192,128032,1,0,0:0:0:0:
64,192,128103,1,0,0:0:0:0:
192,192,128175,1,0,0:0:0:0:
64,192,128246,1,0,0:0:0:50:kick_2.wav
448,192,128246,128,0,128318:0:0:0:0:
320,192,128318,1,0,0:0:0:0:
192,192,128389,1,0,0:0:0:0:
320,192,128461,1,0,0:0:0:0:
64,192,128532,128,0,128603:0:0:0:50:kick_2.wav
448,192,128532,1,0,0:0:0:0:
192,192,128603,1,0,0:0:0:0:
448,192,128675,1,0,0:0:0:0:
64,192,128746,1,0,0:0:0:0:
192,192,128818,128,0,128889:0:0:0:50:kick_2.wav
320,192,128818,1,0,0:0:0:0:
64,192,128889,1,0,0:0:0:0:
448,192,128961,1,0,0:0:0:0:
192,192,129032,1,0,0:0:0:0:
320,192,129103,1,0,0:0:0:50:kick_2.wav
448,192,129103,128,0,129175:0:0:0:0:
64,192,129175,1,0,0:0:0:0:
192,192,129246,1,0,0:0:0:0:
64,192,129318,1,0,0:0:0:0:
320,192,129389,1,0,0:0:0:50:kick_2.wav
448,192,129389,128,0,129461:0:0:0:0:
192,192,129461,1,0,0:0:0:0:
320,192,129532,1,0,0:0:0:0:
64,192,129603,1,0,0:0:0:0:
192,192,129675,1,0,0:0:0:50:kick_2.wav
448,192,129675,128,0,129746:0:0:0:0:
64,192,129746,1,0,0:0:0:0:
320,192,129818,128,0,129889:0:0:0:0:
448,192,129889,1,0,0:0:0:0:
64,192,129961,1,0,0:0:0:50:kick_2.wav
192,192,129961,128,0,130032:0:0:0:0:
320,192,130032,1,0,0:0:0:0:
64,192,130103,128,0,130175:0:0:0:50:kick_2.wav
448,192,130103,1,0,0:0:0:0:
320,192,130175,1,0,0:0:0:0:
64,192,130246,1,0,0:0:0:50:kick_2.wav
192,192,130246,128,0,130318:0:0:0:0:
448,192,130318,1,0,0:0:0:0:
192,192,130389,1,0,0:0:0:0:
320,192,130461,1,0,0:0:0:0:
192,192,130532,1,0,0:0:0:50:kick_2.wav
448,192,130532,128,0,130603:0:0:0:0:
64,192,130603,1,0,0:0:0:0:
320,192,130675,1,0,0:0:0:0:
192,192,130746,1,0,0:0:0:0:
64,192,130818,128,0,130889:0:0:0:50:kick_2.wav
320,192,130818,1,0,0:0:0:0:
448,192,130889,1,0,0:0:0:0:
64,192,130961,1,0,0:0:0:50:kick_2.wav
192,192,130961,1,0,0:0:0:0:
448,192,131032,1,0,0:0:0:0:
192,192,131103,1,0,0:0:0:50:kick_2.wav
320,192,131103,128,0,131175:0:0:0:0:
64,192,131175,1,0,0:0:0:0:
320,192,131246,1,0,0:0:0:50:kick_2.wav
448,192,131246,1,0,0:0:0:0:
192,192,131318,1,0,0:0:0:0:
64,192,131389,128,0,131461:0:0:0:50:kick_2.wav
320,192,131389,1,0,0:0:0:0:
448,192,131461,1,0,0:0:0:0:
192,192,131532,1,0,0:0:0:0:
320,192,131603,1,0,0:0:0:0:
64,192,131675,1,0,0:0:0:50:kick_2.wav
448,192,131675,128,0,131746:0:0:0:0:
320,192,131746,1,0,0:0:0:0:
192,192,131818,1,0,0:0:0:0:
448,192,131889,1,0,0:0:0:0:
64,192,131961,1,0,0:0:0:50:kick_2.wav
192,192,131961,1,0,0:0:0:0:
320,192,132032,1,0,0:0:0:50:kick_2.wav
448,192,132032,1,0,0:0:0:0:
64,192,132103,1,0,0:0:0:50:kick_2.wav
192,192,132103,1,0,0:0:0:0:
320,192,132175,1,0,0:0:0:50:kick_2.wav
448,192,132175,1,0,0:0:0:0:
64,192,132246,1,0,0:0:0:50:kick_2.wav
192,192,132246,1,0,0:0:0:0:
320,192,132318,1,0,0:0:0:50:kick_2.wav
448,192,132318,1,0,0:0:0:0:
64,192,132389,1,0,0:0:0:50:kick_2.wav
192,192,132389,1,0,0:0:0:0:
320,192,132461,1,0,0:0:0:50:kick_2.wav
448,192,132461,1,0,0:0:0:0:
64,192,132532,128,0,132603:0:0:0:50:kick_2.wav
192,192,132532,128,0,132603:0:0:0:50:cymbal.wav
320,192,132603,1,0,0:0:0:0:
448,192,132675,1,0,0:0:0:0:
320,192,132746,1,0,0:0:0:0:
64,192,132818,128,0,132889:0:0:0:50:kick_2.wav
192,192,132818,128,0,132889:0:0:0:0:
448,192,132889,1,0,0:0:0:0:
320,192,132961,1,0,0:0:0:0:
192,192,133032,1,0,0:0:0:0:
320,192,133103,128,0,133175:0:0:0:50:kick_2.wav
448,192,133103,128,0,133175:0:0:0:0:
64,192,133175,1,0,0:0:0:0:
320,192,133246,1,0,0:0:0:0:
64,192,133318,1,0,0:0:0:0:
192,192,133389,128,0,133461:0:0:0:50:kick_2.wav
448,192,133389,128,0,133461:0:0:0:0:
64,192,133461,1,0,0:0:0:0:
320,192,133532,1,0,0:0:0:0:
192,192,133603,1,0,0:0:0:0:
64,192,133675,128,0,133746:0:0:0:50:kick_2.wav
448,192,133675,128,0,133746:0:0:0:0:
320,192,133746,1,0,0:0:0:0:
192,192,133818,1,0,0:0:0:0:
320,192,133889,1,0,0:0:0:0:
64,192,133961,128,0,134032:0:0:0:50:kick_2.wav
448,192,133961,128,0,134032:0:0:0:0:
192,192,134032,1,0,0:0:0:0:
320,192,134103,1,0,0:0:0:0:
192,192,134175,1,0,0:0:0:0:
64,192,134246,128,0,134318:0:0:0:50:kick_2.wav
448,192,134246,128,0,134318:0:0:0:0:
320,192,134318,1,0,0:0:0:0:
64,192,134389,128,0,134461:0:0:0:0:
448,192,134461,1,0,0:0:0:0:
192,192,134532,128,0,134603:0:0:0:50:kick_2.wav
320,192,134532,128,0,134603:0:0:0:0:
64,192,134603,1,0,0:0:0:0:
320,192,134675,128,0,134746:0:0:0:50:kick_2.wav
448,192,134675,128,0,134746:0:0:0:0:
192,192,134746,1,0,0:0:0:0:
64,192,134818,128,0,134889:0:0:0:50:kick_2.wav
448,192,134818,128,0,134889:0:0:0:50:cymbal.wav
320,192,134889,1,0,0:0:0:0:
192,192,134961,1,0,0:0:0:0:
320,192,135032,1,0,0:0:0:0:
64,192,135103,128,0,135175:0:0:0:50:kick_2.wav
448,192,135103,128,0,135175:0:0:0:0:
192,192,135175,1,0,0:0:0:0:
320,192,135246,1,0,0:0:0:0:
64,192,135318,1,0,0:0:0:0:
192,192,135389,128,0,135461:0:0:0:50:kick_2.wav
448,192,135389,128,0,135461:0:0:0:0:
64,192,135461,1,0,0:0:0:0:
320,192,135532,1,0,0:0:0:0:
192,192,135603,1,0,0:0:0:0:
320,192,135675,128,0,135746:0:0:0:50:kick_2.wav
448,192,135675,128,0,135746:0:0:0:0:
64,192,135746,1,0,0:0:0:50:kick_2.wav
192,192,135746,1,0,0:0:0:0:
320,192,135818,1,0,0:0:0:50:kick_2.wav
448,192,135818,1,0,0:0:0:0:
64,192,135889,1,0,0:0:0:50:kick_2.wav
192,192,135889,1,0,0:0:0:0:
320,192,135961,128,0,136032:0:0:0:50:kick_2.wav
448,192,135961,128,0,136032:0:0:0:0:
64,192,136032,1,0,0:0:0:0:
192,192,136103,1,0,0:0:0:0:
320,192,136175,1,0,0:0:0:0:
64,192,136246,128,0,136318:0:0:0:50:kick_2.wav
448,192,136246,128,0,136318:0:0:0:0:
320,192,136318,1,0,0:0:0:0:
64,192,136389,128,0,136461:0:0:0:50:kick_2.wav
192,192,136389,128,0,136461:0:0:0:0:
448,192,136461,1,0,0:0:0:0:
192,192,136532,128,0,136603:0:0:0:50:kick_2.wav
320,192,136532,128,0,136603:0:0:0:0:
448,192,136603,1,0,0:0:0:0:
192,192,136675,1,0,0:0:0:0:
320,192,136746,1,0,0:0:0:0:
64,192,136818,128,0,136889:0:0:0:50:kick_2.wav
192,192,136818,128,0,136889:0:0:0:0:
448,192,136889,1,0,0:0:0:0:
64,192,136961,1,0,0:0:0:50:kick_2.wav
192,192,136961,1,0,0:0:0:0:
448,192,137032,1,0,0:0:0:0:
64,192,137103,128,0,137175:0:0:0:50:kick_2.wav
320,192,137103,128,0,137175:0:0:0:50:cymbal.wav
192,192,137175,1,0,0:0:0:0:
320,192,137246,1,0,0:0:0:0:
448,192,137318,1,0,0:0:0:0:
64,192,137389,128,0,137461:0:0:0:50:kick_2.wav
320,192,137389,128,0,137461:0:0:0:0:
192,192,137461,1,0,0:0:0:0:
448,192,137532,1,0,0:0:0:0:
192,192,137603,1,0,0:0:0:0:
64,192,137675,128,0,137746:0:0:0:50:kick_2.wav
448,192,137675,128,0,137746:0:0:0:0:
320,192,137746,1,0,0:0:0:0:
64,192,137818,1,0,0:0:0:0:
448,192,137889,1,0,0:0:0:0:
192,192,137961,128,0,138032:0:0:0:50:kick_2.wav
320,192,137961,128,0,138032:0:0:0:0:
448,192,138032,1,0,0:0:0:0:
64,192,138103,1,0,0:0:0:0:
320,192,138175,1,0,0:0:0:0:
64,192,138246,128,0,138318:0:0:0:50:kick_2.wav
192,192,138246,128,0,138318:0:0:0:50:cymbal.wav
448,192,138318,1,0,0:0:0:0:
320,192,138389,1,0,0:0:0:0:
448,192,138461,1,0,0:0:0:0:
64,192,138532,128,0,138603:0:0:0:50:kick_2.wav
192,192,138532,128,0,138603:0:0:0:0:
320,192,138603,1,0,0:0:0:0:
192,192,138675,1,0,0:0:0:0:
448,192,138746,1,0,0:0:0:0:
64,192,138818,128,0,138889:0:0:0:50:kick_2.wav
192,192,138818,128,0,138889:0:0:0:0:
448,192,138889,1,0,0:0:0:0:
192,192,138961,128,0,139032:0:0:0:50:kick_2.wav
320,192,138961,128,0,139032:0:0:0:0:
64,192,139032,1,0,0:0:0:0:
320,192,139103,128,0,139175:0:0:0:50:kick_2.wav
448,192,139103,128,0,139175:0:0:0:0:
192,192,139175,1,0,0:0:0:0:
64,192,139246,128,0,139318:0:0:0:50:kick_2.wav
448,192,139246,128,0,139318:0:0:0:0:
192,192,139318,1,0,0:0:0:0:
320,192,139389,128,0,139461:0:0:0:50:kick_2.wav
448,192,139389,128,0,139461:0:0:0:50:cymbal.wav
64,192,139461,1,0,0:0:0:0:
192,192,139532,1,0,0:0:0:50:kick_2.wav
320,192,139532,1,0,0:0:0:0:
448,192,139603,1,0,0:0:0:0:
64,192,139675,128,0,139746:0:0:0:50:kick_2.wav
192,192,139675,128,0,139746:0:0:0:0:
448,192,139746,1,0,0:0:0:0:
192,192,139818,1,0,0:0:0:0:
320,192,139889,1,0,0:0:0:0:
192,192,139961,128,0,140032:0:0:0:50:kick_2.wav
448,192,139961,128,0,140032:0:0:0:0:
64,192,140032,1,0,0:0:0:0:
320,192,140103,1,0,0:0:0:0:
64,192,140175,1,0,0:0:0:0:
192,192,140246,128,0,140318:0:0:0:50:kick_2.wav
320,192,140246,128,0,140318:0:0:0:0:
448,192,140318,1,0,0:0:0:0:
64,192,140389,1,0,0:0:0:50:kick_2.wav
192,192,140389,1,0,0:0:0:0:
448,192,140461,1,0,0:0:0:0:
320,192,140532,128,0,140603:0:0:0:0:
448,192,140603,1,0,0:0:0:0:
64,192,140675,1,0,0:0:0:50:kick_2.wav
192,192,140675,1,0,0:0:0:0:
320,192,140746,1,0,0:0:0:0:
64,192,140818,128,0,140889:0:0:0:50:kick_2.wav
448,192,140818,128,0,140889:0:0:0:0:
192,192,140889,1,0,0:0:0:0:
320,192,140961,1,0,0:0:0:0:
64,192,141032,1,0,0:0:0:0:
320,192,141103,1,0,0:0:0:50:kick_2.wav
448,192,141103,1,0,0:0:0:0:
64,192,141175,1,0,0:0:0:50:kick_2.wav
192,192,141175,1,0,0:0:0:0:
320,192,141246,1,0,0:0:0:50:kick_2.wav
448,192,141246,1,0,0:0:0:0:
64,192,141318,1,0,0:0:0:50:kick_2.wav
192,192,141318,1,0,0:0:0:0:
320,192,141389,1,0,0:0:0:50:kick_2.wav
448,192,141389,1,0,0:0:0:0:
64,192,141461,1,0,0:0:0:50:kick_2.wav
192,192,141461,1,0,0:0:0:0:
320,192,141532,1,0,0:0:0:50:kick_2.wav
448,192,141532,1,0,0:0:0:0:
64,192,141603,1,0,0:0:0:50:kick_2.wav
192,192,141603,1,0,0:0:0:0:
64,192,141675,128,0,143246:0:0:0:50:kick_2.wav
320,192,141675,1,0,0:0:0:50:finish.wav
448,192,141675,1,0,0:0:0:0:
448,192,143103,128,0,143175:0:0:0:0:
320,192,143175,128,0,143246:0:0:0:0:
192,192,143246,128,0,143318:0:0:0:0:
64,192,143318,128,0,147389:0:0:0:0:
192,192,146246,1,0,0:0:0:50:finish.wav
320,192,146246,1,0,0:0:0:0:
448,192,146532,128,0,147103:0:0:0:0:
320,192,146818,128,0,147961:0:0:0:0:
192,192,147103,128,0,147675:0:0:0:0:
448,192,147389,128,0,148532:0:0:0:0:
64,192,147675,128,0,148246:0:0:0:0:
192,192,147961,128,0,148532:0:0:0:0:
320,192,148246,128,0,148532:0:0:0:0:
64,192,148532,128,0,149675:0:0:0:0:
448,192,148818,128,0,149389:0:0:0:0:
320,192,149103,128,0,150246:0:0:0:0:
192,192,149389,128,0,149961:0:0:0:0:
448,192,149675,128,0,150532:0:0:0:0:
64,192,149961,128,0,150532:0:0:0:0:
192,192,150246,128,0,150818:0:0:0:0:
320,192,150532,128,0,150818:0:0:0:0:
64,192,150818,128,0,151675:0:0:0:0:
448,192,150818,128,0,151389:0:0:0:0:
320,192,151103,128,0,151675:0:0:0:0:
192,192,151389,128,0,151961:0:0:0:0:
448,192,151675,128,0,152532:0:0:0:0:
64,192,151961,128,0,153103:0:0:0:0:
320,192,151961,128,0,152246:0:0:0:0:
192,192,152246,128,0,152818:0:0:0:0:
320,192,152532,128,0,152818:0:0:0:0:
448,192,152818,128,0,153675:0:0:0:0:
192,192,153103,128,0,153389:0:0:0:0:
320,192,153103,128,0,153961:0:0:0:0:
64,192,153389,128,0,153961:0:0:0:0:
192,192,153675,128,0,154246:0:0:0:0:
448,192,153961,128,0,154818:0:0:0:0:
64,192,154246,128,0,154532:0:0:0:0:
320,192,154246,128,0,155675:0:0:0:0:
192,192,154532,128,0,155103:0:0:0:0:
64,192,154818,128,0,155103:0:0:0:0:
448,192,155103,128,0,155389:0:0:0:0:
64,192,155389,128,0,155961:0:0:0:0:
192,192,155389,128,0,155961:0:0:0:0:
448,192,155675,128,0,156246:0:0:0:0:
320,192,155961,128,0,156246:0:0:0:0:
192,192,156246,128,0,156532:0:0:0:0:
64,192,156389,128,0,157389:0:0:0:0:
320,192,156532,128,0,157389:0:0:0:0:
448,192,156532,128,0,156818:0:0:0:0:
192,192,156818,128,0,158246:0:0:0:0:
448,192,157103,128,0,157675:0:0:0:0:
64,192,157675,128,0,158246:0:0:0:0:
320,192,157675,128,0,157961:0:0:0:0:
448,192,157961,128,0,158532:0:0:0:0:
320,192,158246,128,0,158532:0:0:0:0:
64,192,158532,128,0,159961:0:0:0:0:
192,192,158675,128,0,159103:0:0:0:0:
320,192,158818,128,0,159103:0:0:0:0:
448,192,158818,128,0,159961:0:0:0:0:
192,192,159389,128,0,159961:0:0:0:0:
320,192,159389,128,0,159961:0:0:0:0:
64,192,160103,128,0,161103:0:0:0:0:
192,192,160246,128,0,160532:0:0:0:0:
320,192,160389,128,0,161246:0:0:0:0:
448,192,160532,128,0,161246:0:0:0:0:
192,192,160675,128,0,160818:0:0:0:0:
192,192,160961,128,0,161103:0:0:0:0:
64,192,161246,128,0,161532:0:0:0:0:
192,192,161246,128,0,161675:0:0:0:0:
320,192,161389,128,0,161532:0:0:0:0:
448,192,161389,128,0,161675:0:0:0:0:
64,192,161675,128,0,161818:0:0:0:0:
320,192,161675,128,0,161818:0:0:0:0:
192,192,161818,128,0,162675:0:0:0:0:
448,192,161818,128,0,162389:0:0:0:0:
64,192,161961,128,0,162246:0:0:0:0:
320,192,161961,128,0,162532:0:0:0:0:
64,192,162389,128,0,162675:0:0:0:0:
448,192,162532,128,0,163246:0:0:0:0:
320,192,162675,128,0,162961:0:0:0:0:
64,192,162818,128,0,163532:0:0:0:0:
192,192,162818,128,0,162961:0:0:0:0:
192,192,163103,128,0,163532:0:0:0:0:
320,192,163103,128,0,163246:0:0:0:0:
320,192,163389,128,0,163818:0:0:0:0:
448,192,163389,128,0,164103:0:0:0:0:
64,192,163675,128,0,164103:0:0:0:0:
192,192,163675,128,0,163818:0:0:0:0:
192,192,163961,128,0,164961:0:0:0:0:
320,192,163961,128,0,165532:0:0:0:0:
64,192,164246,128,0,165818:0:0:0:0:
448,192,164246,128,0,164389:0:0:0:0:
448,192,164532,128,0,166246:0:0:0:0:
192,192,165103,128,0,166532:0:0:0:0:
320,192,165675,128,0,166389:0:0:0:0:
64,192,165961,128,0,166675:0:0:0:0:
448,192,166389,128,0,167389:0:0:0:0:
320,192,166532,128,0,167532:0:0:0:0:
192,192,166675,128,0,167675:0:0:0:0:
64,192,166818,128,0,167818:0:0:0:0:
448,192,167532,128,0,168961:0:0:0:0:
320,192,167675,128,0,168818:0:0:0:0:
192,192,167818,128,0,168675:0:0:0:0:
64,192,167961,128,0,168532:0:0:0:0:
64,192,168675,128,0,168818:0:0:0:0:
192,192,168818,128,0,168961:0:0:0:0:
320,192,168961,128,0,169103:0:0:0:0:
64,192,169103,128,0,169675:0:0:0:0:
448,192,169103,128,0,169246:0:0:0:0:
448,192,169389,128,0,169532:0:0:0:0:
192,192,169675,128,0,169818:0:0:0:0:
320,192,169675,128,0,170246:0:0:0:0:
192,192,169961,128,0,170103:0:0:0:0:
64,192,170246,128,0,171389:0:0:0:0:
448,192,170246,128,0,170389:0:0:0:0:
448,192,170532,128,0,170675:0:0:0:0:
192,192,170818,128,0,170961:0:0:0:0:
320,192,170961,128,0,171103:0:0:0:0:
448,192,171103,128,0,171246:0:0:0:0:
192,192,171246,128,0,171389:0:0:0:0:
320,192,171389,128,0,171532:0:0:0:0:
448,192,171389,128,0,171961:0:0:0:0:
320,192,171675,128,0,171818:0:0:0:0:
64,192,171961,128,0,172103:0:0:0:0:
320,192,171961,128,0,172532:0:0:0:0:
64,192,172246,128,0,172389:0:0:0:0:
64,192,172532,128,0,173675:0:0:0:0:
192,192,172532,128,0,172675:0:0:0:0:
192,192,172818,128,0,172961:0:0:0:0:
448,192,173103,128,0,173246:0:0:0:0:
320,192,173246,128,0,173389:0:0:0:0:
192,192,173389,128,0,173532:0:0:0:0:
448,192,173532,128,0,173675:0:0:0:0:
192,192,173675,128,0,173818:0:0:0:0:
320,192,173675,128,0,174818:0:0:0:0:
448,192,173961,128,0,174103:0:0:0:0:
192,192,174246,128,0,174389:0:0:0:0:
448,192,174532,128,0,174675:0:0:0:0:
64,192,174818,128,0,174961:0:0:0:0:
192,192,174818,128,0,175961:0:0:0:0:
320,192,175103,128,0,175246:0:0:0:0:
64,192,175389,128,0,175532:0:0:0:0:
448,192,175675,128,0,175818:0:0:0:0:
64,192,175818,128,0,175961:0:0:0:0:
320,192,175961,128,0,176103:0:0:0:0:
448,192,175961,128,0,177103:0:0:0:0:
192,192,176246,128,0,176389:0:0:0:0:
64,192,176532,128,0,176675:0:0:0:0:
192,192,176818,128,0,176961:0:0:0:0:
320,192,176961,128,0,177103:0:0:0:0:
64,192,177103,128,0,177389:0:0:0:0:
192,192,177103,128,0,178246:0:0:0:0:
320,192,177389,128,0,177532:0:0:0:0:
64,192,177532,128,0,177675:0:0:0:0:
448,192,177675,128,0,177961:0:0:0:0:
320,192,177961,128,0,178246:0:0:0:0:
64,192,178246,128,0,178389:0:0:0:0:
448,192,178246,128,0,178818:0:0:0:0:
64,192,178532,128,0,178675:0:0:0:0:
64,192,178818,128,0,179389:0:0:0:0:
320,192,178818,128,0,178961:0:0:0:0:
320,192,179103,128,0,179246:0:0:0:0:
192,192,179389,128,0,179532:0:0:0:0:
320,192,179389,128,0,180532:0:0:0:0:
192,192,179675,128,0,179818:0:0:0:0:
192,192,179961,128,0,180103:0:0:0:0:
64,192,180103,128,0,180246:0:0:0:0:
448,192,180246,128,0,180389:0:0:0:0:
192,192,180389,128,0,180532:0:0:0:0:
64,192,180532,128,0,181103:0:0:0:0:
448,192,180532,128,0,180675:0:0:0:0:
192,192,180818,128,0,180961:0:0:0:0:
320,192,181103,128,0,181675:0:0:0:0:
448,192,181103,128,0,181246:0:0:0:0:
448,192,181389,128,0,181532:0:0:0:0:
64,192,181675,128,0,182818:0:0:0:0:
192,192,181675,128,0,181818:0:0:0:0:
320,192,181961,128,0,182103:0:0:0:0:
192,192,182246,128,0,182389:0:0:0:0:
448,192,182389,128,0,182532:0:0:0:0:
320,192,182532,128,0,182818:0:0:0:0:
192,192,182818,128,0,182961:0:0:0:0:
448,192,182818,128,0,183961:0:0:0:0:
320,192,183103,128,0,183246:0:0:0:0:
192,192,183389,128,0,183532:0:0:0:0:
320,192,183675,128,0,183818:0:0:0:0:
64,192,183961,128,0,185103:0:0:0:0:
192,192,183961,128,0,184103:0:0:0:0:
448,192,184246,128,0,184389:0:0:0:0:
192,192,184532,128,0,184675:0:0:0:0:
320,192,184675,128,0,184818:0:0:0:0:
448,192,184818,128,0,184961:0:0:0:0:
320,192,185103,128,0,185246:0:0:0:0:
448,192,185103,128,0,186246:0:0:0:0:
64,192,185246,128,0,185389:0:0:0:0:
192,192,185389,128,0,185532:0:0:0:0:
64,192,185532,128,0,185675:0:0:0:0:
320,192,185675,128,0,185818:0:0:0:0:
64,192,185818,128,0,185961:0:0:0:0:
192,192,185961,128,0,186103:0:0:0:0:
64,192,186103,128,0,186246:0:0:0:0:
192,192,186246,128,0,187389:0:0:0:0:
320,192,186246,128,0,186389:0:0:0:0:
64,192,186532,128,0,186675:0:0:0:0:
320,192,186818,128,0,186961:0:0:0:0:
448,192,187103,128,0,187246:0:0:0:0:
320,192,187246,128,0,187389:0:0:0:0:
64,192,187389,128,0,191961:0:0:0:0:
448,192,187389,128,0,191961:0:0:0:0:
192,192,191961,1,0,0:0:0:50:cymbal.wav
320,192,191961,1,0,0:0:0:50:finish.wav
64,192,192532,1,0,0:0:0:0:
192,192,192532,1,0,0:0:0:0:
192,192,192675,1,0,0:0:0:0:
320,192,192675,1,0,0:0:0:0:
64,192,192818,1,0,0:0:0:0:
448,192,192818,1,0,0:0:0:0:
320,192,193103,1,0,0:0:0:0:
448,192,193103,1,0,0:0:0:0:
64,192,193246,1,0,0:0:0:0:
192,192,193389,1,0,0:0:0:0:
64,192,193532,1,0,0:0:0:0:
320,192,193675,1,0,0:0:0:0:
448,192,193675,1,0,0:0:0:0:
192,192,193818,1,0,0:0:0:0:
64,192,193961,1,0,0:0:0:0:
320,192,193961,1,0,0:0:0:0:
320,192,194211,1,0,0:0:0:0:
448,192,194246,1,0,0:0:0:0:
64,192,194389,1,0,0:0:0:0:
448,192,194532,1,0,0:0:0:0:
64,192,194675,1,0,0:0:0:0:
192,192,194675,1,0,0:0:0:0:
320,192,194818,1,0,0:0:0:0:
448,192,194961,1,0,0:0:0:0:
192,192,195103,1,0,0:0:0:0:
320,192,195103,1,0,0:0:0:0:
64,192,195389,1,0,0:0:0:0:
192,192,195389,1,0,0:0:0:0:
320,192,195532,1,0,0:0:0:0:
448,192,195675,1,0,0:0:0:0:
64,192,195961,1,0,0:0:0:0:
192,192,195961,1,0,0:0:0:0:
192,192,196103,1,0,0:0:0:0:
320,192,196103,1,0,0:0:0:0:
320,192,196246,1,0,0:0:0:0:
448,192,196246,1,0,0:0:0:0:
64,192,196496,1,0,0:0:0:0:
192,192,196532,1,0,0:0:0:0:
448,192,196675,1,0,0:0:0:0:
192,192,196818,1,0,0:0:0:0:
64,192,196961,1,0,0:0:0:0:
320,192,197103,1,0,0:0:0:0:
448,192,197103,1,0,0:0:0:0:
192,192,197246,1,0,0:0:0:0:
320,192,197246,1,0,0:0:0:0:
64,192,197389,1,0,0:0:0:0:
448,192,197389,1,0,0:0:0:0:
192,192,197639,1,0,0:0:0:0:
64,192,197675,1,0,0:0:0:0:
448,192,197818,1,0,0:0:0:0:
320,192,197961,1,0,0:0:0:0:
64,192,198103,1,0,0:0:0:0:
448,192,198103,1,0,0:0:0:0:
192,192,198246,1,0,0:0:0:0:
320,192,198389,1,0,0:0:0:0:
64,192,198532,1,0,0:0:0:0:
448,192,198532,1,0,0:0:0:0:
192,192,198782,1,0,0:0:0:0:
64,192,198818,1,0,0:0:0:0:
448,192,198961,1,0,0:0:0:0:
192,192,199103,1,0,0:0:0:0:
64,192,199246,1,0,0:0:0:0:
320,192,199246,1,0,0:0:0:0:
448,192,199389,1,0,0:0:0:0:
192,192,199532,1,0,0:0:0:0:
320,192,199675,1,0,0:0:0:0:
448,192,199675,1,0,0:0:0:0:
64,192,199961,1,0,0:0:0:0:
320,192,199961,1,0,0:0:0:0:
320,192,200246,1,0,0:0:0:0:
448,192,200246,1,0,0:0:0:0:
64,192,200532,1,0,0:0:0:0:
192,192,200532,1,0,0:0:0:0:
448,192,200675,1,0,0:0:0:0:
64,192,201103,1,0,0:0:0:50:finish.wav
192,192,201103,1,0,0:0:0:0:
320,192,201103,1,0,0:0:0:0:
448,192,201103,1,0,0:0:0:0:
64,192,201675,1,0,0:0:0:0:
192,192,201675,1,0,0:0:0:0:
192,192,201818,1,0,0:0:0:0:
320,192,201818,1,0,0:0:0:0:
320,192,201961,1,0,0:0:0:0:
448,192,201961,1,0,0:0:0:0:
192,192,202103,1,0,0:0:0:0:
64,192,202246,1,0,0:0:0:0:
448,192,202246,1,0,0:0:0:0:
320,192,202389,1,0,0:0:0:0:
64,192,202532,1,0,0:0:0:0:
192,192,202675,1,0,0:0:0:0:
320,192,202818,1,0,0:0:0:0:
448,192,202818,1,0,0:0:0:0:
192,192,202961,1,0,0:0:0:0:
64,192,203103,1,0,0:0:0:0:
320,192,203103,1,0,0:0:0:0:
448,192,203246,1,0,0:0:0:0:
320,192,203365,1,0,0:0:0:0:
192,192,203389,1,0,0:0:0:0:
64,192,203413,1,0,0:0:0:0:
448,192,203532,1,0,0:0:0:0:
64,192,203675,1,0,0:0:0:0:
320,192,203818,1,0,0:0:0:0:
448,192,203818,1,0,0:0:0:0:
320,192,203961,1,0,0:0:0:0:
448,192,203961,1,0,0:0:0:0:
64,192,204103,1,0,0:0:0:0:
192,192,204246,1,0,0:0:0:0:
320,192,204246,1,0,0:0:0:0:
448,192,204389,1,0,0:0:0:0:
64,192,204532,1,0,0:0:0:0:
192,192,204532,1,0,0:0:0:0:
448,192,204675,1,0,0:0:0:0:
320,192,204818,1,0,0:0:0:0:
448,192,204961,1,0,0:0:0:0:
64,192,205103,1,0,0:0:0:0:
192,192,205103,1,0,0:0:0:0:
192,192,205246,1,0,0:0:0:0:
320,192,205246,1,0,0:0:0:0:
320,192,205389,1,0,0:0:0:0:
448,192,205389,1,0,0:0:0:0:
64,192,205675,1,0,0:0:0:50:kick_1.wav
192,192,205675,1,0,0:0:0:50:cymbal.wav
320,192,205675,1,0,0:0:0:0:
448,192,205675,1,0,0:0:0:0:
192,192,205961,1,0,0:0:0:0:
320,192,205961,1,0,0:0:0:0:
320,192,206246,1,0,0:0:0:0:
448,192,206246,1,0,0:0:0:0:
192,192,206389,1,0,0:0:0:0:
320,192,206389,1,0,0:0:0:0:
64,192,206532,1,0,0:0:0:50:kick_1.wav
192,192,206532,1,0,0:0:0:0:
448,192,206532,1,0,0:0:0:0:
64,192,206818,1,0,0:0:0:50:kick_1.wav
192,192,206818,1,0,0:0:0:50:cymbal.wav
320,192,206818,1,0,0:0:0:0:
448,192,206818,1,0,0:0:0:0:
64,192,207103,1,0,0:0:0:50:tom.wav
192,192,207103,1,0,0:0:0:0:
320,192,207103,1,0,0:0:0:0:
64,192,207389,1,0,0:0:0:50:tom.wav
192,192,207389,1,0,0:0:0:0:
448,192,207389,1,0,0:0:0:0:
192,192,207532,1,0,0:0:0:0:
320,192,207532,1,0,0:0:0:0:
320,192,207675,1,0,0:0:0:0:
448,192,207675,1,0,0:0:0:0:
64,192,207961,128,0,208675:0:0:0:50:kick_1.wav
192,192,207961,128,0,208389:0:0:0:50:cymbal.wav
320,192,207961,1,0,0:0:0:0:
448,192,207961,1,0,0:0:0:0:
448,192,208389,1,0,0:0:0:0:
192,192,208532,128,0,208961:0:0:0:0:
320,192,208532,128,0,209532:0:0:0:0:
64,192,208818,128,0,209532:0:0:0:50:kick_1.wav
448,192,208818,1,0,0:0:0:0:
192,192,209103,128,0,210103:0:0:0:0:
448,192,209103,128,0,209389:0:0:0:0:
448,192,209532,128,0,209675:0:0:0:0:
64,192,209675,128,0,210675:0:0:0:0:
320,192,209675,128,0,209818:0:0:0:0:
448,192,209818,128,0,209961:0:0:0:0:
320,192,209961,128,0,210103:0:0:0:0:
448,192,210103,128,0,211246:0:0:0:0:
192,192,210246,128,0,210675:0:0:0:50:kick_1.wav
320,192,210246,128,0,210961:0:0:0:50:cymbal.wav
64,192,210818,128,0,211818:0:0:0:0:
192,192,210818,128,0,210961:0:0:0:0:
192,192,211103,128,0,211532:0:0:0:50:kick_1.wav
320,192,211103,128,0,211246:0:0:0:0:
320,192,211389,128,0,212389:0:0:0:0:
448,192,211389,128,0,211818:0:0:0:0:
192,192,211675,128,0,212389:0:0:0:50:tom.wav
64,192,211961,128,0,212389:0:0:0:50:tom.wav
448,192,211961,128,0,212389:0:0:0:0:
64,192,212532,1,0,0:0:0:50:kick_1.wav
192,192,212532,1,0,0:0:0:50:cymbal.wav
320,192,212532,1,0,0:0:0:50:finish.wav
448,192,212532,1,0,0:0:0:0:
64,192,212961,1,0,0:0:0:0:
192,192,212961,1,0,0:0:0:0:
320,192,213389,1,0,0:0:0:0:
448,192,213389,1,0,0:0:0:0:
64,192,213818,1,0,0:0:0:0:
192,192,213818,1,0,0:0:0:0:
64,192,214246,1,0,0:0:0:50:kick_1.wav
192,192,214246,1,0,0:0:0:50:cymbal.wav
320,192,214246,1,0,0:0:0:0:
448,192,214246,1,0,0:0:0:0:
192,192,214532,1,0,0:0:0:50:kick_1.wav
320,192,214532,1,0,0:0:0:0:
448,192,214532,1,0,0:0:0:0:
64,192,214818,1,0,0:0:0:50:kick_1.wav
192,192,214818,1,0,0:0:0:50:cymbal.wav
320,192,214818,1,0,0:0:0:50:finish.wav
448,192,214818,1,0,0:0:0:0:
64,192,215246,1,0,0:0:0:0:
192,192,215246,1,0,0:0:0:0:
320,192,215675,1,0,0:0:0:0:
448,192,215675,1,0,0:0:0:0:
64,192,216103,1,0,0:0:0:0:
192,192,216103,1,0,0:0:0:0:
64,192,216532,1,0,0:0:0:50:kick_1.wav
192,192,216532,1,0,0:0:0:50:cymbal.wav
320,192,216532,1,0,0:0:0:0:
448,192,216532,1,0,0:0:0:0:
64,192,216675,1,0,0:0:0:50:kick_1.wav
192,192,216675,1,0,0:0:0:0:
448,192,216675,1,0,0:0:0:0:
192,192,216818,1,0,0:0:0:50:kick_1.wav
320,192,216818,1,0,0:0:0:0:
448,192,216818,1,0,0:0:0:0:
64,192,217103,1,0,0:0:0:50:kick_1.wav
192,192,217103,1,0,0:0:0:50:cymbal.wav
320,192,217103,1,0,0:0:0:0:
448,192,217103,1,0,0:0:0:0:
64,192,217389,1,0,0:0:0:50:kick_1.wav
192,192,217389,1,0,0:0:0:0:
448,192,217389,1,0,0:0:0:0:
64,192,217675,1,0,0:0:0:50:kick_1.wav
192,192,217675,1,0,0:0:0:50:cymbal.wav
320,192,217675,1,0,0:0:0:0:
448,192,217675,1,0,0:0:0:0:
192,192,217961,1,0,0:0:0:50:kick_1.wav
320,192,217961,1,0,0:0:0:0:
448,192,217961,1,0,0:0:0:0:
64,192,218246,1,0,0:0:0:50:kick_1.wav
192,192,218246,1,0,0:0:0:50:cymbal.wav
320,192,218246,1,0,0:0:0:0:
448,192,218246,1,0,0:0:0:0:
64,192,218389,1,0,0:0:0:50:kick_1.wav
192,192,218389,1,0,0:0:0:0:
448,192,218389,1,0,0:0:0:0:
64,192,218532,1,0,0:0:0:50:kick_1.wav
320,192,218532,1,0,0:0:0:0:
448,192,218532,1,0,0:0:0:0:
64,192,218675,1,0,0:0:0:50:kick_1.wav
320,192,218675,1,0,0:0:0:0:
448,192,218675,1,0,0:0:0:0:
64,192,218818,1,0,0:0:0:50:kick_1.wav
192,192,218818,1,0,0:0:0:0:
320,192,218889,1,0,0:0:0:50:kick_1.wav
448,192,218889,1,0,0:0:0:0:
64,192,218961,1,0,0:0:0:50:kick_1.wav
192,192,218961,1,0,0:0:0:0:
320,192,219032,1,0,0:0:0:50:kick_1.wav
448,192,219032,1,0,0:0:0:0:
64,192,219103,1,0,0:0:0:50:kick_1.wav
192,192,219103,1,0,0:0:0:0:
320,192,219175,1,0,0:0:0:50:kick_1.wav
448,192,219175,1,0,0:0:0:0:
64,192,219246,1,0,0:0:0:50:kick_1.wav
192,192,219246,1,0,0:0:0:0:
320,192,219318,1,0,0:0:0:50:kick_1.wav
448,192,219318,1,0,0:0:0:0:
64,192,219389,1,0,0:0:0:50:kick_1.wav
192,192,219389,1,0,0:0:0:50:finish.wav
448,192,219389,1,0,0:0:0:0:
64,192,220532,1,0,0:0:0:0:
448,192,220532,1,0,0:0:0:0:
320,192,220675,1,0,0:0:0:0:
64,192,220746,1,0,0:0:0:0:
192,192,220746,1,0,0:0:0:0:
320,192,220818,1,0,0:0:0:0:
448,192,220818,1,0,0:0:0:0:
192,192,220961,1,0,0:0:0:0:
448,192,220961,1,0,0:0:0:0:
64,192,221103,1,0,0:0:0:0:
320,192,221103,1,0,0:0:0:0:
192,192,221246,1,0,0:0:0:0:
320,192,221318,1,0,0:0:0:0:
64,192,221389,1,0,0:0:0:0:
448,192,221389,1,0,0:0:0:0:
64,192,221675,1,0,0:0:0:50:kick_2.wav
192,192,221675,1,0,0:0:0:50:cymbal.wav
448,192,221675,128,0,221818:0:0:0:0:
192,192,221818,1,0,0:0:0:0:
64,192,221961,1,0,0:0:0:50:kick_2.wav
320,192,221961,1,0,0:0:0:0:
448,192,221961,1,0,0:0:0:0:
192,192,222032,1,0,0:0:0:0:
64,192,222103,128,0,222246:0:0:0:0:
192,192,222246,1,0,0:0:0:50:kick_2.wav
320,192,222246,1,0,0:0:0:0:
448,192,222246,1,0,0:0:0:0:
448,192,222389,1,0,0:0:0:0:
320,192,222461,1,0,0:0:0:0:
64,192,222532,1,0,0:0:0:50:kick_2.wav
192,192,222532,1,0,0:0:0:0:
448,192,222532,128,0,222675:0:0:0:0:
64,192,222675,1,0,0:0:0:0:
320,192,222746,1,0,0:0:0:0:
64,192,222818,1,0,0:0:0:50:kick_2.wav
192,192,222818,128,0,222961:0:0:0:0:
448,192,222818,1,0,0:0:0:0:
448,192,222961,1,0,0:0:0:0:
64,192,223103,1,0,0:0:0:50:kick_2.wav
192,192,223103,1,0,0:0:0:0:
320,192,223103,1,0,0:0:0:0:
448,192,223175,1,0,0:0:0:0:
320,192,223246,128,0,223389:0:0:0:0:
64,192,223389,1,0,0:0:0:50:kick_2.wav
192,192,223389,1,0,0:0:0:0:
448,192,223389,1,0,0:0:0:0:
192,192,223532,1,0,0:0:0:0:
320,192,223603,1,0,0:0:0:0:
192,192,223675,128,0,223818:0:0:0:50:kick_2.wav
64,192,223675,1,0,0:0:0:0:
448,192,223675,1,0,0:0:0:0:
320,192,223818,1,0,0:0:0:50:kick_2.wav
448,192,223818,1,0,0:0:0:0:
64,192,223818,1,0,0:0:0:0:
192,192,223889,1,0,0:0:0:0:
64,192,223961,1,0,0:0:0:50:kick_2.wav
320,192,223961,128,0,224103:0:0:0:0:
448,192,223961,1,0,0:0:0:0:
192,192,224103,1,0,0:0:0:0:
64,192,224246,1,0,0:0:0:50:kick_2.wav
320,192,224246,1,0,0:0:0:0:
448,192,224246,1,0,0:0:0:0:
192,192,224318,1,0,0:0:0:0:
448,192,224389,128,0,224532:0:0:0:0:
64,192,224532,1,0,0:0:0:50:kick_2.wav
192,192,224532,1,0,0:0:0:0:
320,192,224532,1,0,0:0:0:0:
64,192,224675,1,0,0:0:0:0:
192,192,224746,1,0,0:0:0:0:
64,192,224818,128,0,224961:0:0:0:50:kick_2.wav
320,192,224818,1,0,0:0:0:0:
448,192,224818,1,0,0:0:0:0:
320,192,224961,1,0,0:0:0:50:kick_2.wav
448,192,224961,1,0,0:0:0:0:
64,192,225032,1,0,0:0:0:50:kick_2.wav
192,192,225032,1,0,0:0:0:0:
64,192,225103,1,0,0:0:0:50:kick_2.wav
320,192,225103,1,0,0:0:0:0:
448,192,225103,128,0,225246:0:0:0:0:
192,192,225246,1,0,0:0:0:0:
64,192,225389,1,0,0:0:0:50:kick_2.wav
320,192,225389,1,0,0:0:0:0:
448,192,225389,1,0,0:0:0:0:
192,192,225461,1,0,0:0:0:0:
64,192,225532,128,0,225675:0:0:0:50:kick_2.wav
320,192,225532,1,0,0:0:0:0:
448,192,225532,1,0,0:0:0:0:
320,192,225675,1,0,0:0:0:0:
64,192,225818,1,0,0:0:0:50:kick_2.wav
192,192,225818,1,0,0:0:0:0:
448,192,225818,1,0,0:0:0:0:
320,192,225889,1,0,0:0:0:0:
64,192,225961,1,0,0:0:0:50:kick_2.wav
448,192,225961,1,0,0:0:0:0:
192,192,225961,128,0,226103:0:0:0:0:
64,192,226103,1,0,0:0:0:50:kick_2.wav
448,192,226103,1,0,0:0:0:0:
320,192,226103,1,0,0:0:0:0:
192,192,226175,1,0,0:0:0:0:
320,192,226246,128,0,226389:0:0:0:50:kick_2.wav
64,192,226246,1,0,0:0:0:0:
448,192,226246,1,0,0:0:0:0:
192,192,226389,1,0,0:0:0:0:
64,192,226532,1,0,0:0:0:50:kick_2.wav
320,192,226532,1,0,0:0:0:0:
448,192,226532,1,0,0:0:0:0:
192,192,226603,1,0,0:0:0:0:
448,192,226675,128,0,226818:0:0:0:0:
64,192,226818,1,0,0:0:0:50:kick_2.wav
192,192,226818,1,0,0:0:0:0:
320,192,226818,1,0,0:0:0:0:
320,192,226961,1,0,0:0:0:0:
192,192,227032,1,0,0:0:0:0:
320,192,227103,128,0,227246:0:0:0:50:kick_2.wav
64,192,227103,1,0,0:0:0:0:
448,192,227103,1,0,0:0:0:0:
192,192,227246,1,0,0:0:0:50:kick_2.wav
448,192,227246,1,0,0:0:0:0:
64,192,227246,1,0,0:0:0:0:
320,192,227318,1,0,0:0:0:0:
192,192,227389,1,0,0:0:0:50:kick_2.wav
448,192,227389,1,0,0:0:0:0:
64,192,227389,128,0,227532:0:0:0:0:
320,192,227532,1,0,0:0:0:0:
320,192,227675,1,0,0:0:0:50:kick_2.wav
448,192,227675,1,0,0:0:0:0:
64,192,227675,1,0,0:0:0:0:
192,192,227746,1,0,0:0:0:0:
64,192,227818,1,0,0:0:0:50:kick_2.wav
320,192,227818,128,0,227961:0:0:0:0:
448,192,227818,1,0,0:0:0:0:
192,192,227961,1,0,0:0:0:0:
64,192,228103,1,0,0:0:0:50:kick_2.wav
192,192,228103,1,0,0:0:0:0:
448,192,228103,1,0,0:0:0:0:
320,192,228175,1,0,0:0:0:0:
192,192,228246,128,0,228389:0:0:0:0:
448,192,228389,1,0,0:0:0:50:kick_2.wav
64,192,228389,1,0,0:0:0:0:
320,192,228389,1,0,0:0:0:0:
192,192,228461,1,0,0:0:0:0:
64,192,228532,1,0,0:0:0:50:kick_2.wav
320,192,228532,128,0,228675:0:0:0:0:
448,192,228532,1,0,0:0:0:0:
192,192,228675,1,0,0:0:0:50:kick_2.wav
448,192,228675,1,0,0:0:0:0:
64,192,228675,1,0,0:0:0:0:
320,192,228746,1,0,0:0:0:0:
192,192,228818,1,0,0:0:0:50:kick_2.wav
448,192,228818,1,0,0:0:0:0:
64,192,228818,1,0,0:0:0:0:
320,192,228889,1,0,0:0:0:0:
192,192,228961,128,0,229103:0:0:0:0:
64,192,229103,1,0,0:0:0:50:kick_2.wav
320,192,229103,1,0,0:0:0:0:
448,192,229103,1,0,0:0:0:0:
64,192,229246,1,0,0:0:0:50:kick_2.wav
320,192,229246,1,0,0:0:0:0:
448,192,229246,1,0,0:0:0:0:
192,192,229318,1,0,0:0:0:0:
448,192,229389,128,0,229532:0:0:0:0:
64,192,229532,1,0,0:0:0:50:kick_2.wav
192,192,229532,1,0,0:0:0:0:
320,192,229532,1,0,0:0:0:0:
448,192,229603,1,0,0:0:0:0:
192,192,229675,128,0,229818:0:0:0:50:kick_2.wav
320,192,229675,1,0,0:0:0:0:
64,192,229675,1,0,0:0:0:0:
64,192,229818,1,0,0:0:0:50:kick_2.wav
320,192,229818,1,0,0:0:0:0:
448,192,229818,1,0,0:0:0:0:
64,192,229961,1,0,0:0:0:50:kick_2.wav
192,192,229961,1,0,0:0:0:0:
448,192,229961,1,0,0:0:0:0:
320,192,230032,1,0,0:0:0:0:
64,192,230103,128,0,230246:0:0:0:50:kick_2.wav
192,192,230103,1,0,0:0:0:0:
448,192,230103,1,0,0:0:0:0:
448,192,230246,1,0,0:0:0:0:
320,192,230294,1,0,0:0:0:0:
192,192,230341,1,0,0:0:0:0:
64,192,230389,1,0,0:0:0:0:
192,192,230437,1,0,0:0:0:0:
320,192,230484,1,0,0:0:0:0:
448,192,230532,128,0,230675:0:0:0:0:
192,192,230580,1,0,0:0:0:0:
320,192,230627,1,0,0:0:0:0:
64,192,230675,1,0,0:0:0:0:
192,192,230746,1,0,0:0:0:0:
320,192,230818,128,0,230961:0:0:0:0:
64,192,230961,1,0,0:0:0:50:kick_2.wav
192,192,230961,1,0,0:0:0:0:
448,192,230961,1,0,0:0:0:0:
64,192,231103,1,0,0:0:0:50:kick_2.wav
192,192,231103,1,0,0:0:0:0:
448,192,231103,1,0,0:0:0:0:
320,192,231175,1,0,0:0:0:0:
448,192,231246,128,0,231389:0:0:0:0:
64,192,231389,1,0,0:0:0:50:kick_2.wav
192,192,231389,1,0,0:0:0:0:
320,192,231389,1,0,0:0:0:0:
64,192,231532,1,0,0:0:0:0:
192,192,231603,1,0,0:0:0:0:
64,192,231675,128,0,231818:0:0:0:50:kick_2.wav
320,192,231675,1,0,0:0:0:0:
448,192,231675,1,0,0:0:0:0:
320,192,231818,1,0,0:0:0:0:
192,192,231889,1,0,0:0:0:0:
64,192,231961,1,0,0:0:0:50:kick_2.wav
320,192,231961,1,0,0:0:0:0:
448,192,231961,128,0,232103:0:0:0:0:
192,192,232103,1,0,0:0:0:0:
64,192,232246,1,0,0:0:0:50:kick_2.wav
320,192,232246,1,0,0:0:0:0:
448,192,232246,1,0,0:0:0:0:
192,192,232318,1,0,0:0:0:0:
64,192,232389,128,0,232532:0:0:0:0:
192,192,232532,1,0,0:0:0:50:kick_2.wav
320,192,232532,1,0,0:0:0:0:
448,192,232532,1,0,0:0:0:0:
320,192,232675,1,0,0:0:0:0:
192,192,232746,1,0,0:0:0:0:
64,192,232818,1,0,0:0:0:50:kick_2.wav
320,192,232818,128,0,232961:0:0:0:0:
448,192,232818,1,0,0:0:0:0:
64,192,232961,1,0,0:0:0:50:kick_2.wav
192,192,232961,1,0,0:0:0:0:
448,192,232961,1,0,0:0:0:0:
320,192,233032,1,0,0:0:0:0:
64,192,233103,128,0,233246:0:0:0:50:kick_2.wav
192,192,233103,1,0,0:0:0:0:
448,192,233103,1,0,0:0:0:0:
320,192,233246,1,0,0:0:0:0:
64,192,233389,1,0,0:0:0:50:kick_2.wav
192,192,233389,1,0,0:0:0:0:
448,192,233389,1,0,0:0:0:0:
320,192,233461,1,0,0:0:0:0:
448,192,233532,128,0,233675:0:0:0:0:
64,192,233675,1,0,0:0:0:50:kick_2.wav
192,192,233675,1,0,0:0:0:0:
320,192,233675,1,0,0:0:0:0:
64,192,233818,1,0,0:0:0:0:
192,192,233889,1,0,0:0:0:0:
320,192,233961,1,0,0:0:0:50:kick_2.wav
448,192,233961,1,0,0:0:0:0:
64,192,234032,1,0,0:0:0:50:kick_2.wav
192,192,234032,1,0,0:0:0:0:
320,192,234103,1,0,0:0:0:50:kick_2.wav
448,192,234103,1,0,0:0:0:0:
64,192,234175,1,0,0:0:0:50:kick_2.wav
192,192,234175,1,0,0:0:0:0:
64,192,234246,128,0,234389:0:0:0:50:kick_2.wav
320,192,234246,1,0,0:0:0:0:
448,192,234246,1,0,0:0:0:0:
320,192,234389,1,0,0:0:0:0:
64,192,234532,1,0,0:0:0:50:kick_2.wav
192,192,234532,1,0,0:0:0:0:
448,192,234532,1,0,0:0:0:0:
320,192,234603,1,0,0:0:0:0:
448,192,234675,128,0,234818:0:0:0:0:
64,192,234818,1,0,0:0:0:50:kick_2.wav
192,192,234818,1,0,0:0:0:0:
320,192,234818,1,0,0:0:0:0:
192,192,234961,1,0,0:0:0:0:
320,192,235032,1,0,0:0:0:0:
64,192,235103,1,0,0:0:0:50:kick_2.wav
192,192,235103,128,0,235246:0:0:0:0:
448,192,235103,1,0,0:0:0:0:
320,192,235246,1,0,0:0:0:50:kick_2.wav
448,192,235246,1,0,0:0:0:0:
64,192,235246,1,0,0:0:0:0:
192,192,235318,1,0,0:0:0:0:
64,192,235389,1,0,0:0:0:50:kick_2.wav
320,192,235389,128,0,235532:0:0:0:50:cymbal.wav
448,192,235389,128,0,235532:0:0:0:0:
192,192,235532,1,0,0:0:0:0:
64,192,235675,1,0,0:0:0:50:kick_2.wav
320,192,235675,1,0,0:0:0:0:
448,192,235675,1,0,0:0:0:0:
192,192,235746,1,0,0:0:0:0:
64,192,235818,128,0,235961:0:0:0:0:
192,192,235961,1,0,0:0:0:50:kick_2.wav
320,192,235961,1,0,0:0:0:0:
448,192,235961,1,0,0:0:0:0:
320,192,236103,1,0,0:0:0:0:
192,192,236175,1,0,0:0:0:0:
64,192,236246,1,0,0:0:0:50:kick_2.wav
320,192,236246,1,0,0:0:0:0:
448,192,236246,128,0,236389:0:0:0:0:
192,192,236389,1,0,0:0:0:0:
320,192,236461,1,0,0:0:0:0:
64,192,236532,128,0,236675:0:0:0:50:kick_2.wav
192,192,236532,128,0,236675:0:0:0:50:cymbal.wav
448,192,236532,1,0,0:0:0:0:
64,192,236818,1,0,0:0:0:50:kick_2.wav
192,192,236818,1,0,0:0:0:0:
448,192,236818,1,0,0:0:0:0:
320,192,236889,1,0,0:0:0:0:
192,192,236961,128,0,237103:0:0:0:0:
64,192,237103,1,0,0:0:0:50:kick_2.wav
320,192,237103,1,0,0:0:0:0:
448,192,237103,1,0,0:0:0:0:
320,192,237246,1,0,0:0:0:0:
192,192,237318,1,0,0:0:0:0:
64,192,237389,1,0,0:0:0:50:kick_2.wav
448,192,237389,1,0,0:0:0:0:
320,192,237389,128,0,237532:0:0:0:0:
64,192,237532,1,0,0:0:0:50:kick_2.wav
192,192,237532,1,0,0:0:0:0:
448,192,237532,1,0,0:0:0:0:
320,192,237603,1,0,0:0:0:0:
64,192,237675,128,0,237818:0:0:0:50:kick_2.wav
192,192,237675,1,0,0:0:0:50:cymbal.wav
448,192,237675,128,0,237818:0:0:0:0:
320,192,237818,128,0,237961:0:0:0:0:
192,192,237961,128,0,238032:0:0:0:0:
320,192,238032,128,0,238103:0:0:0:0:
64,192,238103,128,0,238246:0:0:0:50:kick_2.wav
192,192,238103,1,0,0:0:0:50:cymbal.wav
448,192,238103,128,0,238246:0:0:0:0:
320,192,238246,128,0,238389:0:0:0:0:
192,192,238389,128,0,238461:0:0:0:0:
320,192,238461,128,0,238532:0:0:0:0:
64,192,238532,128,0,238603:0:0:0:50:kick_2.wav
192,192,238532,128,0,238603:0:0:0:50:cymbal.wav
448,192,238532,128,0,238603:0:0:0:0:
192,192,238675,128,0,238746:0:0:0:50:kick_2.wav
320,192,238675,128,0,238746:0:0:0:0:
448,192,238675,128,0,238746:0:0:0:0:
64,192,238818,128,0,238961:0:0:0:50:kick_2.wav
320,192,238818,128,0,238961:0:0:0:50:cymbal.wav
448,192,238818,128,0,238961:0:0:0:0:
64,192,239032,128,0,239175:0:0:0:50:kick_2.wav
320,192,239032,128,0,239175:0:0:0:0:
448,192,239032,128,0,239175:0:0:0:0:
64,192,239246,128,0,239389:0:0:0:50:kick_2.wav
320,192,239246,128,0,239389:0:0:0:0:
448,192,239246,128,0,239389:0:0:0:0:
192,192,239389,1,0,0:0:0:0:
320,192,239437,1,0,0:0:0:0:
448,192,239484,1,0,0:0:0:0:
64,192,239532,128,0,239603:0:0:0:0:
448,192,239603,1,0,0:0:0:0:
64,192,239675,128,0,239746:0:0:0:50:kick_2.wav
192,192,239675,1,0,0:0:0:0:
320,192,239746,1,0,0:0:0:0:
448,192,239818,1,0,0:0:0:50:kick_2.wav
320,192,239853,1,0,0:0:0:50:kick_2.wav
192,192,239889,1,0,0:0:0:50:kick_2.wav
64,192,239925,1,0,0:0:0:50:kick_2.wav
448,192,239961,128,0,240103:0:0:0:0:
64,192,240103,1,0,0:0:0:50:kick_2.wav
192,192,240103,1,0,0:0:0:0:
320,192,240103,1,0,0:0:0:0:
64,192,240246,1,0,0:0:0:50:kick_2.wav
320,192,240246,1,0,0:0:0:0:
448,192,240246,1,0,0:0:0:0:
192,192,240318,1,0,0:0:0:0:
64,192,240389,128,0,240532:0:0:0:0:
192,192,240532,1,0,0:0:0:50:kick_2.wav
320,192,240532,1,0,0:0:0:0:
448,192,240532,1,0,0:0:0:0:
192,192,240675,1,0,0:0:0:0:
320,192,240746,1,0,0:0:0:0:
64,192,240818,1,0,0:0:0:50:kick_2.wav
192,192,240818,1,0,0:0:0:0:
448,192,240818,128,0,240961:0:0:0:0:
64,192,240961,1,0,0:0:0:0:
320,192,241032,1,0,0:0:0:0:
64,192,241103,1,0,0:0:0:50:kick_2.wav
192,192,241103,128,0,241246:0:0:0:0:
448,192,241103,1,0,0:0:0:0:
320,192,241246,1,0,0:0:0:0:
64,192,241389,1,0,0:0:0:50:kick_2.wav
192,192,241389,1,0,0:0:0:0:
448,192,241389,1,0,0:0:0:0:
320,192,241461,1,0,0:0:0:0:
64,192,241532,128,0,241675:0:0:0:0:
192,192,241675,1,0,0:0:0:50:kick_2.wav
320,192,241675,1,0,0:0:0:0:
448,192,241675,1,0,0:0:0:0:
320,192,241818,1,0,0:0:0:0:
192,192,241889,1,0,0:0:0:0:
64,192,241961,1,0,0:0:0:50:kick_2.wav
320,192,241961,128,0,242103:0:0:0:0:
448,192,241961,1,0,0:0:0:0:
64,192,242103,1,0,0:0:0:50:kick_2.wav
192,192,242103,1,0,0:0:0:0:
448,192,242103,1,0,0:0:0:0:
320,192,242175,1,0,0:0:0:0:
64,192,242246,1,0,0:0:0:50:kick_2.wav
192,192,242246,1,0,0:0:0:0:
448,192,242246,128,0,242389:0:0:0:0:
192,192,242389,1,0,0:0:0:0:
64,192,242532,1,0,0:0:0:50:kick_2.wav
320,192,242532,1,0,0:0:0:0:
448,192,242532,1,0,0:0:0:0:
192,192,242603,1,0,0:0:0:0:
320,192,242675,128,0,242818:0:0:0:0:
192,192,242818,1,0,0:0:0:50:kick_2.wav
64,192,242818,1,0,0:0:0:0:
448,192,242818,1,0,0:0:0:0:
64,192,242961,1,0,0:0:0:50:kick_2.wav
192,192,242961,1,0,0:0:0:0:
448,192,242961,1,0,0:0:0:0:
320,192,243032,1,0,0:0:0:0:
64,192,243103,1,0,0:0:0:50:kick_2.wav
448,192,243103,1,0,0:0:0:0:
192,192,243103,128,0,243246:0:0:0:0:
64,192,243246,1,0,0:0:0:50:kick_2.wav
448,192,243246,1,0,0:0:0:0:
320,192,243246,1,0,0:0:0:0:
192,192,243318,1,0,0:0:0:0:
64,192,243389,128,0,243532:0:0:0:50:kick_2.wav
448,192,243389,1,0,0:0:0:0:
320,192,243389,1,0,0:0:0:0:
320,192,243532,1,0,0:0:0:0:
64,192,243675,1,0,0:0:0:50:kick_2.wav
192,192,243675,1,0,0:0:0:0:
448,192,243675,1,0,0:0:0:0:
320,192,243746,1,0,0:0:0:0:
192,192,243818,128,0,243961:0:0:0:0:
320,192,243961,1,0,0:0:0:50:kick_2.wav
448,192,243961,1,0,0:0:0:0:
64,192,244032,1,0,0:0:0:50:kick_2.wav
192,192,244032,1,0,0:0:0:0:
320,192,244103,1,0,0:0:0:50:kick_2.wav
448,192,244103,1,0,0:0:0:0:
64,192,244175,1,0,0:0:0:50:kick_2.wav
192,192,244211,1,0,0:0:0:50:kick_2.wav
320,192,244246,1,0,0:0:0:50:kick_2.wav
448,192,244246,1,0,0:0:0:0:
64,192,244318,1,0,0:0:0:50:kick_2.wav
192,192,244318,1,0,0:0:0:0:
320,192,244353,1,0,0:0:0:50:kick_2.wav
448,192,244389,1,0,0:0:0:50:kick_2.wav
64,192,244425,1,0,0:0:0:50:kick_2.wav
192,192,244425,1,0,0:0:0:0:
320,192,244461,1,0,0:0:0:50:kick_2.wav
448,192,244496,1,0,0:0:0:50:kick_2.wav
64,192,244532,1,0,0:0:0:50:kick_2.wav
192,192,244532,128,0,244675:0:0:0:0:
320,192,244675,1,0,0:0:0:50:kick_2.wav
448,192,244675,1,0,0:0:0:0:
64,192,244818,1,0,0:0:0:50:kick_2.wav
192,192,244818,1,0,0:0:0:0:
448,192,244818,1,0,0:0:0:0:
320,192,244889,1,0,0:0:0:0:
448,192,244961,128,0,245103:0:0:0:0:
64,192,245103,1,0,0:0:0:50:kick_2.wav
192,192,245103,1,0,0:0:0:0:
320,192,245103,1,0,0:0:0:0:
192,192,245246,1,0,0:0:0:0:
320,192,245318,1,0,0:0:0:0:
192,192,245389,128,0,245532:0:0:0:50:kick_2.wav
64,192,245389,1,0,0:0:0:0:
448,192,245389,1,0,0:0:0:0:
320,192,245532,1,0,0:0:0:50:kick_2.wav
448,192,245532,1,0,0:0:0:0:
64,192,245532,1,0,0:0:0:0:
192,192,245603,1,0,0:0:0:0:
64,192,245675,1,0,0:0:0:50:kick_2.wav
320,192,245675,1,0,0:0:0:0:
448,192,245675,128,0,245818:0:0:0:0:
192,192,245818,1,0,0:0:0:0:
64,192,245961,1,0,0:0:0:50:kick_2.wav
320,192,245961,1,0,0:0:0:0:
448,192,245961,1,0,0:0:0:0:
192,192,246032,1,0,0:0:0:0:
320,192,246103,128,0,246246:0:0:0:0:
192,192,246246,1,0,0:0:0:50:kick_2.wav
64,192,246246,1,0,0:0:0:0:
448,192,246246,1,0,0:0:0:0:
320,192,246389,1,0,0:0:0:0:
192,192,246461,1,0,0:0:0:0:
64,192,246532,128,0,246675:0:0:0:0:
448,192,246675,1,0,0:0:0:50:kick_2.wav
320,192,246675,1,0,0:0:0:0:
192,192,246675,1,0,0:0:0:0:
64,192,246746,1,0,0:0:0:0:
448,192,246818,1,0,0:0:0:50:kick_2.wav
192,192,246818,128,0,246961:0:0:0:0:
320,192,246818,1,0,0:0:0:0:
320,192,246961,1,0,0:0:0:50:kick_2.wav
448,192,246961,1,0,0:0:0:0:
64,192,247032,1,0,0:0:0:0:
320,192,247103,1,0,0:0:0:50:kick_2.wav
448,192,247103,1,0,0:0:0:0:
192,192,247175,1,0,0:0:0:0:
64,192,247246,128,0,247389:0:0:0:50:kick_2.wav
320,192,247246,1,0,0:0:0:0:
448,192,247246,1,0,0:0:0:0:
192,192,247389,1,0,0:0:0:50:kick_2.wav
320,192,247389,1,0,0:0:0:0:
448,192,247389,1,0,0:0:0:0:
64,192,247532,1,0,0:0:0:50:kick_2.wav
192,192,247532,1,0,0:0:0:0:
448,192,247532,1,0,0:0:0:0:
320,192,247603,1,0,0:0:0:0:
64,192,247675,1,0,0:0:0:50:kick_2.wav
192,192,247675,1,0,0:0:0:0:
320,192,247746,1,0,0:0:0:50:kick_2.wav
448,192,247746,1,0,0:0:0:0:
64,192,247818,1,0,0:0:0:50:kick_2.wav
192,192,247818,1,0,0:0:0:0:
320,192,247889,1,0,0:0:0:50:kick_2.wav
448,192,247889,1,0,0:0:0:0:
64,192,247961,1,0,0:0:0:50:kick_2.wav
192,192,247961,1,0,0:0:0:0:
448,192,247961,128,0,248103:0:0:0:0:
64,192,248246,1,0,0:0:0:50:kick_2.wav
320,192,248246,1,0,0:0:0:0:
448,192,248246,1,0,0:0:0:0:
192,192,248318,1,0,0:0:0:0:
448,192,248389,128,0,248532:0:0:0:0:
64,192,248532,1,0,0:0:0:50:kick_2.wav
192,192,248532,1,0,0:0:0:0:
320,192,248532,1,0,0:0:0:0:
64,192,248675,1,0,0:0:0:50:kick_2.wav
320,192,248675,1,0,0:0:0:0:
448,192,248675,1,0,0:0:0:0:
192,192,248746,1,0,0:0:0:0:
64,192,248818,128,0,248961:0:0:0:0:
448,192,248889,1,0,0:0:0:0:
192,192,248961,1,0,0:0:0:50:kick_2.wav
320,192,248996,1,0,0:0:0:50:kick_2.wav
64,192,249032,1,0,0:0:0:50:kick_2.wav
192,192,249068,1,0,0:0:0:50:kick_2.wav
320,192,249103,1,0,0:0:0:50:kick_2.wav
448,192,249103,128,0,249246:0:0:0:50:cymbal.wav
64,192,249389,1,0,0:0:0:50:kick_2.wav
320,192,249389,1,0,0:0:0:0:
448,192,249389,1,0,0:0:0:0:
192,192,249461,1,0,0:0:0:0:
320,192,249532,128,0,249675:0:0:0:0:
64,192,249675,1,0,0:0:0:50:kick_2.wav
192,192,249675,1,0,0:0:0:0:
448,192,249675,1,0,0:0:0:0:
192,192,249818,1,0,0:0:0:0:
320,192,249889,1,0,0:0:0:0:
192,192,249961,128,0,250103:0:0:0:50:kick_2.wav
64,192,249961,1,0,0:0:0:0:
448,192,249961,1,0,0:0:0:0:
320,192,250103,1,0,0:0:0:50:kick_2.wav
448,192,250103,1,0,0:0:0:0:
64,192,250103,1,0,0:0:0:0:
192,192,250175,1,0,0:0:0:0:
64,192,250246,1,0,0:0:0:50:kick_2.wav
320,192,250246,1,0,0:0:0:0:
448,192,250246,128,0,250389:0:0:0:0:
192,192,250389,1,0,0:0:0:0:
64,192,250532,1,0,0:0:0:50:kick_2.wav
320,192,250532,1,0,0:0:0:0:
448,192,250532,1,0,0:0:0:0:
192,192,250603,1,0,0:0:0:0:
64,192,250675,128,0,250818:0:0:0:0:
192,192,250818,1,0,0:0:0:50:kick_2.wav
320,192,250818,1,0,0:0:0:0:
448,192,250818,1,0,0:0:0:0:
64,192,250961,1,0,0:0:0:50:kick_2.wav
192,192,250961,1,0,0:0:0:0:
320,192,251032,1,0,0:0:0:50:kick_2.wav
448,192,251032,1,0,0:0:0:0:
64,192,251103,1,0,0:0:0:50:kick_2.wav
192,192,251103,128,0,251246:0:0:0:0:
320,192,251246,1,0,0:0:0:50:kick_2.wav
448,192,251246,1,0,0:0:0:0:
64,192,251318,1,0,0:0:0:50:kick_2.wav
192,192,251318,1,0,0:0:0:0:
64,192,251389,1,0,0:0:0:50:kick_2.wav
320,192,251389,1,0,0:0:0:50:cymbal.wav
448,192,251389,128,0,251532:0:0:0:0:
192,192,251532,1,0,0:0:0:0:
64,192,251675,1,0,0:0:0:50:kick_2.wav
320,192,251675,1,0,0:0:0:0:
448,192,251675,1,0,0:0:0:0:
192,192,251746,1,0,0:0:0:0:
64,192,251818,128,0,251961:0:0:0:0:
192,192,251961,1,0,0:0:0:50:kick_2.wav
320,192,251961,1,0,0:0:0:0:
448,192,251961,1,0,0:0:0:0:
64,192,252103,1,0,0:0:0:50:kick_2.wav
192,192,252103,1,0,0:0:0:0:
448,192,252103,1,0,0:0:0:0:
320,192,252175,1,0,0:0:0:0:
448,192,252246,128,0,252389:0:0:0:0:
64,192,252389,1,0,0:0:0:50:kick_2.wav
192,192,252425,1,0,0:0:0:50:kick_2.wav
320,192,252461,1,0,0:0:0:50:kick_2.wav
448,192,252496,1,0,0:0:0:50:kick_2.wav
64,192,252532,128,0,252675:0:0:0:50:kick_2.wav
192,192,252532,1,0,0:0:0:0:
192,192,252675,1,0,0:0:0:50:kick_2.wav
320,192,252675,1,0,0:0:0:0:
448,192,252675,1,0,0:0:0:0:
64,192,252818,1,0,0:0:0:50:kick_2.wav
192,192,252818,1,0,0:0:0:0:
448,192,252818,1,0,0:0:0:0:
320,192,252889,1,0,0:0:0:0:
192,192,252961,128,0,253103:0:0:0:0:
64,192,253103,1,0,0:0:0:50:kick_2.wav
320,192,253103,1,0,0:0:0:0:
448,192,253103,1,0,0:0:0:0:
448,192,253246,1,0,0:0:0:0:
320,192,253318,1,0,0:0:0:0:
64,192,253389,1,0,0:0:0:50:kick_2.wav
192,192,253389,1,0,0:0:0:0:
448,192,253389,128,0,253532:0:0:0:0:
192,192,253532,1,0,0:0:0:0:
64,192,253568,1,0,0:0:0:0:
320,192,253603,1,0,0:0:0:0:
448,192,253639,1,0,0:0:0:0:
64,192,253675,128,0,253818:0:0:0:50:kick_2.wav
192,192,253675,1,0,0:0:0:50:cymbal.wav
320,192,253818,1,0,0:0:0:0:
64,192,253961,1,0,0:0:0:50:kick_2.wav
192,192,253961,1,0,0:0:0:0:
448,192,253961,1,0,0:0:0:0:
320,192,254032,1,0,0:0:0:0:
192,192,254103,128,0,254246:0:0:0:0:
64,192,254246,1,0,0:0:0:50:kick_2.wav
320,192,254246,1,0,0:0:0:0:
448,192,254246,1,0,0:0:0:0:
320,192,254389,1,0,0:0:0:0:
192,192,254461,1,0,0:0:0:0:
320,192,254532,128,0,254675:0:0:0:50:kick_2.wav
64,192,254532,1,0,0:0:0:0:
448,192,254532,1,0,0:0:0:0:
64,192,254675,1,0,0:0:0:50:kick_2.wav
448,192,254675,1,0,0:0:0:0:
192,192,254675,1,0,0:0:0:0:
320,192,254746,1,0,0:0:0:0:
64,192,254818,1,0,0:0:0:50:kick_2.wav
192,192,254818,1,0,0:0:0:50:cymbal.wav
448,192,254818,128,0,254961:0:0:0:0:
320,192,254961,1,0,0:0:0:0:
64,192,255103,1,0,0:0:0:50:kick_2.wav
192,192,255103,1,0,0:0:0:0:
448,192,255103,1,0,0:0:0:0:
320,192,255175,1,0,0:0:0:0:
192,192,255246,128,0,255389:0:0:0:0:
448,192,255389,1,0,0:0:0:50:kick_2.wav
320,192,255389,1,0,0:0:0:0:
64,192,255389,1,0,0:0:0:0:
64,192,255532,1,0,0:0:0:50:kick_2.wav
320,192,255532,1,0,0:0:0:0:
448,192,255532,1,0,0:0:0:0:
192,192,255603,1,0,0:0:0:0:
64,192,255675,128,0,255818:0:0:0:50:kick_2.wav
320,192,255675,1,0,0:0:0:0:
448,192,255675,1,0,0:0:0:0:
320,192,255818,1,0,0:0:0:50:kick_2.wav
448,192,255818,1,0,0:0:0:0:
192,192,255818,1,0,0:0:0:0:
64,192,255889,1,0,0:0:0:0:
448,192,255961,128,0,256103:0:0:0:50:kick_2.wav
192,192,255961,128,0,256103:0:0:0:50:cymbal.wav
320,192,255961,128,0,256103:0:0:0:0:
448,192,256175,128,0,256318:0:0:0:50:kick_2.wav
192,192,256175,128,0,256318:0:0:0:0:
64,192,256175,128,0,256318:0:0:0:0:
448,192,256389,128,0,256532:0:0:0:50:kick_2.wav
192,192,256389,128,0,256532:0:0:0:0:
320,192,256389,128,0,256532:0:0:0:0:
64,192,256603,128,0,256746:0:0:0:50:kick_2.wav
448,192,256603,128,0,256746:0:0:0:0:
192,192,256603,128,0,256746:0:0:0:0:
448,192,256818,128,0,256889:0:0:0:50:kick_2.wav
192,192,256818,128,0,256889:0:0:0:0:
320,192,256818,128,0,256889:0:0:0:0:
64,192,256961,128,0,257032:0:0:0:50:kick_2.wav
192,192,256961,128,0,257032:0:0:0:0:
448,192,256961,128,0,257032:0:0:0:0:
64,192,257103,128,0,257246:0:0:0:50:kick_2.wav
320,192,257103,128,0,257246:0:0:0:50:cymbal.wav
448,192,257103,128,0,257246:0:0:0:0:
64,192,257318,128,0,257461:0:0:0:50:kick_2.wav
192,192,257318,128,0,257461:0:0:0:0:
320,192,257318,128,0,257461:0:0:0:0:
64,192,257532,128,0,257675:0:0:0:50:kick_2.wav
320,192,257532,128,0,257675:0:0:0:0:
448,192,257532,128,0,257675:0:0:0:0:
64,192,257746,128,0,257889:0:0:0:50:kick_2.wav
192,192,257746,128,0,257889:0:0:0:0:
320,192,257746,128,0,257889:0:0:0:0:
192,192,257961,128,0,258032:0:0:0:50:kick_2.wav
448,192,257961,1,0,0:0:0:0:
64,192,258032,128,0,258103:0:0:0:50:kick_2.wav
320,192,258032,1,0,0:0:0:0:
192,192,258103,128,0,258175:0:0:0:50:kick_2.wav
448,192,258103,1,0,0:0:0:0:
64,192,258175,1,0,0:0:0:50:kick_2.wav
320,192,258175,128,0,258246:0:0:0:0:
192,192,258246,128,0,260532:0:0:0:50:kick_2.wav
448,192,258246,128,0,261675:0:0:0:50:cymbal.wav
64,192,260532,128,0,263961:0:0:0:0:
64,192,265103,128,0,266675:0:0:0:0:
320,192,265103,1,0,0:0:0:0:
448,192,265389,1,0,0:0:0:0:
320,192,265675,1,0,0:0:0:0:
448,192,265961,1,0,0:0:0:0:
320,192,266246,1,0,0:0:0:0:
448,192,266532,1,0,0:0:0:0:
192,192,266675,128,0,267246:0:0:0:0:
320,192,266818,1,0,0:0:0:0:
448,192,267103,1,0,0:0:0:0:
320,192,267246,128,0,267532:0:0:0:0:
64,192,267389,1,0,0:0:0:0:
448,192,267532,128,0,268675:0:0:0:0:
192,192,267675,1,0,0:0:0:0:
64,192,267961,1,0,0:0:0:0:
192,192,268246,1,0,0:0:0:0:
64,192,268532,1,0,0:0:0:0:
192,192,268818,1,0,0:0:0:0:
320,192,268818,128,0,268889:0:0:0:0:
448,192,268961,128,0,269032:0:0:0:0:
64,192,269103,1,0,0:0:0:0:
320,192,269103,128,0,269175:0:0:0:0:
64,192,269389,128,0,269461:0:0:0:0:
448,192,269389,1,0,0:0:0:0:
192,192,269675,128,0,270246:0:0:0:0:
320,192,269675,1,0,0:0:0:0:
448,192,269961,1,0,0:0:0:0:
64,192,270246,128,0,270746:0:0:0:0:
320,192,270246,1,0,0:0:0:0:
448,192,270532,1,0,0:0:0:0:
64,192,270818,128,0,271103:0:0:0:0:
320,192,270818,1,0,0:0:0:0:
448,192,271103,1,0,0:0:0:0:
192,192,271389,128,0,271675:0:0:0:0:
320,192,271389,1,0,0:0:0:0:
64,192,271675,1,0,0:0:0:0:
448,192,271675,128,0,271746:0:0:0:0:
192,192,271961,1,0,0:0:0:0:
448,192,271961,128,0,272532:0:0:0:0:
64,192,272246,1,0,0:0:0:0:
64,192,272818,1,0,0:0:0:0:
320,192,272818,128,0,272961:0:0:0:0:
192,192,272961,128,0,273103:0:0:0:0:
64,192,273103,128,0,274103:0:0:0:0:
448,192,273103,1,0,0:0:0:0:
192,192,273389,1,0,0:0:0:0:
448,192,273675,1,0,0:0:0:0:
320,192,273961,1,0,0:0:0:0:
192,192,274246,1,0,0:0:0:0:
448,192,274246,128,0,275103:0:0:0:0:
64,192,274532,1,0,0:0:0:0:
192,192,274818,1,0,0:0:0:0:
64,192,275103,128,0,275675:0:0:0:0:
320,192,275103,1,0,0:0:0:0:
448,192,275389,1,0,0:0:0:0:
192,192,275675,128,0,276532:0:0:0:0:
320,192,275675,1,0,0:0:0:0:
448,192,275961,1,0,0:0:0:0:
320,192,276246,1,0,0:0:0:0:
64,192,276532,1,0,0:0:0:0:
448,192,276532,128,0,277389:0:0:0:0:
192,192,276818,1,0,0:0:0:0:
64,192,277103,1,0,0:0:0:0:
192,192,277389,1,0,0:0:0:0:
192,192,277675,128,0,278246:0:0:0:0:
448,192,277675,1,0,0:0:0:0:
320,192,277961,1,0,0:0:0:0:
64,192,278246,1,0,0:0:0:0:
448,192,278246,128,0,278818:0:0:0:0:
192,192,278532,1,0,0:0:0:0:
64,192,278818,1,0,0:0:0:0:
320,192,278818,128,0,279675:0:0:0:0:
192,192,279103,1,0,0:0:0:0:
64,192,279389,1,0,0:0:0:0:
64,192,279675,128,0,279889:0:0:0:0:
448,192,279675,1,0,0:0:0:0:
64,192,279961,128,0,280032:0:0:0:0:
320,192,279961,1,0,0:0:0:0:
448,192,280246,1,0,0:0:0:0:
192,192,280532,1,0,0:0:0:0:
320,192,280532,128,0,281103:0:0:0:0:
64,192,280818,1,0,0:0:0:0:
192,192,281103,128,0,282246:0:0:0:0:
448,192,281103,1,0,0:0:0:0:
320,192,281389,1,0,0:0:0:0:
448,192,281675,1,0,0:0:0:0:
320,192,281961,1,0,0:0:0:0:
64,192,282246,128,0,283246:0:0:0:0:
448,192,282246,1,0,0:0:0:0:
192,192,282532,128,0,283246:0:0:0:0:
320,192,282818,128,0,283246:0:0:0:0:
448,192,282818,128,0,283246:0:0:0:0:
64,192,283389,1,0,0:0:0:50:finish.wav
192,192,283389,1,0,0:0:0:0:
320,192,283389,1,0,0:0:0:0:
448,192,283389,128,0,283532:0:0:0:0:
192,192,283532,128,0,283675:0:0:0:0:
64,192,283675,128,0,283746:0:0:0:0:
320,192,283675,128,0,283818:0:0:0:0:
64,192,283818,128,0,283961:0:0:0:0:
192,192,283961,128,0,284032:0:0:0:0:
448,192,283961,128,0,284103:0:0:0:0:
192,192,284103,128,0,284246:0:0:0:0:
64,192,284246,128,0,284389:0:0:0:0:
320,192,284246,128,0,284318:0:0:0:0:
320,192,284389,128,0,284532:0:0:0:0:
192,192,284532,128,0,284675:0:0:0:0:
448,192,284532,128,0,284603:0:0:0:0:
448,192,284675,128,0,284818:0:0:0:0:
64,192,284818,128,0,284961:0:0:0:0:
320,192,284818,128,0,284889:0:0:0:0:
320,192,284961,128,0,285103:0:0:0:0:
192,192,285103,128,0,285175:0:0:0:0:
448,192,285103,128,0,285246:0:0:0:0:
192,192,285246,128,0,285389:0:0:0:0:
64,192,285389,128,0,285532:0:0:0:0:
320,192,285389,128,0,285461:0:0:0:0:
320,192,285532,128,0,285675:0:0:0:0:
192,192,285675,128,0,285818:0:0:0:0:
448,192,285675,128,0,286246:0:0:0:0:
64,192,285818,128,0,285961:0:0:0:0:
320,192,285961,128,0,286103:0:0:0:0:
192,192,286103,128,0,286246:0:0:0:0:
64,192,286246,128,0,286318:0:0:0:0:
320,192,286246,128,0,286389:0:0:0:0:
64,192,286389,128,0,286532:0:0:0:0:
320,192,286532,128,0,286818:0:0:0:0:
448,192,286532,128,0,286675:0:0:0:0:
64,192,286675,128,0,286818:0:0:0:0:
192,192,286818,128,0,286961:0:0:0:0:
448,192,286818,128,0,287246:0:0:0:0:
320,192,286961,128,0,287103:0:0:0:0:
64,192,287103,128,0,287246:0:0:0:0:
192,192,287246,128,0,287318:0:0:0:0:
320,192,287318,128,0,287389:0:0:0:0:
64,192,287389,128,0,287532:0:0:0:0:
448,192,287389,128,0,287961:0:0:0:0:
320,192,287532,128,0,287675:0:0:0:0:
192,192,287675,128,0,287818:0:0:0:0:
64,192,287818,128,0,287961:0:0:0:0:
320,192,287961,128,0,288103:0:0:0:0:
64,192,288103,128,0,288246:0:0:0:0:
192,192,288246,128,0,288318:0:0:0:0:
448,192,288246,128,0,288389:0:0:0:0:
192,192,288389,128,0,288532:0:0:0:0:
64,192,288532,128,0,288675:0:0:0:0:
320,192,288532,128,0,288603:0:0:0:0:
320,192,288675,128,0,288818:0:0:0:0:
192,192,288818,128,0,288961:0:0:0:0:
448,192,288818,128,0,288889:0:0:0:0:
448,192,288961,128,0,289103:0:0:0:0:
320,192,289103,128,0,289246:0:0:0:0:
192,192,289246,128,0,289389:0:0:0:0:
64,192,289389,128,0,289461:0:0:0:0:
448,192,289389,128,0,289532:0:0:0:0:
64,192,289532,128,0,289675:0:0:0:0:
192,192,289675,128,0,289746:0:0:0:0:
320,192,289675,128,0,289818:0:0:0:0:
192,192,289818,128,0,289961:0:0:0:0:
64,192,289961,128,0,290103:0:0:0:0:
320,192,289961,128,0,290032:0:0:0:0:
320,192,290103,128,0,290246:0:0:0:0:
64,192,290246,128,0,290818:0:0:0:0:
448,192,290246,128,0,290389:0:0:0:0:
192,192,290389,128,0,290532:0:0:0:0:
448,192,290532,128,0,290675:0:0:0:0:
192,192,290675,128,0,290818:0:0:0:0:
320,192,290818,128,0,290961:0:0:0:0:
448,192,290818,128,0,291103:0:0:0:0:
192,192,290961,128,0,291103:0:0:0:0:
64,192,291103,128,0,291175:0:0:0:0:
320,192,291103,128,0,291246:0:0:0:0:
192,192,291246,128,0,291389:0:0:0:0:
320,192,291389,128,0,291532:0:0:0:0:
448,192,291389,128,0,291675:0:0:0:0:
64,192,291532,128,0,291675:0:0:0:0:
192,192,291675,128,0,291818:0:0:0:0:
320,192,291675,128,0,291961:0:0:0:0:
64,192,291818,128,0,291961:0:0:0:0:
192,192,291961,128,0,292389:0:0:0:0:
448,192,291961,128,0,292103:0:0:0:0:
320,192,292103,128,0,292246:0:0:0:0:
64,192,292246,128,0,292389:0:0:0:0:
448,192,292389,128,0,292532:0:0:0:0:
64,192,292532,128,0,292603:0:0:0:50:cymbal.wav
192,192,292532,1,0,0:0:0:50:finish.wav
320,192,292532,128,0,292675:0:0:0:0:
64,192,292675,128,0,292746:0:0:0:0:
448,192,292675,128,0,292818:0:0:0:0:
192,192,292818,128,0,292889:0:0:0:0:
320,192,292818,128,0,292961:0:0:0:0:
64,192,292961,128,0,293032:0:0:0:0:
192,192,292961,128,0,293103:0:0:0:0:
320,192,293103,128,0,293175:0:0:0:0:
448,192,293103,128,0,293246:0:0:0:0:
64,192,293246,128,0,293318:0:0:0:0:
320,192,293246,128,0,293389:0:0:0:0:
192,192,293389,128,0,293532:0:0:0:0:
448,192,293389,128,0,293461:0:0:0:0:
64,192,293532,128,0,293603:0:0:0:0:
448,192,293532,128,0,293675:0:0:0:0:
192,192,293675,128,0,293746:0:0:0:0:
320,192,293675,128,0,293818:0:0:0:0:
192,192,293818,128,0,293889:0:0:0:0:
448,192,293818,128,0,293961:0:0:0:0:
64,192,293961,128,0,294032:0:0:0:0:
320,192,293961,128,0,294103:0:0:0:0:
64,192,294103,128,0,294246:0:0:0:0:
192,192,294103,128,0,294175:0:0:0:0:
320,192,294246,128,0,294318:0:0:0:0:
448,192,294246,128,0,294389:0:0:0:0:
64,192,294389,128,0,294461:0:0:0:0:
320,192,294389,128,0,294532:0:0:0:0:
192,192,294532,128,0,294675:0:0:0:0:
448,192,294532,128,0,294603:0:0:0:0:
64,192,294675,128,0,294746:0:0:0:0:
448,192,294675,128,0,294818:0:0:0:0:
192,192,294818,128,0,294889:0:0:0:0:
320,192,294818,128,0,294961:0:0:0:0:
192,192,294961,128,0,295032:0:0:0:0:
448,192,294961,128,0,295103:0:0:0:0:
64,192,295103,128,0,295246:0:0:0:0:
320,192,295103,128,0,295175:0:0:0:0:
192,192,295246,128,0,295318:0:0:0:0:
320,192,295246,128,0,295389:0:0:0:0:
64,192,295389,128,0,295461:0:0:0:0:
448,192,295389,128,0,295532:0:0:0:0:
64,192,295532,128,0,295675:0:0:0:0:
192,192,295532,128,0,295603:0:0:0:0:
320,192,295675,128,0,295818:0:0:0:0:
448,192,295675,128,0,295746:0:0:0:0:
64,192,295818,128,0,295889:0:0:0:0:
448,192,295818,128,0,295961:0:0:0:0:
192,192,295961,128,0,296103:0:0:0:0:
320,192,295961,128,0,296032:0:0:0:0:
64,192,296103,128,0,296175:0:0:0:0:
320,192,296103,128,0,296246:0:0:0:0:
64,192,296246,128,0,296389:0:0:0:0:
448,192,296246,128,0,296318:0:0:0:0:
192,192,296389,128,0,296461:0:0:0:0:
448,192,296389,128,0,296532:0:0:0:0:
192,192,296532,128,0,296675:0:0:0:0:
320,192,296532,128,0,296603:0:0:0:0:
64,192,296675,128,0,296746:0:0:0:0:
320,192,296675,128,0,296818:0:0:0:0:
64,192,296818,128,0,296961:0:0:0:0:
448,192,296818,128,0,296889:0:0:0:0:
192,192,296961,128,0,297032:0:0:0:0:
448,192,296961,128,0,297103:0:0:0:0:
64,192,297103,128,0,297246:0:0:0:0:
320,192,297103,128,0,297961:0:0:0:0:
192,192,297246,128,0,297389:0:0:0:0:
64,192,297389,128,0,297532:0:0:0:0:
64,192,297675,128,0,297818:0:0:0:0:
64,192,297961,128,0,298103:0:0:0:0:
192,192,298246,128,0,298389:0:0:0:0:
320,192,298246,128,0,298818:0:0:0:0:
64,192,298389,128,0,298532:0:0:0:0:
192,192,298532,128,0,298675:0:0:0:0:
64,192,298675,128,0,298818:0:0:0:0:
192,192,298818,128,0,299389:0:0:0:0:
448,192,298818,128,0,298961:0:0:0:0:
320,192,298961,128,0,299103:0:0:0:0:
448,192,299103,128,0,299246:0:0:0:0:
320,192,299246,128,0,299389:0:0:0:0:
64,192,299389,1,0,0:0:0:50:cymbal.wav
448,192,299389,1,0,0:0:0:50:finish.wav
192,192,300532,1,0,0:0:0:0:
320,192,300818,1,0,0:0:0:0:
192,192,300961,1,0,0:0:0:0:
320,192,301032,1,0,0:0:0:0:
192,192,301103,1,0,0:0:0:0:
320,192,301175,1,0,0:0:0:0:
192,192,301246,1,0,0:0:0:0:
320,192,301294,1,0,0:0:0:0:
192,192,301341,1,0,0:0:0:0:
320,192,301389,1,0,0:0:0:0:
192,192,301461,1,0,0:0:0:0:
320,192,301496,1,0,0:0:0:0:
192,192,301532,1,0,0:0:0:0:
448,192,301675,128,0,303675:0:0:0:0:
320,192,301675,128,0,301746:0:0:0:0:
192,192,301746,128,0,301818:0:0:0:0:
64,192,301818,128,0,303675:0:0:0:0:
192,192,302818,128,0,303675:0:0:0:0:
320,192,302818,128,0,303675:0:0:0:0:
64,192,303961,1,0,0:0:0:50:kick_2.wav
192,192,303961,1,0,0:0:0:50:cymbal.wav
448,192,303961,128,0,304103:0:0:0:0:
192,192,304103,1,0,0:0:0:0:
64,192,304246,1,0,0:0:0:50:kick_2.wav
320,192,304246,1,0,0:0:0:0:
448,192,304246,1,0,0:0:0:0:
192,192,304318,1,0,0:0:0:0:
448,192,304389,128,0,304532:0:0:0:0:
64,192,304532,1,0,0:0:0:50:kick_2.wav
192,192,304532,1,0,0:0:0:0:
320,192,304532,1,0,0:0:0:0:
320,192,304675,1,0,0:0:0:0:
192,192,304746,1,0,0:0:0:0:
64,192,304818,128,0,304961:0:0:0:50:kick_2.wav
320,192,304818,1,0,0:0:0:0:
448,192,304818,1,0,0:0:0:0:
448,192,304961,1,0,0:0:0:0:
320,192,305032,1,0,0:0:0:0:
64,192,305103,1,0,0:0:0:50:kick_2.wav
192,192,305103,1,0,0:0:0:0:
448,192,305103,128,0,305246:0:0:0:0:
192,192,305246,1,0,0:0:0:0:
64,192,305389,1,0,0:0:0:50:kick_2.wav
320,192,305389,1,0,0:0:0:0:
448,192,305389,1,0,0:0:0:0:
192,192,305461,1,0,0:0:0:0:
320,192,305532,128,0,305675:0:0:0:0:
64,192,305675,1,0,0:0:0:50:kick_2.wav
192,192,305675,1,0,0:0:0:0:
448,192,305675,1,0,0:0:0:0:
320,192,305818,1,0,0:0:0:0:
192,192,305889,1,0,0:0:0:0:
64,192,305961,1,0,0:0:0:50:kick_2.wav
448,192,305961,1,0,0:0:0:0:
320,192,305961,128,0,306103:0:0:0:0:
64,192,306103,1,0,0:0:0:50:kick_2.wav
192,192,306103,1,0,0:0:0:0:
448,192,306103,1,0,0:0:0:0:
320,192,306175,1,0,0:0:0:0:
64,192,306246,128,0,306389:0:0:0:50:kick_2.wav
192,192,306246,1,0,0:0:0:0:
448,192,306246,1,0,0:0:0:0:
320,192,306341,128,0,306389:0:0:0:0:
448,192,306389,128,0,306437:0:0:0:0:
192,192,306437,128,0,306484:0:0:0:0:
64,192,306484,128,0,306532:0:0:0:0:
320,192,306532,1,0,0:0:0:50:kick_2.wav
448,192,306532,128,0,306675:0:0:0:0:
64,192,306627,128,0,306675:0:0:0:0:
192,192,306675,128,0,306722:0:0:0:0:
320,192,306722,128,0,306770:0:0:0:0:
448,192,306770,128,0,306818:0:0:0:0:
64,192,306818,128,0,306961:0:0:0:50:kick_2.wav
192,192,306818,128,0,306961:0:0:0:0:
448,192,306961,1,0,0:0:0:0:
192,192,307032,128,0,307103:0:0:0:0:
320,192,307032,128,0,307103:0:0:0:0:
64,192,307103,1,0,0:0:0:50:kick_2.wav
448,192,307103,1,0,0:0:0:0:
192,192,307175,1,0,0:0:0:0:
320,192,307246,128,0,307318:0:0:0:50:kick_2.wav
448,192,307246,128,0,307318:0:0:0:0:
64,192,307318,1,0,0:0:0:50:kick_2.wav
192,192,307318,1,0,0:0:0:0:
320,192,307389,128,0,307461:0:0:0:50:kick_2.wav
448,192,307389,128,0,307461:0:0:0:0:
64,192,307532,1,0,0:0:0:0:
320,192,307603,128,0,307675:0:0:0:0:
448,192,307603,128,0,307675:0:0:0:0:
64,192,307675,1,0,0:0:0:50:kick_2.wav
192,192,307675,1,0,0:0:0:0:
320,192,307746,1,0,0:0:0:0:
64,192,307818,1,0,0:0:0:50:kick_2.wav
192,192,307818,1,0,0:0:0:0:
448,192,307818,128,0,307889:0:0:0:0:
320,192,307889,128,0,307961:0:0:0:0:
64,192,307961,128,0,308246:0:0:0:0:
192,192,307961,128,0,308032:0:0:0:0:
320,192,308103,1,0,0:0:0:50:kick_2.wav
448,192,308103,1,0,0:0:0:0:
192,192,308246,1,0,0:0:0:50:kick_2.wav
448,192,308246,128,0,308318:0:0:0:0:
320,192,308318,128,0,308389:0:0:0:0:
64,192,308389,1,0,0:0:0:50:kick_2.wav
192,192,308389,128,0,308461:0:0:0:0:
320,192,308461,1,0,0:0:0:0:
448,192,308461,128,0,308532:0:0:0:0:
64,192,308532,128,0,308603:0:0:0:50:kick_2.wav
192,192,308532,128,0,308603:0:0:0:50:cymbal.wav
448,192,308675,1,0,0:0:0:0:
192,192,308746,128,0,308818:0:0:0:0:
320,192,308746,128,0,308818:0:0:0:0:
64,192,308818,1,0,0:0:0:50:kick_2.wav
448,192,308818,1,0,0:0:0:0:
192,192,308889,1,0,0:0:0:0:
320,192,308961,128,0,309032:0:0:0:0:
448,192,308961,128,0,309032:0:0:0:0:
192,192,309103,128,0,309175:0:0:0:50:kick_2.wav
320,192,309103,128,0,309175:0:0:0:0:
448,192,309103,1,0,0:0:0:0:
64,192,309246,1,0,0:0:0:0:
320,192,309318,128,0,309389:0:0:0:0:
448,192,309318,128,0,309389:0:0:0:0:
64,192,309389,1,0,0:0:0:50:kick_2.wav
192,192,309389,1,0,0:0:0:0:
320,192,309461,1,0,0:0:0:0:
64,192,309532,128,0,309603:0:0:0:50:kick_2.wav
192,192,309532,1,0,0:0:0:0:
448,192,309532,128,0,309603:0:0:0:0:
64,192,309675,128,0,309746:0:0:0:50:kick_2.wav
192,192,309675,128,0,309746:0:0:0:50:cymbal.wav
320,192,309675,1,0,0:0:0:0:
448,192,309818,1,0,0:0:0:0:
192,192,309889,128,0,309961:0:0:0:0:
320,192,309889,128,0,309961:0:0:0:0:
64,192,309961,1,0,0:0:0:50:kick_2.wav
448,192,309961,1,0,0:0:0:0:
192,192,310032,1,0,0:0:0:0:
64,192,310103,1,0,0:0:0:50:kick_2.wav
320,192,310103,128,0,310175:0:0:0:0:
448,192,310103,128,0,310175:0:0:0:0:
192,192,310246,128,0,310318:0:0:0:0:
448,192,310246,128,0,310318:0:0:0:0:
64,192,310389,1,0,0:0:0:50:kick_2.wav
320,192,310389,1,0,0:0:0:0:
448,192,310389,1,0,0:0:0:0:
192,192,310461,128,0,310532:0:0:0:0:
320,192,310461,128,0,310532:0:0:0:0:
64,192,310675,128,0,310746:0:0:0:50:kick_2.wav
192,192,310675,128,0,310746:0:0:0:0:
448,192,310675,1,0,0:0:0:0:
64,192,310818,128,0,310889:0:0:0:50:kick_2.wav
320,192,310818,1,0,0:0:0:50:cymbal.wav
448,192,310818,1,0,0:0:0:0:
192,192,310889,128,0,310961:0:0:0:0:
64,192,310961,128,0,311032:0:0:0:50:kick_2.wav
320,192,310961,1,0,0:0:0:0:
448,192,310961,1,0,0:0:0:0:
192,192,311032,128,0,311103:0:0:0:0:
64,192,311103,128,0,311175:0:0:0:50:kick_2.wav
320,192,311103,1,0,0:0:0:0:
448,192,311103,1,0,0:0:0:0:
192,192,311175,128,0,311246:0:0:0:0:
320,192,311246,128,0,311318:0:0:0:0:
448,192,311318,128,0,311389:0:0:0:0:
64,192,311389,1,0,0:0:0:50:kick_2.wav
192,192,311389,1,0,0:0:0:0:
320,192,311389,128,0,311461:0:0:0:0:
448,192,311461,128,0,311532:0:0:0:0:
64,192,311532,1,0,0:0:0:50:kick_2.wav
192,192,311532,1,0,0:0:0:0:
320,192,311532,128,0,311603:0:0:0:0:
448,192,311603,128,0,311675:0:0:0:0:
320,192,311675,128,0,311746:0:0:0:0:
192,192,311746,128,0,311818:0:0:0:0:
64,192,311818,128,0,311889:0:0:0:50:kick_2.wav
320,192,311818,1,0,0:0:0:0:
448,192,311818,1,0,0:0:0:0:
192,192,311889,128,0,311961:0:0:0:0:
64,192,311961,128,0,312032:0:0:0:50:kick_2.wav
448,192,311961,128,0,312032:0:0:0:0:
320,192,311961,1,0,0:0:0:0:
64,192,312103,1,0,0:0:0:50:kick_2.wav
192,192,312103,1,0,0:0:0:0:
320,192,312175,128,0,312246:0:0:0:0:
448,192,312175,128,0,312246:0:0:0:0:
64,192,312246,1,0,0:0:0:50:kick_2.wav
192,192,312246,1,0,0:0:0:0:
320,192,312318,1,0,0:0:0:0:
64,192,312389,128,0,312461:0:0:0:50:kick_2.wav
192,192,312389,128,0,312461:0:0:0:0:
448,192,312389,1,0,0:0:0:0:
320,192,312532,128,0,312603:0:0:0:50:kick_2.wav
448,192,312532,128,0,312603:0:0:0:0:
64,192,312603,1,0,0:0:0:50:kick_2.wav
192,192,312603,1,0,0:0:0:0:
320,192,312675,1,0,0:0:0:50:kick_2.wav
448,192,312675,1,0,0:0:0:0:
64,192,312746,128,0,312818:0:0:0:50:kick_2.wav
192,192,312746,1,0,0:0:0:0:
320,192,312818,1,0,0:0:0:50:kick_2.wav
448,192,312818,1,0,0:0:0:0:
64,192,312889,1,0,0:0:0:50:kick_2.wav
192,192,312889,1,0,0:0:0:0:
320,192,312961,128,0,313032:0:0:0:50:kick_2.wav
448,192,312961,1,0,0:0:0:0:
64,192,313032,1,0,0:0:0:50:kick_2.wav
192,192,313032,128,0,313103:0:0:0:0:
448,192,313103,128,0,313246:0:0:0:0:
64,192,313246,1,0,0:0:0:50:kick_2.wav
192,192,313246,1,0,0:0:0:0:
320,192,313246,1,0,0:0:0:0:
64,192,313389,1,0,0:0:0:50:kick_2.wav
192,192,313389,1,0,0:0:0:0:
448,192,313389,1,0,0:0:0:0:
320,192,313461,1,0,0:0:0:0:
448,192,313532,128,0,313675:0:0:0:0:
64,192,313675,1,0,0:0:0:50:kick_2.wav
192,192,313675,1,0,0:0:0:0:
320,192,313675,1,0,0:0:0:0:
192,192,313818,1,0,0:0:0:0:
320,192,313889,1,0,0:0:0:0:
64,192,313961,128,0,314103:0:0:0:50:kick_2.wav
192,192,313961,1,0,0:0:0:0:
448,192,313961,1,0,0:0:0:0:
320,192,314103,1,0,0:0:0:0:
192,192,314175,1,0,0:0:0:0:
64,192,314246,1,0,0:0:0:50:kick_2.wav
320,192,314246,1,0,0:0:0:0:
448,192,314246,128,0,314389:0:0:0:0:
192,192,314389,1,0,0:0:0:0:
64,192,314532,1,0,0:0:0:50:kick_2.wav
320,192,314532,1,0,0:0:0:0:
448,192,314532,1,0,0:0:0:0:
192,192,314603,1,0,0:0:0:0:
64,192,314675,128,0,314818:0:0:0:0:
192,192,314818,1,0,0:0:0:50:kick_2.wav
320,192,314818,1,0,0:0:0:0:
448,192,314818,1,0,0:0:0:0:
320,192,314961,1,0,0:0:0:0:
192,192,315032,1,0,0:0:0:0:
64,192,315103,1,0,0:0:0:50:kick_2.wav
448,192,315103,1,0,0:0:0:0:
320,192,315103,128,0,315246:0:0:0:0:
64,192,315246,1,0,0:0:0:50:kick_2.wav
192,192,315246,1,0,0:0:0:0:
448,192,315246,1,0,0:0:0:0:
320,192,315318,1,0,0:0:0:0:
64,192,315389,128,0,315532:0:0:0:50:kick_2.wav
192,192,315389,1,0,0:0:0:0:
448,192,315389,1,0,0:0:0:0:
320,192,315484,128,0,315532:0:0:0:0:
192,192,315532,128,0,315580:0:0:0:0:
448,192,315580,128,0,315627:0:0:0:0:
320,192,315627,128,0,315675:0:0:0:0:
64,192,315675,128,0,315818:0:0:0:50:kick_2.wav
192,192,315675,1,0,0:0:0:0:
448,192,315770,128,0,315818:0:0:0:0:
320,192,315818,128,0,315865:0:0:0:0:
192,192,315865,128,0,315913:0:0:0:0:
64,192,315913,128,0,315961:0:0:0:0:
320,192,315961,128,0,316103:0:0:0:50:kick_2.wav
448,192,315961,128,0,316103:0:0:0:0:
64,192,316175,128,0,316246:0:0:0:0:
192,192,316175,128,0,316246:0:0:0:0:
320,192,316246,1,0,0:0:0:50:kick_2.wav
448,192,316246,1,0,0:0:0:0:
64,192,316318,1,0,0:0:0:50:kick_2.wav
192,192,316318,1,0,0:0:0:0:
320,192,316389,128,0,316461:0:0:0:50:kick_2.wav
448,192,316389,128,0,316461:0:0:0:0:
64,192,316461,1,0,0:0:0:50:kick_2.wav
192,192,316461,1,0,0:0:0:0:
64,192,316532,128,0,316675:0:0:0:50:kick_2.wav
320,192,316532,128,0,316675:0:0:0:0:
448,192,316532,128,0,316675:0:0:0:0:
64,192,316746,128,0,316889:0:0:0:50:kick_2.wav
192,192,316746,128,0,316889:0:0:0:0:
320,192,316746,128,0,316889:0:0:0:0:
64,192,316961,128,0,317032:0:0:0:50:kick_2.wav
320,192,316961,128,0,317032:0:0:0:0:
448,192,316961,128,0,317032:0:0:0:0:
320,192,317103,1,0,0:0:0:50:kick_2.wav
448,192,317103,1,0,0:0:0:0:
64,192,317175,1,0,0:0:0:50:kick_2.wav
192,192,317175,1,0,0:0:0:0:
448,192,317246,1,0,0:0:0:50:kick_2.wav
320,192,317282,1,0,0:0:0:50:kick_2.wav
64,192,317318,1,0,0:0:0:50:kick_2.wav
192,192,317353,1,0,0:0:0:50:kick_2.wav
320,192,317389,1,0,0:0:0:50:kick_2.wav
448,192,317389,1,0,0:0:0:0:
64,192,317532,1,0,0:0:0:50:kick_2.wav
192,192,317568,1,0,0:0:0:50:kick_2.wav
320,192,317603,1,0,0:0:0:50:kick_2.wav
448,192,317639,1,0,0:0:0:50:kick_2.wav
64,192,317675,128,0,317746:0:0:0:50:kick_2.wav
192,192,317675,128,0,317746:0:0:0:50:cymbal.wav
448,192,317818,1,0,0:0:0:0:
192,192,317889,128,0,317961:0:0:0:0:
320,192,317889,128,0,317961:0:0:0:0:
64,192,317961,1,0,0:0:0:50:kick_2.wav
448,192,317961,1,0,0:0:0:0:
192,192,318032,1,0,0:0:0:0:
320,192,318103,128,0,318175:0:0:0:0:
448,192,318103,128,0,318175:0:0:0:0:
64,192,318246,1,0,0:0:0:50:kick_2.wav
192,192,318246,128,0,318318:0:0:0:0:
320,192,318246,128,0,318318:0:0:0:0:
192,192,318389,1,0,0:0:0:0:
320,192,318461,128,0,318532:0:0:0:0:
448,192,318461,128,0,318532:0:0:0:0:
64,192,318532,1,0,0:0:0:50:kick_2.wav
192,192,318532,1,0,0:0:0:0:
448,192,318603,1,0,0:0:0:0:
192,192,318675,128,0,318746:0:0:0:0:
320,192,318675,128,0,318746:0:0:0:0:
64,192,318818,128,0,318889:0:0:0:50:kick_2.wav
192,192,318818,128,0,318889:0:0:0:0:
320,192,318818,1,0,0:0:0:0:
448,192,318961,1,0,0:0:0:0:
192,192,319032,128,0,319103:0:0:0:0:
320,192,319032,128,0,319103:0:0:0:0:
64,192,319103,1,0,0:0:0:50:kick_2.wav
448,192,319103,1,0,0:0:0:0:
192,192,319175,1,0,0:0:0:0:
320,192,319246,128,0,319318:0:0:0:0:
448,192,319246,128,0,319318:0:0:0:0:
64,192,319389,1,0,0:0:0:50:kick_2.wav
192,192,319389,128,0,319461:0:0:0:0:
320,192,319389,128,0,319461:0:0:0:0:
192,192,319532,1,0,0:0:0:0:
320,192,319603,128,0,319675:0:0:0:0:
448,192,319603,128,0,319675:0:0:0:0:
64,192,319675,1,0,0:0:0:50:kick_2.wav
192,192,319675,1,0,0:0:0:0:
320,192,319746,1,0,0:0:0:0:
64,192,319818,128,0,319889:0:0:0:50:kick_2.wav
192,192,319818,128,0,319889:0:0:0:0:
448,192,319818,1,0,0:0:0:0:
64,192,319961,1,0,0:0:0:50:kick_2.wav
320,192,319961,128,0,320032:0:0:0:50:cymbal.wav
448,192,319961,1,0,0:0:0:0:
192,192,320032,128,0,320103:0:0:0:0:
320,192,320103,128,0,320175:0:0:0:0:
192,192,320175,128,0,320246:0:0:0:0:
320,192,320246,128,0,320318:0:0:0:0:
64,192,320318,128,0,320389:0:0:0:0:
192,192,320389,1,0,0:0:0:50:kick_2.wav
320,192,320389,1,0,0:0:0:0:
448,192,320389,128,0,320461:0:0:0:0:
64,192,320461,128,0,320532:0:0:0:0:
448,192,320532,128,0,320603:0:0:0:0:
64,192,320603,128,0,320675:0:0:0:0:
448,192,320675,128,0,320746:0:0:0:0:
192,192,320746,128,0,320818:0:0:0:0:
64,192,320818,1,0,0:0:0:50:kick_2.wav
320,192,320818,128,0,320889:0:0:0:0:
448,192,320818,1,0,0:0:0:0:
192,192,320889,128,0,320961:0:0:0:0:
64,192,320961,1,0,0:0:0:50:kick_2.wav
320,192,320961,128,0,321032:0:0:0:0:
448,192,320961,1,0,0:0:0:0:
192,192,321032,128,0,321103:0:0:0:0:
64,192,321103,128,0,321175:0:0:0:50:kick_2.wav
320,192,321103,1,0,0:0:0:50:cymbal.wav
448,192,321103,1,0,0:0:0:0:
192,192,321175,128,0,321246:0:0:0:0:
320,192,321246,128,0,321318:0:0:0:0:
64,192,321318,1,0,0:0:0:50:kick_2.wav
192,192,321318,1,0,0:0:0:0:
448,192,321318,128,0,321389:0:0:0:0:
320,192,321389,128,0,321461:0:0:0:0:
64,192,321461,128,0,321532:0:0:0:0:
192,192,321532,128,0,321603:0:0:0:50:kick_2.wav
320,192,321532,1,0,0:0:0:0:
448,192,321532,1,0,0:0:0:0:
64,192,321603,128,0,321675:0:0:0:0:
320,192,321675,128,0,321746:0:0:0:0:
448,192,321746,128,0,321818:0:0:0:0:
64,192,321818,1,0,0:0:0:50:kick_2.wav
192,192,321818,1,0,0:0:0:0:
320,192,321818,128,0,321889:0:0:0:0:
448,192,321889,128,0,321961:0:0:0:0:
64,192,321961,1,0,0:0:0:50:kick_2.wav
192,192,321961,128,0,322032:0:0:0:0:
320,192,321961,1,0,0:0:0:0:
448,192,322032,128,0,322103:0:0:0:0:
64,192,322103,128,0,322175:0:0:0:50:kick_2.wav
192,192,322139,1,0,0:0:0:50:kick_2.wav
320,192,322175,128,0,322246:0:0:0:50:kick_2.wav
448,192,322211,1,0,0:0:0:50:kick_2.wav
64,192,322246,128,0,322389:0:0:0:0:
192,192,322389,1,0,0:0:0:50:kick_2.wav
320,192,322389,1,0,0:0:0:0:
448,192,322389,1,0,0:0:0:0:
64,192,322532,1,0,0:0:0:50:kick_2.wav
320,192,322532,1,0,0:0:0:0:
448,192,322532,1,0,0:0:0:0:
192,192,322603,1,0,0:0:0:0:
448,192,322675,128,0,322818:0:0:0:0:
64,192,322818,1,0,0:0:0:50:kick_2.wav
192,192,322818,1,0,0:0:0:0:
320,192,322818,1,0,0:0:0:0:
320,192,322961,1,0,0:0:0:0:
192,192,323032,1,0,0:0:0:0:
64,192,323103,128,0,323246:0:0:0:50:kick_2.wav
320,192,323103,1,0,0:0:0:0:
448,192,323103,1,0,0:0:0:0:
192,192,323246,1,0,0:0:0:0:
320,192,323318,1,0,0:0:0:0:
64,192,323389,1,0,0:0:0:50:kick_2.wav
192,192,323389,1,0,0:0:0:0:
448,192,323389,128,0,323532:0:0:0:0:
192,192,323532,1,0,0:0:0:0:
64,192,323675,1,0,0:0:0:50:kick_2.wav
320,192,323675,1,0,0:0:0:0:
448,192,323675,1,0,0:0:0:0:
192,192,323746,1,0,0:0:0:0:
320,192,323818,128,0,323961:0:0:0:0:
64,192,323961,1,0,0:0:0:50:kick_2.wav
192,192,323961,1,0,0:0:0:0:
448,192,323961,1,0,0:0:0:0:
320,192,324103,1,0,0:0:0:0:
192,192,324175,1,0,0:0:0:0:
64,192,324246,1,0,0:0:0:50:kick_2.wav
448,192,324246,1,0,0:0:0:0:
320,192,324246,128,0,324389:0:0:0:0:
64,192,324389,1,0,0:0:0:50:kick_2.wav
192,192,324389,1,0,0:0:0:0:
448,192,324389,1,0,0:0:0:0:
320,192,324461,1,0,0:0:0:0:
64,192,324532,1,0,0:0:0:50:kick_2.wav
192,192,324532,1,0,0:0:0:0:
448,192,324532,128,0,324675:0:0:0:0:
320,192,324627,128,0,324675:0:0:0:0:
192,192,324675,128,0,324722:0:0:0:0:
64,192,324722,128,0,324770:0:0:0:0:
320,192,324770,128,0,324818:0:0:0:0:
192,192,324818,1,0,0:0:0:50:kick_2.wav
448,192,324818,128,0,324961:0:0:0:0:
64,192,324913,128,0,324961:0:0:0:0:
192,192,324961,128,0,325008:0:0:0:0:
320,192,325008,128,0,325056:0:0:0:0:
448,192,325056,128,0,325103:0:0:0:0:
64,192,325103,128,0,325175:0:0:0:50:kick_2.wav
192,192,325103,128,0,325175:0:0:0:0:
320,192,325246,1,0,0:0:0:50:kick_2.wav
448,192,325246,1,0,0:0:0:0:
192,192,325318,128,0,325389:0:0:0:0:
320,192,325318,128,0,325389:0:0:0:0:
64,192,325389,1,0,0:0:0:50:kick_2.wav
448,192,325389,1,0,0:0:0:0:
64,192,325532,1,0,0:0:0:50:kick_2.wav
320,192,325532,128,0,325603:0:0:0:0:
448,192,325532,128,0,325603:0:0:0:0:
192,192,325603,1,0,0:0:0:0:
64,192,325675,128,0,325818:0:0:0:50:kick_2.wav
320,192,325675,128,0,325818:0:0:0:0:
448,192,325675,128,0,325818:0:0:0:0:
64,192,325889,128,0,326032:0:0:0:50:kick_2.wav
192,192,325889,128,0,326032:0:0:0:0:
448,192,325889,128,0,326032:0:0:0:0:
64,192,326103,1,0,0:0:0:50:kick_2.wav
320,192,326103,128,0,326246:0:0:0:0:
448,192,326103,128,0,326246:0:0:0:0:
64,192,326246,1,0,0:0:0:50:kick_2.wav
192,192,326246,1,0,0:0:0:0:
320,192,326318,1,0,0:0:0:50:kick_2.wav
448,192,326318,1,0,0:0:0:0:
64,192,326389,1,0,0:0:0:50:kick_2.wav
192,192,326425,1,0,0:0:0:50:kick_2.wav
448,192,326461,1,0,0:0:0:50:kick_2.wav
320,192,326496,1,0,0:0:0:50:kick_2.wav
64,192,326532,1,0,0:0:0:50:kick_2.wav
192,192,326532,128,0,326603:0:0:0:0:
320,192,326603,1,0,0:0:0:50:kick_2.wav
448,192,326603,128,0,326675:0:0:0:0:
64,192,326675,1,0,0:0:0:50:kick_2.wav
192,192,326711,1,0,0:0:0:50:kick_2.wav
320,192,326746,1,0,0:0:0:50:kick_2.wav
448,192,326782,1,0,0:0:0:50:kick_2.wav
64,192,326818,128,0,326889:0:0:0:50:kick_2.wav
192,192,326818,128,0,326889:0:0:0:50:cymbal.wav
320,192,326961,1,0,0:0:0:50:kick_2.wav
448,192,326961,1,0,0:0:0:0:
192,192,327032,128,0,327103:0:0:0:0:
320,192,327032,128,0,327103:0:0:0:0:
64,192,327103,1,0,0:0:0:50:kick_2.wav
448,192,327103,1,0,0:0:0:0:
192,192,327175,1,0,0:0:0:0:
320,192,327246,128,0,327318:0:0:0:0:
448,192,327246,128,0,327318:0:0:0:0:
64,192,327389,1,0,0:0:0:50:kick_2.wav
192,192,327389,128,0,327461:0:0:0:0:
320,192,327389,128,0,327461:0:0:0:0:
192,192,327532,1,0,0:0:0:0:
320,192,327603,128,0,327675:0:0:0:0:
448,192,327603,128,0,327675:0:0:0:0:
64,192,327675,1,0,0:0:0:50:kick_2.wav
192,192,327675,1,0,0:0:0:0:
64,192,327818,128,0,327889:0:0:0:50:kick_2.wav
192,192,327818,128,0,327889:0:0:0:0:
448,192,327818,1,0,0:0:0:0:
320,192,327889,1,0,0:0:0:0:
64,192,327961,128,0,328032:0:0:0:50:kick_2.wav
192,192,327961,128,0,328032:0:0:0:0:
448,192,327961,1,0,0:0:0:0:
64,192,328103,1,0,0:0:0:0:
192,192,328175,128,0,328246:0:0:0:0:
320,192,328175,128,0,328246:0:0:0:0:
64,192,328246,1,0,0:0:0:50:kick_2.wav
448,192,328246,1,0,0:0:0:0:
192,192,328318,1,0,0:0:0:0:
320,192,328389,128,0,328461:0:0:0:0:
448,192,328389,128,0,328461:0:0:0:0:
64,192,328532,1,0,0:0:0:50:kick_2.wav
192,192,328532,128,0,328603:0:0:0:0:
320,192,328532,128,0,328603:0:0:0:0:
448,192,328675,1,0,0:0:0:0:
64,192,328746,128,0,328818:0:0:0:0:
192,192,328746,128,0,328818:0:0:0:0:
320,192,328818,1,0,0:0:0:50:kick_2.wav
448,192,328818,1,0,0:0:0:0:
192,192,328889,1,0,0:0:0:0:
64,192,328961,1,0,0:0:0:50:kick_2.wav
320,192,328961,128,0,329032:0:0:0:0:
448,192,328961,128,0,329032:0:0:0:0:
64,192,329103,1,0,0:0:0:50:kick_2.wav
192,192,329103,128,0,329151:0:0:0:0:
448,192,329151,128,0,329199:0:0:0:0:
320,192,329199,128,0,329246:0:0:0:0:
64,192,329246,1,0,0:0:0:50:kick_2.wav
192,192,329246,1,0,0:0:0:0:
320,192,329318,1,0,0:0:0:50:kick_2.wav
448,192,329318,1,0,0:0:0:0:
64,192,329389,1,0,0:0:0:50:kick_2.wav
192,192,329389,128,0,329437:0:0:0:0:
320,192,329437,128,0,329484:0:0:0:0:
448,192,329484,128,0,329532:0:0:0:0:
64,192,329532,1,0,0:0:0:50:kick_2.wav
192,192,329532,1,0,0:0:0:0:
320,192,329603,1,0,0:0:0:50:kick_2.wav
448,192,329603,1,0,0:0:0:0:
64,192,329675,1,0,0:0:0:50:kick_2.wav
192,192,329675,128,0,329722:0:0:0:0:
448,192,329722,128,0,329770:0:0:0:0:
320,192,329770,128,0,329818:0:0:0:0:
64,192,329818,1,0,0:0:0:50:kick_2.wav
192,192,329818,1,0,0:0:0:0:
320,192,329889,1,0,0:0:0:50:kick_2.wav
448,192,329889,1,0,0:0:0:0:
64,192,329961,1,0,0:0:0:50:kick_2.wav
192,192,329961,1,0,0:0:0:0:
320,192,330032,1,0,0:0:0:50:kick_2.wav
448,192,330032,1,0,0:0:0:0:
64,192,330103,1,0,0:0:0:50:kick_2.wav
192,192,330103,1,0,0:0:0:0:
320,192,330175,1,0,0:0:0:50:kick_2.wav
448,192,330175,1,0,0:0:0:0:
64,192,330246,128,0,330318:0:0:0:50:kick_2.wav
192,192,330246,128,0,330318:0:0:0:0:
448,192,330389,1,0,0:0:0:0:
192,192,330461,128,0,330532:0:0:0:0:
320,192,330461,128,0,330532:0:0:0:0:
64,192,330532,1,0,0:0:0:50:kick_2.wav
448,192,330532,1,0,0:0:0:0:
192,192,330603,1,0,0:0:0:0:
320,192,330675,128,0,330746:0:0:0:0:
448,192,330675,128,0,330746:0:0:0:0:
64,192,330746,1,0,0:0:0:50:kick_2.wav
192,192,330746,1,0,0:0:0:0:
64,192,330818,1,0,0:0:0:50:kick_2.wav
192,192,330818,128,0,330961:0:0:0:0:
320,192,330818,128,0,330961:0:0:0:0:
448,192,330961,1,0,0:0:0:50:kick_2.wav
64,192,331032,128,0,331175:0:0:0:50:kick_2.wav
320,192,331032,1,0,0:0:0:0:
448,192,331032,128,0,331175:0:0:0:0:
64,192,331246,1,0,0:0:0:50:kick_2.wav
192,192,331282,1,0,0:0:0:50:kick_2.wav
320,192,331318,1,0,0:0:0:50:kick_2.wav
448,192,331353,1,0,0:0:0:50:kick_2.wav
64,192,331389,128,0,331532:0:0:0:50:kick_2.wav
192,192,331389,1,0,0:0:0:50:cymbal.wav
320,192,331532,1,0,0:0:0:0:
64,192,331675,1,0,0:0:0:50:kick_2.wav
192,192,331675,1,0,0:0:0:0:
448,192,331675,1,0,0:0:0:0:
320,192,331746,1,0,0:0:0:0:
64,192,331818,128,0,331961:0:0:0:0:
192,192,331961,1,0,0:0:0:50:kick_2.wav
320,192,331961,1,0,0:0:0:0:
448,192,331961,1,0,0:0:0:0:
320,192,332103,1,0,0:0:0:0:
192,192,332175,1,0,0:0:0:0:
64,192,332246,1,0,0:0:0:50:kick_2.wav
448,192,332246,1,0,0:0:0:0:
320,192,332246,128,0,332389:0:0:0:0:
64,192,332389,1,0,0:0:0:50:kick_2.wav
192,192,332389,1,0,0:0:0:0:
448,192,332389,1,0,0:0:0:0:
320,192,332461,1,0,0:0:0:0:
64,192,332532,128,0,332675:0:0:0:50:kick_2.wav
192,192,332532,1,0,0:0:0:0:
448,192,332532,1,0,0:0:0:0:
320,192,332675,1,0,0:0:0:0:
64,192,332818,1,0,0:0:0:50:kick_2.wav
192,192,332818,1,0,0:0:0:0:
448,192,332818,1,0,0:0:0:0:
320,192,332889,1,0,0:0:0:0:
192,192,332961,128,0,333103:0:0:0:0:
64,192,333103,1,0,0:0:0:50:kick_2.wav
320,192,333103,1,0,0:0:0:0:
448,192,333103,1,0,0:0:0:0:
64,192,333246,1,0,0:0:0:50:kick_2.wav
192,192,333246,1,0,0:0:0:0:
320,192,333318,1,0,0:0:0:50:kick_2.wav
448,192,333318,1,0,0:0:0:0:
192,192,333389,128,0,333532:0:0:0:50:kick_2.wav
64,192,333389,1,0,0:0:0:0:
320,192,333532,1,0,0:0:0:50:kick_2.wav
448,192,333532,1,0,0:0:0:0:
64,192,333532,1,0,0:0:0:0:
192,192,333603,1,0,0:0:0:0:
64,192,333675,128,0,333746:0:0:0:50:kick_2.wav
320,192,333675,1,0,0:0:0:0:
448,192,333675,128,0,333746:0:0:0:0:
192,192,333770,128,0,333818:0:0:0:0:
320,192,333818,128,0,333865:0:0:0:0:
448,192,333865,128,0,333913:0:0:0:0:
64,192,333889,128,0,333961:0:0:0:0:
192,192,333889,128,0,333961:0:0:0:0:
320,192,333961,1,0,0:0:0:50:kick_2.wav
448,192,333961,1,0,0:0:0:0:
64,192,334056,128,0,334103:0:0:0:0:
320,192,334103,128,0,334175:0:0:0:0:
448,192,334103,128,0,334175:0:0:0:0:
192,192,334151,128,0,334199:0:0:0:0:
64,192,334199,128,0,334246:0:0:0:0:
320,192,334246,128,0,334318:0:0:0:50:kick_2.wav
448,192,334246,128,0,334318:0:0:0:0:
64,192,334389,1,0,0:0:0:50:kick_2.wav
192,192,334389,1,0,0:0:0:0:
448,192,334389,1,0,0:0:0:0:
192,192,334461,128,0,334532:0:0:0:0:
320,192,334461,128,0,334532:0:0:0:0:
448,192,334603,1,0,0:0:0:0:
64,192,334675,1,0,0:0:0:50:kick_2.wav
192,192,334711,1,0,0:0:0:50:kick_2.wav
320,192,334746,1,0,0:0:0:50:kick_2.wav
448,192,334782,1,0,0:0:0:50:kick_2.wav
64,192,334818,128,0,334889:0:0:0:50:kick_2.wav
192,192,334818,128,0,334889:0:0:0:0:
320,192,334961,1,0,0:0:0:50:kick_2.wav
448,192,334961,1,0,0:0:0:0:
192,192,335032,128,0,335103:0:0:0:0:
320,192,335032,128,0,335103:0:0:0:0:
64,192,335103,1,0,0:0:0:50:kick_2.wav
448,192,335103,1,0,0:0:0:0:
192,192,335175,1,0,0:0:0:0:
320,192,335246,128,0,335318:0:0:0:0:
448,192,335246,128,0,335318:0:0:0:0:
64,192,335389,1,0,0:0:0:50:kick_2.wav
192,192,335389,128,0,335461:0:0:0:0:
320,192,335389,128,0,335461:0:0:0:0:
448,192,335532,1,0,0:0:0:0:
64,192,335603,128,0,335675:0:0:0:0:
192,192,335603,128,0,335675:0:0:0:0:
320,192,335675,1,0,0:0:0:50:kick_2.wav
448,192,335675,1,0,0:0:0:0:
64,192,335746,1,0,0:0:0:0:
320,192,335818,128,0,335889:0:0:0:50:kick_2.wav
192,192,335853,1,0,0:0:0:50:kick_2.wav
64,192,335889,1,0,0:0:0:50:kick_2.wav
320,192,335961,128,0,336032:0:0:0:50:kick_2.wav
448,192,335961,128,0,336032:0:0:0:50:cymbal.wav
192,192,336032,1,0,0:0:0:0:
320,192,336103,128,0,336389:0:0:0:0:
448,192,336103,128,0,336389:0:0:0:0:
64,192,336246,1,0,0:0:0:50:kick_2.wav
192,192,336246,1,0,0:0:0:0:
192,192,336389,128,0,336461:0:0:0:0:
320,192,336461,128,0,336532:0:0:0:0:
64,192,336532,128,0,337032:0:0:0:50:kick_2.wav
192,192,336532,128,0,337103:0:0:0:0:
448,192,336532,1,0,0:0:0:0:
320,192,336818,1,0,0:0:0:50:kick_2.wav
448,192,336818,1,0,0:0:0:0:
320,192,336961,1,0,0:0:0:50:kick_2.wav
448,192,336961,1,0,0:0:0:0:
64,192,337103,128,0,337246:0:0:0:50:kick_2.wav
320,192,337103,128,0,337246:0:0:0:50:cymbal.wav
448,192,337103,128,0,337246:0:0:0:0:
64,192,337318,128,0,337461:0:0:0:50:kick_2.wav
192,192,337318,128,0,337461:0:0:0:0:
448,192,337318,128,0,337461:0:0:0:0:
64,192,337532,128,0,337603:0:0:0:50:kick_2.wav
192,192,337532,128,0,337603:0:0:0:0:
448,192,337532,128,0,337603:0:0:0:0:
192,192,337675,128,0,337818:0:0:0:50:kick_2.wav
320,192,337675,128,0,337818:0:0:0:0:
448,192,337675,128,0,337818:0:0:0:0:
192,192,337889,128,0,338032:0:0:0:50:kick_2.wav
320,192,337889,128,0,338032:0:0:0:0:
448,192,337889,128,0,338032:0:0:0:0:
64,192,338103,128,0,338175:0:0:0:50:kick_2.wav
192,192,338103,128,0,338175:0:0:0:0:
320,192,338103,128,0,338175:0:0:0:0:
64,192,338246,1,0,0:0:0:50:kick_2.wav
192,192,338246,128,0,339175:0:0:0:0:
320,192,338246,1,0,0:0:0:0:
448,192,338389,1,0,0:0:0:50:kick_2.wav
64,192,338461,1,0,0:0:0:50:kick_2.wav
320,192,338532,1,0,0:0:0:50:kick_2.wav
448,192,338532,1,0,0:0:0:0:
64,192,338675,1,0,0:0:0:50:kick_2.wav
320,192,338675,1,0,0:0:0:0:
448,192,338818,1,0,0:0:0:50:kick_2.wav
64,192,338889,1,0,0:0:0:50:kick_2.wav
320,192,338961,1,0,0:0:0:50:kick_2.wav
448,192,338961,1,0,0:0:0:0:
64,192,339103,1,0,0:0:0:0:
320,192,339175,128,0,339246:0:0:0:50:kick_2.wav
448,192,339175,1,0,0:0:0:0:
64,192,339246,1,0,0:0:0:50:kick_2.wav
192,192,339246,128,0,339318:0:0:0:0:
320,192,339318,1,0,0:0:0:50:kick_2.wav
448,192,339318,128,0,339389:0:0:0:0:
64,192,339389,128,0,340532:0:0:0:50:kick_2.wav
192,192,339389,128,0,339532:0:0:0:0:
192,192,339818,128,0,339961:0:0:0:50:kick_2.wav
320,192,339818,128,0,339961:0:0:0:0:
320,192,340246,128,0,340318:0:0:0:50:kick_2.wav
448,192,340246,128,0,340318:0:0:0:0:
192,192,340318,1,0,0:0:0:50:kick_2.wav
320,192,340389,1,0,0:0:0:50:kick_2.wav
448,192,340389,1,0,0:0:0:0:
192,192,340461,1,0,0:0:0:50:kick_2.wav
320,192,340532,1,0,0:0:0:50:kick_2.wav
448,192,340532,128,0,342818:0:0:0:50:cymbal.wav
64,192,340818,1,0,0:0:0:50:kick_2.wav
192,192,340818,1,0,0:0:0:0:
64,192,341103,1,0,0:0:0:50:kick_2.wav
192,192,341103,1,0,0:0:0:0:
64,192,341389,1,0,0:0:0:50:kick_2.wav
192,192,341389,1,0,0:0:0:0:
64,192,341675,1,0,0:0:0:50:kick_2.wav
192,192,341675,1,0,0:0:0:0:
64,192,341961,1,0,0:0:0:50:kick_2.wav
192,192,341961,1,0,0:0:0:0:
64,192,342246,1,0,0:0:0:50:kick_2.wav
192,192,342246,1,0,0:0:0:0:
64,192,342532,1,0,0:0:0:50:kick_2.wav
192,192,342532,1,0,0:0:0:0:
64,192,342818,1,0,0:0:0:50:kick_2.wav
192,192,342818,1,0,0:0:0:0:
64,192,343103,128,0,343175:0:0:0:50:kick_2.wav
192,192,343103,1,0,0:0:0:0:
64,192,343389,1,0,0:0:0:50:kick_2.wav
192,192,343389,128,0,343461:0:0:0:0:
320,192,343680,128,0,343753:0:0:0:0:
448,192,343971,128,0,344043:0:0:0:0:
320,192,344262,128,0,344335:0:0:0:0:
64,192,344553,128,0,344626:0:0:0:0:
192,192,344844,128,0,344917:0:0:0:0:
64,192,345136,1,0,0:0:0:0:
192,192,345136,1,0,0:0:0:0:
320,192,345186,1,0,0:0:0:0:
448,192,345436,128,0,345511:0:0:0:0:
320,192,345736,128,0,345811:0:0:0:0:
192,192,346036,128,0,346111:0:0:0:0:
64,192,346336,1,0,0:0:0:0:
192,192,346336,1,0,0:0:0:0:
448,192,346645,128,0,346722:0:0:0:0:
320,192,346954,128,0,347031:0:0:0:0:
192,192,347263,128,0,347341:0:0:0:0:
64,192,347573,1,0,0:0:0:0:
192,192,347573,1,0,0:0:0:0:
64,192,347893,128,0,347974:0:0:0:0:
192,192,348214,128,0,348294:0:0:0:0:
320,192,348535,128,0,348615:0:0:0:0:
448,192,348856,128,0,348939:0:0:0:0:
320,192,349189,128,0,349278:0:0:0:0:
192,192,349548,128,0,349653:0:0:0:0:
64,192,349970,128,0,356398:0:0:0:0:
192,192,350684,128,0,356874:0:0:0:0:
320,192,350684,128,0,357603:0:0:0:0:
