osu file format v14

[General]
AudioFilename: audio.mp3
AudioLeadIn: 0
PreviewTime: 93744
Countdown: 0
SampleSet: Drum
StackLeniency: 0.5
Mode: 0
LetterboxInBreaks: 0
WidescreenStoryboard: 1

[Editor]
DistanceSpacing: 1.2
BeatDivisor: 4
GridSize: 4
TimelineZoom: 1.6

[Metadata]
Title:Grievous Lady
TitleUnicode:Grievous Lady
Artist:Team Grimoire vs. Laur
ArtistUnicode:Team Grimoire vs. Laur
Creator:pw384
Version:Stan's Past
Source:Arcaea
Tags:Tairitsu Vicious Labyrinth Classical Hardcore electronic instrumental Gabba Gabber _stan video game CHUNITHM AMAZON PLUS GROOVE COASTER 4MAX DIAMOND GALAXY
BeatmapID:2682048
BeatmapSetID:1274027

[Difficulty]
HPDrainRate:4
CircleSize:4
OverallDifficulty:5.7
ApproachRate:6.7
SliderMultiplier:1.2
SliderTickRate:1

[Events]
//Background and Video events
0,0,"Tairitsu.jpg",0,0
//Break Periods
2,16230,17370
2,66515,74513
//Storyboard Layer 0 (Background)
//Storyboard Layer 1 (Fail)
//Storyboard Layer 2 (Pass)
//Storyboard Layer 3 (Foreground)
//Storyboard Layer 4 (Overlay)
//Storyboard Sound Samples

[TimingPoints]
30,285.714285714286,4,2,0,40,1,0
30,-100,4,2,0,40,0,0
2887,-100,4,3,0,55,0,0
4601,-100,4,3,0,65,0,0
11458,-100,4,3,0,75,0,0
13172,-100,4,3,0,85,0,0
13744,-100,4,3,0,80,0,0
18315,-100,4,3,1,80,0,0
36601,-100,4,3,1,90,0,1
53744,-100,4,3,1,90,0,0
54887,-100,4,3,1,90,0,1
64030,-100,4,3,1,90,0,0
66315,-83.3333333333333,4,3,1,60,0,0
66601,-100,4,3,1,40,0,0
72030,-100,4,3,1,40,0,0
73172,-100,4,3,1,40,0,0
75458,-100,4,3,1,70,0,0
75744,-100,4,3,1,70,0,0
78315,-100,4,3,1,70,0,0
78601,-100,4,3,1,70,0,0
80030,-100,4,3,1,80,0,0
81172,-100,4,3,1,90,0,0
82315,-100,4,3,1,90,0,0
86887,-100,4,3,1,85,0,0
92601,-100,4,3,1,85,0,0
94030,-100,4,3,1,60,0,0
94887,-100,4,3,1,75,0,0
96030,-100,4,3,1,90,0,1
132601,-100,4,3,1,90,0,0
134887,-100,4,3,1,5,0,0

[Colours]
Combo1 : 96,168,255
Combo2 : 134,134,255
Combo3 : 207,168,255

[HitObjects]
256,312,4601,5,4,0:2:0:0:
256,72,5172,1,0,0:0:0:0:
144,116,5458,1,2,0:2:0:0:
44,44,5744,2,0,B|16:84|16:84|40:220,1,180,0|0,0:2|2:0,0:0:0:0:
56,284,6315,2,0,L|124:284,2,60,2|0|0,0:2|0:0|0:0,0:0:0:0:
124,156,6887,5,0,0:0:0:0:
256,216,7172,1,0,0:0:0:0:
256,216,7315,1,2,0:2:0:0:
256,216,7458,1,0,0:0:0:0:
388,156,7744,1,2,0:2:0:0:
316,32,8030,6,0,P|304:68|308:156,1,120,2|0,0:2|0:0,0:0:0:0:
428,228,8601,2,0,P|443:285|437:345,1,120,2|0,0:2|0:0,0:0:0:0:
296,360,9172,6,0,L|220:352,1,60,4|0,0:2|0:0,0:0:0:0:
196,296,9458,2,0,L|120:304,1,60,4|2,0:0|0:0,0:0:0:0:
92,244,9744,2,0,P|76:186|92:124,1,120,2|4,0:2|0:0,0:0:0:0:
220,72,10315,1,4,0:2:0:0:
220,72,10601,1,4,0:0:0:0:
306,187,10887,2,0,P|333:193|368:196,2,60,2|2|4,0:2|0:0|0:0,0:0:0:0:
313,43,11458,6,0,B|352:83|423:90|469:33|469:33|420:135|420:135|456:169|459:232|410:272|410:272|359:336|461:395|474:308,1,600,4|0,0:2|0:0,2:2:0:0:
340,235,13172,2,0,P|319:290|324:350,1,120,4|0,0:2|0:0,0:0:0:0:
256,192,13744,12,4,16030,0:0:0:0:
18,36,18315,5,0,0:0:0:0:
231,69,18744,1,0,0:0:0:0:
30,148,19172,1,0,0:0:0:0:
243,181,19601,1,0,0:0:0:0:
45,266,20030,2,0,P|92:300|152:304,1,120,0|0,1:0|0:0,0:0:0:0:
291,265,20601,5,0,0:0:0:0:
298,48,21030,1,0,0:0:0:0:
393,243,21458,1,0,0:0:0:0:
400,26,21887,1,0,0:0:0:0:
495,219,22315,2,0,L|502:292,2,60,0|0|4,1:0|1:0|0:0,0:0:0:0:
489,74,22887,5,0,0:0:0:0:
275,40,23315,1,0,0:0:0:0:
461,149,23744,1,0,0:0:0:0:
247,115,24172,1,0,0:0:0:0:
432,226,24601,2,0,P|381:239|313:262,1,120,0|0,1:0|1:0,0:0:0:0:
227,373,25172,5,0,0:0:0:0:
30,286,25601,1,0,0:0:0:0:
114,88,26030,1,0,0:0:0:0:
306,185,26458,1,0,0:0:0:0:
450,24,26887,2,0,L|523:28,2,60,0|0|4,1:0|1:0|0:0,0:0:0:0:
341,119,27458,6,0,L|476:127,1,120,4|0,0:2|2:0,0:0:0:0:
508,181,27887,2,0,L|500:300,1,120,4|0,0:2|2:0,0:0:0:0:
446,348,28315,2,0,L|327:340,1,120,4|0,0:2|2:0,0:0:0:0:
279,286,28744,2,0,L|287:167,1,120,4|0,0:2|2:0,0:0:0:0:
341,119,29172,1,4,0:2:0:0:
218,42,29458,1,4,0:2:0:0:
92,111,29744,6,0,P|58:159|54:217,1,120,4|0,0:2|2:0,0:0:0:0:
84,284,30172,2,0,P|132:317|191:320,1,120,4|0,0:2|2:0,0:0:0:0:
257,292,30601,2,0,P|290:243|293:184,1,120,4|0,0:2|2:0,0:0:0:0:
265,119,31030,2,0,P|216:85|157:82,1,120,4|0,0:2|2:0,0:0:0:0:
92,111,31458,2,0,L|74:191,2,60,0|0|4,1:0|1:0|0:0,0:0:0:0:
225,55,32030,6,0,B|282:41|282:41|337:69,1,120,4|0,0:2|2:0,0:0:0:0:
406,49,32458,2,0,B|420:106|420:106|392:161,1,120,4|0,0:2|2:0,0:0:0:0:
412,230,32887,2,0,B|355:244|355:244|300:216,1,120,4|0,0:2|2:0,0:0:0:0:
231,236,33315,2,0,B|217:179|217:179|245:124,1,120,4|0,0:2|2:0,0:0:0:0:
225,55,33744,1,4,1:2:0:0:
84,85,34030,1,4,1:2:0:0:
140,216,34315,6,0,B|130:278|130:278|90:309|90:309|75:377,2,180,4|4|4,1:2|1:2|0:2,0:0:0:0:
84,85,35458,1,4,1:2:0:0:
35,189,36601,6,0,B|108:177|108:177|156:194,1,120,4|8,1:2|1:1,0:0:0:0:
92,324,37172,2,0,B|135:339|135:339|208:327,1,120,8|8,1:1|1:1,0:0:0:0:
343,378,37744,2,0,P|357:315|352:255,1,120,8|8,1:1|1:1,0:0:0:0:
299,126,38315,1,8,1:1:0:0:
427,60,38601,1,8,1:1:0:0:
427,60,38744,1,8,1:1:0:0:
427,60,38887,6,0,B|442:103|442:103|430:176,1,120,4|8,1:2|1:1,0:0:0:0:
482,310,39458,2,0,B|409:322|409:322|366:307,1,120,8|8,1:1|1:1,0:0:0:0:
269,198,40030,1,8,1:1:0:0:
177,308,40315,1,8,1:1:0:0:
63,220,40601,1,8,1:1:0:0:
63,220,40744,2,0,L|81:97,1,120,8|8,1:1|1:1,0:0:0:0:
123,43,41172,6,0,P|182:41|236:65,1,120,4|8,1:2|1:1,0:0:0:0:
344,162,41744,2,0,P|403:158|455:129,1,120,8|8,1:1|1:1,0:0:0:0:
372,10,42315,1,8,1:1:0:0:
281,122,42601,2,0,P|270:160|275:196,1,60,8|0,1:1|1:1,0:0:0:0:
319,234,42887,1,8,1:1:0:0:
238,349,43172,1,8,1:1:0:0:
238,349,43315,1,8,1:1:0:0:
238,349,43458,6,0,P|202:301|202:242,1,120,4|8,1:2|1:1,0:0:0:0:
281,122,44030,2,0,P|280:62|246:11,1,120,8|8,1:1|1:1,0:0:0:0:
134,103,44601,1,8,1:1:0:0:
10,177,44887,1,8,1:1:0:0:
142,234,45172,2,0,L|208:244,1,60,8|8,1:1|1:1,0:0:0:0:
255,194,45458,2,0,L|321:184,1,60,8|8,1:1|1:1,0:0:0:0:
345,43,45887,5,0,1:1:0:0:
345,43,46030,2,0,B|402:27|402:27|461:42,1,120,8|8,1:1|1:1,0:0:0:0:
402,173,46601,1,8,1:1:0:0:
460,304,46887,2,0,B|403:320|403:320|344:305,1,120,8|8,1:1|1:1,0:0:0:0:
235,211,47458,1,8,1:1:0:0:
235,211,47601,2,0,B|176:196|176:196|119:212,1,120,8|8,1:1|1:1,0:0:0:0:
59,253,48030,6,0,P|46:312|60:370,1,120,4|8,1:2|1:1,0:0:0:0:
191,311,48601,1,8,1:1:0:0:
191,311,48744,1,0,1:0:0:0:
254,345,48887,2,0,L|320:342,1,60,8|0,1:1|1:1,0:0:0:0:
376,306,49172,6,0,P|390:254|366:192,1,120,8|8,1:1|1:1,0:0:0:0:
291,70,49744,2,0,L|278:151,1,60,8|0,1:1|1:0,0:0:0:0:
230,180,50030,2,0,L|159:192,1,60,8|0,1:1|1:0,0:0:0:0:
37,134,50458,5,8,1:0:0:0:
37,134,50601,2,0,P|25:71|37:9,1,120,8|8,1:1|1:1,0:0:0:0:
166,74,51172,1,8,1:1:0:0:
298,130,51458,2,0,P|310:193|298:255,1,120,4|8,1:2|1:1,0:0:0:0:
173,316,52030,6,0,L|109:311,1,60,8|8,1:1|1:1,0:0:0:0:
71,252,52315,2,0,L|76:188,1,60,8|8,1:1|1:1,0:0:0:0:
131,145,52601,5,4,1:2:0:0:
412,87,53172,1,4,1:2:0:0:
129,28,53744,1,4,1:2:0:0:
420,192,54887,5,4,1:2:0:0:
459,52,55172,1,8,1:1:0:0:
340,136,55458,2,0,B|316:192|316:192|340:248,1,120,8|8,1:1|1:1,0:0:0:0:
459,332,56030,1,8,1:1:0:0:
420,192,56315,1,8,1:1:0:0:
354,63,56601,2,0,L|286:59,1,60,8|8,1:1|1:1,0:0:0:0:
230,94,56887,2,0,L|226:162,1,60,8|0,1:1|1:1,0:0:0:0:
256,219,57172,5,4,1:2:0:0:
163,329,57458,1,8,1:1:0:0:
54,233,57744,1,8,1:1:0:0:
154,129,58030,2,0,L|157:69,1,60,8|0,1:1|1:1,0:0:0:0:
91,39,58315,5,4,1:2:0:0:
22,165,58601,1,0,1:1:0:0:
22,165,58744,1,8,1:0:0:0:
22,165,58887,2,0,P|20:225|20:287,1,120,4|8,1:2|1:1,0:0:0:0:
72,333,59315,1,0,1:1:0:0:
137,302,59458,6,0,L|269:310,1,120,4|8,1:2|1:1,0:0:0:0:
387,370,60030,2,0,L|379:247,1,120,8|8,1:1|1:1,0:0:0:0:
387,106,60601,1,8,1:1:0:0:
466,225,60886,1,8,1:1:0:0:
329,177,61172,2,0,L|261:173,1,60,8|0,1:1|1:1,0:0:0:0:
216,223,61458,2,0,L|212:291,1,60,8|0,1:1|1:1,0:0:0:0:
263,334,61744,5,4,1:2:0:0:
121,306,62030,1,8,1:1:0:0:
103,162,62315,1,4,1:2:0:0:
234,100,62601,1,8,1:1:0:0:
333,205,62887,6,0,P|261:204|195:213,1,120,4|4,1:2|1:2,0:0:0:0:
80,265,63458,2,0,L|76:201,1,60,4|0,1:2|1:0,0:0:0:0:
14,166,63744,2,0,L|22:99,1,60,8|0,1:0|1:0,0:0:0:0:
74,57,64030,5,4,1:2:0:0:
256,192,64172,12,4,66315,0:0:0:0:
256,276,75458,5,4,0:0:0:0:
50,73,76030,2,0,L|38:-2,2,60,0|2|2,0:0|0:0|0:0,0:0:0:0:
13,212,76601,2,0,P|75:290|119:199,1,240,2|0,0:2|0:0,0:0:0:0:
50,73,77458,1,2,0:0:0:0:
186,36,77744,6,0,B|226:17|226:17|305:24,1,120,2|0,0:2|0:0,0:0:0:0:
354,72,78172,1,2,0:0:0:0:
358,76,78315,2,0,L|350:199,1,120,2|0,0:0|0:0,0:0:0:0:
212,152,78887,2,0,L|221:278,1,120,2|0,0:2|0:0,0:0:0:0:
362,294,79458,2,0,L|430:286,2,60,0|2|0,1:0|0:0|0:0,0:0:0:0:
229,352,80030,5,4,0:0:0:0:
229,352,80601,2,0,L|237:284,2,60,0|2|4,1:0|0:0|0:0,0:0:0:0:
86,301,81172,1,4,0:0:0:0:
86,301,81744,2,0,L|10:284,2,60,0|0|4,1:0|0:0|0:0,0:0:0:0:
236,292,82315,6,0,P|371:359|373:208,1,360,4|0,0:2|0:0,2:2:0:0:
240,152,83458,2,0,B|183:157|183:157|157:159|133:145|118:125|113:97|124:73|142:56|170:49|170:49|305:36,1,360,2|0,0:2|0:0,2:0:0:0:
449,25,84601,2,0,B|540:188|350:192|461:369,1,360,4|0,0:2|0:0,2:0:0:0:
256,192,85744,12,4,86887,1:2:0:0:
72,166,88601,5,4,1:2:0:0:
38,306,88887,1,4,1:2:0:0:
175,265,89172,1,4,1:2:0:0:
337,265,90887,6,0,L|346:342,2,60,4|0|4,1:2|1:0|0:0,0:0:0:0:
440,166,91458,5,2,1:2:0:0:
474,306,91743,1,8,1:0:0:0:
440,166,92030,1,2,1:2:0:0:
474,306,92315,1,8,1:0:0:0:
337,265,92601,6,0,L|265:255,1,60,2|8,1:2|1:0,0:0:0:0:
224,206,92887,2,0,L|152:216,1,60,2|8,1:2|1:0,0:0:0:0:
120,271,93172,2,0,B|144:215|144:215|124:159|124:159|144:103|144:103|120:47,1,240,8|4,1:0|1:3,0:3:0:0:
440,26,96030,6,0,P|401:70|412:131,1,120,4|8,1:2|1:1,0:0:0:0:
463,174,96458,1,0,1:0:0:0:
467,178,96601,2,0,B|455:305,1,120,8|0,1:1|1:1,0:0:0:0:
335,376,97172,1,8,1:1:0:0:
211,301,97458,1,8,1:1:0:0:
138,305,97602,2,0,L|77:308,1,60,0|0,1:1|1:0,0:0:0:0:
20,176,98030,1,8,1:1:0:0:
20,176,98172,1,0,1:1:0:0:
20,176,98315,6,0,L|143:169,1,120,4|8,1:2|1:1,0:0:0:0:
189,116,98743,1,0,1:0:0:0:
189,116,98887,2,0,P|240:105|315:140,1,120,8|0,1:1|1:1,0:0:0:0:
415,216,99458,6,0,P|412:157|411:94,1,120,8|0,1:1|1:0,0:0:0:0:
483,95,99887,2,0,P|485:153|487:217,1,120,8|0,1:1|0:0,0:0:0:0:
452,278,100315,1,8,1:1:0:0:
456,282,100458,1,0,1:0:0:0:
460,286,100601,6,0,P|402:280|349:306,1,120,4|8,1:2|1:1,0:0:0:0:
297,357,101030,1,0,1:0:0:0:
301,361,101172,2,0,L|173:353,1,120,0|8,1:1|1:1,0:0:0:0:
145,213,101744,5,4,1:2:0:0:
287,236,102030,1,8,1:1:0:0:
319,172,102172,2,0,P|316:117|258:89,1,120,0|0,1:0|1:0,0:0:0:0:
192,103,102601,2,0,L|198:162,1,60,8|0,1:1|1:0,0:0:0:0:
145,213,102887,6,0,L|85:219,2,60,4|8|8,1:2|1:1|1:1,0:0:0:0:
287,236,103458,1,0,1:1:0:0:
287,236,103601,2,0,P|331:203|396:201,1,120,8|8,1:1|1:1,0:0:0:0:
457,236,104030,6,0,L|449:372,1,120,4|8,1:2|1:1,0:0:0:0:
379,370,104458,1,0,1:0:0:0:
317,332,104601,2,0,L|257:329,1,60,0|0,1:1|1:1,0:0:0:0:
190,357,104887,2,0,L|131:353,1,60,4|0,1:2|1:1,0:0:0:0:
74,307,105172,6,0,L|78:248,2,60,4|0|8,1:2|1:0|1:1,0:0:0:0:
143,180,105744,1,8,1:1:0:0:
11,116,106030,2,0,P|9:86|12:56,1,60,0|0,1:1|1:0,0:0:0:0:
84,49,106315,6,0,P|131:45|213:69,1,120,8|8,1:1|1:1,0:0:0:0:
245,120,106744,1,0,1:0:0:0:
249,124,106887,2,0,L|381:116,1,120,0|8,1:1|1:1,0:0:0:0:
427,75,107315,1,0,1:1:0:0:
482,120,107458,6,0,P|494:166|487:246,1,120,4|8,1:2|1:1,0:0:0:0:
438,289,107887,1,0,1:0:0:0:
374,255,108030,2,0,B|341:295|341:295|355:373,1,120,0|8,1:1|1:1,0:0:0:0:
208,360,108601,6,0,P|149:363|86:364,1,120,8|0,1:1|1:0,0:0:0:0:
87,292,109030,2,0,P|145:290|209:288,1,120,8|0,1:0|1:0,0:0:0:0:
250,230,109458,1,8,1:1:0:0:
113,182,109744,6,0,P|110:123|109:60,1,120,4|8,1:2|1:0,0:0:0:0:
161,12,110172,1,0,1:0:0:0:
161,12,110315,1,0,1:0:0:0:
206,148,110601,1,8,1:1:0:0:
302,41,110887,6,0,B|389:48|389:48|405:76,1,120,4|8,1:2|1:0,0:0:0:0:
366,137,111315,2,0,B|279:130|279:130|262:101,1,120,0|0,1:1|1:0,0:0:0:0:
228,37,111744,1,8,1:1:0:0:
91,82,112030,6,0,B|62:98|62:98|55:185,1,120,4|0,1:2|1:0,0:0:0:0:
107,236,112458,2,0,B|135:219|135:219|142:132,1,120,4|0,1:2|1:0,0:0:0:0:
160,60,112887,1,8,1:0:0:0:
228,37,113030,1,0,1:1:0:0:
302,41,113172,6,0,L|395:48,2,90,4|4|4,1:2|1:2|1:2,0:0:0:0:
365,170,113887,2,0,L|427:175,2,60,8|8|8,1:1|1:1|1:1,0:0:0:0:
244,248,114458,5,0,1:1:0:0:
244,248,114601,2,0,P|228:313|250:378,1,120,8|8,1:1|1:1,0:0:0:0:
374,308,115172,1,0,1:1:0:0:
291,190,115458,1,8,1:1:0:0:
385,81,115744,2,0,L|377:15,2,60,8|0|0,1:1|1:0|1:1,0:0:0:0:
484,184,116315,2,0,L|493:251,1,60,8|0,1:1|1:1,0:0:0:0:
464,310,116601,6,0,P|390:344|355:324,1,120,4|8,1:2|1:0,0:0:0:0:
302,286,117030,1,0,1:0:0:0:
302,286,117172,2,0,L|172:292,1,120,0|8,1:0|1:1,0:0:0:0:
46,341,117744,6,0,P|39:286|46:206,1,120,8|0,1:1|1:1,0:0:0:0:
98,175,118172,2,0,P|102:115|94:55,1,120,8|0,1:0|1:1,0:0:0:0:
30,22,118601,1,8,1:1:0:0:
174,26,118887,6,0,L|180:94,2,60,4|0|8,1:2|1:1|1:1,0:0:0:0:
314,60,119458,1,0,1:1:0:0:
454,29,119744,2,0,L|446:110,1,60,8|0,1:1|1:1,0:0:0:0:
406,148,120030,6,0,P|352:155|276:157,1,120,4|0,1:2|1:0,0:0:0:0:
230,202,120458,2,0,P|176:195|100:193,1,120,8|0,1:0|1:0,0:0:0:0:
44,222,120887,1,8,1:1:0:0:
117,345,121172,6,0,P|176:337|236:335,1,120,4|8,1:2|1:1,0:0:0:0:
300,300,121601,1,0,1:0:0:0:
300,300,121744,2,0,L|298:238,2,60,0|0|8,1:1|1:0|1:1,0:0:0:0:
438,340,122315,6,0,L|434:220,1,120,4|8,1:2|1:1,0:0:0:0:
438,147,122744,2,0,P|382:127|323:133,1,120,0|0,1:1|1:0,0:0:0:0:
263,173,123172,1,8,1:0:0:0:
133,110,123458,6,0,B|109:146|109:146|118:234,1,120,4|8,1:2|1:1,0:0:0:0:
133,294,123887,1,0,1:0:0:0:
137,298,124030,2,0,P|196:298|260:329,1,120,8|0,1:1|1:1,0:0:0:0:
281,178,124601,6,0,P|284:136|284:51,1,120,8|8,1:1|1:1,0:0:0:0:
348,24,125030,1,0,1:0:0:0:
348,24,125172,2,0,P|419:28|447:74,1,120,0|8,1:1|1:1,0:0:0:0:
466,207,125744,6,0,P|411:211|347:226,1,120,4|8,1:2|1:1,0:0:0:0:
255,336,126315,1,0,1:1:0:0:
255,336,126458,1,8,1:1:0:0:
127,267,126744,1,0,1:0:0:0:
62,299,126887,2,0,P|58:330|64:373,2,60,8|8|8,1:1|1:1|1:1,0:0:0:0:
170,203,127458,2,0,P|170:138|164:79,1,120,0|8,1:1|1:1,0:0:0:0:
37,14,128030,6,0,P|37:79|43:138,1,120,4|8,1:2|1:1,0:0:0:0:
50,206,128458,1,0,1:0:0:0:
54,210,128601,2,0,P|117:207|175:206,1,120,0|8,1:1|1:1,0:0:0:0:
267,96,129172,6,0,P|326:94|386:92,1,120,4|8,1:2|1:1,0:0:0:0:
455,115,129601,1,0,1:0:0:0:
459,119,129744,2,0,P|463:75|462:50,2,60,8|8|8,1:1|1:1|1:1,0:0:0:0:
417,254,130315,6,0,L|355:275,1,60,4|0,1:2|0:0,0:0:0:0:
244,186,130744,2,0,L|175:186,1,60,4|0,1:2|0:0,0:0:0:0:
127,53,131172,2,0,L|59:34,1,60,4|0,1:2|1:1,0:0:0:0:
12,82,131458,5,4,1:2:0:0:
12,82,131887,1,4,1:2:0:0:
12,82,132315,2,0,L|25:151,2,60,4|0|4,1:2|0:0|1:2,0:0:0:0:
256,192,132744,12,0,134887,0:0:0:0:
