osu file format v14

[General]
AudioFilename: audio.mp3
AudioLeadIn: 0
PreviewTime: 93744
Countdown: 0
SampleSet: Drum
StackLeniency: 0.2
Mode: 0
LetterboxInBreaks: 0
WidescreenStoryboard: 1

[Editor]
DistanceSpacing: 1
BeatDivisor: 4
GridSize: 4
TimelineZoom: 1.6

[Metadata]
Title:Grievous Lady
TitleUnicode:Grievous Lady
Artist:Team Grimoire vs. Laur
ArtistUnicode:Team Grimoire vs. Laur
Creator:pw384
Version:Beyond
Source:Arcaea
Tags:Tairitsu Vicious Labyrinth Classical Hardcore electronic instrumental Gabba Gabber _stan video game CHUNITHM AMAZON PLUS GROOVE COASTER 4MAX DIAMOND GALAXY
BeatmapID:2648634
BeatmapSetID:1274027

[Difficulty]
HPDrainRate:5.5
CircleSize:4.5
OverallDifficulty:8.8
ApproachRate:9.3
SliderMultiplier:1.92
SliderTickRate:1

[Events]
//Background and Video events
0,0,"Tairitsu.jpg",0,0
//Break Periods
2,16601,17744
//Storyboard Layer 0 (Background)
//Storyboard Layer 1 (Fail)
//Storyboard Layer 2 (Pass)
//Storyboard Layer 3 (Foreground)
//Storyboard Layer 4 (Overlay)
//Storyboard Sound Samples

[TimingPoints]
30,285.714285714286,4,2,0,40,1,0
30,-166.666666666667,4,2,0,40,0,0
2887,-142.857142857143,4,3,0,55,0,0
3458,-166.666666666667,4,3,0,55,0,0
4030,-200,4,3,0,55,0,0
4601,-133.333333333333,4,3,0,65,0,0
9172,-125,4,3,0,65,0,0
11458,-125,4,3,0,75,0,0
13172,-125,4,3,0,85,0,0
13744,-125,4,3,0,80,0,0
18315,-100,4,3,1,80,0,0
27458,-100,4,3,1,80,0,0
36601,-83.3333333333333,4,3,1,90,0,1
38887,-125,4,3,1,90,0,1
40030,-100,4,3,1,90,0,1
41172,-83.3333333333333,4,3,1,90,0,1
42887,-100,4,3,1,90,0,1
43458,-100,4,3,1,90,0,1
44601,-71.4285714285714,4,3,1,90,0,1
44887,-100,4,3,1,90,0,1
46030,-83.3333333333333,4,3,1,90,0,1
48030,-66.6666666666667,4,3,1,90,0,1
48601,-83.3333333333333,4,3,1,90,0,1
50601,-66.6666666666667,4,3,1,90,0,1
51458,-83.3333333333333,4,3,1,90,0,1
53744,-100,4,3,1,90,0,0
54887,-66.6666666666667,4,3,1,90,0,1
57172,-100,4,3,1,90,0,1
58887,-80,4,3,1,90,0,1
59458,-66.6666666666667,4,3,1,90,0,1
61172,-64.9350649350649,4,3,1,90,0,1
61744,-83.3333333333333,4,3,1,90,0,1
62030,-66.6666666666667,4,3,1,90,0,1
62601,-83.3333333333333,4,3,1,90,0,1
64030,-100,4,3,1,90,0,0
64315,-100,4,3,1,80,0,0
64601,-100,4,3,1,70,0,0
64887,-100,4,3,1,60,0,0
65172,-100,4,3,1,45,0,0
65458,-100,4,3,1,30,0,0
66030,-100,4,3,1,15,0,0
66315,-100,4,3,1,60,0,0
66601,-200,4,3,1,40,0,0
75458,-100,4,3,1,70,0,0
80030,-100,4,3,1,80,0,0
81172,-100,4,3,1,90,0,0
86887,-100,4,3,1,85,0,0
92601,-100,4,3,1,85,0,0
92887,-100,4,3,1,85,0,0
94030,-100,4,3,1,60,0,0
94887,-100,4,3,1,75,0,0
96030,-75,4,3,1,90,0,1
96887,-100,4,3,1,90,0,1
97172,-75,4,3,1,90,0,1
98315,-66.6666666666667,4,3,1,90,0,1
98601,-83.3333333333333,4,3,1,90,0,1
99458,-66.6666666666667,4,3,1,90,0,1
100315,-75,4,3,1,90,0,1
100601,-66.6666666666667,4,3,1,90,0,1
100887,-83.3333333333333,4,3,1,90,0,1
101744,-66.6666666666667,4,3,1,90,0,1
102030,-83.3333333333333,4,3,1,90,0,1
105172,-100,4,3,1,90,0,1
105458,-83.3333333333333,4,3,1,90,0,1
107458,-66.6666666666667,4,3,1,90,0,1
107744,-83.3333333333333,4,3,1,90,0,1
108601,-66.6666666666667,4,3,1,90,0,1
109172,-83.3333333333333,4,3,1,90,0,1
109744,-66.6666666666667,4,3,1,90,0,1
112030,-83.3333333333333,4,3,1,90,0,1
113172,-66.6666666666667,4,3,1,90,0,1
113887,-100,4,3,1,90,0,1
114601,-83.3333333333333,4,3,1,90,0,1
115172,-100,4,3,1,90,0,1
115458,-83.3333333333333,4,3,1,90,0,1
116315,-100,4,3,1,90,0,1
116601,-83.3333333333333,4,3,1,90,0,1
117172,-100,4,3,1,90,0,1
117744,-83.3333333333333,4,3,1,90,0,1
118315,-100,4,3,1,90,0,1
118887,-83.3333333333333,4,3,1,90,0,1
119744,-100,4,3,1,90,0,1
120030,-83.3333333333333,4,3,1,90,0,1
120887,-100,4,3,1,90,0,1
121172,-83.3333333333333,4,3,1,90,0,1
122315,-100,4,3,1,90,0,1
123458,-75,4,3,1,90,0,1
125744,-83.3333333333333,4,3,1,90,0,1
126315,-100,4,3,1,90,0,1
126887,-83.3333333333333,4,3,1,90,0,1
127744,-100,4,3,1,90,0,1
128030,-75,4,3,1,90,0,1
130315,-100,4,3,1,90,0,1
131458,-100,4,3,1,90,0,1
132601,-100,4,3,1,90,0,0
132887,-100,4,3,1,90,0,0
133172,-100,4,3,1,80,0,0
133458,-100,4,3,1,70,0,0
133744,-100,4,3,1,60,0,0
134030,-100,4,3,1,50,0,0
134315,-100,4,3,1,40,0,0
134601,-100,4,3,1,30,0,0
134887,-100,4,3,1,5,0,0

[Colours]
Combo1 : 96,168,255
Combo2 : 134,134,255
Combo3 : 207,168,255

[HitObjects]
32,192,30,5,0,0:0:0:0:
32,192,315,1,2,0:0:0:0:
97,169,601,6,0,P|100:203|96:227,1,57.5999982421876,0|2,0:0|0:0,2:0:0:0:
92,293,887,2,0,P|89:259|93:235,1,57.5999982421876,2|0,0:0|0:0,2:0:0:0:
141,116,1172,5,2,0:0:0:0:
141,116,1315,1,0,0:0:0:0:
166,181,1457,5,2,0:0:0:0:
166,181,1601,1,0,0:0:0:0:
220,224,1744,5,2,0:0:0:0:
32,192,2030,1,0,0:0:0:0:
153,46,2315,1,2,0:0:0:0:
423,337,2887,6,0,L|407:272,1,67.1999979492188,0|0,0:0|2:0,2:2:0:0:
423,47,3172,2,0,L|407:112,1,67.1999979492188,0|0,0:0|2:0,2:2:0:0:
316,284,3458,6,0,L|276:242,1,57.5999982421876,0|0,0:0|2:0,2:2:0:0:
316,100,3744,2,0,L|276:141,1,57.5999982421876,0|0,0:0|2:0,2:2:0:0:
179,251,4030,6,0,L|132:237,1,48,0|0,0:0|2:0,2:2:0:0:
179,133,4315,2,0,L|132:146,1,48,0|0,0:0|2:0,2:2:0:0:
32,192,4601,5,4,0:2:0:0:
32,192,5172,2,0,L|176:192,2,144.000005493164,0|2|0,0:0|0:2|0:0,0:0:0:0:
256,192,6315,5,2,0:2:0:0:
256,192,6458,1,0,0:0:0:0:
256,192,6601,1,0,0:0:0:0:
480,192,6887,6,0,L|336:192,1,144.000005493164,0|2,0:0|0:2,0:0:0:0:
256,192,7315,1,0,0:0:0:0:
176,192,7458,2,0,L|32:192,2,144.000005493164,0|2|0,0:0|0:2|0:0,0:0:0:0:
256,192,8601,1,2,0:2:0:0:
320,192,9172,5,4,0:2:0:0:
275,252,9315,1,2,0:0:0:0:
204,229,9458,1,4,0:0:0:0:
204,154,9601,1,2,0:0:0:0:
275,131,9744,1,2,0:2:0:0:
256,360,10030,5,4,0:0:0:0:
256,24,10315,1,4,0:2:0:0:
256,192,10601,1,4,0:0:0:0:
256,360,10887,5,2,0:2:0:0:
256,360,11030,1,2,0:0:0:0:
256,360,11172,1,4,0:0:0:0:
512,272,11458,6,0,B|456:272|456:272|432:240|432:240|368:240|368:240|336:192|336:192|256:192|256:192|224:136|224:136|136:136|136:136|96:72|96:72|0:72,1,614.4,4|0,0:2|0:0,2:2:0:0:
256,352,13172,1,4,0:2:0:0:
504,72,13744,6,0,B|416:72|416:72|376:136|376:136|288:136|288:136|256:192|256:192|176:192|176:192|144:240|144:240|80:240|80:240|56:272|56:272|0:272,2,614.4,4|0|4,0:2|0:0|0:0,2:2:0:0:
16,192,18315,5,0,0:0:0:0:
496,192,18744,1,0,0:0:0:0:
16,192,19172,5,0,0:0:0:0:
496,192,19601,1,0,0:0:0:0:
176,192,20030,5,0,1:0:0:0:
336,192,20315,1,0,1:0:0:0:
256,0,20601,5,0,0:0:0:0:
256,384,21030,1,0,0:0:0:0:
256,0,21458,5,0,0:0:0:0:
256,384,21887,1,0,0:0:0:0:
336,192,22315,5,0,1:0:0:0:
256,192,22457,1,0,1:0:0:0:
176,192,22600,1,4,0:0:0:0:
384,64,22887,5,0,0:0:0:0:
128,320,23315,1,0,0:0:0:0:
128,64,23744,5,0,0:0:0:0:
384,320,24172,1,0,0:0:0:0:
256,112,24601,5,0,1:0:0:0:
256,272,24886,1,0,1:0:0:0:
64,192,25172,5,0,0:0:0:0:
448,192,25601,1,0,0:0:0:0:
256,0,26029,5,0,0:0:0:0:
256,384,26458,1,0,0:0:0:0:
256,112,26887,5,0,1:0:0:0:
256,192,27029,1,0,1:0:0:0:
256,272,27172,1,4,0:0:0:0:
113,88,27458,6,0,L|295:147,1,192,4|0,0:2|2:0,0:0:0:0:
432,192,27887,2,0,L|249:251,1,192,4|0,0:2|2:0,0:0:0:0:
113,295,28315,2,0,L|226:140,1,192,4|0,0:2|2:0,0:0:0:0:
310,24,28744,2,0,L|310:216,1,192,4|0,0:2|2:0,0:0:0:0:
310,359,29172,5,4,0:2:0:0:
113,88,29458,1,4,0:2:0:0:
368,160,29744,6,0,P|438:191|368:224,1,192,4|0,0:2|2:0,0:0:0:0:
224,80,30172,2,0,P|255:9|288:79,1,192,4|0,0:2|2:0,0:0:0:0:
144,224,30601,2,0,P|73:192|143:159,1,192,4|0,0:2|2:0,0:0:0:0:
288,304,31029,2,0,P|256:374|223:304,1,192,4|0,0:2|2:0,0:0:0:0:
256,192,31458,5,0,1:0:0:0:
256,192,31601,1,0,1:0:0:0:
256,192,31744,1,4,0:0:0:0:
312,90,32030,6,0,B|343:59|343:59|374:27|420:73|388:104|388:104|357:135,1,192,4|0,0:2|2:0,0:0:0:0:
154,135,32458,2,0,B|123:104|123:104|91:73|137:27|168:59|168:59|199:90,1,192,4|0,0:2|2:0,0:0:0:0:
199,293,32887,2,0,B|168:324|168:324|137:356|91:310|123:279|123:279|154:248,1,192,4|0,0:2|2:0,0:0:0:0:
357,248,33315,2,0,B|388:279|388:279|420:310|374:356|343:324|343:324|312:293,1,192,4|0,0:2|2:0,0:0:0:0:
256,192,33744,5,4,1:2:0:0:
256,192,34030,1,4,1:2:0:0:
0,192,34315,6,0,B|72:192|72:192|104:216|104:216|184:216,1,192,4|0,1:2|2:0,0:0:0:0:
512,192,34744,2,0,B|440:192|440:192|408:168|408:168|328:168,1,192,4|0,1:2|2:0,0:0:0:0:
136,144,35172,5,4,0:2:0:0:
376,240,35458,1,4,1:2:0:0:
212,220,36601,6,0,B|140:212|140:212|116:196|116:196|44:188,1,172.799994726563,4|0,1:2|2:0,0:0:0:0:
11,301,36887,2,0,P|75:335|83:263,1,172.799994726563,8|0,1:1|2:0,0:0:0:0:
172,140,37172,5,8,1:1:0:0:
200,144,37244,1,0,0:0:0:0:
228,148,37315,1,0,0:0:0:0:
340,244,37458,5,8,1:1:0:0:
312,240,37530,1,0,0:0:0:0:
284,236,37601,1,0,0:0:0:0:
428,120,37744,6,0,P|436:48|500:82,1,172.799994726563,8|0,1:1|2:0,0:0:0:0:
468,196,38030,2,0,B|396:188|396:188|372:172|372:172|300:164,1,172.799994726563,8|0,1:1|2:0,0:0:0:0:
256,76,38315,5,8,1:1:0:0:
256,76,38387,1,0,0:0:0:0:
256,76,38458,1,0,0:0:0:0:
256,308,38601,1,8,1:1:0:0:
256,76,38744,1,8,1:1:0:0:
140,192,38887,6,0,B|24:192,1,115.2,4|0,1:2|2:0,0:0:0:0:
24,260,39172,2,0,B|140:260,1,115.2,8|0,1:1|2:0,0:0:0:0:
140,124,39458,2,0,B|24:124,1,115.2,8|0,1:1|2:0,0:0:0:0:
24,328,39744,2,0,B|140:328,1,115.2,8|0,1:1|2:0,0:0:0:0:
256,260,40030,5,8,1:1:0:0:
289,274,40101,1,0,0:0:0:0:
304,308,40172,1,0,0:0:0:0:
290,341,40243,1,0,0:0:0:0:
256,356,40315,1,8,1:1:0:0:
222,341,40386,1,0,0:0:0:0:
208,308,40457,1,0,0:0:0:0:
223,274,40530,1,0,0:0:0:0:
256,260,40601,5,8,1:1:0:0:
289,246,40672,1,0,0:0:0:0:
304,212,40743,1,8,1:1:0:0:
290,179,40814,1,0,0:0:0:0:
256,164,40886,1,0,0:0:0:0:
222,179,40957,1,0,0:0:0:0:
208,212,41030,1,8,1:1:0:0:
223,246,41101,1,0,0:0:0:0:
256,260,41172,6,0,B|376:252|376:252|424:280,1,172.799994726563,4|0,1:2|2:0,0:0:0:0:
495,320,41458,2,0,P|429:352|420:279,1,172.799994726563,8|0,1:1|2:0,0:0:0:0:
484,152,41744,5,8,1:1:0:0:
484,152,41815,1,0,0:0:0:0:
484,152,41887,1,0,0:0:0:0:
484,232,42030,5,8,1:1:0:0:
484,232,42101,1,0,0:0:0:0:
484,232,42173,1,0,0:0:0:0:
421,105,42315,6,0,P|428:32|495:64,1,172.799994726563,8|0,1:1|2:0,0:0:0:0:
484,232,42601,1,8,1:1:0:0:
484,152,42744,1,0,1:1:0:0:
408,192,42887,5,8,1:1:0:0:
332,152,43030,1,8,1:1:0:0:
332,152,43101,1,0,0:0:0:0:
332,152,43172,1,0,1:1:0:0:
256,192,43315,1,8,1:1:0:0:
180,152,43458,6,0,L|84:152,1,96,4|0,1:2|0:0,0:0:0:0:
76,224,43672,1,0,0:0:0:0:
84,232,43744,2,0,L|180:232,1,96,8|0,1:1|0:0,0:0:0:0:
324,160,43958,1,0,0:0:0:0:
332,152,44030,6,0,L|428:152,1,96,8|0,1:1|0:0,0:0:0:0:
436,224,44244,1,0,0:0:0:0:
428,232,44316,2,0,L|332:232,1,96,8|0,1:1|0:0,0:0:0:0:
228,360,44530,1,0,0:0:0:0:
220,352,44601,6,0,P|256:279|291:352,1,201.599993847656,8|0,1:1|2:0,0:0:0:0:
256,244,44887,1,8,1:1:0:0:
256,216,44958,1,0,0:0:0:0:
256,192,45030,1,0,0:0:0:0:
92,32,45172,6,0,L|140:32,1,48,8|0,1:1|0:0,0:0:0:0:
208,32,45315,2,0,L|256:32,1,48,8|0,1:1|0:0,0:0:0:0:
420,32,45458,6,0,L|372:32,1,48,8|0,1:1|0:0,0:0:0:0:
304,32,45601,2,0,L|256:32,1,48,8|0,1:1|0:0,0:0:0:0:
256,112,45744,5,4,0:2:0:0:
256,112,45887,1,0,1:1:0:0:
208,192,46030,6,0,B|144:188|144:188|104:164|104:164|40:160,1,172.799994726563,8|0,1:1|2:0,0:0:0:0:
87,297,46315,5,8,1:1:0:0:
87,297,46387,1,0,0:0:0:0:
87,297,46458,2,0,L|80:240,1,57.5999982421876,0|0,0:0|0:0,0:0:0:0:
160,54,46601,5,8,1:1:0:0:
160,54,46673,1,0,0:0:0:0:
160,54,46744,2,0,L|168:112,1,57.5999982421876,0|0,0:0|0:0,0:0:0:0:
304,192,46887,6,0,B|368:188|368:188|408:164|408:164|472:160,1,172.799994726563,8|0,1:1|2:0,0:0:0:0:
425,297,47172,6,0,L|432:240,1,57.5999982421876,8|0,1:1|0:0,0:0:0:0:
352,54,47315,2,0,L|344:112,1,57.5999982421876,8|0,1:0|0:0,0:0:0:0:
256,256,47458,6,0,P|216:304|224:352,1,115.199996484375,8|8,1:1|1:1,0:0:0:0:
256,376,47672,1,8,1:1:0:0:
287,352,47744,2,0,P|294:296|256:256,1,115.199996484375,0|8,1:1|1:1,0:0:0:0:
152,104,48030,6,0,B|224:104|224:104|256:120|256:120|288:104|288:104|360:104,1,216.000008239746,4|0,1:2|2:0,0:0:0:0:
360,24,48315,2,0,B|288:24|288:24|256:8|256:8|224:24|224:24|152:24,1,216.000008239746,8|0,1:1|2:0,0:0:0:0:
88,64,48601,5,8,1:1:0:0:
180,172,48744,1,0,1:0:0:0:
332,172,48887,1,8,1:1:0:0:
424,64,49030,1,0,1:0:0:0:
468,208,49172,6,0,L|472:276,3,57.5999982421876,8|0|0|0,1:1|0:0|0:0|0:0,0:0:0:0:
388,240,49458,2,0,L|392:308,3,57.5999982421876,8|0|0|0,1:1|0:0|0:0|0:0,0:0:0:0:
292,360,49744,6,0,L|296:292,1,57.5999982421876,8|0,1:1|0:0,0:0:0:0:
212,328,49887,2,0,L|216:260,1,57.5999982421876,0|0,1:0|0:0,0:0:0:0:
120,212,50030,6,0,L|124:280,1,57.5999982421876,8|0,1:1|0:0,0:0:0:0:
40,244,50172,2,0,L|44:312,1,57.5999982421876,0|0,1:0|0:0,0:0:0:0:
256,8,50458,5,8,1:1:0:0:
152,64,50601,2,0,B|196:64|196:64|224:80|224:80|288:80|288:80|316:64|316:64|360:64,1,216.000008239746,8|0,1:1|2:0,0:0:0:0:
384,136,50887,5,8,1:1:0:0:
360,136,50958,1,0,0:0:0:0:
336,136,51030,1,0,0:0:0:0:
176,136,51172,5,8,1:1:0:0:
152,136,51244,1,0,0:0:0:0:
128,136,51315,1,0,0:0:0:0:
256,191,51458,6,0,P|322:238|305:318,1,172.799994726563,4|0,1:2|2:0,0:0:0:0:
206,318,51744,2,0,P|189:238|255:191,1,172.799994726563,8|0,1:1|2:0,0:0:0:0:
256,264,52030,5,8,1:1:0:0:
256,120,52172,1,8,1:1:0:0:
256,264,52315,1,8,1:1:0:0:
256,120,52457,1,8,1:1:0:0:
256,192,52601,5,4,1:2:0:0:
256,192,53172,1,4,1:2:0:0:
256,192,53744,1,4,1:2:0:0:
0,156,54887,6,0,B|44:156|44:156|100:156|84:228|140:228|140:228|184:228,1,216.000008239746,4|0,1:2|2:0,0:0:0:0:
164,156,55172,2,0,B|208:156|208:156|264:156|248:228|304:228|304:228|348:228,1,216.000008239746,8|0,1:1|2:0,0:0:0:0:
328,156,55458,6,0,B|328:76|328:76|328:24|256:24|256:76|256:76|256:96,1,216.000008239746,8|0,1:1|2:0,0:0:0:0:
256,290,55744,2,0,B|256:308|256:308|256:360|184:360|184:308|184:308|184:228,1,216.000008239746,8|0,1:1|2:0,0:0:0:0:
164,156,56030,6,0,B|208:156|208:156|264:156|248:228|304:228|304:228|348:228,1,216.000008239746,8|0,1:1|2:0,0:0:0:0:
328,156,56315,2,0,B|372:156|372:156|428:156|412:228|468:228|468:228|512:228,1,216.000008239746,8|0,1:1|2:0,0:0:0:0:
512,156,56601,6,0,L|512:84,1,72.0000027465821,8|0,1:1|0:0,0:0:0:0:
440,32,56744,2,0,L|440:104,1,72.0000027465821,0|0,1:0|0:0,0:0:0:0:
512,300,56887,6,0,L|512:228,1,72.0000027465821,8|0,1:1|0:0,0:0:0:0:
440,184,57030,2,0,L|440:256,1,72.0000027465821,0|0,1:1|0:0,0:0:0:0:
448,336,57172,6,0,L|304:336,1,144,4|0,1:2|2:0,0:0:0:0:
184,264,57458,2,0,L|328:264,1,144,8|0,1:1|2:0,0:0:0:0:
208,336,57744,2,0,L|64:336,1,144,8|0,1:1|2:0,0:0:0:0:
32,200,58030,5,8,1:1:0:0:
77,186,58101,1,0,1:1:0:0:
106,224,58173,1,0,1:1:0:0:
77,263,58244,1,0,1:1:0:0:
32,248,58316,1,4,1:2:0:0:
168,16,58601,6,0,L|216:16,1,48,0|0,1:1|0:0,0:0:0:0:
344,128,58744,2,0,L|296:128,1,48,8|0,1:1|0:0,0:0:0:0:
168,80,58887,6,0,B|236:80|236:80|276:64|276:64|344:64,1,180,4|0,1:2|2:0,0:0:0:0:
416,96,59172,1,8,1:1:0:0:
416,96,59244,1,0,1:0:0:0:
416,96,59315,1,0,1:1:0:0:
512,156,59458,6,0,B|452:156|452:156|388:228|388:228|328:228,1,216.000008239746,4|0,1:2|2:0,0:0:0:0:
348,156,59744,2,0,B|288:156|288:156|224:228|224:228|164:228,1,216.000008239746,8|0,1:1|2:0,0:0:0:0:
184,156,60029,6,0,B|184:40|184:40|256:64|256:64|256:96,1,216.000008239746,8|0,1:1|2:0,0:0:0:0:
256,295,60315,2,0,B|256:320|256:320|328:344|328:344|328:228,1,216.000008239746,8|0,1:1|2:0,0:0:0:0:
348,156,60601,6,0,B|288:156|288:156|224:228|224:228|164:228,1,216.000008239746,8|0,1:1|2:0,0:0:0:0:
184,156,60887,2,0,B|124:156|124:156|60:228|60:228|0:228,1,216.000008239746,8|0,1:1|2:0,0:0:0:0:
64,67,61172,6,0,B|97:67|97:67|129:67|136:76,1,73.9199985336914,8|0,1:1|0:0,0:0:0:0:
184,156,61315,2,0,B|191:165|223:165|223:165|256:165,1,73.9199985336914,0|0,1:1|0:0,0:0:0:0:
448,67,61458,6,0,B|415:67|415:67|383:67|376:76,1,73.9199985336914,8|0,1:1|0:0,0:0:0:0:
328,156,61601,2,0,B|321:165|289:165|289:165|256:165,1,73.9199985336914,0|0,1:1|0:0,0:0:0:0:
204,288,61744,6,0,B|232:268|232:268|280:268|280:268|308:288,1,115.199996484375,4|0,1:2|1:1,0:0:0:0:
256,352,61958,1,0,0:0:0:0:
256,352,62030,6,0,B|92:352|92:352|117:306,1,216.000008239746,8|0,1:1|2:0,0:0:0:0:
394,306,62315,2,0,B|420:352|420:352|256:352,1,216.000008239746,4|0,1:2|2:0,0:0:0:0:
204,288,62601,6,0,B|232:268|232:268|280:268|280:268|308:288,1,115.199996484375,8|0,1:1|1:1,0:0:0:0:
256,352,62815,1,0,1:1:0:0:
256,352,62887,1,4,1:2:0:0:
256,192,63030,1,0,1:1:0:0:
256,192,63101,1,0,1:1:0:0:
256,192,63172,1,4,1:2:0:0:
256,192,63458,5,4,1:2:0:0:
210,173,63530,1,0,1:1:0:0:
192,128,63601,1,0,1:1:0:0:
210,82,63673,1,0,1:1:0:0:
256,64,63744,1,4,1:2:0:0:
301,82,63816,1,8,1:1:0:0:
320,128,63887,1,8,1:1:0:0:
301,173,63959,1,8,1:1:0:0:
256,192,64030,5,8,1:1:0:0:
256,192,64172,12,0,66030,0:0:0:0:
256,256,66315,6,0,B|192:256|192:256|136:288|136:288|72:288,1,192,4|0,0:0|0:0,0:0:0:0:
256,328,66887,1,0,0:0:0:0:
256,328,67030,1,0,0:0:0:0:
256,328,67172,1,0,0:0:0:0:
256,56,67458,1,2,0:2:0:0:
96,112,67887,5,0,0:0:0:0:
96,112,68030,1,2,0:0:0:0:
163,148,68315,1,0,0:0:0:0:
58,177,68601,5,2,0:2:0:0:
134,43,68887,1,0,0:0:0:0:
134,43,69030,1,2,0:0:0:0:
134,43,69172,1,2,0:0:0:0:
29,72,69458,1,0,0:0:0:0:
96,112,69744,5,2,0:2:0:0:
436,45,70315,5,0,0:0:0:0:
436,45,70458,1,2,0:0:0:0:
436,45,70601,1,2,0:0:0:0:
350,129,70887,1,2,0:2:0:0:
465,161,71458,5,0,0:0:0:0:
465,161,71601,1,2,0:0:0:0:
465,161,71744,1,2,0:0:0:0:
324,64,72030,2,0,B|292:48|292:48|220:48|220:48|188:64,2,144,2|2|2,0:2|0:0|0:0,0:0:0:0:
318,237,73172,5,2,0:2:0:0:
294,308,73458,1,0,0:0:0:0:
294,308,73601,1,2,0:0:0:0:
294,308,73744,1,2,0:0:0:0:
219,308,74030,1,0,0:0:0:0:
195,236,74316,1,2,0:2:0:0:
256,192,74601,1,2,0:0:0:0:
256,256,74887,1,0,0:0:0:0:
224,40,75458,6,0,P|255:109|288:40,1,192,4|0,0:0|2:0,0:0:0:0:
121,190,76030,1,0,0:0:0:0:
121,190,76172,1,2,0:0:0:0:
121,190,76315,1,2,0:0:0:0:
390,190,76601,6,0,P|256:146|121:190,1,288,2|0,0:2|2:0,0:0:0:0:
72,248,77172,1,0,0:0:0:0:
256,224,77458,1,2,0:0:0:0:
440,248,77744,1,2,0:2:0:0:
224,40,78172,5,2,0:0:0:0:
224,40,78315,2,0,P|255:109|288:40,1,192,2|0,0:0|0:0,0:0:0:0:
256,224,78887,1,2,0:2:0:0:
0,344,79458,6,0,B|0:296|0:296|0:272|24:248,1,96,0|2,1:0|0:0,0:0:0:0:
72,304,79744,2,0,B|128:304|128:304|192:336|192:336|256:336,1,192,0|4,0:0|0:0,0:0:0:0:
512,344,80601,6,0,B|512:296|512:296|512:272|488:248,1,96,0|2,1:0|0:0,0:0:0:0:
440,304,80887,2,0,B|384:304|384:304|320:336|320:336|256:336,1,192,4|4,0:0|0:0,0:0:0:0:
212,80,81744,6,0,P|256:96|300:80,1,96,0|0,1:0|0:0,0:0:0:0:
256,24,82030,1,4,0:0:0:0:
196,228,82315,6,0,B|100:228|100:228|48:228|48:156|100:156|100:156|196:156|196:156|236:160|256:192|256:192|276:224|316:228|316:228|412:228|412:228|464:228|464:156|412:156|412:156|316:156,3,768,4|2|4|2,0:2|0:2|0:2|0:2,2:2:0:0:
256,192,85887,12,0,86601,0:0:0:0:
324,287,86887,6,0,B|357:335|315:374|315:374|258:367|256:311,1,192,4|0,1:2|2:0,0:0:0:0:
186,286,87315,2,0,B|151:332|101:304|101:304|90:247|141:229,1,192,0|0,1:0|2:0,0:0:0:0:
144,154,87744,2,0,B|90:134|101:78|101:78|151:50|185:94,1,192,4|0,1:2|2:0,0:0:0:0:
256,70,88172,2,0,B|258:15|315:8|315:8|357:47|324:96,1,192,0|0,1:0|2:0,0:0:0:0:
371,154,88601,6,0,B|428:136|448:192|448:192,1,96,4|0,1:2|2:0,0:0:0:0:
371,229,88887,2,0,B|428:248|448:192|448:192,1,96,4|0,1:2|2:0,0:0:0:0:
448,191,89172,6,0,B|448:288|448:288|362:330,1,192,4|0,1:2|2:0,0:0:0:0:
256,384,89601,2,0,B|160:384|160:384|117:298,1,192,0|0,1:0|2:0,0:0:0:0:
63,192,90030,2,0,B|64:96|64:96|149:53,1,192,4|0,1:2|2:0,0:0:0:0:
255,0,90459,2,0,B|352:0|352:0|394:85,1,192,0|0,1:0|2:0,0:0:0:0:
192,192,90887,5,4,1:2:0:0:
288,136,91030,1,0,1:0:0:0:
288,247,91172,1,4,0:0:0:0:
256,192,91458,5,2,1:2:0:0:
256,192,91744,1,8,1:0:0:0:
256,192,92030,1,2,1:2:0:0:
256,192,92315,1,8,1:0:0:0:
256,192,92601,5,2,1:2:0:0:
256,192,92744,1,8,1:0:0:0:
256,192,92887,1,2,1:2:0:0:
256,192,93030,1,8,1:0:0:0:
256,192,93172,5,0,1:0:0:0:
260,196,93244,1,0,1:0:0:0:
264,200,93315,1,0,1:0:0:0:
268,204,93387,1,0,1:0:0:0:
272,208,93458,1,0,1:0:0:0:
276,212,93530,1,0,1:0:0:0:
280,216,93601,1,0,1:0:0:0:
284,220,93672,1,0,1:0:0:0:
288,224,93744,1,4,1:3:0:0:
64,328,94887,5,4,0:0:0:0:
128,360,95030,1,2,0:2:0:0:
160,344,95101,1,0,0:0:0:0:
192,328,95172,1,2,0:0:0:0:
256,360,95315,1,2,0:2:0:0:
320,328,95458,1,2,0:0:0:0:
384,360,95600,1,2,0:2:0:0:
448,328,95744,1,2,0:2:0:0:
16,192,96030,6,0,B|80:192|80:192|136:224|136:224|200:224,1,192,4|0,1:2|2:0,0:0:0:0:
176,144,96315,2,0,B|176:101|176:101|197:64|197:64|197:21,1,128,8|0,1:1|0:0,0:0:0:0:
256,120,96601,5,8,1:1:0:0:
256,120,96672,1,0,1:0:0:0:
256,120,96744,1,0,1:0:0:0:
400,40,96887,2,0,B|496:40,1,96,8|0,1:1|0:0,0:0:0:0:
496,192,97172,6,0,B|432:192|432:192|376:224|376:224|312:224,1,192,8|0,1:1|2:0,0:0:0:0:
336,144,97458,2,0,B|336:101|336:101|315:64|315:64|315:21,1,128,8|0,1:1|1:0,0:0:0:0:
256,120,97743,5,8,1:1:0:0:
256,264,97887,1,0,1:0:0:0:
256,264,97958,1,0,1:0:0:0:
256,264,98030,1,8,1:1:0:0:
256,120,98172,1,8,1:1:0:0:
64,208,98315,6,0,B|88:232|88:232|152:232|152:232|200:192|200:192|256:192,1,216.000008239746,4|0,1:2|2:0,0:0:0:0:
256,264,98601,2,0,L|256:384,1,115.199996484375,8|0,1:1|0:0,0:0:0:0:
256,120,98887,6,0,L|256:0,1,115.199996484375,8|0,1:1|1:0,0:0:0:0:
260,8,99101,1,0,1:0:0:0:
264,12,99172,1,8,1:1:0:0:
248,184,99315,1,0,1:1:0:0:
252,188,99387,1,0,1:1:0:0:
256,192,99458,6,0,B|312:192|312:192|360:152|360:152|424:152|424:152|448:176,1,216.000008239746,8|0,1:1|2:0,0:0:0:0:
392,224,99744,1,8,1:1:0:0:
256,192,99887,6,0,B|200:192|200:192|152:232|152:232|88:232|88:232|64:208,1,216.000008239746,0|0,1:1|2:0,0:0:0:0:
120,160,100173,1,0,1:1:0:0:
288,56,100315,6,0,B|288:120,1,64,8|0,1:1|0:0,0:0:0:0:
224,328,100458,2,0,B|224:264,1,64,8|0,1:1|0:0,0:0:0:0:
288,56,100601,6,0,B|328:16|328:16|432:16|432:16|472:56,1,216.000008239746,4|0,1:2|2:0,0:0:0:0:
384,136,100887,2,0,P|378:93|400:128,1,115.199996484375,8|0,1:1|0:0,0:0:0:0:
416,208,101172,5,8,1:1:0:0:
416,208,101244,1,0,1:0:0:0:
416,208,101315,1,0,1:0:0:0:
336,200,101458,1,8,1:1:0:0:
256,192,101601,1,0,1:1:0:0:
224,56,101744,6,0,B|184:16|184:16|80:16|80:16|40:56,1,216.000008239746,4|0,1:2|2:0,0:0:0:0:
128,136,102030,2,0,P|134:93|112:128,1,115.199996484375,8|0,1:1|1:1,0:0:0:0:
96,208,102315,5,0,1:0:0:0:
176,200,102458,1,0,1:1:0:0:
176,200,102530,1,0,1:0:0:0:
176,200,102601,1,8,1:1:0:0:
256,192,102744,1,0,1:1:0:0:
312,312,102887,6,0,B|320:340|320:340|312:368,1,57.5999982421876,4|0,1:2|0:0,0:0:0:0:
200,368,103030,2,0,B|192:340|192:340|200:312,1,57.5999982421876,8|0,1:1|0:0,0:0:0:0:
256,264,103172,1,8,1:1:0:0:
256,264,103244,1,0,1:0:0:0:
256,264,103315,1,0,1:0:0:0:
184,72,103458,5,0,1:1:0:0:
256,112,103601,1,8,1:1:0:0:
256,112,103672,1,0,1:0:0:0:
256,112,103744,1,0,1:0:0:0:
328,72,103887,1,8,1:1:0:0:
144,144,104030,5,4,1:2:0:0:
368,144,104172,1,0,1:1:0:0:
144,144,104315,5,8,1:1:0:0:
368,144,104457,1,4,1:2:0:0:
256,320,104601,5,0,1:1:0:0:
210,301,104673,1,0,1:1:0:0:
192,256,104744,1,0,1:1:0:0:
210,210,104816,1,0,1:1:0:0:
256,192,104887,1,4,1:2:0:0:
301,210,104959,1,8,1:1:0:0:
320,256,105030,1,8,1:1:0:0:
301,301,105102,1,8,1:1:0:0:
256,320,105172,6,0,L|256:368,2,48,4|0|0,0:2|0:0|1:1,0:0:0:0:
128,120,105458,6,0,B|192:120|192:120|224:152|224:152|288:152,1,172.799994726563,8|0,1:1|2:0,0:0:0:0:
256,80,105744,1,8,1:1:0:0:
160,192,105887,5,0,1:0:0:0:
136,192,105958,1,0,1:0:0:0:
112,192,106030,1,8,1:1:0:0:
256,80,106172,1,0,0:0:0:0:
384,264,106315,6,0,B|320:264|320:264|288:232|288:232|224:232,1,172.799994726563,8|0,1:1|2:0,0:0:0:0:
256,304,106601,1,8,1:1:0:0:
352,192,106744,2,0,L|472:192,1,115.199996484375,0|8,1:0|1:1,0:0:0:0:
416,336,107030,5,0,1:0:0:0:
392,336,107101,1,0,1:0:0:0:
368,336,107172,1,8,1:1:0:0:
144,336,107315,5,0,1:1:0:0:
120,336,107386,1,0,1:1:0:0:
96,336,107458,6,0,B|44:360|44:360|56:256|56:256|108:232,1,216.000008239746,4|0,1:2|2:0,0:0:0:0:
169,127,107744,2,0,B|189:120|189:120|176:212,1,115.199996484375,8|0,1:1|0:0,0:0:0:0:
26,71,108030,6,0,B|19:50|19:50|112:64,1,115.199996484375,8|0,1:1|1:0,0:0:0:0:
136,56,108244,1,0,1:0:0:0:
160,48,108315,2,0,L|224:56,3,57.5999982421876,8|0|0|0,1:1|1:1|1:1|1:1,0:0:0:0:
256,120,108601,6,0,B|288:104|288:104|352:112|352:112|392:168|392:168|438:173,1,216.000008239746,8|0,1:1|2:0,0:0:0:0:
503,216,108887,2,0,P|427:259|438:173,1,216.000008239746,8|0,1:1|2:0,0:0:0:0:
512,128,109172,1,8,1:1:0:0:
376,48,109315,5,0,1:0:0:0:
380,52,109386,1,0,1:0:0:0:
384,56,109458,1,8,1:1:0:0:
248,112,109601,5,8,1:1:0:0:
252,116,109672,1,0,0:0:0:0:
256,120,109744,6,0,B|224:104|224:104|160:112|160:112|120:168|120:168|74:173,1,216.000008239746,4|0,1:2|2:0,0:0:0:0:
9,216,110030,2,0,P|85:259|74:173,1,216.000008239746,8|0,1:1|2:0,0:0:0:0:
0,128,110315,1,8,1:1:0:0:
180,232,110458,5,0,1:0:0:0:
184,228,110530,1,0,1:0:0:0:
188,224,110601,2,0,B|224:224|224:224|256:240|256:240|288:224|288:224|324:224,1,144.000005493164,8|0,1:1|1:1,0:0:0:0:
328,228,110815,1,0,1:1:0:0:
332,232,110887,6,0,B|404:232|404:232|432:216|432:216|512:216|512:216|484:232,1,216.000008239746,4|0,1:2|2:0,0:0:0:0:
456,296,111172,2,0,B|456:208|456:208|480:176|480:176|480:128|480:128|456:96,1,216.000008239746,8|0,1:1|2:0,0:0:0:0:
408,152,111458,2,0,B|336:152|336:152|308:136|308:136|228:136|228:136|256:152,1,216.000008239746,8|0,1:1|2:0,0:0:0:0:
360,72,111744,1,8,1:1:0:0:
360,72,111887,1,0,1:1:0:0:
152,72,112030,5,4,1:2:0:0:
0,128,112172,2,0,B|40:128|40:128|72:144|72:144|112:144,1,115.199996484375,0|8,1:0|1:1,0:0:0:0:
256,152,112458,5,4,1:2:0:0:
308,220,112601,2,0,B|288:236|288:236|224:236|224:236|204:220,1,115.199996484375,0|0,1:1|1:1,0:0:0:0:
400,144,112887,6,0,B|440:144|440:144|472:128|472:128|512:128,1,115.199996484375,4|0,1:2|1:1,0:0:0:0:
360,72,113172,6,0,B|312:60|312:60|276:76|276:76|236:76|236:76|200:60|200:60|152:72,2,216.000008239746,4|4|4,1:2|1:2|1:2,0:0:0:0:
256,0,113887,5,8,1:1:0:0:
256,0,114030,1,8,1:1:0:0:
256,176,114172,5,8,1:1:0:0:
232,168,114244,1,8,1:1:0:0:
208,160,114315,2,0,L|304:160,1,96,4|0,0:2|1:1,0:0:0:0:
424,344,114601,6,0,B|416:276|416:276|432:244|432:244|424:176,1,172.799994726563,8|0,1:1|2:0,0:0:0:0:
360,64,114887,2,0,B|368:132|368:132|352:164|352:164|360:232,1,172.799994726563,8|0,1:1|2:0,0:0:0:0:
504,256,115172,2,0,L|498:208,2,48,8|0|0,1:1|1:0|1:0,0:0:0:0:
336,312,115458,6,0,B|296:336|296:336|216:336|216:336|176:312,1,172.799994726563,8|0,1:1|2:0,0:0:0:0:
88,344,115744,2,0,B|96:276|96:276|80:244|80:244|88:176,1,172.799994726563,8|0,1:1|2:0,0:0:0:0:
152,64,116030,2,0,B|144:132|144:132|160:164|160:164|152:232,1,172.799994726563,8|0,1:1|2:0,0:0:0:0:
24,296,116315,5,8,1:1:0:0:
72,104,116458,1,0,1:1:0:0:
24,296,116601,6,0,B|72:272|72:272|192:288,1,172.799994726563,4|0,1:2|2:0,0:0:0:0:
321,287,116887,2,0,B|440:272|440:272|488:296,1,172.799994726563,8|0,1:1|2:0,0:0:0:0:
432,352,117172,6,0,L|376:360,1,48,8|0,1:1|2:0,0:0:0:0:
303,369,117315,2,0,L|256:376,1,48,0|0,1:1|2:0,0:0:0:0:
80,352,117458,6,0,L|136:360,1,48,8|0,1:1|2:0,0:0:0:0:
208,369,117601,2,0,L|256:376,1,48,0|0,1:1|2:0,0:0:0:0:
321,287,117744,6,0,B|337:167|337:167|401:175,1,172.799994726563,8|0,1:1|2:0,0:0:0:0:
467,134,118030,2,0,B|451:254|451:254|400:248,1,172.799994726563,8|0,1:1|2:0,0:0:0:0:
335,131,118315,6,0,L|312:128,1,24,8|0,1:1|0:0,0:0:0:0:
327,115,118387,2,0,L|304:112,1,24,0|0,1:0|1:0,0:0:0:0:
319,99,118458,2,0,L|296:96,1,24,8|0,1:1|0:0,0:0:0:0:
176,131,118601,6,0,L|200:128,1,24,8|0,1:1|0:0,0:0:0:0:
184,115,118673,2,0,L|208:112,1,24,0|0,1:1|0:0,0:0:0:0:
192,99,118744,2,0,L|216:96,1,24,8|0,1:1|0:0,0:0:0:0:
256,192,118887,5,4,1:2:0:0:
96,328,119030,1,0,1:1:0:0:
123,173,119172,6,0,B|175:167|175:167|191:287,1,172.799994726563,8|0,1:1|2:0,0:0:0:0:
112,248,119458,2,0,B|60:254|60:254|44:134,1,172.799994726563,8|0,1:1|2:0,0:0:0:0:
95,29,119744,2,0,B|103:49|103:49|100:75,2,48,8|0|0,1:1|0:0|1:1,0:0:0:0:
20,58,120030,6,0,L|192:45,1,172.799994726563,4|0,1:2|2:0,0:0:0:0:
319,87,120315,2,0,L|491:74,1,172.799994726563,8|0,1:1|2:0,0:0:0:0:
440,4,120601,2,0,L|268:17,1,172.799994726563,8|0,1:1|2:0,0:0:0:0:
243,114,120887,1,8,1:1:0:0:
243,114,121030,1,8,1:1:0:0:
456,328,121172,6,0,L|464:264,1,57.5999982421876,4|0,1:2|2:0,0:0:0:0:
384,296,121315,2,0,L|392:232,1,57.5999982421876,8|0,1:1|2:0,0:0:0:0:
288,192,121458,6,0,L|296:256,1,57.5999982421876,8|0,1:1|2:0,0:0:0:0:
216,224,121601,2,0,L|224:288,1,57.5999982421876,8|0,1:1|2:0,0:0:0:0:
120,328,121744,6,0,L|128:264,1,57.5999982421876,0|0,1:1|2:0,0:0:0:0:
48,296,121887,2,0,L|56:232,1,57.5999982421876,8|0,1:1|2:0,0:0:0:0:
72,88,122030,5,8,1:1:0:0:
72,88,122101,1,8,1:1:0:0:
72,88,122172,1,8,1:1:0:0:
72,88,122244,1,8,1:1:0:0:
72,88,122315,1,4,1:2:0:0:
440,88,122601,6,0,L|336:88,1,96,8|4,1:1|1:2,0:0:0:0:
72,88,122887,2,0,L|176:88,1,96,0|8,1:1|1:1,0:0:0:0:
256,48,123172,1,4,1:2:0:0:
256,128,123315,2,0,L|256:152,2,24,8|0|8,1:1|0:0|1:1,0:0:0:0:
256,128,123458,6,0,P|320:160|296:272,1,192,4|0,1:2|2:0,0:0:0:0:
305,265,123744,2,0,B|415:240|368:320|493:295,1,192,8|0,1:1|2:0,0:0:0:0:
450,217,124030,5,8,1:1:0:0:
377,112,124172,1,0,1:0:0:0:
466,127,124315,1,8,1:1:0:0:
361,200,124457,1,0,1:1:0:0:
256,128,124601,6,0,P|192:160|216:272,1,192,8|0,1:1|2:0,0:0:0:0:
206,265,124887,2,0,B|97:240|144:320|19:295,1,192,8|0,1:1|2:0,0:0:0:0:
62,217,125173,5,8,1:1:0:0:
135,112,125315,1,0,1:1:0:0:
135,112,125387,1,0,1:1:0:0:
135,112,125458,1,8,1:1:0:0:
46,127,125601,1,0,1:1:0:0:
46,127,125672,1,0,1:0:0:0:
46,127,125744,6,0,L|219:147,1,172.799994726563,4|0,1:2|2:0,0:0:0:0:
317,70,126030,2,0,L|490:51,1,172.799994726563,8|0,1:1|2:0,0:0:0:0:
466,127,126315,5,8,1:1:0:0:
317,70,126458,1,0,1:1:0:0:
317,70,126744,6,0,L|319:40,2,24,8|0|8,1:1|0:0|1:1,0:0:0:0:
309,78,126887,5,4,1:2:0:0:
346,239,127030,1,8,1:1:0:0:
466,127,127172,6,0,L|293:147,1,172.799994726563,8|0,1:1|2:0,0:0:0:0:
195,70,127458,2,0,L|22:51,1,172.799994726563,8|0,1:1|2:0,0:0:0:0:
46,127,127744,5,8,1:1:0:0:
195,70,127887,1,8,1:1:0:0:
256,192,128030,6,0,B|230:322|230:322|184:283,1,192,4|0,1:2|2:0,0:0:0:0:
142,176,128315,2,0,B|267:133|267:133|256:191,1,192,8|0,1:1|2:0,0:0:0:0:
185,284,128601,2,0,B|85:196|85:196|141:176,1,192,8|0,1:1|2:0,0:0:0:0:
256,192,128887,1,8,1:1:0:0:
256,192,129030,1,0,1:1:0:0:
306,309,129172,6,0,B|389:308|389:308|418:319|418:319|495:316,1,192,4|0,1:2|2:0,0:0:0:0:
512,249,129458,2,0,B|429:250|429:250|400:239|400:239|322:241,1,192,8|0,1:1|2:0,0:0:0:0:
185,284,129744,5,8,1:1:0:0:
322,241,129887,1,8,1:1:0:0:
185,284,130030,1,8,1:1:0:0:
322,241,130173,1,8,1:1:0:0:
256,16,130315,5,4,1:2:0:0:
192,160,130458,6,0,L|184:120,4,24,8|0|8|0|8,1:1|0:0|1:1|0:0|1:1,0:0:0:0:
336,64,130744,1,4,1:2:0:0:
320,160,130887,6,0,L|328:120,4,24,8|0|8|0|8,1:1|0:0|1:1|0:0|1:1,0:0:0:0:
176,64,131172,6,0,L|136:56,8,24,4|0|8|0|8|0|8|0|4,1:2|0:0|1:1|0:0|1:1|0:0|1:1|0:0|0:2,0:0:0:0:
256,368,131887,1,4,0:2:0:0:
152,168,132315,5,4,1:2:0:0:
208,160,132387,1,0,1:1:0:0:
256,192,132458,1,0,1:1:0:0:
304,224,132530,1,0,1:1:0:0:
360,216,132602,1,4,1:2:0:0:
256,192,132744,12,0,134887,0:0:0:0:
