osu file format v14

[General]
AudioFilename: audio.mp3
AudioLeadIn: 0
PreviewTime: 97214
Countdown: 0
SampleSet: Soft
StackLeniency: 0.2
Mode: 0
LetterboxInBreaks: 0
WidescreenStoryboard: 1

[Editor]
Bookmarks: 12642,14356
DistanceSpacing: 1.3
BeatDivisor: 4
GridSize: 8
TimelineZoom: 5.299997

[Metadata]
Title:Grievous Lady
TitleUnicode:Grievous Lady
Artist:Team Grimoire vs. Laur
ArtistUnicode:Team Grimoire vs. Laur
Creator:Feruver
Version:iPhong's Expert
Source:Arcaea
Tags:sly instinct AJiSAI IPhong Avoidedoki JackTVN Azrael_- NotABox KittyTrax Bubblekid FinallyV XzeniFX Cubby Jelljel GAOHAO arcaea Melodic Darkcore vicious labyrinth electronic video game instrumental
BeatmapID:2125719
BeatmapSetID:778719

[Difficulty]
HPDrainRate:5
CircleSize:5
OverallDifficulty:8
ApproachRate:9
SliderMultiplier:1.80000000596047
SliderTickRate:1

[Events]
//Background and Video events
0,0,"DNx2wPjUIAAo71C.jpg",0,0
Video,0,"Grievous Lady.mp4"
//Break Periods
2,67699,76042
//Storyboard Layer 0 (Background)
//Storyboard Layer 1 (Fail)
//Storyboard Layer 2 (Pass)
//Storyboard Layer 3 (Foreground)
//Storyboard Layer 4 (Overlay)
//Storyboard Sound Samples

[TimingPoints]
1214,285.714285714286,4,2,1,40,1,0
1214,-200,4,2,1,40,0,0
5785,-117.647058823529,4,2,7,50,0,0
5856,-117.647058823529,4,2,1,50,0,0
10356,-100,4,2,1,50,0,0
11785,-100,4,2,1,30,0,0
11856,-100,4,2,1,50,0,0
12642,-133.333333333333,4,2,1,50,0,0
14928,-133.333333333333,4,2,1,50,0,0
17214,-142.857142857143,4,2,7,50,0,0
19499,-100,4,1,6,50,0,0
19571,-100,4,2,6,50,0,0
21214,-83.3333333333333,4,2,7,50,0,0
21785,-100,4,1,6,50,0,0
23499,-83.3333333333333,4,2,6,50,0,0
24071,-100,4,1,6,50,0,0
25785,-83.3333333333333,4,2,6,50,0,0
26356,-100,4,2,6,50,0,0
28071,-111.111111111111,4,2,6,50,0,0
28642,-100,4,2,1,50,0,0
37785,-71.4285714285714,4,1,2,60,0,1
37856,-71.4285714285714,4,1,1,60,0,1
40071,-71.4285714285714,4,1,1,60,0,1
40356,-71.4285714285714,4,1,1,60,0,1
42356,-71.4285714285714,4,1,1,60,0,1
42642,-71.4285714285714,4,1,1,60,0,1
45785,-71.4285714285714,4,1,1,60,0,1
46071,-71.4285714285714,4,1,1,60,0,1
46714,-71.4285714285714,4,1,1,60,0,1
52785,-66.6666666666667,4,1,1,60,0,1
52928,-71.4285714285714,4,1,1,60,0,1
53785,-71.4285714285714,4,1,1,60,0,0
54071,-76.9230769230769,4,1,1,60,0,0
54356,-71.4285714285714,4,1,1,60,0,0
54642,-66.6666666666667,4,1,1,60,0,0
54928,-76.9230769230769,4,1,1,60,0,0
56071,-71.4285714285714,4,1,2,60,0,1
56142,-71.4285714285714,4,1,1,60,0,1
65214,-125,4,1,2,50,0,0
65499,-125,4,1,2,40,0,0
65785,-125,4,1,2,35,0,0
66071,-125,4,1,2,30,0,0
66356,-125,4,1,2,25,0,0
66642,-125,4,1,2,20,0,0
66928,-125,4,1,2,15,0,0
67214,-125,4,1,2,5,0,0
67499,-125,4,1,2,50,0,0
76642,-125,4,2,1,50,0,0
88071,-100,4,2,6,50,0,0
92642,-142.857142857143,4,1,1,50,0,0
92928,-125,4,1,1,50,0,0
93214,-111.111111111111,4,1,1,50,0,0
93499,-100,4,1,1,50,0,0
93785,-83.3333333333333,4,1,1,50,0,0
94356,-100,4,1,1,50,0,0
94928,-125,4,2,1,50,0,0
95499,-111.111111111111,4,2,1,50,0,0
95642,-100,4,2,1,50,0,0
95785,-83.3333333333334,4,2,1,50,0,0
96071,-100,4,2,1,50,0,0
97214,-66.6666666666667,4,1,2,60,0,1
97356,-71.4285714285714,4,1,1,60,0,1
97785,-66.6666666666667,4,1,1,60,0,1
97999,-71.4285714285714,4,1,1,60,0,1
98356,-66.6666666666667,4,1,1,60,0,1
98499,-71.4285714285714,4,1,1,60,0,1
98928,-66.6666666666667,4,1,1,60,0,1
99071,-71.4285714285714,4,1,1,60,0,1
99499,-66.6666666666667,4,1,1,60,0,1
99642,-71.4285714285714,4,1,1,60,0,1
100642,-66.6666666666667,4,1,1,60,0,1
100785,-71.4285714285714,4,1,1,60,0,1
101785,-66.6666666666667,4,1,1,60,0,1
101928,-71.4285714285714,4,1,1,60,0,1
102928,-66.6666666666667,4,1,1,60,0,1
103071,-71.4285714285714,4,1,1,60,0,1
106356,-66.6666666666667,4,1,1,60,0,1
106499,-71.4285714285714,4,1,2,60,0,1
106571,-71.4285714285714,4,1,1,60,0,1
107499,-66.6666666666667,4,1,1,60,0,1
107642,-71.4285714285714,4,1,1,60,0,1
108642,-66.6666666666667,4,1,1,60,0,1
108785,-71.4285714285714,4,1,1,60,0,1
109785,-66.6666666666667,4,1,1,60,0,1
109928,-71.4285714285714,4,1,1,60,0,1
110928,-66.6666666666667,4,1,2,60,0,1
111071,-71.4285714285714,4,1,1,60,0,1
112071,-66.6666666666667,4,1,2,60,0,1
112214,-71.4285714285714,4,1,1,60,0,1
113214,-66.6666666666667,4,1,2,60,0,1
113356,-71.4285714285714,4,1,1,60,0,1
114071,-66.6666666666667,4,1,1,60,0,1
114356,-71.4285714285714,4,1,1,60,0,0
114499,-71.4285714285714,4,1,1,5,0,0
114571,-71.4285714285714,4,1,1,60,0,0
114714,-71.4285714285714,4,1,1,5,0,0
114785,-100,4,1,1,60,0,0
115071,-71.4285714285714,4,1,1,60,0,0
115499,-66.6666666666667,4,1,2,60,0,1
115642,-71.4285714285714,4,1,1,60,0,1
116642,-66.6666666666667,4,1,1,60,0,1
116785,-71.4285714285714,4,1,1,60,0,1
117785,-66.6666666666667,4,1,1,60,0,1
117928,-71.4285714285714,4,1,1,60,0,1
118928,-66.6666666666667,4,1,1,60,0,1
119071,-71.4285714285714,4,1,1,60,0,1
121214,-66.6666666666667,4,1,1,60,0,1
121356,-71.4285714285714,4,1,1,60,0,1
123499,-66.6666666666667,4,1,1,60,0,1
123642,-71.4285714285714,4,1,1,60,0,1
124642,-33.3333333333333,4,1,2,60,0,1
124785,-71.4285714285714,4,1,1,60,0,1
125785,-66.6666666666667,4,1,1,60,0,1
125928,-71.4285714285714,4,1,1,60,0,1
126928,-66.6666666666667,4,1,1,60,0,1
127071,-71.4285714285714,4,1,1,60,0,1
129214,-66.6666666666667,4,1,2,60,0,1
129356,-71.4285714285714,4,1,1,60,0,1
130356,-62.5,4,1,2,60,0,1
130499,-66.6666666666667,4,1,1,60,0,1
131499,-66.6666666666667,4,1,2,60,0,1
131642,-66.6666666666667,4,1,1,60,0,1
132642,-66.6666666666667,4,1,1,60,0,0
132928,-66.6666666666667,4,1,1,5,0,0
132964,-66.6666666666667,4,1,1,60,0,0
133356,-66.6666666666667,4,1,1,5,0,0
133392,-66.6666666666667,4,1,1,60,0,0
133785,-142.857142857143,4,1,2,35,0,0
134928,-142.857142857143,4,2,7,25,0,0
136071,-142.857142857143,4,2,7,15,0,0
137214,-142.857142857143,4,2,7,5,0,0
138356,-142.857142857143,4,2,7,5,0,0

[Colours]
Combo1 : 0,128,255
Combo2 : 192,192,192
Combo3 : 255,0,0

[HitObjects]
256,192,1214,12,0,5499,0:0:0:0:
365,298,5785,6,0,L|434:345,2,76.5000017124417,4|0|0,0:0|0:0|0:0,0:0:0:0:
422,232,6214,1,0,0:0:0:0:
365,166,6356,2,0,P|341:115|388:25,2,153.000003424883,0|0|4,0:0|0:0|0:0,0:0:0:0:
431,104,7071,5,0,0:0:0:0:
222,58,7214,1,0,0:0:0:0:
377,31,7356,1,0,0:0:0:0:
219,175,7499,2,0,P|216:223|243:257,2,76.5000017124417,0|0|0,0:0|0:0|0:0,0:0:0:0:
302,192,7928,1,0,0:0:0:0:
147,298,8071,6,0,L|78:345,2,76.5000017124417,4|0|0,0:0|0:0|0:0,0:0:0:0:
90,232,8499,1,0,0:0:0:0:
147,166,8642,2,0,P|171:115|124:25,2,153.000003424883,0|0|4,0:0|0:0|0:0,0:0:0:0:
81,104,9356,5,0,0:0:0:0:
290,58,9499,1,0,0:0:0:0:
135,31,9642,1,0,0:0:0:0:
293,175,9785,2,0,P|296:223|269:257,2,76.5000017124417,0|0|0,0:0|0:0|0:0,0:0:0:0:
210,192,10214,1,0,0:0:0:0:
420,254,10356,5,4,0:0:0:0:
340,343,10499,1,0,0:0:0:0:
220,343,10642,1,0,0:0:0:0:
140,254,10785,1,0,0:0:0:0:
220,165,10928,2,0,P|270:135|327:147,1,90.0000002980235,0|0,0:0|0:0,0:0:0:0:
290,247,11214,2,0,P|240:277|183:265,1,90.0000002980235,0|0,0:0|0:0,0:0:0:0:
9,187,11499,5,4,0:0:0:0:
89,98,11642,1,0,0:0:0:0:
209,98,11785,1,0,0:0:0:0:
289,187,11928,1,0,0:0:0:0:
209,276,12071,2,0,P|159:306|102:294,2,90.0000002980235,0|0|0,0:0|0:0|0:0,0:0:0:0:
289,365,12499,1,0,0:0:0:0:
369,276,12642,6,0,B|496:143|496:143|367:14|367:14|242:146|242:146|346:250,1,675.000027984384,4|0,0:0|0:0,0:0:0:0:
369,145,14356,1,4,0:0:0:0:
118,145,14642,1,0,0:0:0:0:
155,235,14928,2,0,B|244:145|244:145|119:13|119:13|-9:142|-9:142|117:275,1,675.000027984384,4|0,0:0|0:0,0:0:0:0:
208,354,16642,2,0,B|246:282|246:282|278:324|278:324|312:282|312:282|355:365,1,270.000011193753,0|4,0:0|0:0,0:0:0:0:
277,188,17499,6,0,P|287:142|317:124,2,62.9999982860091,0|0|0,0:0|0:0|0:0,0:0:0:0:
186,117,18071,2,0,P|144:90|109:99,2,62.9999982860091,0|0|0,0:0|0:0|0:0,0:0:0:0:
256,52,18499,1,0,0:0:0:0:
326,117,18642,2,0,P|383:100|454:129,2,125.999996572018,0|0|0,0:0|0:0|0:0,0:0:0:0:
385,212,19499,5,4,0:0:0:0:
385,212,19642,2,0,B|395:259|395:259|446:278,1,90.0000002980235,0|0,0:0|0:0,0:0:0:0:
296,272,19928,1,0,0:0:0:0:
296,272,20071,2,0,B|281:317|281:317|315:359,1,90.0000002980235,0|0,0:0|0:0,0:0:0:0:
188,279,20356,1,0,0:0:0:0:
188,279,20499,2,0,B|152:311|152:311|161:364,1,90.0000002980235,0|0,0:0|0:0,0:0:0:0:
90,231,20785,1,0,0:0:0:0:
90,231,20928,2,0,B|43:240|43:240|24:292,1,90.0000002980235,0|0,0:0|0:0,0:0:0:0:
117,331,21214,6,0,P|209:304|280:180,1,215.99999412346,4|4,0:0|0:0,0:0:0:0:
134,140,21785,5,4,0:0:0:0:
134,140,21928,2,0,B|124:93|124:93|73:74,1,90.0000002980235,0|0,0:0|0:0,0:0:0:0:
223,80,22214,1,0,0:0:0:0:
223,80,22356,2,0,B|237:34|237:34|203:-7,1,90.0000002980235,0|0,0:0|0:0,0:0:0:0:
331,73,22642,1,0,0:0:0:0:
331,73,22785,2,0,B|366:40|366:40|357:-12,1,90.0000002980235,0|0,0:0|0:0,0:0:0:0:
429,121,23071,1,0,0:0:0:0:
429,121,23214,2,0,B|476:111|476:111|495:60,1,90.0000002980235,0|0,0:0|0:0,0:0:0:0:
341,167,23499,6,0,P|374:208|435:218,2,107.99999706173,4|4|4,0:0|0:0|0:0,0:0:0:0:
287,250,23928,1,0,0:0:0:0:
372,323,24071,5,4,0:0:0:0:
372,323,24214,2,0,B|414:331|414:331|431:377,1,90.0000002980235,0|0,0:0|0:0,0:0:0:0:
425,243,24499,1,0,0:0:0:0:
425,243,24642,2,0,B|466:229|466:229|503:260,1,90.0000002980235,0|0,0:0|0:0,0:0:0:0:
432,146,24928,1,0,0:0:0:0:
432,146,25071,2,0,B|460:113|460:113|509:122,1,90.0000002980235,0|0,0:0|0:0,0:0:0:0:
389,58,25356,1,0,0:0:0:0:
389,58,25499,2,0,B|397:15|397:15|443:-1,1,90.0000002980235,0|0,0:0|0:0,0:0:0:0:
468,74,25785,6,0,P|441:166|317:237,1,215.99999412346,4|4,0:0|0:0,0:0:0:0:
164,324,26356,5,4,0:0:0:0:
164,324,26499,2,0,B|121:332|121:332|104:378,1,90.0000002980235,0|0,0:0|0:0,0:0:0:0:
110,243,26785,1,0,0:0:0:0:
110,243,26928,2,0,B|68:229|68:229|31:260,1,90.0000002980235,0|0,0:0|0:0,0:0:0:0:
103,146,27214,1,0,0:0:0:0:
103,146,27356,2,0,B|74:113|74:113|25:122,1,90.0000002980235,0|0,0:0|0:0,0:0:0:0:
146,58,27642,1,0,0:0:0:0:
146,58,27785,2,0,B|137:15|137:15|91:-1,1,90.0000002980235,0|0,0:0|0:0,0:0:0:0:
188,137,28071,6,0,P|224:107|233:52,2,80.9999977962974,4|4|4,0:0|0:0|0:0,0:0:0:0:
262,186,28499,1,0,0:0:0:0:
336,137,28642,5,4,0:0:0:0:
336,137,28785,2,0,B|345:94|345:94|391:78,1,90.0000002980235,0|0,0:0|0:0,0:0:0:0:
311,272,29071,1,4,0:0:0:0:
311,272,29214,2,0,B|354:281|354:281|370:327,1,90.0000002980235,0|0,0:0|0:0,0:0:0:0:
176,247,29499,1,4,0:0:0:0:
176,247,29642,2,0,B|167:290|167:290|121:306,1,90.0000002980235,0|0,0:0|0:0,0:0:0:0:
201,112,29928,1,4,0:0:0:0:
201,112,30071,2,0,B|158:103|158:103|142:57,1,90.0000002980235,0|0,0:0|0:0,0:0:0:0:
226,26,30356,6,0,P|297:64|319:171,1,180.000000596047,4|4,0:0|0:0,0:0:0:0:
176,267,30928,5,4,0:0:0:0:
176,267,31071,2,0,B|167:310|167:310|121:326,1,90.0000002980235,0|0,0:0|0:0,0:0:0:0:
311,292,31356,1,4,0:0:0:0:
311,292,31499,2,0,B|354:301|354:301|369:344,1,90.0000002980235,0|0,0:0|0:0,0:0:0:0:
336,157,31785,1,4,0:0:0:0:
336,157,31928,2,0,B|345:114|345:114|391:98,1,90.0000002980235,0|0,0:0|0:0,0:0:0:0:
201,132,32214,1,4,0:0:0:0:
201,132,32356,2,0,B|158:123|158:123|142:79,1,90.0000002980235,0|0,0:0|0:0,0:0:0:0:
226,44,32642,6,0,P|277:38|313:78,2,90.0000002980235,4|4|4,0:0|0:0|0:0,0:0:0:0:
295,152,33071,1,0,0:0:0:0:
418,109,33214,5,4,0:0:0:0:
418,109,33356,2,0,B|431:67|431:67|399:30,1,90.0000002980235,0|0,0:0|0:0,0:0:0:0:
348,257,33642,1,4,0:0:0:0:
348,257,33785,2,0,B|361:298|361:298|329:335,1,90.0000002980235,0|0,0:0|0:0,0:0:0:0:
255,123,34071,1,4,0:0:0:0:
255,123,34214,2,0,B|225:90|225:90|177:99,1,90.0000002980235,0|0,0:0|0:0,0:0:0:0:
160,255,34499,1,4,0:0:0:0:
160,255,34642,2,0,B|130:287|130:287|82:278,1,90.0000002980235,0|0,0:0|0:0,0:0:0:0:
101,194,34928,6,0,P|202:167|279:243,1,180.000000596047,4|4,0:0|0:0,0:0:0:0:
89,353,35499,6,0,P|62:252|138:175,1,180.000000596047,4|0,0:0|0:0,0:0:0:0:
183,118,35928,2,0,P|213:200|172:278,1,180.000000596047,4|0,0:0|0:0,0:0:0:0:
107,43,36356,2,0,P|189:12|266:54,1,180.000000596047,4|4,0:0|0:0,0:0:0:0:
331,289,37214,2,0,P|248:319|171:277,1,180.000000596047,0|0,0:0|0:0,0:0:0:0:
379,106,37785,6,0,L|430:58,3,62.9999982860091,12|0|0|0,0:0|0:0|0:0|0:0,0:0:0:0:
292,148,38071,2,0,L|246:104,3,62.9999982860091,8|0|0|0,0:0|0:0|0:0|0:0,0:0:0:0:
375,207,38356,2,0,L|426:159,3,62.9999982860091,8|0|0|0,0:0|0:0|0:0|0:0,0:0:0:0:
288,249,38642,2,0,L|242:205,3,62.9999982860091,8|0|0|0,0:0|0:0|0:0|0:0,0:0:0:0:
218,308,38928,6,0,L|269:356,3,62.9999982860091,8|0|0|0,0:0|0:0|0:0|0:0,0:0:0:0:
131,266,39214,2,0,L|85:309,3,62.9999982860091,8|0|0|0,0:0|0:0|0:0|0:0,0:0:0:0:
214,207,39499,2,0,L|265:255,3,62.9999982860091,8|0|0|0,0:0|0:0|0:0|0:0,0:0:0:0:
127,165,39785,2,0,L|81:208,3,62.9999982860091,8|0|8|0,0:0|0:0|0:0|0:0,0:0:0:0:
212,117,40071,6,0,P|249:76|420:128,3,251.999993144036,8|8|8|8,0:0|0:0|0:0|0:0,0:0:0:0:
313,168,41071,1,0,0:0:0:0:
418,219,41214,6,0,B|402:187,1,31.4999991430045,8|0,0:0|0:0,0:0:0:0:
435,241,41285,2,0,B|473:258,1,31.4999991430045,0|0,0:0|0:0,0:0:0:0:
420,247,41356,2,0,B|417:289,1,31.4999991430045,0|0,0:0|0:0,0:0:0:0:
435,221,41428,2,0,B|480:192,1,31.4999991430045,0|0,0:0|0:0,0:0:0:0:
408,233,41499,2,0,B|369:247,1,31.4999991430045,8|0,0:0|0:0,0:0:0:0:
254,271,41642,1,0,0:0:0:0:
94,219,41785,6,0,B|110:187,1,31.4999991430045,8|0,0:0|0:0,0:0:0:0:
77,241,41856,2,0,B|39:258,1,31.4999991430045,0|0,0:0|0:0,0:0:0:0:
92,247,41928,2,0,B|95:289,1,31.4999991430045,8|0,0:0|0:0,0:0:0:0:
77,221,41999,2,0,B|32:192,1,31.4999991430045,0|0,0:0|0:0,0:0:0:0:
104,233,42071,2,0,B|143:247,1,31.4999991430045,0|0,0:0|0:0,0:0:0:0:
196,198,42214,1,8,0:0:0:0:
168,317,42356,6,0,L|150:382,3,62.9999982860091,8|0|0|0,0:0|0:0|0:0|0:0,0:0:0:0:
254,271,42642,2,0,L|319:289,3,62.9999982860091,8|0|0|0,0:0|0:0|0:0|0:0,0:0:0:0:
208,185,42928,2,0,L|226:120,3,62.9999982860091,8|0|0|0,0:0|0:0|0:0|0:0,0:0:0:0:
122,231,43214,2,0,L|57:213,3,62.9999982860091,8|0|0|0,0:0|0:0|0:0|0:0,0:0:0:0:
146,177,43499,6,0,L|78:95,3,62.9999982860091,8|0|0|0,0:0|0:0|0:0|0:0,0:0:0:0:
265,210,43785,2,0,L|313:169,3,62.9999982860091,8|0|8|0,0:0|0:0|0:0|0:0,0:0:0:0:
228,326,44071,2,0,L|295:407,3,62.9999982860091,8|0|2|0,0:0|0:0|0:0|0:0,0:0:0:0:
115,289,44356,2,0,L|66:329,3,62.9999982860091,8|0|0|0,0:0|0:0|0:0|0:0,0:0:0:0:
192,248,44642,5,8,0:0:0:0:
192,248,44714,2,0,P|240:241|295:285,1,62.9999982860091,0|0,0:0|0:0,0:0:0:0:
258,167,44928,1,8,0:0:0:0:
258,167,44999,2,0,P|303:184|328:250,1,62.9999982860091,0|0,0:0|0:0,0:0:0:0:
357,131,45214,1,8,0:0:0:0:
357,131,45285,2,0,P|387:169|376:238,1,62.9999982860091,0|0,0:0|0:0,0:0:0:0:
460,147,45499,1,8,0:0:0:0:
460,147,45571,2,0,P|466:194|423:250,1,62.9999982860091,0|0,0:0|0:0,0:0:0:0:
400,291,45785,6,0,P|320:315|261:283,1,125.999996572018,8|0,0:0|0:0,0:0:0:0:
216,230,46071,1,8,0:0:0:0:
216,230,46142,1,0,0:0:0:0:
216,230,46214,2,0,P|296:206|355:238,1,125.999996572018,0|8,0:0|0:0,0:0:0:0:
282,301,46499,1,8,0:0:0:0:
127,186,46642,1,8,0:0:0:0:
333,219,46785,1,8,0:0:0:0:
133,278,46928,6,0,L|82:326,3,62.9999982860091,0|0|8|0,0:0|0:0|0:0|0:0,0:0:0:0:
220,236,47214,2,0,L|265:279,3,62.9999982860091,8|0|0|0,0:0|0:0|0:0|0:0,0:0:0:0:
137,177,47499,2,0,L|86:225,3,62.9999982860091,8|0|0|0,0:0|0:0|0:0|0:0,0:0:0:0:
224,135,47785,2,0,L|269:178,3,62.9999982860091,8|0|0|0,0:0|0:0|0:0|0:0,0:0:0:0:
294,76,48071,6,0,L|243:28,3,62.9999982860091,8|0|0|0,0:0|0:0|0:0|0:0,0:0:0:0:
381,118,48356,2,0,L|426:74,3,62.9999982860091,8|0|0|0,0:0|0:0|0:0|0:0,0:0:0:0:
298,177,48642,2,0,L|247:129,3,62.9999982860091,8|0|2|2,0:0|0:0|0:0|0:0,0:0:0:0:
385,219,48928,2,0,L|430:175,3,62.9999982860091,8|0|8|0,0:0|0:0|0:0|0:0,0:0:0:0:
300,267,49214,6,0,P|263:308|92:256,3,251.999993144036,0|8|8|8,0:0|0:0|0:0|0:0,0:0:0:0:
199,216,50214,1,8,0:0:0:0:
94,165,50356,6,0,B|110:197,1,31.4999991430045,8|0,0:0|0:0,0:0:0:0:
77,143,50428,2,0,B|39:126,1,31.4999991430045,0|0,0:0|0:0,0:0:0:0:
92,137,50499,2,0,B|95:95,1,31.4999991430045,0|0,0:0|0:0,0:0:0:0:
77,163,50571,2,0,B|32:192,1,31.4999991430045,0|0,0:0|0:0,0:0:0:0:
104,151,50642,2,0,B|143:137,1,31.4999991430045,8|0,0:0|0:0,0:0:0:0:
258,113,50784,1,0,0:0:0:0:
418,165,50928,6,0,B|402:197,1,31.4999991430045,8|0,0:0|0:0,0:0:0:0:
435,143,50999,2,0,B|473:126,1,31.4999991430045,0|0,0:0|0:0,0:0:0:0:
420,137,51071,2,0,B|417:95,1,31.4999991430045,8|0,0:0|0:0,0:0:0:0:
435,163,51142,2,0,B|480:192,1,31.4999991430045,0|0,0:0|0:0,0:0:0:0:
408,151,51214,2,0,B|369:137,1,31.4999991430045,8|0,0:0|0:0,0:0:0:0:
316,186,51356,1,8,0:0:0:0:
344,67,51499,6,0,L|362:2,3,62.9999982860091,0|0|0|0,0:0|0:0|0:0|0:0,0:0:0:0:
258,113,51785,2,0,L|193:95,3,62.9999982860091,8|0|0|0,0:0|0:0|0:0|0:0,0:0:0:0:
304,199,52071,2,0,L|286:264,3,62.9999982860091,8|0|0|0,0:0|0:0|0:0|0:0,0:0:0:0:
390,153,52356,2,0,L|455:171,3,62.9999982860091,8|0|0|0,0:0|0:0|0:0|0:0,0:0:0:0:
366,207,52642,6,0,L|433:288,3,62.9999982860091,8|0|0|0,0:0|0:0|0:0|0:0,0:0:0:0:
247,174,52928,2,0,L|198:214,3,62.9999982860091,8|0|0|0,0:0|0:0|0:0|0:0,0:0:0:0:
284,58,53214,2,0,L|216:-23,3,62.9999982860091,8|0|8|0,0:0|0:0|0:0|0:0,0:0:0:0:
397,95,53499,2,0,L|445:54,3,62.9999982860091,8|0|8|0,0:0|0:0|0:0|0:0,0:0:0:0:
320,136,53785,5,8,0:0:0:0:
320,136,53856,2,0,P|272:143|217:99,1,62.9999982860091,0|0,0:0|0:0,0:0:0:0:
254,217,54071,1,0,0:0:0:0:
254,217,54142,2,0,P|208:199|193:173,1,58.4999975157979,0|0,0:0|0:0,0:0:0:0:
155,253,54356,1,8,0:0:0:0:
155,253,54428,2,0,P|124:214|135:145,1,62.9999982860091,0|0,0:0|0:0,0:0:0:0:
52,237,54642,1,0,0:0:0:0:
52,237,54714,2,0,P|45:189|69:151,1,67.5000027984384,0|0,0:0|0:0,0:0:0:0:
112,93,54928,6,0,P|192:69|239:99,1,116.999995031596,0|0,0:0|0:0,0:0:0:0:
296,154,55214,1,0,0:0:0:0:
296,154,55285,1,0,0:0:0:0:
296,154,55356,2,0,P|216:178|169:153,1,116.999995031596,0|0,0:0|0:0,0:0:0:0:
230,83,55642,1,0,0:0:0:0:
385,198,55785,1,0,0:0:0:0:
178,164,55928,1,0,0:0:0:0:
356,88,56071,6,0,B|385:57|385:57|359:31|359:31|390:-4,1,125.999996572018,12|0,0:0|0:0,0:0:0:0:
195,175,56356,2,0,B|224:144|224:144|198:118|198:118|229:83,1,125.999996572018,8|0,0:0|0:0,0:0:0:0:
438,228,56642,2,0,B|467:197|467:197|441:171|441:171|472:136,1,125.999996572018,8|0,0:0|0:0,0:0:0:0:
276,305,56928,2,0,B|305:274|305:274|279:248|279:248|310:213,1,125.999996572018,8|0,0:0|0:0,0:0:0:0:
81,119,57214,2,0,B|110:88|110:88|84:62|84:62|115:27,1,125.999996572018,12|0,0:0|0:0,0:0:0:0:
109,314,57499,2,0,B|138:283|138:283|112:257|112:257|143:222,1,125.999996572018,8|0,0:0|0:0,0:0:0:0:
239,119,57785,5,8,0:0:0:0:
393,334,57928,1,0,0:0:0:0:
342,70,58071,1,8,0:0:0:0:
276,305,58214,1,8,0:0:0:0:
106,131,58356,6,0,P|42:102|-5:142,1,125.999996572018,4|0,0:0|0:0,0:0:0:0:
205,252,58642,2,0,P|141:223|94:263,1,125.999996572018,8|0,0:0|0:0,0:0:0:0:
303,129,58928,2,0,P|250:99|198:130,1,125.999996572018,8|0,0:0|0:0,0:0:0:0:
401,252,59214,2,0,P|348:222|296:253,1,125.999996572018,8|8,0:0|0:0,0:0:0:0:
499,129,59499,2,0,P|446:99|394:129,1,125.999996572018,12|0,0:0|0:0,0:0:0:0:
502,247,59785,6,0,P|462:331|394:351,2,125.999996572018,8|8|8,0:0|0:0|0:0,0:0:0:0:
230,301,60214,1,0,0:0:0:0:
385,186,60356,1,8,0:0:0:0:
179,219,60499,1,8,0:0:0:0:
356,296,60642,6,0,B|385:327|385:327|359:353|359:353|390:388,1,125.999996572018,12|0,0:0|0:0,0:0:0:0:
195,209,60928,2,0,B|224:240|224:240|198:266|198:266|229:301,1,125.999996572018,8|0,0:0|0:0,0:0:0:0:
438,156,61214,2,0,B|467:187|467:187|441:213|441:213|472:248,1,125.999996572018,8|0,0:0|0:0,0:0:0:0:
276,79,61499,2,0,B|305:110|305:110|279:136|279:136|310:171,1,125.999996572018,8|0,0:0|0:0,0:0:0:0:
81,265,61785,2,0,B|110:296|110:296|84:322|84:322|115:357,1,125.999996572018,12|0,0:0|0:0,0:0:0:0:
109,70,62071,2,0,B|138:101|138:101|112:127|112:127|143:162,1,125.999996572018,8|0,0:0|0:0,0:0:0:0:
239,265,62356,5,8,0:0:0:0:
393,50,62499,1,8,0:0:0:0:
342,314,62642,1,8,0:0:0:0:
276,79,62785,1,8,0:0:0:0:
106,253,62928,6,0,P|42:282|-5:242,1,125.999996572018,12|0,0:0|0:0,0:0:0:0:
205,132,63214,2,0,P|141:161|94:121,1,125.999996572018,8|0,0:0|0:0,0:0:0:0:
303,254,63499,2,0,P|250:284|198:254,1,125.999996572018,12|0,0:0|0:0,0:0:0:0:
401,131,63785,2,0,P|348:161|296:131,1,125.999996572018,8|0,0:0|0:0,0:0:0:0:
499,254,64071,2,0,P|446:284|394:255,1,125.999996572018,12|8,0:0|0:0,0:0:0:0:
296,131,64356,2,0,P|243:101|190:131,1,125.999996572018,8|0,0:0|0:0,0:0:0:0:
123,258,64642,5,12,0:0:0:0:
370,351,64785,1,8,0:0:0:0:
102,370,64928,1,8,0:0:0:0:
312,245,65071,1,8,0:0:0:0:
27,140,65214,2,0,B|207:-135|337:357|519:66,2,576.00000190735,12|0|0,0:0|0:0|0:0,0:0:0:0:
69,324,76642,6,0,P|123:287|203:323,1,144.000000476838,4|0,0:0|0:0,0:0:0:0:
274,256,77071,1,0,0:0:0:0:
345,320,77214,2,0,L|402:377,2,72.0000002384188,0|0|0,0:0|0:0|0:0,0:0:0:0:
416,256,77642,1,0,0:0:0:0:
345,192,77785,2,0,P|335:154|356:111,1,72.0000002384188,0|0,0:0|0:0,0:0:0:0:
398,38,78071,5,0,0:0:0:0:
437,160,78214,1,0,0:0:0:0:
241,135,78356,2,0,L|166:124,1,72.0000002384188,0|0,0:0|0:0,0:0:0:0:
130,31,78642,2,0,L|205:42,1,72.0000002384188,0|0,0:0|0:0,0:0:0:0:
139,208,78928,2,0,P|90:249|8:228,2,144.000000476838,0|0|0,0:0|0:0|0:0,0:0:0:0:
55,90,79785,1,0,0:0:0:0:
105,327,80071,2,0,P|154:368|236:347,1,144.000000476838,0|0,0:0|0:0,0:0:0:0:
391,202,80642,6,0,P|362:164|316:161,2,72.0000002384188,0|0|0,0:0|0:0|0:0,0:0:0:0:
266,165,81214,2,0,P|287:103|371:89,1,144.000000476838,4|0,0:0|0:0,0:0:0:0:
307,244,81642,1,0,0:0:0:0:
71,131,81785,6,0,P|100:93|146:90,2,72.0000002384188,0|0|0,0:0|0:0|0:0,0:0:0:0:
196,94,82356,2,0,P|175:32|91:18,1,144.000000476838,4|0,0:0|0:0,0:0:0:0:
155,173,82785,1,0,0:0:0:0:
266,165,82928,6,0,P|304:136|307:90,2,72.0000002384188,0|0|0,0:0|0:0|0:0,0:0:0:0:
258,57,83499,2,0,P|338:36|422:196,2,288.000000953675,4|0|4,0:0|0:0|0:0,0:0:0:0:
328,138,84928,1,0,0:0:0:0:
321,234,85214,1,0,0:0:0:0:
400,288,85499,1,0,0:0:0:0:
486,245,85785,6,0,P|484:111|354:78,2,288.000000953675,4|0|4,0:0|0:0|0:0,0:0:0:0:
321,234,87214,2,0,P|296:208|291:173,2,72.0000002384188,0|0|0,0:0|0:0|0:0,0:0:0:0:
400,312,87642,1,0,0:0:0:0:
281,340,87785,2,0,P|240:308|201:297,1,72.0000002384188,0|0,0:0|0:0,0:0:0:0:
94,275,88071,5,4,0:0:0:0:
94,275,88214,2,0,B|81:317|81:317|113:354,1,90.0000002980235,0|0,0:0|0:0,0:0:0:0:
164,127,88499,1,0,0:0:0:0:
164,127,88642,2,0,B|151:86|151:86|183:49,1,90.0000002980235,0|0,0:0|0:0,0:0:0:0:
257,261,88928,1,0,0:0:0:0:
257,261,89071,2,0,B|287:294|287:294|335:285,1,90.0000002980235,0|0,0:0|0:0,0:0:0:0:
352,129,89356,1,0,0:0:0:0:
352,129,89499,2,0,B|382:97|382:97|430:106,1,90.0000002980235,0|0,0:0|0:0,0:0:0:0:
411,190,89785,6,0,P|310:217|233:141,1,180.000000596047,4|4,0:0|0:0,0:0:0:0:
173,30,90356,5,4,0:0:0:0:
173,30,90499,2,0,B|131:17|131:17|94:49,1,90.0000002980235,0|0,0:0|0:0,0:0:0:0:
321,100,90785,1,0,0:0:0:0:
321,100,90928,2,0,B|362:87|362:87|399:119,1,90.0000002980235,0|0,0:0|0:0,0:0:0:0:
187,193,91214,1,0,0:0:0:0:
187,193,91356,2,0,B|154:223|154:223|163:271,1,90.0000002980235,0|0,0:0|0:0,0:0:0:0:
319,288,91642,1,0,0:0:0:0:
319,288,91785,2,0,B|351:318|351:318|342:366,1,90.0000002980235,0|0,0:0|0:0,0:0:0:0:
258,347,92071,6,0,P|231:246|307:169,1,180.000000596047,4|4,0:0|0:0,0:0:0:0:
123,309,92642,6,0,L|97:335,1,31.4999991430045,4|0,0:0|0:0,0:0:0:0:
388,74,92928,2,0,L|414:48,1,36.0000001192094,4|0,0:0|0:0,0:0:0:0:
388,309,93214,2,0,L|431:350,1,40.4999988981487,4|0,0:0|0:0,0:0:0:0:
123,74,93499,2,0,L|81:33,1,45.0000001490117,4|0,0:0|0:0,0:0:0:0:
376,192,93785,6,0,L|432:192,1,53.9999985308649,4|0,0:0|0:0,0:0:0:0:
136,192,93928,2,0,L|80:192,1,53.9999985308649,4|0,0:0|0:0,0:0:0:0:
256,64,94071,2,0,L|256:0,1,53.9999985308649,4|0,0:0|0:0,0:0:0:0:
256,312,94214,2,0,L|256:368,1,53.9999985308649,4|0,0:0|0:0,0:0:0:0:
256,152,94356,6,0,L|256:117,1,22.5000000745059,0|0,0:0|0:0,0:0:0:0:
227,164,94428,2,0,L|205:140,1,22.5000000745059,0|0,0:0|0:0,0:0:0:0:
216,192,94499,2,0,L|192:192,1,22.5000000745059,0|0,0:0|0:0,0:0:0:0:
228,220,94571,2,0,L|206:244,1,22.5000000745059,0|0,0:0|0:0,0:0:0:0:
256,232,94642,2,0,L|256:267,1,22.5000000745059,0|0,0:0|0:0,0:0:0:0:
285,219,94714,2,0,L|300:235,1,22.5000000745059,0|0,0:0|0:0,0:0:0:0:
296,192,94785,2,0,L|320:192,1,22.5000000745059,0|0,0:0|0:0,0:0:0:0:
286,162,94856,2,0,L|301:145,1,22.5000000745059,0|0,0:0|0:0,0:0:0:0:
256,192,94928,2,0,B|256:9|256:9|436:27|282:114|282:114|377:204,2,504.000001668932,0|0|0,0:0|0:0|0:0,0:0:0:0:
172,325,97214,6,0,P|105:350|34:289,1,135.000005596877,12|0,0:0|0:0,0:0:0:0:
111,248,97499,1,8,0:0:0:0:
111,248,97642,2,0,P|178:223|250:281,1,125.999996572018,0|8,0:0|0:0,0:0:0:0:
285,321,97928,1,0,0:0:0:0:
285,321,97999,1,0,0:0:0:0:
285,321,98071,2,0,P|218:346|149:286,1,125.999996572018,8|0,0:0|0:0,0:0:0:0:
232,154,98356,6,0,P|299:129|370:190,1,135.000005596877,8|0,0:0|0:0,0:0:0:0:
413,233,98642,1,8,0:0:0:0:
413,233,98785,2,0,P|346:258|274:199,1,125.999996572018,0|8,0:0|0:0,0:0:0:0:
352,156,99071,1,0,0:0:0:0:
352,156,99142,1,0,0:0:0:0:
352,156,99214,2,0,P|419:131|489:189,1,125.999996572018,8|8,0:0|0:0,0:0:0:0:
335,56,99499,6,0,P|268:31|197:92,1,135.000005596877,8|0,0:0|0:0,0:0:0:0:
154,135,99785,1,8,0:0:0:0:
154,135,99928,2,0,P|221:160|293:101,1,125.999996572018,0|8,0:0|0:0,0:0:0:0:
215,58,100214,1,0,0:0:0:0:
215,58,100285,1,0,0:0:0:0:
215,58,100356,2,0,P|148:33|78:91,1,125.999996572018,8|8,0:0|0:0,0:0:0:0:
159,223,100642,6,0,P|226:248|297:187,1,135.000005596877,8|0,0:0|0:0,0:0:0:0:
340,144,100928,1,8,0:0:0:0:
340,144,101071,2,0,P|273:119|201:178,1,125.999996572018,8|0,0:0|0:0,0:0:0:0:
279,221,101356,1,8,0:0:0:0:
279,221,101428,1,0,0:0:0:0:
279,221,101499,2,0,P|346:246|416:188,1,125.999996572018,8|8,0:0|0:0,0:0:0:0:
337,23,101785,6,0,P|312:90|373:161,1,135.000005596877,8|0,0:0|0:0,0:0:0:0:
416,204,102071,1,8,0:0:0:0:
416,204,102214,2,0,P|441:137|382:65,1,125.999996572018,0|8,0:0|0:0,0:0:0:0:
339,143,102499,1,0,0:0:0:0:
339,143,102571,1,0,0:0:0:0:
339,143,102642,2,0,P|314:210|372:280,1,125.999996572018,8|8,0:0|0:0,0:0:0:0:
234,353,102928,6,0,P|259:286|198:215,1,135.000005596877,8|0,0:0|0:0,0:0:0:0:
155,172,103214,1,8,0:0:0:0:
155,172,103356,2,0,P|130:239|189:311,1,125.999996572018,8|0,0:0|0:0,0:0:0:0:
232,233,103642,1,8,0:0:0:0:
232,233,103714,1,0,0:0:0:0:
232,233,103785,2,0,P|257:166|199:96,1,125.999996572018,0|8,0:0|0:0,0:0:0:0:
53,49,104071,6,0,P|28:116|72:176,1,125.999996572018,8|8,0:0|0:0,0:0:0:0:
132,230,104356,1,8,0:0:0:0:
132,230,104499,2,0,P|157:163|98:91,1,125.999996572018,0|8,0:0|0:0,0:0:0:0:
55,169,104785,1,8,0:0:0:0:
55,169,104856,1,0,0:0:0:0:
55,169,104928,2,0,P|30:236|88:306,1,125.999996572018,0|8,0:0|0:0,0:0:0:0:
128,362,105214,5,8,0:0:0:0:
272,102,105356,1,8,0:0:0:0:
136,68,105499,1,8,0:0:0:0:
261,284,105642,1,8,0:0:0:0:
457,178,105785,6,0,B|486:158,1,31.4999991430045,8|0,0:0|0:0,0:0:0:0:
449,170,105856,2,0,B|457:136,1,31.4999991430045,8|0,0:0|0:0,0:0:0:0:
431,170,105928,2,0,B|405:141,1,31.4999991430045,8|0,0:0|0:0,0:0:0:0:
431,188,105999,2,0,B|394:188,1,31.4999991430045,8|0,0:0|0:0,0:0:0:0:
442,200,106071,2,0,B|418:227,1,31.4999991430045,8|0,0:0|0:0,0:0:0:0:
451,197,106142,2,0,B|463:226,1,31.4999991430045,8|0,0:0|0:0,0:0:0:0:
462,189,106214,2,0,B|491:199,1,31.4999991430045,8|0,0:0|0:0,0:0:0:0:
340,325,106356,6,0,P|407:350|478:289,1,135.000005596877,12|0,0:0|0:0,0:0:0:0:
401,248,106642,1,8,0:0:0:0:
401,248,106785,2,0,P|334:223|262:281,1,125.999996572018,0|8,0:0|0:0,0:0:0:0:
227,321,107071,1,0,0:0:0:0:
227,321,107142,1,0,0:0:0:0:
227,321,107214,2,0,P|294:346|363:286,1,125.999996572018,8|0,0:0|0:0,0:0:0:0:
280,154,107499,6,0,P|213:129|142:190,1,135.000005596877,8|0,0:0|0:0,0:0:0:0:
99,233,107785,1,8,0:0:0:0:
99,233,107928,2,0,P|166:258|238:199,1,125.999996572018,0|8,0:0|0:0,0:0:0:0:
160,156,108214,1,0,0:0:0:0:
160,156,108285,1,0,0:0:0:0:
160,156,108356,2,0,P|93:131|23:189,1,125.999996572018,8|8,0:0|0:0,0:0:0:0:
177,56,108642,6,0,P|244:31|315:92,1,135.000005596877,8|0,0:0|0:0,0:0:0:0:
358,135,108928,1,8,0:0:0:0:
358,135,109071,2,0,P|291:160|219:101,1,125.999996572018,0|8,0:0|0:0,0:0:0:0:
297,58,109356,1,0,0:0:0:0:
297,58,109428,1,0,0:0:0:0:
297,58,109499,2,0,P|364:33|434:91,1,125.999996572018,8|8,0:0|0:0,0:0:0:0:
353,223,109785,6,0,P|286:248|215:187,1,135.000005596877,8|0,0:0|0:0,0:0:0:0:
172,144,110071,1,8,0:0:0:0:
172,144,110214,2,0,P|239:119|311:178,1,125.999996572018,0|8,0:0|0:0,0:0:0:0:
233,221,110499,1,0,0:0:0:0:
233,221,110571,1,0,0:0:0:0:
233,221,110642,2,0,P|166:246|96:188,1,125.999996572018,8|8,0:0|0:0,0:0:0:0:
169,31,110928,6,0,P|194:98|147:160,1,135.000005596877,12|0,0:0|0:0,0:0:0:0:
96,204,111214,1,8,0:0:0:0:
96,204,111356,2,0,P|71:137|130:65,1,125.999996572018,0|8,0:0|0:0,0:0:0:0:
173,143,111642,1,0,0:0:0:0:
173,143,111714,1,0,0:0:0:0:
173,143,111785,2,0,P|198:210|140:280,1,125.999996572018,8|0,0:0|0:0,0:0:0:0:
283,345,112071,6,0,P|258:278|301:217,1,135.000005596877,12|0,0:0|0:0,0:0:0:0:
357,172,112356,1,8,0:0:0:0:
357,172,112499,2,0,P|382:239|323:311,1,125.999996572018,0|8,0:0|0:0,0:0:0:0:
280,233,112785,1,0,0:0:0:0:
280,233,112856,1,0,0:0:0:0:
280,233,112928,2,0,P|255:166|313:96,1,125.999996572018,8|8,0:0|0:0,0:0:0:0:
457,58,113214,6,0,P|482:125|439:178,1,135.000005596877,12|0,0:0|0:0,0:0:0:0:
380,230,113499,1,8,0:0:0:0:
380,230,113642,2,0,P|355:163|414:91,1,125.999996572018,0|8,0:0|0:0,0:0:0:0:
457,169,113928,1,0,0:0:0:0:
457,169,113999,1,0,0:0:0:0:
457,169,114071,2,0,P|482:236|432:300,1,135.000005596877,8|8,0:0|0:0,0:0:0:0:
348,350,114356,6,0,L|278:370,1,62.9999982860091,8|0,0:0|0:0,0:0:0:0:
294,218,114535,2,0,L|346:268,1,62.9999982860091,0|0,0:0|0:0,0:0:0:0:
212,323,114749,2,0,L|229:252,1,62.9999982860091,0|0,0:0|0:0,0:0:0:0:
267,76,115071,5,8,0:0:0:0:
372,203,115214,1,8,0:0:0:0:
143,131,115356,1,2,0:0:0:0:
48,245,115499,6,0,B|19:276|19:276|45:302|45:302|7:349,1,135.000005596877,0|8,0:0|0:0,0:0:0:0:
248,210,115785,1,8,0:0:0:0:
248,210,115928,2,0,B|219:241|219:241|245:267|245:267|214:302,1,125.999996572018,0|8,0:0|0:0,0:0:0:0:
443,180,116214,1,0,0:0:0:0:
443,180,116285,1,0,0:0:0:0:
443,180,116356,2,0,B|414:211|414:211|440:237|440:237|409:272,1,125.999996572018,8|0,0:0|0:0,0:0:0:0:
0,172,116642,6,0,P|64:143|114:183,1,135.000005596877,8|0,0:0|0:0,0:0:0:0:
195,138,116928,1,8,0:0:0:0:
195,138,117071,2,0,P|259:109|305:146,1,125.999996572018,0|8,0:0|0:0,0:0:0:0:
390,104,117356,1,0,0:0:0:0:
390,104,117428,1,0,0:0:0:0:
390,104,117499,2,0,P|454:75|501:111,1,125.999996572018,8|8,0:0|0:0,0:0:0:0:
448,182,117785,6,0,B|477:213|477:213|451:239|451:239|489:286,1,135.000005596877,8|0,0:0|0:0,0:0:0:0:
248,147,118071,1,8,0:0:0:0:
248,147,118214,2,0,B|277:178|277:178|251:204|251:204|282:239,1,125.999996572018,0|8,0:0|0:0,0:0:0:0:
53,117,118499,1,8,0:0:0:0:
53,117,118571,1,0,0:0:0:0:
53,117,118642,2,0,B|82:148|82:148|56:174|56:174|87:209,1,125.999996572018,8|8,0:0|0:0,0:0:0:0:
496,109,118928,6,0,P|432:80|382:120,1,135.000005596877,8|0,0:0|0:0,0:0:0:0:
301,75,119214,1,8,0:0:0:0:
301,75,119356,2,0,P|237:46|191:83,1,125.999996572018,0|10,0:0|0:0,0:0:0:0:
106,41,119642,1,2,0:0:0:0:
106,41,119714,1,2,0:0:0:0:
106,41,119785,2,0,P|42:12|-5:48,1,125.999996572018,10|2,0:0|0:0,0:0:0:0:
70,125,120071,5,8,0:0:0:0:
79,154,120142,1,0,0:0:0:0:
89,184,120214,2,0,L|111:254,1,62.9999982860091,8|0,0:0|0:0,0:0:0:0:
255,145,120499,5,0,0:0:0:0:
268,188,120571,1,0,0:0:0:0:
283,233,120642,2,0,L|308:317,1,62.9999982860091,8|0,0:0|0:0,0:0:0:0:
448,171,120928,5,8,0:0:0:0:
457,200,120999,1,0,0:0:0:0:
467,230,121071,2,0,L|488:299,1,62.9999982860091,8|0,0:0|0:0,0:0:0:0:
415,357,121214,6,0,L|395:291,1,67.5000027984384,8|0,0:0|0:0,0:0:0:0:
387,267,121356,1,0,0:0:0:0:
378,238,121428,1,0,0:0:0:0:
230,329,121642,6,0,L|212:268,1,62.9999982860091,0|0,0:0|0:0,0:0:0:0:
197,223,121785,1,8,0:0:0:0:
184,180,121856,1,0,0:0:0:0:
37,296,122071,6,0,L|17:234,1,62.9999982860091,8|0,0:0|0:0,0:0:0:0:
9,206,122214,1,8,0:0:0:0:
0,177,122285,1,0,0:0:0:0:
72,13,122356,6,0,L|94:78,1,62.9999982860091,8|0,0:0|0:0,0:0:0:0:
181,40,122499,2,0,L|203:105,1,62.9999982860091,8|0,0:0|0:0,0:0:0:0:
290,67,122642,2,0,L|312:132,1,62.9999982860091,8|0,0:0|0:0,0:0:0:0:
399,94,122785,2,0,L|421:159,1,62.9999982860091,8|0,0:0|0:0,0:0:0:0:
348,210,122928,2,0,L|326:275,1,62.9999982860091,8|0,0:0|0:0,0:0:0:0:
239,237,123071,2,0,L|217:302,1,62.9999982860091,8|0,0:0|0:0,0:0:0:0:
130,264,123214,2,0,L|108:329,1,62.9999982860091,8|8,0:0|0:0,0:0:0:0:
21,291,123356,2,0,L|-1:356,1,62.9999982860091,8|8,0:0|0:0,0:0:0:0:
62,210,123499,6,0,P|124:152|176:157,1,135.000005596877,8|0,0:0|0:0,0:0:0:0:
200,70,123785,1,8,0:0:0:0:
200,70,123928,2,0,P|258:132|253:181,1,125.999996572018,0|8,0:0|0:0,0:0:0:0:
340,206,124214,1,0,0:0:0:0:
340,206,124285,1,0,0:0:0:0:
340,206,124356,2,0,P|278:264|227:260,1,125.999996572018,0|2,0:0|0:0,0:0:0:0:
132,348,124642,6,0,B|85:46|85:46|159:32|159:32|195:229|195:229|34:271|34:271|21:203|21:203|501:87|501:87|344:10|344:10|267:21|267:21|372:354|372:354|496:314|496:314|496:161,4,2160.00008955003,12|8|8|0|12,0:0|0:0|0:0|0:0|0:0,0:0:0:0:
256,291,129356,5,0,0:0:0:0:
256,291,129499,2,0,P|326:266|386:300,1,125.999996572018,8|0,0:0|0:0,0:0:0:0:
296,180,129785,1,8,0:0:0:0:
296,180,129856,1,0,0:0:0:0:
296,180,129928,2,0,P|226:155|166:189,1,125.999996572018,0|8,0:0|0:0,0:0:0:0:
89,238,130214,1,0,0:0:0:0:
359,109,130356,6,0,P|384:145|350:243,1,144.000000476838,12|0,0:0|0:0,0:0:0:0:
181,173,130642,1,8,0:0:0:0:
181,173,130785,2,0,P|156:103|190:45,1,135.000005596877,0|8,0:0|0:0,0:0:0:0:
258,111,130999,6,0,P|277:149|267:195,1,67.5000027984384,0|0,0:0|0:0,0:0:0:0:
243,329,131142,2,0,P|224:291|234:245,1,67.5000027984384,0|8,0:0|0:0,0:0:0:0:
401,224,131285,2,0,P|363:243|317:233,1,67.5000027984384,0|0,0:0|0:0,0:0:0:0:
118,191,131428,2,0,P|156:172|202:182,1,67.5000027984384,0|8,0:0|0:0,0:0:0:0:
258,111,131571,1,0,0:0:0:0:
167,47,131642,6,0,L|145:91,1,33.7500013992192,2|2,0:0|0:0,0:0:0:0:
133,51,131714,2,0,L|157:86,1,33.7500013992192,2|2,0:0|0:0,0:0:0:0:
99,55,131785,2,0,L|153:81,1,33.7500013992192,10|0,0:0|0:0,0:0:0:0:
258,111,131928,1,8,0:0:0:0:
349,47,131999,6,0,L|371:91,1,33.7500013992192,0|0,0:0|0:0,0:0:0:0:
382,51,132071,2,0,L|358:85,1,33.7500013992192,10|2,0:0|0:0,0:0:0:0:
416,55,132142,2,0,L|362:80,1,33.7500013992192,2|2,0:0|0:0,0:0:0:0:
364,192,132285,5,0,0:0:0:0:
296,192,132356,2,0,L|296:232,1,33.7500013992192,10|2,0:0|0:0,0:0:0:0:
228,192,132428,2,0,L|228:148,1,33.7500013992192,2|2,0:0|0:0,0:0:0:0:
161,192,132499,2,0,L|161:232,1,33.7500013992192,2|2,0:0|0:0,0:0:0:0:
93,192,132571,2,0,L|93:148,1,33.7500013992192,2|0,0:0|0:0,0:0:0:0:
26,192,132642,6,0,L|26:356,1,135.000005596877,8|0,0:0|0:0,0:0:0:0:
486,327,133071,2,0,L|486:192,1,135.000005596877,8|0,0:0|0:0,0:0:0:0:
128,272,133499,1,8,0:0:0:0:
192,304,133571,1,8,0:0:0:0:
256,336,133642,1,8,0:0:0:0:
320,304,133714,1,8,0:0:0:0:
384,272,133785,6,0,B|384:22|384:22|604:88|421:160,3,503.999986288073,12|0|0|0,0:0|0:0|0:0|0:0,0:0:0:0:
256,32,137499,1,0,0:0:0:0:
256,152,137785,2,0,L|256:280,2,125.999996572018,0|0|0,0:0|0:0|0:0,0:0:0:0:
