osu file format v14

[General]
AudioFilename: audio.mp3
AudioLeadIn: 0
PreviewTime: 97214
Countdown: 0
SampleSet: Soft
StackLeniency: 0.5
Mode: 0
LetterboxInBreaks: 0
WidescreenStoryboard: 1

[Editor]
DistanceSpacing: 0.2
BeatDivisor: 4
GridSize: 32
TimelineZoom: 3.799998

[Metadata]
Title:Grievous Lady
TitleUnicode:Grievous Lady
Artist:Team Grimoire vs. Laur
ArtistUnicode:Team Grimoire vs. Laur
Creator:Feruver
Version:Xzeni's Expert
Source:Arcaea
Tags:sly instinct AJiSAI IPhong Avoidedoki JackTVN Azrael_- NotABox KittyTrax Bubblekid FinallyV XzeniFX Cubby Jelljel GAOHAO arcaea Melodic Darkcore vicious labyrinth electronic video game instrumental
BeatmapID:2125724
BeatmapSetID:778719

[Difficulty]
HPDrainRate:6
CircleSize:4
OverallDifficulty:9
ApproachRate:9.5
SliderMultiplier:1.80000000596047
SliderTickRate:1

[Events]
//Background and Video events
0,0,"DNx2wPjUIAAo71C.jpg",0,0
Video,0,"Grievous Lady.mp4"
//Break Periods
2,17414,18945
//Storyboard Layer 0 (Background)
//Storyboard Layer 1 (Fail)
//Storyboard Layer 2 (Pass)
//Storyboard Layer 3 (Foreground)
//Storyboard Layer 4 (Overlay)
//Storyboard Sound Samples

[TimingPoints]
1214,285.714285714286,4,2,1,60,1,0
1214,-133.333333333333,4,2,1,60,0,0
1428,-100,4,2,1,5,0,0
1499,-100,4,2,1,60,0,0
1642,-100,4,2,1,5,0,0
1785,-100,4,2,1,60,0,0
2928,-200,4,2,1,60,0,0
3499,-133.333333333333,4,2,1,60,0,0
4071,-133.333333333333,4,2,1,60,0,0
4285,-133.333333333333,4,2,1,5,0,0
4356,-133.333333333333,4,2,1,60,0,0
4571,-133.333333333333,4,2,1,5,0,0
4642,-166.666666666667,4,2,1,60,0,0
4856,-166.666666666667,4,2,1,5,0,0
4928,-166.666666666667,4,2,1,60,0,0
5142,-166.666666666667,4,2,1,5,0,0
5214,-166.666666666667,4,2,1,60,0,0
5785,-100,4,2,1,60,0,0
10356,-100,4,2,1,60,0,0
12642,-133.333333333333,4,2,1,60,0,0
17214,-133.333333333333,4,1,1,60,0,0
19499,-100,4,1,1,60,0,0
23642,-100,4,1,1,30,0,0
23785,-100,4,1,1,60,0,0
28214,-100,4,1,1,30,0,0
28356,-100,4,1,1,60,0,0
28642,-80,4,1,1,60,0,0
28714,-80,4,1,1,60,0,0
29071,-80,4,1,1,60,0,0
29142,-80,4,1,1,60,0,0
29499,-80,4,1,1,60,0,0
29571,-80,4,1,1,60,0,0
29928,-80,4,1,1,60,0,0
29999,-80,4,1,1,60,0,0
30356,-80,4,1,1,60,0,0
30928,-80,4,1,1,60,0,0
30999,-80,4,1,1,60,0,0
31356,-80,4,1,1,60,0,0
31428,-80,4,1,1,60,0,0
31785,-80,4,1,1,60,0,0
31856,-80,4,1,1,60,0,0
32214,-80,4,1,1,60,0,0
32285,-80,4,1,1,60,0,0
32642,-80,4,1,1,60,0,0
32785,-80,4,1,1,45,0,0
32928,-80,4,1,1,60,0,0
33214,-80,4,1,1,60,0,0
33285,-80,4,1,1,60,0,0
33642,-80,4,1,1,60,0,0
33714,-80,4,1,1,60,0,0
34071,-80,4,1,1,60,0,0
34142,-80,4,1,1,60,0,0
34499,-80,4,1,1,60,0,0
34571,-80,4,1,1,60,0,0
34928,-80,4,1,1,60,0,0
35499,-80,4,1,1,60,0,0
35571,-80,4,1,1,60,0,0
35928,-80,4,1,1,60,0,0
35999,-80,4,1,1,60,0,0
36356,-80,4,1,1,60,0,0
36428,-80,4,1,1,60,0,0
36642,-80,4,1,1,60,0,0
36714,-80,4,1,1,60,0,0
37214,-100,4,1,1,60,0,0
37785,-83.3333333333333,4,1,1,60,0,1
39856,-83.3333333333333,4,1,1,5,0,1
39928,-83.3333333333333,4,1,1,60,0,1
39999,-83.3333333333333,4,1,1,5,0,1
40071,-83.3333333333333,4,1,1,60,0,1
41856,-83.3333333333333,4,1,1,5,0,1
41928,-83.3333333333333,4,1,1,60,0,1
45785,-66.6666666666667,4,1,1,60,0,1
46071,-83.3333333333333,4,1,1,60,0,1
49856,-83.3333333333333,4,1,1,5,0,1
49928,-83.3333333333333,4,1,1,60,0,1
49999,-83.3333333333333,4,1,1,5,0,1
50071,-83.3333333333333,4,1,1,60,0,1
50142,-83.3333333333333,4,1,1,5,0,1
50214,-83.3333333333333,4,1,1,60,0,1
50285,-83.3333333333333,4,1,1,5,0,1
50356,-83.3333333333333,4,1,1,60,0,1
51428,-83.3333333333333,4,1,1,5,0,1
51499,-83.3333333333333,4,1,1,25,0,1
51642,-83.3333333333333,4,1,1,60,0,1
53785,-83.3333333333333,4,1,1,60,0,0
54356,-76.9230769230769,4,1,1,60,0,0
54928,-83.3333333333333,4,1,1,60,0,0
55499,-100,4,1,1,60,0,0
56071,-66.6666666666667,4,1,1,60,0,1
67499,-133.333333333333,4,2,1,60,0,0
76642,-100,4,2,1,60,0,0
88071,-100,4,1,1,60,0,0
92642,-100,4,1,1,60,0,0
92714,-100,4,1,1,5,0,0
92928,-83.3333333333333,4,1,1,60,0,0
92999,-83.3333333333333,4,1,1,5,0,0
93214,-71.4285714285714,4,1,1,60,0,0
93285,-71.4285714285714,4,1,1,5,0,0
93499,-62.5,4,1,1,60,0,0
93571,-62.5,4,1,1,5,0,0
93785,-80,4,1,1,60,0,0
95214,-100,4,1,1,60,0,0
97214,-76.9230769230769,4,1,1,60,0,1
99285,-76.9230769230769,4,1,1,5,0,1
99356,-76.9230769230769,4,1,1,60,0,1
99428,-76.9230769230769,4,1,1,5,0,1
99499,-76.9230769230769,4,1,1,60,0,1
100999,-76.9230769230769,4,1,1,5,0,1
101071,-76.9230769230769,4,1,1,60,0,1
101285,-76.9230769230769,4,1,1,5,0,1
101356,-76.9230769230769,4,1,1,60,0,1
101428,-76.9230769230769,4,1,1,5,0,1
101499,-76.9230769230769,4,1,1,60,0,1
101571,-76.9230769230769,4,1,1,5,0,1
101642,-76.9230769230769,4,1,1,60,0,1
101714,-76.9230769230769,4,1,1,5,0,1
101785,-76.9230769230769,4,1,1,60,0,1
101856,-76.9230769230769,4,1,1,5,0,1
101928,-76.9230769230769,4,1,1,60,0,1
104142,-76.9230769230769,4,1,1,5,0,1
104214,-76.9230769230769,4,1,1,60,0,1
104285,-76.9230769230769,4,1,1,5,0,1
104356,-76.9230769230769,4,1,1,60,0,1
104928,-76.9230769230769,4,1,1,5,0,1
105071,-76.9230769230769,4,1,1,60,0,1
112285,-76.9230769230769,4,1,1,5,0,1
112356,-76.9230769230769,4,1,1,60,0,1
114356,-66.6666666666667,4,1,1,60,0,1
115071,-76.9230769230769,4,1,1,60,0,1
117571,-76.9230769230769,4,1,1,5,0,1
117642,-76.9230769230769,4,1,1,60,0,1
117714,-76.9230769230769,4,1,1,5,0,1
117785,-76.9230769230769,4,1,1,60,0,1
118428,-76.9230769230769,4,1,1,5,0,1
118499,-76.9230769230769,4,1,1,60,0,1
118571,-76.9230769230769,4,1,1,5,0,1
118642,-76.9230769230769,4,1,1,60,0,1
118714,-76.9230769230769,4,1,1,5,0,1
118785,-76.9230769230769,4,1,1,60,0,1
118856,-76.9230769230769,4,1,1,5,0,1
118928,-76.9230769230769,4,1,1,60,0,1
122356,-66.6666666666667,4,1,1,60,0,1
124499,-76.9230769230769,4,1,1,60,0,1
125571,-76.9230769230769,4,1,1,5,0,1
125642,-76.9230769230769,4,1,1,60,0,1
125714,-76.9230769230769,4,1,1,5,0,1
125785,-76.9230769230769,4,1,1,60,0,1
130356,-71.4285714285714,4,1,1,60,0,1
132642,-66.6666666666667,4,1,1,60,0,1
133785,-100,4,1,1,60,0,0
138356,-100,4,1,1,5,0,0

[Colours]
Combo1 : 234,123,223
Combo2 : 192,192,192
Combo3 : 114,50,177
Combo4 : 0,92,185

[HitObjects]
143,90,1214,5,0,0:0:0:0:
142,104,1499,1,0,0:0:0:0:
141,118,1785,5,0,0:0:0:0:
240,97,1928,1,0,0:0:0:0:
219,230,2071,1,0,0:0:0:0:
306,177,2214,1,0,0:0:0:0:
141,118,2356,6,0,L|48:127,1,90.0000002980235
129,239,2642,2,0,L|221:229,1,90.0000002980235
113,330,2928,2,0,L|13:316,1,90.0000002980235,0|0,0:0|0:0,0:0:0:0:
218,229,3499,5,0,0:0:0:0:
219,248,3785,1,0,0:0:0:0:
220,267,4071,6,0,P|277:237|318:236,1,101.250004197658,0|0,0:0|0:0,0:0:0:0:
331,139,4356,2,0,P|332:189|312:235,1,101.250004197658,0|0,0:0|0:0,0:0:0:0:
375,282,4642,6,0,P|330:257|305:221,1,80.9999977962974,0|0,0:0|0:0,0:0:0:0:
236,260,4928,2,0,P|278:240|325:235,1,80.9999977962974,0|0,0:0|0:0,0:0:0:0:
331,139,5214,6,0,P|264:126|209:100,1,107.99999706173,0|0,0:0|0:0,0:0:0:0:
471,67,5785,6,0,P|464:109|461:170,2,90.0000002980235,4|0|0,0:0|0:0|0:0,0:0:0:0:
312,0,6214,1,0,0:0:0:0:
331,161,6356,2,0,P|283:151|218:147,1,90.0000002980235,0|0,0:0|0:0,0:0:0:0:
99,273,6642,2,0,P|137:265|212:259,1,90.0000002980235,0|0,0:0|0:0,0:0:0:0:
289,371,6928,1,4,0:0:0:0:
290,362,7499,5,0,0:0:0:0:
214,373,7642,1,0,0:0:0:0:
138,384,7785,1,0,0:0:0:0:
132,376,8071,6,0,L|31:364,1,90.0000002980235,4|0,0:0|0:0,0:0:0:0:
0,230,8356,1,0,0:0:0:0:
176,196,8499,1,0,0:0:0:0:
94,276,8642,2,0,P|91:248|79:182,1,90.0000002980235,0|0,0:0|0:0,0:0:0:0:
218,16,8928,2,0,P|209:60|204:104,1,90.0000002980235,0|0,0:0|0:0,0:0:0:0:
270,226,9214,1,4,0:0:0:0:
269,239,9785,1,0,0:0:0:0:
269,239,10356,5,4,0:0:0:0:
326,307,10499,1,0,0:0:0:0:
278,383,10642,1,0,0:0:0:0:
191,359,10785,1,0,0:0:0:0:
187,269,10928,2,0,L|197:164,1,90.0000002980235,0|0,0:0|0:0,0:0:0:0:
353,226,11214,2,0,L|344:136,1,90.0000002980235,0|0,0:0|0:0,0:0:0:0:
108,205,11499,6,0,B|67:186|22:190|-10:216|-10:216|21:185|30:146,1,180.000000596047,4|0,0:0|0:0,0:0:0:0:
323,201,12071,5,0,0:0:0:0:
222,173,12214,1,0,0:0:0:0:
296,99,12356,1,0,0:0:0:0:
157,244,12642,6,0,P|103:227|27:206,1,135.000005596877,4|0,0:0|0:0,0:0:0:0:
296,99,13214,2,0,P|231:119|166:136,1,135.000005596877,0|0,0:0|0:0,0:0:0:0:
399,338,13785,6,0,P|387:258|382:192,1,135.000005596877,0|0,0:0|0:0,0:0:0:0:
154,48,14356,2,0,P|166:128|171:194,1,135.000005596877,4|0,0:0|0:0,0:0:0:0:
256,384,14928,1,4,0:0:0:0:
256,192,14999,12,4,17214,0:0:0:0:
65,62,19499,5,4,0:0:0:0:
102,311,19928,1,0,0:0:0:0:
300,155,20356,1,0,0:0:0:0:
65,62,20785,1,0,0:0:0:0:
200,298,21214,2,0,L|195:201,1,90.0000002980235,4|0,0:0|0:0,0:0:0:0:
389,63,21499,2,0,L|384:160,1,90.0000002980235,4|0,0:0|0:0,0:0:0:0:
200,322,21785,5,4,0:0:0:0:
146,62,22214,1,0,0:0:0:0:
353,184,22642,1,0,0:0:0:0:
84,244,23071,1,0,0:0:0:0:
270,119,23499,1,4,0:0:0:0:
261,199,23642,1,4,0:0:0:0:
252,279,23785,1,4,0:0:0:0:
270,119,24071,5,4,0:0:0:0:
509,192,24499,1,0,0:0:0:0:
252,279,24928,1,0,0:0:0:0:
394,47,25356,1,0,0:0:0:0:
372,338,25785,2,0,L|364:237,1,90.0000002980235,4|0,0:0|0:0,0:0:0:0:
215,104,26071,2,0,L|207:205,1,90.0000002980235,4|0,0:0|0:0,0:0:0:0:
375,361,26356,5,4,0:0:0:0:
85,249,26785,1,0,0:0:0:0:
387,189,27214,1,0,0:0:0:0:
137,384,27642,1,0,0:0:0:0:
288,73,28071,1,4,0:0:0:0:
256,157,28214,1,4,0:0:0:0:
199,87,28356,1,4,0:0:0:0:
407,119,28642,6,0,L|465:112,1,56.2500001862647,4|0,0:0|0:0,0:0:0:0:
103,205,29071,2,0,L|47:198,1,56.2500001862647,4|0,0:0|0:0,0:0:0:0:
397,289,29499,2,0,L|452:282,1,56.2500001862647,4|0,0:0|0:0,0:0:0:0:
119,373,29928,2,0,L|63:366,1,56.2500001862647,4|0,0:0|0:0,0:0:0:0:
322,72,30356,6,0,B|341:104|341:104|325:195,1,112.500000372529,4|0,0:0|0:0,0:0:0:0:
119,373,30642,2,0,B|111:339|111:339|132:257,1,112.500000372529,4|0,0:0|0:0,0:0:0:0:
367,329,30928,6,0,L|360:399,1,56.2500001862647,4|0,0:0|0:0,0:0:0:0:
279,65,31356,2,0,L|272:-5,1,56.2500001862647,4|0,0:0|0:0,0:0:0:0:
155,322,31785,2,0,L|162:392,1,56.2500001862647,4|0,0:0|0:0,0:0:0:0:
72,95,32214,2,0,L|79:25,1,56.2500001862647,4|0,0:0|0:0,0:0:0:0:
320,208,32642,5,4,0:0:0:0:
231,219,32785,1,4,0:0:0:0:
142,230,32928,1,4,0:0:0:0:
320,208,33214,6,0,P|306:248|299:283,1,56.2500001862647,4|0,0:0|0:0,0:0:0:0:
130,71,33642,2,0,P|171:63|205:51,1,56.2500001862647,4|0,0:0|0:0,0:0:0:0:
106,304,34071,2,0,P|78:271|51:248,1,56.2500001862647,4|0,0:0|0:0,0:0:0:0:
320,208,34499,2,0,P|306:248|299:283,1,56.2500001862647,4|0,0:0|0:0,0:0:0:0:
106,304,34928,6,0,B|111:265|111:265|98:237|98:237|97:229|97:229|91:224|91:224|76:192,1,112.500000372529,4|0,0:0|0:0,0:0:0:0:
273,36,35214,2,0,B|260:60|260:60|255:65|255:65|254:73|254:73|241:101|241:101|246:140,1,112.500000372529,4|0,0:0|0:0,0:0:0:0:
461,284,35499,6,0,P|430:255|403:236,1,56.2500001862647,4|0,0:0|0:0,0:0:0:0:
273,36,35928,2,0,P|263:77|260:110,1,56.2500001862647,4|0,0:0|0:0,0:0:0:0:
152,322,36356,2,0,P|192:309|222:295,1,56.2500001862647,4|0,0:0|0:0,0:0:0:0:
389,361,36642,2,0,P|362:350|335:343,1,56.2500001862647,4|0,0:0|0:0,0:0:0:0:
125,369,37214,6,0,P|118:307|97:180,1,180.000000596047,0|0,0:0|0:0,0:0:0:0:
333,74,37785,6,0,P|301:123|295:192,1,107.99999706173,12|0,0:0|0:0,0:0:0:0:
410,322,38071,2,0,P|383:269|326:230,1,107.99999706173,8|0,0:0|0:0,0:0:0:0:
156,264,38356,2,0,P|214:267|277:237,1,107.99999706173,8|0,0:0|0:0,0:0:0:0:
333,74,38642,2,0,P|301:123|295:192,1,107.99999706173,8|0,0:0|0:0,0:0:0:0:
410,322,38928,6,0,B|374:316|374:316|285:339,1,107.99999706173,8|0,0:0|0:0,0:0:0:0:
156,264,39214,2,0,B|192:270|192:270|261:252,1,107.99999706173,8|0,0:0|0:0,0:0:0:0:
421,347,39499,2,0,B|385:341|385:341|296:364,1,107.99999706173,8|0,0:0|0:0,0:0:0:0:
131,353,39785,1,8,0:0:0:0:
304,333,39928,1,8,0:0:0:0:
115,368,40071,6,0,P|99:296|79:244,1,107.99999706173,8|0,0:0|0:0,0:0:0:0:
222,75,40356,2,0,P|205:126|194:179,1,107.99999706173,8|0,0:0|0:0,0:0:0:0:
304,333,40642,2,0,P|244:309|186:290,1,107.99999706173,8|0,0:0|0:0,0:0:0:0:
0,208,40928,2,0,P|51:190|101:170,1,107.99999706173,8|0,0:0|0:0,0:0:0:0:
306,37,41214,6,0,L|296:169,1,107.99999706173,8|0,0:0|0:0,0:0:0:0:
405,266,41428,1,0,0:0:0:0:
397,252,41499,2,0,L|338:240,1,53.9999985308649,8|0,0:0|0:0,0:0:0:0:
228,342,41642,2,0,L|287:330,1,53.9999985308649,0|0,0:0|0:0,0:0:0:0:
217,178,41785,6,0,L|226:251,1,53.9999985308649,8|0,0:0|0:0,0:0:0:0:
388,358,41928,1,8,0:0:0:0:
388,358,41999,1,0,0:0:0:0:
388,358,42071,1,0,0:0:0:0:
402,114,42214,2,0,L|397:187,1,53.9999985308649,8|0,0:0|0:0,0:0:0:0:
311,251,42356,6,0,B|314:217|314:217|293:125,1,107.99999706173,8|0,0:0|0:0,0:0:0:0:
92,273,42642,2,0,B|87:246|87:246|110:147,1,107.99999706173,8|0,0:0|0:0,0:0:0:0:
325,263,42928,2,0,B|346:233|346:233|307:137,1,107.99999706173,8|0,0:0|0:0,0:0:0:0:
80,280,43214,2,0,B|65:248|65:248|98:154,1,107.99999706173,8|0,0:0|0:0,0:0:0:0:
264,364,43499,6,0,B|234:377|234:377|193:358|141:359,1,107.99999706173,8|0,0:0|0:0,0:0:0:0:
221,124,43785,2,0,L|226:200,1,53.9999985308649,8|0,0:0|0:0,0:0:0:0:
230,291,43928,1,8,0:0:0:0:
171,53,44071,6,0,B|191:42|191:42|226:40,1,53.9999985308649,8|0,0:0|0:0,0:0:0:0:
336,123,44214,2,0,L|306:119,3,26.9999992654325,2|2|0|0,0:0|0:0|0:0|0:0,0:0:0:0:
359,109,44356,6,0,L|367:180,1,53.9999985308649,8|0,0:0|0:0,0:0:0:0:
366,113,44499,2,0,L|374:184,1,53.9999985308649,0|0,0:0|0:0,0:0:0:0:
230,291,44642,6,0,B|197:277|197:277|114:299,1,107.99999706173,8|0,0:0|0:0,0:0:0:0:
214,204,44856,1,0,0:0:0:0:
188,212,44928,6,0,B|159:233|159:233|136:316,1,107.99999706173,8|0,0:0|0:0,0:0:0:0:
102,181,45142,1,0,0:0:0:0:
98,208,45214,6,0,B|102:243|102:243|162:304,1,107.99999706173,8|0,0:0|0:0,0:0:0:0:
29,266,45428,1,0,0:0:0:0:
49,283,45499,6,0,B|82:297|82:297|164:275,1,107.99999706173,8|0,0:0|0:0,0:0:0:0:
292,82,45785,6,0,B|264:69|264:69|200:71|200:71|172:85|172:85|80:88,1,202.500008395315,8|0,0:0|0:0,0:0:0:0:
220,238,46071,1,8,0:0:0:0:
220,238,46142,1,0,0:0:0:0:
220,238,46214,2,0,P|267:200|275:192,1,53.9999985308649,0|0,0:0|0:0,0:0:0:0:
94,301,46356,6,0,P|86:258|80:237,1,53.9999985308649,8|0,0:0|0:0,0:0:0:0:
103,298,46499,2,0,P|87:257|78:237,1,53.9999985308649,8|0,0:0|0:0,0:0:0:0:
220,238,46642,6,0,L|208:307,1,53.9999985308649,8|0,0:0|0:0,0:0:0:0:
191,384,46785,1,8,0:0:0:0:
191,384,47071,1,8,0:0:0:0:
105,306,47214,6,0,P|86:252|33:212,1,107.99999706173,8|0,0:0|0:0,0:0:0:0:
267,145,47499,2,0,P|229:188|221:254,1,107.99999706173,8|0,0:0|0:0,0:0:0:0:
46,85,47785,2,0,P|102:95|163:69,1,107.99999706173,8|0,0:0|0:0,0:0:0:0:
105,306,48071,2,0,P|86:252|33:212,1,107.99999706173,8|0,0:0|0:0,0:0:0:0:
267,145,48356,6,0,B|309:137|309:137|379:155,1,107.99999706173,8|0,0:0|0:0,0:0:0:0:
250,327,48642,2,0,L|241:270,1,53.9999985308649,8|0,0:0|0:0,0:0:0:0:
239,259,48785,1,2,0:0:0:0:
236,245,48856,1,2,0:0:0:0:
425,281,49071,1,8,0:0:0:0:
172,349,49214,6,0,B|139:334|139:334|61:347,1,107.99999706173,0|0,0:0|0:0,0:0:0:0:
205,166,49499,2,0,B|172:181|172:181|94:168,1,107.99999706173,8|0,0:0|0:0,0:0:0:0:
189,351,49785,6,0,L|135:362,1,53.9999985308649,8|0,0:0|0:0,0:0:0:0:
230,170,49928,2,0,L|176:159,1,53.9999985308649,8|0,0:0|0:0,0:0:0:0:
241,340,50071,6,0,L|187:351,1,53.9999985308649,8|0,0:0|0:0,0:0:0:0:
282,180,50214,2,0,L|228:169,1,53.9999985308649,8|0,0:0|0:0,0:0:0:0:
241,340,50356,6,0,L|362:314,1,107.99999706173,8|0,0:0|0:0,0:0:0:0:
459,269,50571,1,0,0:0:0:0:
459,269,50642,2,0,P|465:308|473:337,1,53.9999985308649,8|0,0:0|0:0,0:0:0:0:
369,184,50785,2,0,P|375:145|383:116,1,53.9999985308649,0|0,0:0|0:0,0:0:0:0:
261,269,50928,6,0,L|151:259,1,107.99999706173,8|8,0:0|0:0,0:0:0:0:
12,365,51142,1,0,0:0:0:0:
12,365,51214,2,0,L|78:348,1,53.9999985308649,8|0,0:0|0:0,0:0:0:0:
153,259,51356,1,8,0:0:0:0:
6,52,51642,6,0,L|0:110,1,53.9999985308649,0|0,0:0|0:0,0:0:0:0:
153,259,51785,6,0,L|136:136,1,107.99999706173,8|0,0:0|0:0,0:0:0:0:
303,14,52071,2,0,L|288:120,1,107.99999706173,8|0,0:0|0:0,0:0:0:0:
447,202,52356,6,0,P|370:194|330:214,1,107.99999706173,8|0,0:0|0:0,0:0:0:0:
232,345,52642,2,0,P|309:353|349:333,1,107.99999706173,8|0,0:0|0:0,0:0:0:0:
161,73,52928,6,0,L|175:179,1,107.99999706173,8|0,0:0|0:0,0:0:0:0:
343,262,53214,6,0,P|316:248|288:236,1,53.9999985308649,8|0,0:0|0:0,0:0:0:0:
144,288,53356,2,0,P|171:274|199:262,1,53.9999985308649,8|0,0:0|0:0,0:0:0:0:
353,275,53499,2,0,P|326:261|298:249,1,53.9999985308649,8|0,0:0|0:0,0:0:0:0:
135,287,53642,2,0,P|162:273|190:261,1,53.9999985308649,8|0,0:0|0:0,0:0:0:0:
364,293,53785,6,0,B|380:256|396:245|396:245|362:172|363:77,1,215.99999412346,8|0,0:0|0:0,0:0:0:0:
120,288,54356,2,0,B|105:256|87:238|87:238|141:167|150:74,1,233.999990063192,8|0,0:0|0:0,0:0:0:0:
379,302,54928,6,0,L|268:291,1,107.99999706173,0|0,0:0|0:0,0:0:0:0:
210,220,55142,1,0,0:0:0:0:
210,220,55214,2,0,P|278:207|327:183,1,107.99999706173,0|0,0:0|0:0,0:0:0:0:
356,131,55428,1,0,0:0:0:0:
356,131,55499,6,0,L|348:228,1,90.0000002980235,0|0,0:0|0:0,0:0:0:0:
241,118,55785,2,0,L|233:28,1,90.0000002980235,0|0,0:0|0:0,0:0:0:0:
81,241,56071,6,0,B|116:251|116:251|222:215,1,135.000005596877,12|0,0:0|0:0,0:0:0:0:
38,163,56285,1,0,0:0:0:0:
25,174,56356,2,0,P|-7:235|23:309,1,135.000005596877,8|0,0:0|0:0,0:0:0:0:
223,353,56642,6,0,L|209:219,1,135.000005596877,8|0,0:0|0:0,0:0:0:0:
375,332,56856,1,0,0:0:0:0:
377,315,56928,2,0,L|389:178,1,135.000005596877,8|0,0:0|0:0,0:0:0:0:
209,48,57214,6,0,P|143:88|114:162,1,135.000005596877,12|0,0:0|0:0,0:0:0:0:
287,299,57428,1,0,0:0:0:0:
296,284,57500,2,0,L|287:140,1,135.000005596877,8|0,0:0|0:0,0:0:0:0:
439,216,57785,6,0,P|393:203|365:201,1,67.5000027984384,8|0,0:0|0:0,0:0:0:0:
343,113,57928,2,0,P|293:142|279:163,1,67.5000027984384,0|0,0:0|0:0,0:0:0:0:
91,239,58071,6,0,P|110:282|116:317,1,67.5000027984384,8|0,0:0|0:0,0:0:0:0:
205,297,58214,2,0,P|194:344|181:371,1,67.5000027984384,8|0,0:0|0:0,0:0:0:0:
147,121,58356,6,0,B|100:112|100:112|4:140,1,135.000005596877,4|0,0:0|0:0,0:0:0:0:
223,45,58571,1,0,0:0:0:0:
239,49,58642,2,0,L|380:70,1,135.000005596877,8|0,0:0|0:0,0:0:0:0:
205,297,58928,6,0,P|237:224|286:182,1,135.000005596877,8|0,0:0|0:0,0:0:0:0:
421,300,59142,1,0,0:0:0:0:
410,312,59214,5,8,0:0:0:0:
403,244,59285,1,8,0:0:0:0:
396,177,59356,1,8,0:0:0:0:
390,110,59428,1,8,0:0:0:0:
383,43,59499,6,0,L|367:186,1,135.000005596877,12|0,0:0|0:0,0:0:0:0:
254,283,59714,1,0,0:0:0:0:
239,276,59785,6,0,P|190:271|160:273,1,67.5000027984384,8|0,0:0|0:0,0:0:0:0:
57,149,59928,2,0,P|114:147|141:140,1,67.5000027984384,8|0,0:0|0:0,0:0:0:0:
271,25,60071,2,0,P|246:107|233:189,1,135.000005596877,8|0,0:0|0:0,0:0:0:0:
88,369,60356,2,0,P|74:302|53:238,1,135.000005596877,8|8,0:0|0:0,0:0:0:0:
239,276,60571,1,0,0:0:0:0:
254,283,60642,6,0,P|331:267|373:215,1,135.000005596877,12|0,0:0|0:0,0:0:0:0:
468,322,60856,1,0,0:0:0:0:
477,307,60928,2,0,P|466:227|467:159,1,135.000005596877,8|0,0:0|0:0,0:0:0:0:
282,57,61214,6,0,L|134:78,1,135.000005596877,8|0,0:0|0:0,0:0:0:0:
359,11,61428,1,0,0:0:0:0:
370,24,61499,2,0,P|395:89|387:159,1,135.000005596877,8|0,0:0|0:0,0:0:0:0:
231,290,61785,6,0,P|264:237|332:198,1,135.000005596877,12|0,0:0|0:0,0:0:0:0:
297,384,61999,1,0,0:0:0:0:
280,382,62071,2,0,L|137:368,1,135.000005596877,8|0,0:0|0:0,0:0:0:0:
38,245,62356,6,0,P|54:266|71:303,1,67.5000027984384,8|0,0:0|0:0,0:0:0:0:
163,131,62499,2,0,P|139:173|131:201,1,67.5000027984384,8|0,0:0|0:0,0:0:0:0:
376,249,62642,6,0,P|360:270|343:307,1,67.5000027984384,8|0,0:0|0:0,0:0:0:0:
275,149,62785,2,0,P|299:191|307:219,1,67.5000027984384,8|0,0:0|0:0,0:0:0:0:
231,290,62928,5,12,0:0:0:0:
182,34,63071,1,0,0:0:0:0:
428,119,63214,2,0,P|412:183|403:259,1,135.000005596877,8|0,0:0|0:0,0:0:0:0:
164,368,63499,2,0,B|177:328|177:328|156:225,1,135.000005596877,12|0,0:0|0:0,0:0:0:0:
296,48,63785,1,8,0:0:0:0:
252,216,63928,1,0,0:0:0:0:
247,232,63999,1,0,0:0:0:0:
243,249,64071,6,0,L|223:96,1,135.000005596877,12|8,0:0|0:0,0:0:0:0:
116,263,64285,1,8,0:0:0:0:
56,214,64356,2,0,B|38:255|38:255|60:359,1,135.000005596877,8|0,0:0|0:0,0:0:0:0:
41,79,64642,5,12,0:0:0:0:
74,73,64713,1,8,0:0:0:0:
107,67,64784,1,8,0:0:0:0:
140,61,64856,1,8,0:0:0:0:
173,55,64928,5,8,0:0:0:0:
164,121,64999,1,8,0:0:0:0:
156,188,65070,1,8,0:0:0:0:
148,255,65142,1,8,0:0:0:0:
139,322,65213,1,12,0:0:0:0:
256,192,65285,12,0,67356,0:0:0:0:
198,146,67499,6,0,L|43:130,1,135.000005596877,0|0,0:0|0:0,0:0:0:0:
151,288,68071,5,0,0:0:0:0:
225,256,68214,1,0,0:0:0:0:
299,285,68356,1,0,0:0:0:0:
299,285,68642,6,0,P|347:275|458:259,1,135.000005596877,0|0,0:0|0:0,0:0:0:0:
345,81,69214,2,0,P|321:119|315:155,1,67.5000027984384,0|0,0:0|0:0,0:0:0:0:
436,71,69499,2,0,P|426:38|406:11,1,67.5000027984384,0|0,0:0|0:0,0:0:0:0:
273,128,69785,6,0,P|286:193|298:272,1,135.000005596877,0|0,0:0|0:0,0:0:0:0:
171,223,70214,2,0,P|244:229|308:273,1,135.000005596877,0|0,0:0|0:0,0:0:0:0:
186,384,70642,2,0,P|202:330|226:302,1,67.5000027984384,0|0,0:0|0:0,0:0:0:0:
85,316,70928,6,0,L|66:164,1,135.000005596877,0|0,0:0|0:0,0:0:0:0:
300,74,71499,5,0,0:0:0:0:
247,131,71642,1,0,0:0:0:0:
224,56,71785,1,0,0:0:0:0:
347,175,72071,6,0,B|381:168|420:183|420:183|454:187|485:167,2,135.000005596877,0|0|0,0:0|0:0|0:0,0:0:0:0:
299,236,72785,1,0,0:0:0:0:
315,312,72928,1,0,0:0:0:0:
315,312,73214,6,0,P|252:323|177:353,1,135.000005596877,0|0,0:0|0:0,0:0:0:0:
172,183,73642,2,0,P|203:233|204:328,1,135.000005596877,0|0,0:0|0:0,0:0:0:0:
55,277,74071,2,0,P|98:266|137:277,1,67.5000027984384,0|0,0:0|0:0,0:0:0:0:
249,79,74356,5,0,0:0:0:0:
173,55,74499,1,0,0:0:0:0:
126,119,74642,1,0,0:0:0:0:
172,183,74785,2,0,P|237:168|314:153,1,135.000005596877,0|0,0:0|0:0,0:0:0:0:
398,238,75214,1,0,0:0:0:0:
398,238,75499,5,0,0:0:0:0:
325,258,75785,1,0,0:0:0:0:
278,317,76071,1,0,0:0:0:0:
278,317,76642,6,0,B|231:307|199:325|199:325|190:313|170:310|170:310|132:325|91:307,1,180.000000596047,4|0,0:0|0:0,0:0:0:0:
232,103,77214,5,0,0:0:0:0:
185,200,77356,1,0,0:0:0:0:
124,110,77499,1,0,0:0:0:0:
304,202,77785,6,0,B|355:181|406:196|406:196|452:195|493:152,1,180.000000596047,0|0,0:0|0:0,0:0:0:0:
232,103,78356,1,0,0:0:0:0:
283,360,78642,1,0,0:0:0:0:
304,202,78928,6,0,B|212:164|213:238|109:193,1,180.000000596047,0|0,0:0|0:0,0:0:0:0:
232,103,79356,1,0,0:0:0:0:
252,277,79499,2,0,P|184:262|74:248,1,180.000000596047,0|0,0:0|0:0,0:0:0:0:
205,370,80071,1,0,0:0:0:0:
205,370,80642,5,0,0:0:0:0:
200,281,80785,1,0,0:0:0:0:
195,192,80928,1,0,0:0:0:0:
195,192,81214,6,0,B|161:236|161:236|179:375,1,180.000000596047,4|0,0:0|0:0,0:0:0:0:
301,130,81785,5,0,0:0:0:0:
186,88,81928,1,0,0:0:0:0:
212,253,82071,1,0,0:0:0:0:
254,39,82356,6,0,P|177:9|100:72,1,180.000000596047,4|0,0:0|0:0,0:0:0:0:
212,253,82928,5,0,0:0:0:0:
301,130,83071,1,0,0:0:0:0:
341,335,83214,1,0,0:0:0:0:
58,223,83499,6,0,B|9:209|-13:151|2:72|85:39|195:91|146:207|146:207|182:147|300:131|300:131|245:136|204:109,1,630.000002086165,4|0,0:0|0:0,0:0:0:0:
364,53,84642,6,0,B|392:75|410:103|415:144|400:174|381:200|381:200|330:226|299:260|305:332|329:366|329:366|347:311|394:281|450:289|485:330|485:330|452:314|417:333,1,630.000002086165,4|0,0:0|0:0,0:0:0:0:
228,223,85785,6,0,B|201:242|200:286|200:286|166:213|254:116|254:116|315:80|395:123|293:220|254:116|254:116|196:70|136:97|136:97|174:108|188:132,1,630.000002086165,4|0,0:0|0:0,0:0:0:0:
256,192,86928,12,0,87928,0:0:0:0:
30,133,88071,6,0,B|80:104|80:104|205:117,1,180.000000596047,4|0,0:0|0:0,0:0:0:0:
297,298,88499,2,0,L|113:280,1,180.000000596047,0|0,0:0|0:0,0:0:0:0:
388,377,88928,6,0,P|381:322|454:224,1,180.000000596047,0|0,0:0|0:0,0:0:0:0:
279,8,89356,2,0,P|303:85|318:210,1,180.000000596047,0|0,0:0|0:0,0:0:0:0:
207,380,89785,5,4,0:0:0:0:
117,185,89928,1,0,0:0:0:0:
378,262,90071,1,4,0:0:0:0:
207,380,90356,6,0,B|165:356|165:356|16:382,1,180.000000596047,4|0,0:0|0:0,0:0:0:0:
246,112,90785,2,0,L|230:305,1,180.000000596047,0|0,0:0|0:0,0:0:0:0:
22,139,91214,6,0,P|84:127|177:58,1,180.000000596047,0|0,0:0|0:0,0:0:0:0:
354,220,91642,2,0,P|338:151|332:22,1,180.000000596047,0|0,0:0|0:0,0:0:0:0:
222,243,92071,5,4,0:0:0:0:
465,166,92214,1,4,0:0:0:0:
176,58,92356,1,4,0:0:0:0:
176,58,92642,6,0,L|184:167,1,90.0000002980235,4|0,0:0|0:0,0:0:0:0:
341,312,92928,2,0,L|352:201,1,107.99999706173,4|0,0:0|0:0,0:0:0:0:
76,29,93214,2,0,L|85:168,1,125.999996572018,4|0,0:0|0:0,0:0:0:0:
440,373,93499,2,0,L|456:224,1,144.000000476838,4|0,0:0|0:0,0:0:0:0:
78,290,93785,6,0,P|124:274|153:269,1,56.2500001862647,4|0,0:0|0:0,0:0:0:0:
274,370,93928,2,0,P|253:338|235:318,1,56.2500001862647,4|0,0:0|0:0,0:0:0:0:
102,135,94071,6,0,P|96:187|91:211,1,56.2500001862647,4|0,0:0|0:0,0:0:0:0:
366,214,94214,2,0,P|354:245|346:277,1,56.2500001862647,4|0,0:0|0:0,0:0:0:0:
110,38,94356,5,0,0:0:0:0:
163,24,94427,1,0,0:0:0:0:
217,40,94498,5,0,0:0:0:0:
255,80,94570,1,0,0:0:0:0:
269,134,94642,5,0,0:0:0:0:
322,182,94713,5,0,0:0:0:0:
393,182,94784,5,0,0:0:0:0:
446,135,94856,5,0,0:0:0:0:
454,64,94927,5,0,0:0:0:0:
454,64,95214,5,0,0:0:0:0:
393,182,95499,2,0,L|407:282,2,90.0000002980235,0|0|0,0:0|0:0|0:0,0:0:0:0:
311,126,96071,5,0,0:0:0:0:
208,191,96214,1,0,0:0:0:0:
208,191,96285,1,0,0:0:0:0:
208,191,96356,2,0,L|108:174,1,90.0000002980235,0|0,0:0|0:0,0:0:0:0:
208,297,96642,6,0,L|297:281,1,90.0000002980235,0|0,0:0|0:0,0:0:0:0:
378,328,96856,1,0,0:0:0:0:
378,328,96928,2,0,L|282:314,1,90.0000002980235,0|0,0:0|0:0,0:0:0:0:
147,368,97214,6,0,P|122:319|136:246,1,116.999995031596,12|0,0:0|0:0,0:0:0:0:
220,78,97499,1,8,0:0:0:0:
387,211,97642,2,0,B|375:354,1,116.999995031596,0|8,0:0|0:0,0:0:0:0:
132,285,97928,1,0,0:0:0:0:
105,276,97999,1,0,0:0:0:0:
77,268,98071,2,0,B|118:249|167:254|167:254|206:275|253:261,1,175.499992547394,8|0,0:0|0:0,0:0:0:0:
274,250,98356,5,8,0:0:0:0:
84,10,98499,2,0,L|96:151,1,116.999995031596,0|8,0:0|0:0,0:0:0:0:
274,250,98714,1,0,0:0:0:0:
283,239,98785,2,0,P|287:178|262:122,1,116.999995031596,0|8,0:0|0:0,0:0:0:0:
77,268,99071,2,0,L|86:349,1,58.4999975157979,0|0,0:0|0:0,0:0:0:0:
285,360,99214,5,8,0:0:0:0:
76,259,99356,1,8,0:0:0:0:
183,351,99499,2,0,B|201:308|201:308|182:235,1,116.999995031596,8|0,0:0|0:0,0:0:0:0:
233,40,99785,2,0,P|232:78|230:103,1,58.4999975157979,8|0,0:0|0:0,0:0:0:0:
464,144,99928,2,0,P|397:130|339:121,1,116.999995031596,0|8,0:0|0:0,0:0:0:0:
355,293,100214,1,0,0:0:0:0:
411,277,100285,1,0,0:0:0:0:
467,261,100356,6,0,L|452:396,1,116.999995031596,8|8,0:0|0:0,0:0:0:0:
299,309,100571,1,8,0:0:0:0:
289,298,100642,6,0,L|295:368,1,58.4999975157979,8|0,0:0|0:0,0:0:0:0:
275,134,100785,1,0,0:0:0:0:
138,259,100928,6,0,L|64:249,1,58.4999975157979,8|0,0:0|0:0,0:0:0:0:
275,134,101071,2,0,L|283:262,1,116.999995031596,8|0,0:0|0:0,0:0:0:0:
119,113,101356,1,8,0:0:0:0:
119,113,101428,1,0,0:0:0:0:
119,113,101499,2,0,P|160:102|183:89,1,58.4999975157979,8|0,0:0|0:0,0:0:0:0:
275,134,101642,2,0,P|324:128|351:128,1,58.4999975157979,8|0,0:0|0:0,0:0:0:0:
446,60,101785,6,0,L|431:192,1,116.999995031596,8|0,0:0|0:0,0:0:0:0:
360,380,102071,2,0,P|349:339|345:312,1,58.4999975157979,8|0,0:0|0:0,0:0:0:0:
147,301,102214,2,0,P|65:293|10:308,1,116.999995031596,0|8,0:0|0:0,0:0:0:0:
106,112,102499,1,0,0:0:0:0:
174,94,102570,1,0,0:0:0:0:
243,78,102642,2,0,L|233:218,1,116.999995031596,8|8,0:0|0:0,0:0:0:0:
374,41,102856,1,0,0:0:0:0:
361,35,102928,6,0,B|340:76|340:76|354:160,1,116.999995031596,8|0,0:0|0:0,0:0:0:0:
438,265,103214,2,0,L|444:205,1,58.4999975157979,8|0,0:0|0:0,0:0:0:0:
325,303,103356,2,0,L|195:283,1,116.999995031596,8|0,0:0|0:0,0:0:0:0:
97,300,103642,1,8,0:0:0:0:
97,300,103714,1,0,0:0:0:0:
97,300,103785,2,0,B|133:310|133:310|233:276,1,116.999995031596,0|8,0:0|0:0,0:0:0:0:
132,134,103999,1,0,0:0:0:0:
125,147,104071,6,0,L|135:218,1,58.4999975157979,8|0,0:0|0:0,0:0:0:0:
317,136,104214,2,0,L|307:207,1,58.4999975157979,8|0,0:0|0:0,0:0:0:0:
125,147,104356,6,0,B|112:201|112:201|150:332,1,175.499992547394,8|0,0:0|0:0,0:0:0:0:
155,344,104642,5,8,0:0:0:0:
8,160,104785,2,0,L|140:145,1,116.999995031596,8|0,0:0|0:0,0:0:0:0:
239,43,105071,1,8,0:0:0:0:
317,136,105214,6,0,P|304:170|306:213,1,58.4999975157979,8|0,0:0|0:0,0:0:0:0:
456,260,105356,2,0,P|453:231|441:204,1,58.4999975157979,8|0,0:0|0:0,0:0:0:0:
309,129,105499,2,0,P|296:163|298:206,1,58.4999975157979,8|0,0:0|0:0,0:0:0:0:
465,273,105642,1,8,0:0:0:0:
460,301,105713,1,0,0:0:0:0:
455,330,105785,5,8,0:0:0:0:
393,301,105856,1,8,0:0:0:0:
324,312,105927,1,8,0:0:0:0:
275,360,105999,1,8,0:0:0:0:
207,372,106070,1,8,0:0:0:0:
144,342,106141,1,8,0:0:0:0:
112,281,106213,1,8,0:0:0:0:
121,213,106284,1,0,0:0:0:0:
121,213,106499,5,0,0:0:0:0:
306,83,106642,1,8,0:0:0:0:
363,92,106713,1,0,0:0:0:0:
421,101,106785,2,0,L|400:229,1,116.999995031596,0|8,0:0|0:0,0:0:0:0:
218,345,107071,1,0,0:0:0:0:
214,315,107142,1,0,0:0:0:0:
211,286,107214,2,0,B|264:269|264:269|384:296,1,175.499992547394,8|0,0:0|0:0,0:0:0:0:
408,306,107499,5,8,0:0:0:0:
138,343,107642,2,0,P|126:285|148:225,1,116.999995031596,0|8,0:0|0:0,0:0:0:0:
63,76,107856,1,0,0:0:0:0:
51,67,107928,2,0,P|70:124|79:190,1,116.999995031596,0|8,0:0|0:0,0:0:0:0:
249,78,108214,2,0,P|203:73|171:64,1,58.4999975157979,0|0,0:0|0:0,0:0:0:0:
148,222,108356,5,8,0:0:0:0:
400,133,108499,1,8,0:0:0:0:
249,78,108642,2,0,B|231:126|231:126|248:209,1,116.999995031596,8|0,0:0|0:0,0:0:0:0:
315,4,108928,2,0,L|387:-1,1,58.4999975157979,8|0,0:0|0:0,0:0:0:0:
123,107,109071,2,0,L|148:224,1,116.999995031596,0|8,0:0|0:0,0:0:0:0:
175,353,109356,1,0,0:0:0:0:
202,344,109427,1,0,0:0:0:0:
230,336,109499,5,8,0:0:0:0:
173,325,109570,1,8,0:0:0:0:
115,315,109641,1,8,0:0:0:0:
58,304,109713,1,8,0:0:0:0:
0,294,109784,5,8,0:0:0:0:
123,107,109928,2,0,L|111:240,1,116.999995031596,0|8,0:0|0:0,0:0:0:0:
0,116,110142,1,0,0:0:0:0:
8,103,110214,2,0,B|43:93|43:93|130:108,1,116.999995031596,0|8,0:0|0:0,0:0:0:0:
264,32,110499,2,0,L|190:38,1,58.4999975157979,0|0,0:0|0:0,0:0:0:0:
186,212,110642,1,8,0:0:0:0:
334,91,110785,1,8,0:0:0:0:
254,301,110928,6,0,B|214:290|214:290|130:306,1,116.999995031596,12|0,0:0|0:0,0:0:0:0:
217,123,111214,1,8,0:0:0:0:
230,129,111285,1,0,0:0:0:0:
242,136,111356,2,0,L|376:130,1,116.999995031596,0|8,0:0|0:0,0:0:0:0:
102,52,111642,1,0,0:0:0:0:
105,81,111713,1,0,0:0:0:0:
108,110,111785,2,0,L|119:237,1,116.999995031596,8|0,0:0|0:0,0:0:0:0:
254,301,111999,1,0,0:0:0:0:
188,350,112071,6,0,P|175:288|205:234,1,116.999995031596,12|0,0:0|0:0,0:0:0:0:
448,93,112356,1,8,0:0:0:0:
443,151,112427,1,0,0:0:0:0:
439,209,112499,2,0,P|370:193|301:184,1,116.999995031596,0|8,0:0|0:0,0:0:0:0:
108,110,112785,1,0,0:0:0:0:
114,138,112856,1,0,0:0:0:0:
119,167,112928,2,0,P|76:162|55:158,1,58.4999975157979,8|0,0:0|0:0,0:0:0:0:
244,44,113071,2,0,P|287:38|308:34,1,58.4999975157979,8|0,0:0|0:0,0:0:0:0:
439,209,113214,6,0,L|447:86,1,116.999995031596,12|0,0:0|0:0,0:0:0:0:
242,199,113499,1,8,0:0:0:0:
255,268,113571,1,0,0:0:0:0:
268,337,113642,2,0,B|311:321|311:321|396:334,1,116.999995031596,0|8,0:0|0:0,0:0:0:0:
97,384,113928,1,0,0:0:0:0:
68,379,113999,1,0,0:0:0:0:
39,374,114071,6,0,L|115:358,1,58.4999975157979,8|0,0:0|0:0,0:0:0:0:
255,268,114214,2,0,L|179:251,1,58.4999975157979,8|0,0:0|0:0,0:0:0:0:
53,118,114356,6,0,P|116:111|200:145,1,135.000005596877,8|0,0:0|0:0,0:0:0:0:
156,98,114571,2,0,P|243:106|306:75,1,135.000005596877,8|0,0:0|0:0,0:0:0:0:
267,135,114785,2,0,P|342:113|437:204,1,202.500008395315,8|0,0:0|0:0,0:0:0:0:
435,214,115071,5,8,0:0:0:0:
293,332,115214,2,0,L|225:326,1,58.4999975157979,8|0,0:0|0:0,0:0:0:0:
326,312,115356,2,0,L|319:353,4,29.249998757899,2|2|2|2|0,0:0|0:0|0:0|0:0|0:0,0:0:0:0:
326,312,115642,5,8,0:0:0:0:
204,384,115785,1,8,0:0:0:0:
111,237,115928,2,0,L|125:114,1,116.999995031596,0|8,0:0|0:0,0:0:0:0:
301,217,116214,1,0,0:0:0:0:
308,230,116285,1,0,0:0:0:0:
315,242,116356,2,0,P|243:234|129:231,1,175.499992547394,8|0,0:0|0:0,0:0:0:0:
111,237,116642,5,8,0:0:0:0:
250,32,116785,2,0,P|235:98|231:157,1,116.999995031596,0|8,0:0|0:0,0:0:0:0:
111,237,116999,1,0,0:0:0:0:
101,226,117071,2,0,P|89:148|72:92,1,116.999995031596,0|8,0:0|0:0,0:0:0:0:
288,137,117356,2,0,L|231:146,1,58.4999975157979,0|0,0:0|0:0,0:0:0:0:
256,275,117499,1,8,0:0:0:0:
156,103,117642,1,8,0:0:0:0:
296,26,117785,6,0,B|338:11|338:11|428:33,1,116.999995031596,8|0,0:0|0:0,0:0:0:0:
494,177,118071,2,0,P|454:161|422:158,1,58.4999975157979,8|0,0:0|0:0,0:0:0:0:
256,275,118214,2,0,L|264:143,1,116.999995031596,0|8,0:0|0:0,0:0:0:0:
62,33,118499,1,8,0:0:0:0:
68,91,118570,1,0,0:0:0:0:
74,149,118642,2,0,L|200:125,1,116.999995031596,8|8,0:0|0:0,0:0:0:0:
353,74,118928,5,8,0:0:0:0:
256,275,119071,2,0,P|193:257|114:242,1,116.999995031596,0|8,0:0|0:0,0:0:0:0:
115,254,119285,1,0,0:0:0:0:
115,254,119356,1,0,0:0:0:0:
340,179,119499,5,10,0:0:0:0:
340,179,119571,1,2,0:0:0:0:
340,179,119642,2,0,L|333:231,4,29.249998757899,2|2|2|0|10,0:0|0:0|0:0|0:0|0:0,0:0:0:0:
166,348,119856,1,2,0:0:0:0:
166,348,119928,2,0,L|171:387,3,29.249998757899,2|2|2|0,0:0|0:0|0:0|0:0,0:0:0:0:
139,328,120071,6,0,P|85:327|37:273,1,116.999995031596,8|8,0:0|0:0,0:0:0:0:
110,85,120356,2,0,B|117:117|117:117|106:158,1,58.4999975157979,8|0,0:0|0:0,0:0:0:0:
226,207,120499,2,0,P|294:187|359:176,1,116.999995031596,0|8,0:0|0:0,0:0:0:0:
477,23,120785,1,0,0:0:0:0:
460,91,120856,1,0,0:0:0:0:
443,159,120928,2,0,L|462:288,1,116.999995031596,8|8,0:0|0:0,0:0:0:0:
341,358,121142,1,0,0:0:0:0:
331,348,121214,6,0,B|368:341|368:341|471:361,1,116.999995031596,8|0,0:0|0:0,0:0:0:0:
217,229,121499,2,0,L|293:213,1,58.4999975157979,8|0,0:0|0:0,0:0:0:0:
460,91,121642,2,0,B|417:72|417:72|317:93,1,116.999995031596,0|8,0:0|0:0,0:0:0:0:
217,229,121928,1,0,0:0:0:0:
217,229,121999,1,0,0:0:0:0:
217,229,122071,6,0,L|149:219,1,58.4999975157979,8|0,0:0|0:0,0:0:0:0:
25,207,122214,1,8,0:0:0:0:
268,64,122356,6,0,P|296:103|309:143,1,67.5000027984384,8|0,0:0|0:0,0:0:0:0:
375,186,122499,2,0,P|371:235|358:273,1,67.5000027984384,8|0,0:0|0:0,0:0:0:0:
138,280,122642,6,0,P|170:305|191:333,1,67.5000027984384,8|0,0:0|0:0,0:0:0:0:
269,300,122785,2,0,P|270:343|263:381,1,67.5000027984384,8|0,0:0|0:0,0:0:0:0:
104,103,122928,6,0,P|141:75|176:63,1,67.5000027984384,8|0,0:0|0:0,0:0:0:0:
56,182,123071,2,0,P|18:145|6:117,1,67.5000027984384,8|0,0:0|0:0,0:0:0:0:
138,280,123214,5,8,0:0:0:0:
205,275,123285,1,8,0:0:0:0:
272,271,123356,1,8,0:0:0:0:
340,266,123428,1,8,0:0:0:0:
407,262,123499,6,0,B|253:248|253:248|306:287,1,202.500008395315,8|0,0:0|0:0,0:0:0:0:
478,331,123785,2,0,B|494:262|494:262|478:220|478:220|493:125,1,202.500008395315,8|0,0:0|0:0,0:0:0:0:
333,39,124071,2,0,L|345:126,1,67.5000027984384,8|0,0:0|0:0,0:0:0:0:
261,200,124214,2,0,B|223:190|223:190|197:197|197:197|178:189|160:190|160:190|152:179|152:179|129:188|129:188|105:176|61:184,1,202.500008395315,0|0,0:0|0:0,0:0:0:0:
314,282,124499,6,0,L|313:320,1,29.249998757899,2|2,0:0|0:0,0:0:0:0:
329,271,124571,2,0,L|326:323,1,29.249998757899,2|2,0:0|0:0,0:0:0:0:
347,260,124642,6,0,B|359:230|359:230|338:139,1,116.999995031596,12|0,0:0|0:0,0:0:0:0:
122,249,124928,1,8,0:0:0:0:
90,297,124999,1,0,0:0:0:0:
106,353,125071,2,0,B|148:363|148:363|227:347,1,116.999995031596,0|8,0:0|0:0,0:0:0:0:
150,130,125356,1,0,0:0:0:0:
108,110,125428,1,0,0:0:0:0:
64,124,125499,6,0,B|58:153|58:153|72:203,1,58.4999975157979,8|0,0:0|0:0,0:0:0:0:
202,259,125642,2,0,B|208:230|208:230|194:180,1,58.4999975157979,8|0,0:0|0:0,0:0:0:0:
299,70,125785,5,8,0:0:0:0:
405,252,125928,2,0,B|367:270|367:270|288:259,1,116.999995031596,0|8,0:0|0:0,0:0:0:0:
475,179,126142,1,0,0:0:0:0:
486,194,126213,2,0,B|510:229|510:229|493:316,1,116.999995031596,0|8,0:0|0:0,0:0:0:0:
394,96,126428,1,0,0:0:0:0:
415,89,126499,5,8,0:0:0:0:
357,79,126570,1,8,0:0:0:0:
299,70,126642,6,0,L|313:152,1,58.4999975157979,8|0,0:0|0:0,0:0:0:0:
405,252,126785,1,8,0:0:0:0:
214,29,126928,6,0,B|194:64|194:64|209:163,1,116.999995031596,8|0,0:0|0:0,0:0:0:0:
482,135,127214,1,8,0:0:0:0:
503,82,127285,1,0,0:0:0:0:
474,32,127356,2,0,B|442:22|442:22|347:43,1,116.999995031596,0|8,0:0|0:0,0:0:0:0:
345,315,127642,1,0,0:0:0:0:
408,343,127713,1,0,0:0:0:0:
470,312,127785,5,0,0:0:0:0:
273,140,127928,2,0,P|268:171|267:188,1,29.249998757899,2|2,0:0|0:0,0:0:0:0:
258,148,127999,2,0,P|253:179|252:196,1,29.249998757899,2|0,0:0|0:0,0:0:0:0:
241,156,128071,5,0,0:0:0:0:
112,309,128214,2,0,B|99:271|99:271|122:181,1,116.999995031596,8|8,0:0|0:0,0:0:0:0:
318,238,128428,1,0,0:0:0:0:
308,253,128499,2,0,L|187:259,1,116.999995031596,0|8,0:0|0:0,0:0:0:0:
89,75,128785,1,0,0:0:0:0:
144,57,128856,1,0,0:0:0:0:
193,87,128928,2,0,B|216:94|216:94|212:99|266:82,1,58.4999975157979,8|0,0:0|0:0,0:0:0:0:
367,38,129071,2,0,B|396:32|396:32|445:40,1,58.4999975157979,0|0,0:0|0:0,0:0:0:0:
318,238,129214,6,0,L|326:103,1,116.999995031596,12|0,0:0|0:0,0:0:0:0:
496,279,129499,2,0,L|500:217,1,58.4999975157979,8|0,0:0|0:0,0:0:0:0:
294,319,129642,6,0,B|260:303|260:303|147:326,1,116.999995031596,0|8,0:0|0:0,0:0:0:0:
72,153,129928,1,0,0:0:0:0:
72,153,129999,1,0,0:0:0:0:
72,153,130071,2,0,L|86:283,1,116.999995031596,8|0,0:0|0:0,0:0:0:0:
267,117,130285,1,0,0:0:0:0:
208,61,130356,6,0,B|182:103|182:103|199:199,1,125.999996572018,12|0,0:0|0:0,0:0:0:0:
303,361,130642,1,8,0:0:0:0:
464,77,130785,2,0,B|423:61|423:61|327:81,1,125.999996572018,0|8,0:0|0:0,0:0:0:0:
405,322,131071,1,0,0:0:0:0:
230,223,131214,1,8,0:0:0:0:
485,166,131356,1,0,0:0:0:0:
303,361,131499,5,8,0:0:0:0:
392,107,131642,2,0,L|387:155,4,31.4999991430045,2|2|2|2|10,0:0|0:0|0:0|0:0|0:0,0:0:0:0:
300,371,131928,1,8,0:0:0:0:
227,94,132071,2,0,L|232:142,4,31.4999991430045,10|2|2|2|2,0:0|0:0|0:0|0:0|0:0,0:0:0:0:
301,382,132356,6,0,L|306:335,7,31.4999991430045,10|2|2|2|2|2|2|0,0:0|0:0|0:0|0:0|0:0|0:0|0:0|0:0,0:0:0:0:
301,380,132642,6,0,P|276:287|162:359,1,270.000011193753,8|0,0:0|0:0,0:0:0:0:
463,94,133071,2,0,P|426:154|398:351,1,270.000011193753,8|0,0:0|0:0,0:0:0:0:
269,78,133499,5,8,0:0:0:0:
202,87,133570,1,8,0:0:0:0:
135,97,133641,1,8,0:0:0:0:
68,106,133713,1,8,0:0:0:0:
1,116,133784,1,12,0:0:0:0:
256,192,133856,12,0,138356,0:0:0:0:
