osu file format v14

[General]
AudioFilename: audio.mp3
AudioLeadIn: 0
PreviewTime: 97214
Countdown: 0
SampleSet: Soft
StackLeniency: 0.4
Mode: 0
LetterboxInBreaks: 0
WidescreenStoryboard: 1

[Editor]
DistanceSpacing: 1.1
BeatDivisor: 4
GridSize: 16
TimelineZoom: 3.299999

[Metadata]
Title:Grievous Lady
TitleUnicode:Grievous Lady
Artist:Team Grimoire vs. Laur
ArtistUnicode:Team Grimoire vs. Laur
Creator:Feruver
Version:Sly's Future
Source:Arcaea
Tags:sly instinct AJiSAI IPhong Avoidedoki JackTVN Azrael_- NotABox KittyTrax Bubblekid FinallyV XzeniFX Cubby Jelljel GAOHAO arcaea Melodic Darkcore vicious labyrinth electronic video game instrumental
BeatmapID:2125723
BeatmapSetID:778719

[Difficulty]
HPDrainRate:5.7
CircleSize:5
OverallDifficulty:9.8
ApproachRate:10
SliderMultiplier:2.00000000596047
SliderTickRate:1

[Events]
//Background and Video events
0,0,"DNx2wPjUIAAo71C.jpg",0,0
Video,0,"Grievous Lady.mp4"
//Break Periods
2,17413,19026
2,67699,76192
//Storyboard Layer 0 (Background)
//Storyboard Layer 1 (Fail)
//Storyboard Layer 2 (Pass)
//Storyboard Layer 3 (Foreground)
//Storyboard Layer 4 (Overlay)
//Storyboard Sound Samples

[TimingPoints]
1214,285.714285714286,4,2,1,40,1,0
1214,-200,4,2,1,40,0,0
5785,-142.857142857143,4,2,1,50,0,0
11785,-142.857142857143,4,2,1,30,0,0
11856,-142.857142857143,4,2,1,50,0,0
17214,-142.857142857143,4,2,7,50,0,0
19499,-125,4,2,6,50,0,0
21214,-111.111111111111,4,2,6,50,0,0
21785,-125,4,2,6,50,0,0
23499,-111.111111111111,4,2,6,50,0,0
24071,-125,4,2,6,50,0,0
25785,-111.111111111111,4,2,6,50,0,0
26356,-125,4,2,6,50,0,0
28071,-111.111111111111,4,2,6,50,0,0
28642,-100,4,2,1,50,0,0
37785,-83.3333333333333,4,1,2,60,0,1
37856,-83.3333333333333,4,1,1,60,0,1
45785,-71.4285714285714,4,1,1,60,0,1
46714,-83.3333333333333,4,1,1,60,0,1
52785,-71.4285714285714,4,1,1,60,0,1
52928,-83.3333333333333,4,1,1,60,0,1
53785,-83.3333333333333,4,1,1,60,0,0
54071,-76.9230769230769,4,1,1,60,0,0
54356,-71.4285714285714,4,1,1,60,0,0
54642,-66.6666666666667,4,1,1,60,0,0
54928,-76.9230769230769,4,1,1,60,0,0
56071,-71.4285714285714,4,1,2,60,0,1
56142,-71.4285714285714,4,1,1,60,0,1
65214,-125,4,1,2,50,0,0
65499,-125,4,1,2,40,0,0
65785,-125,4,1,2,35,0,0
66071,-125,4,1,2,30,0,0
66356,-125,4,1,2,25,0,0
66642,-125,4,1,2,20,0,0
66928,-125,4,1,2,15,0,0
67214,-125,4,1,2,5,0,0
67499,-125,4,1,2,50,0,0
76642,-142.857142857143,4,2,1,50,0,0
88071,-100,4,2,6,50,0,0
92642,-100,4,1,1,50,0,0
94928,-142.857142857143,4,2,1,50,0,0
97214,-66.6666666666667,4,1,2,60,0,1
97356,-71.4285714285714,4,1,1,60,0,1
98356,-66.6666666666667,4,1,1,60,0,1
98499,-71.4285714285714,4,1,1,60,0,1
99499,-66.6666666666667,4,1,1,60,0,1
99642,-71.4285714285714,4,1,1,60,0,1
100642,-66.6666666666667,4,1,1,60,0,1
100785,-71.4285714285714,4,1,1,60,0,1
101785,-66.6666666666667,4,1,1,60,0,1
101928,-71.4285714285714,4,1,1,60,0,1
102928,-66.6666666666667,4,1,1,60,0,1
103071,-71.4285714285714,4,1,1,60,0,1
106356,-66.6666666666667,4,1,1,60,0,1
106499,-71.4285714285714,4,1,2,60,0,1
106571,-71.4285714285714,4,1,1,60,0,1
107499,-66.6666666666667,4,1,1,60,0,1
107642,-71.4285714285714,4,1,1,60,0,1
108642,-66.6666666666667,4,1,1,60,0,1
108785,-71.4285714285714,4,1,1,60,0,1
109785,-66.6666666666667,4,1,1,60,0,1
109928,-71.4285714285714,4,1,1,60,0,1
110928,-66.6666666666667,4,1,2,60,0,1
111071,-71.4285714285714,4,1,1,60,0,1
112071,-66.6666666666667,4,1,2,60,0,1
112214,-71.4285714285714,4,1,1,60,0,1
113214,-66.6666666666667,4,1,1,60,0,1
113356,-71.4285714285714,4,1,1,60,0,1
114499,-71.4285714285714,4,1,1,5,0,1
114571,-71.4285714285714,4,1,1,60,0,1
114714,-71.4285714285714,4,1,1,5,0,1
114785,-71.4285714285714,4,1,1,60,0,1
115499,-66.6666666666667,4,1,2,60,0,1
115642,-71.4285714285714,4,1,1,60,0,1
116642,-66.6666666666667,4,1,1,60,0,1
116785,-71.4285714285714,4,1,1,60,0,1
117785,-66.6666666666667,4,1,1,60,0,1
117928,-71.4285714285714,4,1,1,60,0,1
118928,-66.6666666666667,4,1,1,60,0,1
119071,-71.4285714285714,4,1,1,60,0,1
121214,-66.6666666666667,4,1,1,60,0,1
121356,-71.4285714285714,4,1,1,60,0,1
123499,-66.6666666666667,4,1,1,60,0,1
123642,-71.4285714285714,4,1,1,60,0,1
124642,-66.6666666666667,4,1,2,60,0,1
124785,-71.4285714285714,4,1,1,60,0,1
125785,-66.6666666666667,4,1,1,60,0,1
125928,-71.4285714285714,4,1,1,60,0,1
126928,-66.6666666666667,4,1,1,60,0,1
127071,-71.4285714285714,4,1,1,60,0,1
129214,-66.6666666666667,4,1,2,60,0,1
129356,-71.4285714285714,4,1,1,60,0,1
130356,-62.5,4,1,2,60,0,1
130499,-66.6666666666667,4,1,1,60,0,1
132928,-66.6666666666667,4,1,1,5,0,1
132964,-66.6666666666667,4,1,1,60,0,1
133356,-66.6666666666667,4,1,1,5,0,1
133392,-66.6666666666667,4,1,1,60,0,1
133785,-142.857142857143,4,2,7,35,0,0
134928,-142.857142857143,4,2,7,25,0,0
136071,-142.857142857143,4,2,7,15,0,0
137214,-142.857142857143,4,2,7,5,0,0
138356,-142.857142857143,4,2,7,5,0,0

[Colours]
Combo1 : 206,119,106
Combo2 : 30,77,123
Combo3 : 162,51,139
Combo4 : 51,64,183
Combo5 : 39,128,180
Combo6 : 96,39,97

[HitObjects]
89,274,1214,6,0,L|189:293,1,100.000000298023
412,337,1785,1,0,0:0:0:0:
374,243,1928,1,0,0:0:0:0:
336,149,2071,1,0,0:0:0:0:
298,55,2214,1,0,0:0:0:0:
441,77,2356,5,0,0:0:0:0:
402,177,2499,1,0,0:0:0:0:
294,214,2642,1,0,0:0:0:0:
180,182,2785,1,0,0:0:0:0:
113,85,2928,2,0,L|220:101,1,100.000000298023
473,144,3499,6,0,L|460:248,1,100.000000298023
317,354,4071,1,0,0:0:0:0:
395,214,4356,1,0,0:0:0:0:
173,309,4642,1,0,0:0:0:0:
337,165,4928,1,0,0:0:0:0:
70,197,5214,1,0,0:0:0:0:
278,112,5499,1,0,0:0:0:0:
173,309,5785,5,4,0:0:0:0:
75,126,5928,1,0,0:0:0:0:
268,176,6071,2,0,L|337:164,1,69.999998072386
457,147,6356,5,0,0:0:0:0:
318,6,6642,1,0,0:0:0:0:
228,56,6785,1,0,0:0:0:0:
138,106,6928,2,0,L|138:175,1,69.999998072386
183,273,7214,1,0,0:0:0:0:
73,220,7356,1,0,0:0:0:0:
248,201,7499,5,0,0:0:0:0:
114,342,7642,1,0,0:0:0:0:
37,147,7785,2,0,L|37:78,1,69.999998072386
122,10,8071,6,0,L|122:81,1,69.999998072386
162,184,8356,1,0,0:0:0:0:
108,281,8499,1,0,0:0:0:0:
5,323,8642,2,0,L|-1:253,1,69.999998072386
37,147,8928,2,0,L|109:147,1,69.999998072386
185,92,9214,2,0,L|258:107,3,69.999998072386
287,189,9785,2,0,L|360:174,3,69.999998072386
476,141,10356,5,6,0:0:0:0:
442,331,10499,1,2,0:0:0:0:
224,212,10642,1,2,0:0:0:0:
331,356,10785,1,2,0:0:0:0:
427,202,10928,2,0,L|407:126,1,69.999998072386,2|0,0:0|0:0,0:0:0:0:
289,63,11214,2,0,L|309:139,1,69.999998072386,2|0,0:0|0:0,0:0:0:0:
323,277,11499,2,0,B|269:318|269:318|195:325,1,139.999996144772,6|0,0:0|0:0,0:0:0:0:
28,183,12071,5,2,0:0:0:0:
211,260,12214,1,2,0:0:0:0:
173,82,12356,2,0,L|244:92,1,69.999998072386,2|0,0:0|0:0,0:0:0:0:
349,181,12642,2,0,B|381:209|427:212|462:188|462:188|497:164|511:119|495:79|495:79|479:40|439:17|397:23|397:23|355:29|323:63|319:105|319:105|358:92|400:103|428:134|428:134|456:164|463:207|447:245|447:245|431:282|395:307|354:308,1,840,6|4,0:0|0:0,0:0:0:0:
181,122,14928,2,0,B|128:127|76:101|49:55|49:55|110:131|143:227|141:325|141:325|136:355|110:378|79:379|79:379|48:381|21:360|13:331|13:331|5:301|19:269|46:255|46:255|74:241|107:248|130:268|130:268|167:298|214:310|262:306|262:306|267:278|255:247|226:229|226:229|231:198|255:174|286:169,1,1119.99996915818,6|4,0:0|0:0,0:0:0:0:
420,99,19499,6,0,L|508:112,2,80.0000002384188,4|0|0,1:0|0:0|0:0,0:0:0:0:
291,133,19928,2,0,L|203:146,2,80.0000002384188
424,183,20356,2,0,L|512:196,2,80.0000002384188
295,217,20785,2,0,L|207:230,2,80.0000002384188
413,256,21214,6,0,P|426:301|416:346,1,89.9999975216392,4|0,1:0|0:0,0:0:0:0:
166,360,21499,2,0,P|153:315|163:270,1,89.9999975216392,4|0,1:0|0:0,0:0:0:0:
235,101,21785,6,0,L|283:32,2,80.0000002384188,4|0|0,1:0|0:0|0:0,0:0:0:0:
127,197,22214,2,0,L|35:229,2,80.0000002384188
247,197,22642,2,0,L|337:229,2,80.0000002384188
139,101,23071,2,0,L|91:32,2,80.0000002384188
199,321,23499,5,4,1:0:0:0:
47,186,23642,1,4,1:0:0:0:
225,68,23785,2,0,P|271:63|310:81,1,89.9999975216392,4|0,1:0|0:0,0:0:0:0:
441,178,24071,6,0,B|476:204|476:204|514:215,2,80.0000002384188,4|0|0,1:0|0:0|0:0,0:0:0:0:
383,267,24499,2,0,B|406:303|406:303|438:326,2,80.0000002384188
280,305,24928,2,0,B|290:347|290:347|312:380,2,80.0000002384188
175,276,25356,2,0,B|169:319|169:319|179:357,2,80.0000002384188
288,102,25785,6,0,L|380:113,1,89.9999975216392,4|0,1:0|0:0,0:0:0:0:
141,217,26071,2,0,L|49:206,1,89.9999975216392,4|0,1:0|0:0,0:0:0:0:
197,60,26356,6,0,P|217:27|253:11,2,80.0000002384188,4|0|0,1:0|0:0|0:0,0:0:0:0:
288,102,26785,2,0,P|321:83|360:87,2,80.0000002384188
347,185,27214,2,0,P|385:185|417:208,2,80.0000002384188
345,278,27642,2,0,P|378:298|394:334,2,80.0000002384188
117,265,28071,5,4,1:0:0:0:
294,142,28214,1,4,1:0:0:0:
241,367,28356,2,0,L|328:342,1,89.9999975216392,4|0,1:0|0:0,0:0:0:0:
451,228,28642,6,0,P|485:158|406:73,1,200.000000596047,4|0,1:0|0:0,0:0:0:0:
180,164,29071,2,0,P|146:234|225:319,1,200.000000596047,4|0,1:0|0:0,0:0:0:0:
410,160,29499,2,0,P|384:86|268:82,1,200.000000596047,4|0,1:0|0:0,0:0:0:0:
221,237,29928,2,0,P|246:310|362:314,1,200.000000596047,4|0,1:0|0:0,0:0:0:0:
361,44,30356,5,4,1:0:0:0:
132,328,30642,1,4,1:0:0:0:
454,278,30928,6,0,P|498:244|484:104,1,200.000000596047,4|0,1:0|0:0,0:0:0:0:
228,61,31356,2,0,P|184:95|198:235,1,200.000000596047,4|0,1:0|0:0,0:0:0:0:
446,187,31785,2,0,P|453:131|344:42,1,200.000000596047,4|0,1:0|0:0,0:0:0:0:
238,150,32214,2,0,P|230:205|339:294,1,200.000000596047,4|0,1:0|0:0,0:0:0:0:
503,90,32642,5,4,1:0:0:0:
312,205,32785,1,4,1:0:0:0:
511,313,32928,1,4,1:0:0:0:
335,48,33214,6,0,B|237:27|237:27|138:48,1,200.000000596047,4|0,1:0|0:0,0:0:0:0:
42,287,33642,2,0,B|140:308|140:308|239:287,1,200.000000596047,4|0,1:0|0:0,0:0:0:0:
335,117,34071,2,0,B|237:96|237:96|138:117,1,200.000000596047,4|0,1:0|0:0,0:0:0:0:
42,354,34499,2,0,B|140:375|140:375|239:354,1,200.000000596047,4|0,1:0|0:0,0:0:0:0:
415,242,34928,5,4,1:0:0:0:
58,147,35214,1,4,1:0:0:0:
314,14,35499,6,0,P|339:103|265:179,1,200.000000596047,4|0,1:0|0:0,0:0:0:0:
337,344,35928,2,0,P|247:321|218:219,1,200.000000596047,4|0,1:0|0:0,0:0:0:0:
42,199,36356,2,0,P|106:132|209:158,1,200.000000596047,4|4,1:0|1:0,0:0:0:0:
202,152,37214,1,2,0:0:0:0:
202,152,37499,1,2,0:0:0:0:
315,31,37785,5,12,0:0:0:0:
422,82,37928,6,0,L|438:143,1,59.9999983477595,0|0,0:0|2:0,0:0:0:0:
456,232,38071,1,10,0:0:0:0:
448,279,38142,1,0,0:0:0:0:
416,315,38214,1,0,0:0:0:0:
368,321,38285,1,0,0:0:0:0:
323,303,38356,2,0,L|301:246,1,59.9999983477595,10|0,0:0|0:0,0:0:0:0:
246,133,38499,1,0,0:0:0:0:
208,102,38571,1,0,0:0:0:0:
167,75,38642,2,0,L|99:70,1,59.9999983477595,10|0,0:0|0:0,0:0:0:0:
49,189,38785,1,0,0:0:0:0:
77,227,38856,1,0,0:0:0:0:
117,253,38928,2,0,L|176:249,1,59.9999983477595,10|0,0:0|0:0,0:0:0:0:
282,192,39071,2,0,L|341:188,1,59.9999983477595
408,73,39214,1,10,0:0:0:0:
369,44,39285,1,0,0:0:0:0:
322,31,39356,1,0,0:0:0:0:
274,41,39428,1,0,0:0:0:0:
230,59,39499,2,0,P|194:65|166:56,1,59.9999983477595,10|0,0:0|0:0,0:0:0:0:
29,17,39642,1,0,0:0:0:0:
17,63,39714,1,0,0:0:0:0:
21,110,39785,6,0,L|38:167,1,59.9999983477595,10|0,0:0|2:0,0:0:0:0:
140,335,39928,2,0,L|123:278,1,59.9999983477595,10|0,0:0|2:0,0:0:0:0:
166,95,40071,2,0,L|183:152,1,59.9999983477595,10|0,0:0|2:0,0:0:0:0:
257,322,40214,6,0,P|274:372|284:327,1,119.999996695519,0|10,0:0|0:0,0:0:0:0:
300,115,40499,6,0,P|314:69|337:110,1,119.999996695519,0|10,0:0|0:0,0:0:0:0:
257,322,40785,6,0,P|296:356|282:312,1,119.999996695519,0|10,0:0|0:0,0:0:0:0:
300,115,41071,6,0,P|338:86|335:134,1,119.999996695519,0|10,0:0|0:0,0:0:0:0:
288,171,41285,1,0,0:0:0:0:
234,162,41356,1,0,0:0:0:0:
198,121,41428,1,0,0:0:0:0:
198,67,41499,1,10,0:0:0:0:
231,26,41571,1,0,0:0:0:0:
279,3,41642,1,0,0:0:0:0:
333,3,41714,1,0,0:0:0:0:
383,21,41785,2,0,P|412:38|428:62,1,59.9999983477595,10|0,0:0|2:0,0:0:0:0:
455,190,41928,5,10,0:0:0:0:
441,242,41999,1,0,0:0:0:0:
411,287,42071,1,0,0:0:0:0:
366,317,42142,1,0,0:0:0:0:
311,322,42214,1,10,0:0:0:0:
257,314,42285,1,0,0:0:0:0:
216,279,42356,1,10,0:0:0:0:
85,169,42499,6,0,L|23:169,1,59.9999983477595,0|0,0:0|2:0,0:0:0:0:
0,312,42642,1,10,0:0:0:0:
22,354,42714,1,0,0:0:0:0:
63,377,42785,1,0,0:0:0:0:
110,372,42856,1,0,0:0:0:0:
153,351,42928,2,0,L|214:346,1,59.9999983477595,10|0,0:0|0:0,0:0:0:0:
305,257,43071,1,0,0:0:0:0:
350,271,43142,1,0,0:0:0:0:
393,249,43214,2,0,L|458:240,1,59.9999983477595,10|0,0:0|0:0,0:0:0:0:
436,120,43356,1,0,0:0:0:0:
395,94,43428,1,0,0:0:0:0:
349,107,43499,2,0,L|289:103,3,59.9999983477595,10|0|0|0,0:0|0:0|0:0|0:0,0:0:0:0:
238,173,43785,6,0,L|223:238,1,59.9999983477595,10|0,0:0|2:0,0:0:0:0:
126,192,43928,2,0,L|111:257,1,59.9999983477595,10|0,0:0|2:0,0:0:0:0:
14,210,44071,2,0,L|-1:275,1,59.9999983477595,10|0,0:0|2:0,0:0:0:0:
26,85,44214,6,0,L|1:64,1,29.9999991738797,2|2,0:0|0:0,0:0:0:0:
63,54,44285,2,0,L|42:24,1,29.9999991738797,2|2,0:0|0:0,0:0:0:0:
109,47,44356,1,10,0:0:0:0:
238,173,44499,1,10,0:0:0:0:
382,42,44642,6,0,L|377:105,1,59.9999983477595,10|0,0:0|2:0,0:0:0:0:
366,235,44785,1,0,0:0:0:0:
359,300,44856,1,0,0:0:0:0:
326,358,44928,2,0,P|302:378|275:384,1,59.9999983477595,10|0,0:0|2:0,0:0:0:0:
100,275,45071,5,0,0:0:0:0:
107,210,45142,1,0,0:0:0:0:
140,152,45214,2,0,P|164:132|191:126,1,59.9999983477595,10|0,0:0|2:0,0:0:0:0:
411,260,45356,5,0,0:0:0:0:
359,300,45428,1,0,0:0:0:0:
294,317,45499,2,0,L|229:330,1,59.9999983477595,10|0,0:0|2:0,0:0:0:0:
55,250,45642,5,0,0:0:0:0:
107,210,45714,1,0,0:0:0:0:
172,193,45785,2,0,B|215:181|215:181|240:188|240:188|270:181|270:181|308:195,1,139.999996144772,10|0,0:0|0:0,0:0:0:0:
468,171,46071,5,10,0:0:0:0:
495,114,46142,1,0,0:0:0:0:
465,60,46214,2,0,L|397:46,1,69.999998072386,0|0,0:0|2:0,0:0:0:0:
258,15,46356,1,10,0:0:0:0:
367,191,46499,1,10,0:0:0:0:
342,252,46571,1,0,0:0:0:0:
284,288,46642,2,0,L|211:282,1,69.999998072386,10|0,0:0|2:0,0:0:0:0:
16,247,46785,5,10,0:0:0:0:
16,247,47071,5,10,0:0:0:0:
156,259,47214,1,10,0:0:0:0:
195,223,47285,1,0,0:0:0:0:
211,172,47356,1,0,0:0:0:0:
197,119,47428,1,0,0:0:0:0:
159,80,47499,2,0,L|100:68,1,59.9999983477595,10|0,0:0|0:0,0:0:0:0:
34,185,47642,1,0,0:0:0:0:
75,219,47714,1,0,0:0:0:0:
127,205,47785,2,0,L|138:140,1,59.9999983477595,10|0,0:0|0:0,0:0:0:0:
206,28,47928,1,0,0:0:0:0:
256,9,47999,1,0,0:0:0:0:
304,32,48071,2,0,L|315:92,1,59.9999983477595,10|0,0:0|0:0,0:0:0:0:
383,218,48214,2,0,L|372:158,1,59.9999983477595
391,35,48356,1,10,0:0:0:0:
445,26,48428,1,0,0:0:0:0:
487,57,48499,1,0,0:0:0:0:
499,110,48571,1,0,0:0:0:0:
487,162,48642,6,0,L|447:219,1,59.9999983477595,10|0,0:0|2:0,0:0:0:0:
315,322,48785,1,2,0:0:0:0:
315,322,48856,2,0,L|251:335,2,59.9999983477595,2|0|0,0:0|2:0|2:0,0:0:0:0:
485,364,49071,2,0,P|512:316|491:250,1,119.999996695519,2|10,0:0|0:0,0:0:0:0:
388,101,49356,2,0,B|341:44|341:44|346:104,2,119.999996695519,0|10|0,0:0|0:0|0:0,0:0:0:0:
385,243,49785,6,0,L|385:304,1,59.9999983477595,10|0,0:0|2:0,0:0:0:0:
297,178,49928,2,0,L|297:239,1,59.9999983477595,10|0,0:0|2:0,0:0:0:0:
209,113,50071,2,0,L|209:174,1,59.9999983477595,10|0,0:0|2:0,0:0:0:0:
121,48,50214,2,0,L|121:109,1,59.9999983477595,10|0,0:0|2:0,0:0:0:0:
20,21,50356,5,10,0:0:0:0:
11,74,50428,1,0,0:0:0:0:
27,125,50499,1,0,0:0:0:0:
57,169,50571,1,0,0:0:0:0:
103,196,50642,1,10,0:0:0:0:
157,196,50714,1,0,0:0:0:0:
209,173,50785,1,0,0:0:0:0:
244,132,50856,1,0,0:0:0:0:
258,79,50928,6,0,B|282:51|282:51|315:41,1,59.9999983477595,10|0,0:0|2:0,0:0:0:0:
401,112,51071,2,0,B|437:109|437:109|468:125,1,59.9999983477595,10|0,0:0|2:0,0:0:0:0:
427,255,51214,2,0,B|454:278|454:278|465:312,1,59.9999983477595,10|0,0:0|2:0,0:0:0:0:
301,332,51356,1,10,0:0:0:0:
301,332,51642,5,10,0:0:0:0:
344,163,51785,1,10,0:0:0:0:
285,174,51856,1,0,0:0:0:0:
225,185,51928,1,0,0:0:0:0:
166,196,51999,1,0,0:0:0:0:
106,208,52071,2,0,L|40:219,1,59.9999983477595,10|0,0:0|0:0,0:0:0:0:
0,351,52214,1,0,0:0:0:0:
60,340,52285,1,0,0:0:0:0:
119,329,52356,2,0,L|185:318,1,59.9999983477595,10|0,0:0|0:0,0:0:0:0:
327,235,52499,1,0,0:0:0:0:
387,224,52571,1,0,0:0:0:0:
446,213,52642,6,0,B|480:208|480:208|508:188,1,59.9999983477595,10|0,0:0|0:0,0:0:0:0:
512,77,52785,2,0,P|476:21|411:31,1,139.999996144772,0|10,0:0|0:0,0:0:0:0:
376,55,52999,1,0,0:0:0:0:
336,71,53071,1,0,0:0:0:0:
294,65,53142,1,0,0:0:0:0:
253,53,53214,6,0,L|193:53,1,59.9999983477595,10|0,0:0|2:0,0:0:0:0:
81,138,53356,2,0,L|141:138,1,59.9999983477595,10|0,0:0|2:0,0:0:0:0:
225,245,53499,2,0,L|165:245,1,59.9999983477595,10|0,0:0|2:0,0:0:0:0:
79,369,53642,2,0,L|139:369,1,59.9999983477595,10|0,0:0|2:0,0:0:0:0:
333,369,53785,6,0,L|353:246,1,119.999996695519,10|0,0:0|2:0,0:0:0:0:
333,369,54071,6,0,L|369:230,1,129.999994436503,0|0,0:0|2:0,0:0:0:0:
333,369,54356,6,0,L|387:220,1,139.999996144772,10|0,0:0|2:0,0:0:0:0:
333,369,54642,6,0,L|406:228,1,150.000006169081
423,172,54856,1,0,0:0:0:0:
411,136,54928,2,0,L|346:127,1,64.9999972182515,10|0,0:0|2:0,0:0:0:0:
110,216,55071,5,0,0:0:0:0:
110,216,55142,1,0,0:0:0:0:
110,216,55214,2,0,L|169:188,1,64.9999972182515,0|0,0:0|2:0,0:0:0:0:
363,197,55356,1,0,0:0:0:0:
363,197,55428,1,0,0:0:0:0:
363,197,55499,5,0,0:0:0:0:
91,62,55642,1,0,0:0:0:0:
193,342,55785,1,0,0:0:0:0:
330,104,55928,1,0,0:0:0:0:
30,204,56071,6,0,L|57:346,1,139.999996144772,14|0,0:0|0:0,0:0:0:0:
114,378,56285,1,0,0:0:0:0:
114,378,56356,1,10,0:0:0:0:
254,121,56499,2,0,L|279:188,1,69.999998072386
312,348,56642,5,10,0:0:0:0:
114,114,56785,2,0,L|89:181,1,69.999998072386
56,341,56928,5,10,0:0:0:0:
183,161,57071,2,0,L|208:228,1,69.999998072386
383,308,57214,5,10,0:0:0:0:
254,121,57356,2,0,L|319:150,1,69.999998072386
485,230,57499,6,0,B|486:309|486:309|446:358,1,139.999996144772,10|0,0:0|0:0,0:0:0:0:
218,384,57785,1,10,0:0:0:0:
421,283,57928,1,0,0:0:0:0:
188,124,58071,1,10,0:0:0:0:
307,359,58214,1,10,0:0:0:0:
503,160,58356,6,0,L|375:103,1,139.999996144772,10|0,0:0|0:0,0:0:0:0:
315,75,58571,1,0,0:0:0:0:
315,75,58642,1,10,0:0:0:0:
119,135,58785,2,0,L|193:153,1,69.999998072386
344,193,58928,5,10,0:0:0:0:
70,201,59071,2,0,L|144:219,1,69.999998072386
295,259,59214,5,10,0:0:0:0:
274,318,59285,1,8,0:0:0:0:
221,351,59356,1,8,0:0:0:0:
157,346,59428,1,8,0:0:0:0:
100,318,59499,2,0,P|55:265|72:198,1,139.999996144772,10|0,0:0|0:0,0:0:0:0:
269,54,59785,5,10,0:0:0:0:
125,249,59928,1,10,0:0:0:0:
4,38,60071,2,0,L|146:38,1,139.999996144772,10|0,0:0|0:0,0:0:0:0:
207,60,60285,1,0,0:0:0:0:
207,60,60356,1,10,0:0:0:0:
292,217,60499,2,0,L|221:231,1,69.999998072386
43,256,60642,6,0,B|43:166|43:166|74:125,1,139.999996144772,10|0,0:0|0:0,0:0:0:0:
136,102,60856,1,0,0:0:0:0:
136,102,60928,1,10,0:0:0:0:
324,154,61071,2,0,L|288:223,1,69.999998072386
213,376,61214,5,10,0:0:0:0:
392,155,61356,2,0,L|428:224,1,69.999998072386
503,377,61499,5,10,0:0:0:0:
259,154,61642,2,0,L|295:223,1,69.999998072386
391,370,61785,5,10,0:0:0:0:
456,155,61928,2,0,L|420:224,1,69.999998072386
324,371,62071,6,0,B|279:355|279:355|264:316|264:316|216:298,1,139.999996144772,10|0,0:0|0:0,0:0:0:0:
0,211,62356,1,10,0:0:0:0:
269,245,62499,1,10,0:0:0:0:
5,330,62642,1,10,0:0:0:0:
68,60,62785,1,10,0:0:0:0:
269,245,62928,6,0,B|340:219|340:219|373:163,1,139.999996144772,10|8,0:0|0:0,0:0:0:0:
405,105,63142,1,8,0:0:0:0:
405,105,63214,1,10,0:0:0:0:
220,18,63356,2,0,L|156:62,1,69.999998072386
110,274,63499,5,10,0:0:0:0:
277,61,63642,2,0,L|341:105,1,69.999998072386
389,317,63785,5,10,0:0:0:0:
227,107,63928,2,0,L|163:151,1,69.999998072386
118,367,64071,5,10,0:0:0:0:
328,213,64214,1,8,0:0:0:0:
391,241,64285,1,8,0:0:0:0:
456,265,64356,2,0,P|510:227|504:155,1,139.999996144772,10|0,0:0|0:0,0:0:0:0:
378,6,64642,5,10,0:0:0:0:
326,29,64714,1,8,0:0:0:0:
275,52,64785,1,8,0:0:0:0:
224,75,64856,1,8,0:0:0:0:
171,96,64928,1,10,0:0:0:0:
223,114,64999,1,8,0:0:0:0:
276,132,65071,1,8,0:0:0:0:
328,150,65142,1,8,0:0:0:0:
381,170,65214,2,0,B|422:179|452:216|452:258|452:258|452:301|418:337|375:340|375:340|346:274|289:225|219:208|219:208|149:191|75:207|19:252|19:252|5:353|5:353|99:311|99:311|127:111|127:111|128:87|114:65|92:58|92:58|69:50|44:58|30:77|30:77|17:96|17:122|32:141,1,1280,10|4,0:0|0:0,0:0:0:0:
107,255,76642,5,6,0:0:0:0:
107,255,77214,1,2,0:0:0:0:
210,337,77356,1,2,0:0:0:0:
337,295,77499,1,2,0:0:0:0:
387,79,77785,6,0,P|437:25|472:153,1,279.999992289544,2|2,0:0|0:0,0:0:0:0:
281,250,78642,1,2,0:0:0:0:
186,69,78928,2,0,B|238:47|283:74|283:74|334:106|391:76,1,209.999994217158,2|2,0:0|0:0,0:0:0:0:
469,26,79499,1,2,0:0:0:0:
425,268,79785,1,2,0:0:0:0:
237,127,80071,5,2,0:0:0:0:
237,127,80642,1,2,0:0:0:0:
136,49,80785,1,2,0:0:0:0:
9,102,80928,1,2,0:0:0:0:
88,335,81214,6,0,P|138:384|169:254,1,279.999992289544,6|2,0:0|0:0,0:0:0:0:
36,220,81928,1,2,0:0:0:0:
153,318,82071,1,2,0:0:0:0:
380,261,82356,6,0,P|427:192|297:101,1,279.999992289544,6|2,0:0|0:0,0:0:0:0:
210,188,83071,1,2,0:0:0:0:
235,301,83214,1,2,0:0:0:0:
429,304,83499,6,0,B|471:280|486:227|463:185|463:185|432:205|391:201|363:176|363:176|336:152|329:111|345:78|345:78|362:45|399:27|435:35|435:35|472:42|499:73|501:110,1,560,6|2,0:0|0:0,0:0:0:0:
500,103,85785,6,0,B|517:151|493:204|446:223|446:223|399:241|345:219|326:177|326:177|261:199|261:199|245:173|213:155|178:156|178:156|143:157|112:177|100:217,1,559.999984579088,6|2,0:0|0:0,0:0:0:0:
99,217,88071,6,0,P|162:252|151:368,1,200.000000596047,4|0,1:0|0:0,0:0:0:0:
366,217,88499,2,0,P|303:252|314:368,1,200.000000596047,4|0,1:0|0:0,0:0:0:0:
182,162,88928,2,0,B|127:115|127:115|-1:128,1,200.000000596047,4|0,1:0|0:0,0:0:0:0:
283,162,89356,2,0,B|338:115|338:115|466:128,1,200.000000596047,4|0,1:0|0:0,0:0:0:0:
373,304,89785,5,4,1:0:0:0:
24,131,90071,1,4,1:0:0:0:
352,192,90356,6,0,B|384:100|384:100|440:95|463:43,1,200.000000596047,4|0,1:0|0:0,0:0:0:0:
240,192,90785,2,0,B|208:100|208:100|152:95|129:43,1,200.000000596047,4|0,1:0|0:0,0:0:0:0:
87,193,91214,2,0,P|118:283|213:298,1,200.000000596047,4|0,1:0|0:0,0:0:0:0:
378,297,91642,2,0,P|473:283|504:193,1,200.000000596047,4|0,1:0|0:0,0:0:0:0:
283,109,92071,5,4,1:0:0:0:
211,363,92214,1,4,1:0:0:0:
414,212,92356,1,4,1:0:0:0:
54,121,92642,5,6,0:0:0:0:
366,50,92928,1,2,0:0:0:0:
50,319,93214,1,6,0:0:0:0:
178,22,93499,1,2,0:0:0:0:
292,324,93785,5,6,0:0:0:0:
403,94,93928,1,2,0:0:0:0:
174,271,94071,1,2,0:0:0:0:
432,254,94214,1,2,0:0:0:0:
266,54,94356,5,2,0:0:0:0:
220,21,94428,1,2,0:0:0:0:
166,9,94499,1,2,0:0:0:0:
111,20,94571,1,2,0:0:0:0:
69,54,94642,1,2,0:0:0:0:
47,104,94714,1,2,0:0:0:0:
45,158,94785,1,2,0:0:0:0:
65,208,94856,1,2,0:0:0:0:
94,254,94928,6,0,B|125:288|125:288|179:288|179:288|209:258,1,139.999996144772,4|0,0:0|0:0,0:0:0:0:
308,123,95499,1,0,0:0:0:0:
366,59,95642,1,0,0:0:0:0:
447,59,95785,1,0,0:0:0:0:
496,280,96071,5,0,3:0:0:0:
400,152,96214,1,0,3:0:0:0:
400,152,96285,1,0,3:0:0:0:
400,152,96356,1,8,3:0:0:0:
304,280,96499,1,0,3:0:0:0:
208,152,96642,1,0,3:0:0:0:
112,280,96785,1,0,3:0:0:0:
112,280,96856,1,0,3:0:0:0:
112,280,96928,1,4,3:0:0:0:
16,152,97071,1,0,3:0:0:0:
173,42,97214,6,0,L|323:42,1,150.000006169081,14|0,0:0|0:0,0:0:0:0:
497,120,97499,1,10,0:0:0:0:
512,181,97571,1,0,0:0:0:0:
498,242,97642,2,0,P|481:283|457:304,1,69.999998072386,0|0,0:0|2:0,0:0:0:0:
270,350,97785,2,0,B|223:323|223:323|196:236,1,139.999996144772,10|0,0:0|0:0,0:0:0:0:
188,175,97999,1,0,0:0:0:0:
194,111,98071,2,0,L|207:43,1,69.999998072386,10|0,0:0|2:0,0:0:0:0:
405,8,98214,1,0,0:0:0:0:
436,62,98285,1,0,0:0:0:0:
432,124,98356,6,0,L|415:279,1,150.000006169081,10|0,0:0|0:0,0:0:0:0:
263,111,98642,1,10,0:0:0:0:
239,51,98714,1,0,0:0:0:0:
189,14,98785,2,0,P|150:3|110:4,1,69.999998072386,0|0,0:0|2:0,0:0:0:0:
13,149,98928,2,0,L|2:289,1,139.999996144772,10|0,0:0|0:0,0:0:0:0:
37,341,99142,1,0,0:0:0:0:
99,331,99214,2,0,L|131:268,1,69.999998072386,10|0,0:0|2:0,0:0:0:0:
262,288,99356,2,0,L|294:225,1,69.999998072386,10|0,0:0|0:0,0:0:0:0:
425,245,99499,6,0,B|394:310|394:310|320:346,1,150.000006169081,10|0,0:0|0:0,0:0:0:0:
130,268,99785,1,10,0:0:0:0:
81,228,99856,1,0,0:0:0:0:
54,170,99928,2,0,L|130:167,1,69.999998072386,0|0,0:0|2:0,0:0:0:0:
314,150,100071,2,0,P|331:80|285:27,1,139.999996144772,10|0,0:0|0:0,0:0:0:0:
230,44,100285,1,0,0:0:0:0:
170,23,100356,2,0,L|90:29,1,69.999998072386,10|0,0:0|2:0,0:0:0:0:
2,199,100499,1,8,0:0:0:0:
26,265,100571,1,8,0:0:0:0:
84,304,100642,6,0,L|234:321,1,150.000006169081,10|0,0:0|0:0,0:0:0:0:
440,342,100928,2,0,L|510:330,1,69.999998072386,10|0,0:0|0:0,0:0:0:0:
467,163,101071,2,0,P|490:87|341:80,1,279.999992289544,10|10,0:0|0:0,0:0:0:0:
318,136,101428,1,0,0:0:0:0:
320,198,101499,2,0,L|342:264,1,69.999998072386,10|0,0:0|2:0,0:0:0:0:
218,58,101642,2,0,L|286:40,1,69.999998072386,10|0,0:0|0:0,0:0:0:0:
175,232,101785,6,0,L|222:374,1,150.000006169081,10|0,0:0|0:0,0:0:0:0:
18,269,102071,1,10,0:0:0:0:
0,208,102142,1,0,0:0:0:0:
9,145,102214,2,0,P|23:111|52:83,1,69.999998072386,0|0,0:0|2:0,0:0:0:0:
217,21,102356,2,0,B|310:13|310:13|353:43,1,139.999996144772,10|0,0:0|0:0,0:0:0:0:
370,100,102571,1,0,0:0:0:0:
338,154,102642,2,0,L|317:222,1,69.999998072386,10|0,0:0|2:0,0:0:0:0:
256,384,102785,2,0,L|326:372,1,69.999998072386,10|0,0:0|0:0,0:0:0:0:
486,350,102928,6,0,L|486:195,1,150.000006169081,10|0,0:0|0:0,0:0:0:0:
410,23,103214,1,10,0:0:0:0:
349,7,103285,1,0,0:0:0:0:
292,34,103356,2,0,B|240:98|292:162|292:162|344:226|292:290,1,279.999992289544,10|10,0:0|0:0,0:0:0:0:
242,328,103714,1,0,0:0:0:0:
182,308,103785,2,0,P|156:278|149:244,1,69.999998072386,0|0,0:0|2:0,0:0:0:0:
197,54,103928,1,10,0:0:0:0:
152,10,103999,1,0,0:0:0:0:
88,16,104071,6,0,L|15:35,1,69.999998072386,10|0,0:0|2:0,0:0:0:0:
88,155,104214,2,0,L|49:219,1,69.999998072386,10|0,0:0|2:0,0:0:0:0:
222,253,104356,2,0,L|261:317,3,69.999998072386,10|0|0|0,0:0|0:0|0:0|2:0,0:0:0:0:
413,327,104642,6,0,L|376:267,1,69.999998072386,10|0,0:0|2:0,0:0:0:0:
259,71,104785,2,0,L|326:46,3,69.999998072386,10|0|0|0,0:0|0:0|0:0|2:0,0:0:0:0:
397,178,105071,1,10,0:0:0:0:
341,206,105142,1,0,0:0:0:0:
280,187,105214,6,0,L|203:169,1,69.999998072386,10|0,0:0|2:0,0:0:0:0:
116,62,105356,2,0,L|98:138,1,69.999998072386,10|0,0:0|2:0,0:0:0:0:
0,236,105499,2,0,L|76:253,1,69.999998072386,10|0,0:0|0:0,0:0:0:0:
162,352,105642,2,0,L|179:275,1,69.999998072386,10|0,0:0|2:0,0:0:0:0:
225,106,105785,5,8,0:0:0:0:
269,52,105856,1,8,0:0:0:0:
335,28,105928,1,8,0:0:0:0:
403,38,105999,1,8,0:0:0:0:
459,80,106071,1,8,0:0:0:0:
488,143,106142,1,8,0:0:0:0:
482,213,106214,1,8,0:0:0:0:
452,276,106285,1,8,0:0:0:0:
389,304,106356,6,0,B|336:304|336:304|322:298|322:298|322:310|322:310|308:304|308:304|254:304,1,150.000006169081,0|14,0:0|0:0,0:0:0:0:
22,246,106642,1,10,0:0:0:0:
58,194,106714,1,0,0:0:0:0:
100,148,106785,2,0,P|136:128|176:125,1,69.999998072386,0|0,0:0|2:0,0:0:0:0:
397,108,106928,2,0,L|353:240,1,139.999996144772,10|0,0:0|0:0,0:0:0:0:
303,280,107142,1,0,0:0:0:0:
254,238,107214,2,0,L|180:230,1,69.999998072386,10|0,0:0|2:0,0:0:0:0:
291,53,107356,1,0,0:0:0:0:
350,30,107428,1,0,0:0:0:0:
412,30,107499,6,0,B|462:58|462:58|474:151,1,150.000006169081,10|0,0:0|0:0,0:0:0:0:
441,348,107785,1,10,0:0:0:0:
392,308,107856,1,0,0:0:0:0:
386,244,107928,2,0,L|317:234,1,69.999998072386,0|0,0:0|2:0,0:0:0:0:
137,208,108071,2,0,P|89:262|102:326,1,139.999996144772,10|0,0:0|0:0,0:0:0:0:
147,367,108285,1,0,0:0:0:0:
200,334,108356,2,0,L|270:334,1,69.999998072386,10|0,0:0|2:0,0:0:0:0:
395,168,108499,2,0,L|325:168,1,69.999998072386,8|0,0:0|0:0,0:0:0:0:
120,128,108642,6,0,P|115:47|167:17,1,150.000006169081,10|0,0:0|0:0,0:0:0:0:
373,65,108928,1,10,0:0:0:0:
433,49,108999,1,0,0:0:0:0:
494,33,109071,2,0,L|494:108,1,69.999998072386,0|0,0:0|2:0,0:0:0:0:
493,279,109214,2,0,P|446:335|382:309,1,139.999996144772,10|0,0:0|0:0,0:0:0:0:
350,267,109428,1,0,0:0:0:0:
288,275,109499,5,10,0:0:0:0:
218,285,109571,1,8,0:0:0:0:
149,295,109642,1,8,0:0:0:0:
79,305,109714,1,8,0:0:0:0:
10,315,109785,6,0,L|10:165,1,150.000006169081,10|0,0:0|0:0,0:0:0:0:
147,14,110071,1,10,0:0:0:0:
198,49,110142,1,0,0:0:0:0:
258,30,110214,2,0,L|330:37,1,69.999998072386,0|0,0:0|2:0,0:0:0:0:
502,133,110356,2,0,B|469:196|469:196|410:230,1,139.999996144772,10|0,0:0|0:0,0:0:0:0:
344,227,110571,1,0,0:0:0:0:
302,179,110642,2,0,L|232:198,1,69.999998072386,10|0,0:0|2:0,0:0:0:0:
26,132,110785,2,0,L|96:113,1,69.999998072386,10|0,0:0|0:0,0:0:0:0:
148,327,110928,6,0,P|209:370|272:343,1,150.000006169081,14|0,0:0|0:0,0:0:0:0:
365,167,111214,1,10,0:0:0:0:
334,112,111285,1,0,0:0:0:0:
280,79,111356,2,0,L|208:70,1,69.999998072386,0|0,0:0|2:0,0:0:0:0:
72,256,111499,2,0,L|213:220,1,139.999996144772,10|0,0:0|0:0,0:0:0:0:
269,203,111714,1,0,0:0:0:0:
329,186,111785,2,0,L|399:165,1,69.999998072386,10|0,0:0|2:0,0:0:0:0:
512,333,111928,1,0,0:0:0:0:
444,314,111999,1,0,0:0:0:0:
377,293,112071,6,0,B|304:274|304:274|231:291,1,150.000006169081,14|0,0:0|0:0,0:0:0:0:
21,327,112356,1,10,0:0:0:0:
35,257,112428,1,0,0:0:0:0:
49,188,112499,2,0,L|67:119,1,69.999998072386,0|0,0:0|2:0,0:0:0:0:
190,0,112642,2,0,P|232:59|213:127,1,139.999996144772,10|0,0:0|0:0,0:0:0:0:
168,170,112856,1,0,0:0:0:0:
197,234,112928,2,0,L|213:305,1,69.999998072386,10|0,0:0|2:0,0:0:0:0:
443,373,113071,2,0,L|427:302,1,69.999998072386,10|0,0:0|0:0,0:0:0:0:
325,83,113214,6,0,P|385:41|456:56,1,150.000006169081,10|0,0:0|0:0,0:0:0:0:
478,246,113499,1,10,0:0:0:0:
427,304,113571,1,0,0:0:0:0:
353,324,113642,2,0,L|279:328,1,69.999998072386,0|0,0:0|2:0,0:0:0:0:
99,304,113785,2,0,P|42:264|22:199,1,139.999996144772,10|0,0:0|0:0,0:0:0:0:
34,122,113999,1,0,0:0:0:0:
84,63,114071,6,0,L|160:63,1,69.999998072386,10|0,0:0|2:0,0:0:0:0:
313,22,114214,2,0,L|385:22,1,69.999998072386,10|0,0:0|2:0,0:0:0:0:
502,108,114356,6,0,L|476:253,1,139.999996144772,10|0,0:0|0:0,0:0:0:0:
427,304,114571,2,0,P|383:247|319:252,1,139.999996144772,10|0,0:0|0:0,0:0:0:0:
267,298,114785,2,0,P|173:341|92:213,1,279.999992289544,10|8,0:0|0:0,0:0:0:0:
234,0,115214,5,8,0:0:0:0:
426,152,115356,2,0,L|459:170,1,34.999999036193,2|2,0:0|0:0,0:0:0:0:
398,209,115428,2,0,L|418:239,1,34.999999036193,2|2,0:0|0:0,0:0:0:0:
338,227,115499,6,0,B|282:244|282:244|270:255|270:255|258:244|258:244|200:227,1,150.000006169081,4|8,0:0|0:0,0:0:0:0:
0,151,115785,1,10,0:0:0:0:
5,213,115856,1,0,0:0:0:0:
30,271,115928,2,0,L|99:295,1,69.999998072386,0|0,0:0|2:0,0:0:0:0:
300,352,116071,2,0,B|338:311|338:311|338:224,1,139.999996144772,10|0,0:0|0:0,0:0:0:0:
326,164,116285,1,0,0:0:0:0:
303,105,116356,2,0,L|303:31,1,69.999998072386,10|0,0:0|2:0,0:0:0:0:
486,17,116499,1,0,0:0:0:0:
502,78,116571,1,0,0:0:0:0:
485,138,116642,6,0,L|485:288,1,150.000006169081,10|0,0:0|0:0,0:0:0:0:
300,352,116928,1,10,0:0:0:0:
237,358,116999,1,0,0:0:0:0:
185,320,117071,2,0,P|176:283|182:247,1,69.999998072386,0|0,0:0|2:0,0:0:0:0:
233,91,117214,2,0,P|201:27|136:46,1,139.999996144772,10|0,0:0|0:0,0:0:0:0:
97,82,117428,1,0,0:0:0:0:
63,135,117499,2,0,L|42:207,1,69.999998072386,10|0,0:0|2:0,0:0:0:0:
112,375,117642,2,0,L|133:303,1,69.999998072386,10|0,0:0|0:0,0:0:0:0:
183,125,117785,6,0,P|256:101|329:128,1,150.000006169081,10|0,0:0|0:0,0:0:0:0:
451,272,118071,1,10,0:0:0:0:
492,318,118142,1,0,0:0:0:0:
488,381,118214,2,0,L|415:373,1,69.999998072386,0|0,0:0|2:0,0:0:0:0:
323,254,118356,6,0,L|250:246,1,69.999998072386,10|0,0:0|2:0,0:0:0:0:
104,308,118499,2,0,L|31:300,1,69.999998072386,10|0,0:0|0:0,0:0:0:0:
5,122,118642,2,0,L|78:114,1,69.999998072386,10|0,0:0|2:0,0:0:0:0:
248,169,118785,2,0,L|317:161,1,69.999998072386,10|0,0:0|0:0,0:0:0:0:
485,180,118928,6,0,P|504:112|462:44,1,150.000006169081,10|0,0:0|0:0,0:0:0:0:
294,14,119214,1,10,0:0:0:0:
242,50,119285,1,0,0:0:0:0:
181,35,119356,2,0,L|110:42,1,69.999998072386,0|0,0:0|2:0,0:0:0:0:
41,182,119499,1,10,0:0:0:0:
37,245,119571,1,0,0:0:0:0:
74,295,119642,2,0,L|96:263,1,34.999999036193,2|2,0:0|0:0,0:0:0:0:
131,321,119714,2,0,L|139:281,1,34.999999036193,2|2,0:0|0:0,0:0:0:0:
192,309,119785,2,0,P|221:281|251:267,1,69.999998072386,10|0,0:0|2:0,0:0:0:0:
389,215,119928,2,0,L|401:254,1,34.999999036193,2|2,0:0|0:0,0:0:0:0:
448,195,119999,2,0,L|451:233,1,34.999999036193,2|2,0:0|0:0,0:0:0:0:
506,219,120071,6,0,L|493:293,1,69.999998072386,10|0,0:0|2:0,0:0:0:0:
345,384,120214,2,0,L|357:315,1,69.999998072386,8|0,0:0|2:0,0:0:0:0:
309,163,120356,1,10,0:0:0:0:
297,100,120428,1,0,0:0:0:0:
314,39,120499,2,0,P|345:12|376:7,1,69.999998072386,0|0,0:0|2:0,0:0:0:0:
500,104,120642,2,0,B|473:177|473:177|421:217,1,139.999996144772,10|0,0:0|0:0,0:0:0:0:
369,247,120856,1,0,0:0:0:0:
308,228,120928,2,0,L|236:219,1,69.999998072386,10|0,0:0|2:0,0:0:0:0:
177,81,121071,2,0,L|105:72,1,69.999998072386,10|0,0:0|0:0,0:0:0:0:
4,228,121214,6,0,L|156:248,1,150.000006169081,10|0,0:0|0:0,0:0:0:0:
348,277,121499,1,10,0:0:0:0:
355,339,121571,1,0,0:0:0:0:
311,384,121642,2,0,L|237:372,1,69.999998072386,0|0,0:0|2:0,0:0:0:0:
66,338,121785,2,0,B|19:315|19:315|4:228,1,139.999996144772,10|0,0:0|0:0,0:0:0:0:
18,166,121999,1,0,0:0:0:0:
45,108,122071,2,0,L|113:89,1,69.999998072386,10|0,0:0|2:0,0:0:0:0:
263,43,122214,2,0,L|331:24,1,69.999998072386,8|2,0:0|0:0,0:0:0:0:
445,194,122356,5,10,0:0:0:0:
213,325,122499,1,8,0:0:0:0:
311,93,122642,1,8,0:0:0:0:
384,318,122785,5,8,0:0:0:0:
125,222,122928,1,8,0:0:0:0:
376,120,123071,1,8,0:0:0:0:
249,375,123214,5,8,0:0:0:0:
179,383,123285,1,8,0:0:0:0:
115,354,123356,1,8,0:0:0:0:
76,294,123428,1,8,0:0:0:0:
61,225,123499,6,0,L|76:73,1,150.000006169081,10|0,0:0|0:0,0:0:0:0:
241,17,123785,1,10,0:0:0:0:
262,75,123856,1,0,0:0:0:0:
236,133,123928,2,0,L|239:206,1,69.999998072386,0|0,0:0|2:0,0:0:0:0:
279,352,124071,2,0,P|340:380|405:355,1,139.999996144772,10|10,0:0|0:0,0:0:0:0:
446,307,124285,1,0,0:0:0:0:
466,247,124356,2,0,L|472:177,1,69.999998072386,0|0,0:0|2:0,0:0:0:0:
412,26,124499,2,0,L|426:65,1,34.999999036193,2|2,0:0|0:0,0:0:0:0:
362,66,124571,2,0,L|388:98,1,34.999999036193,2|2,0:0|0:0,0:0:0:0:
338,124,124642,6,0,L|363:273,1,150.000006169081,14|0,0:0|0:0,0:0:0:0:
213,376,124928,1,10,0:0:0:0:
160,341,124999,1,0,0:0:0:0:
145,279,125071,2,0,L|213:260,1,69.999998072386,0|0,0:0|2:0,0:0:0:0:
278,111,125214,2,0,P|270:48|203:27,1,139.999996144772,10|0,0:0|0:0,0:0:0:0:
147,55,125428,1,0,0:0:0:0:
88,32,125499,2,0,L|15:48,1,69.999998072386,10|0,0:0|2:0,0:0:0:0:
0,197,125642,2,0,L|68:182,1,69.999998072386,10|0,0:0|0:0,0:0:0:0:
217,92,125785,6,0,L|192:241,1,150.000006169081,10|0,0:0|0:0,0:0:0:0:
60,367,126071,1,10,0:0:0:0:
34,309,126142,1,0,0:0:0:0:
55,249,126214,2,0,L|126:240,1,69.999998072386,0|0,0:0|2:0,0:0:0:0:
305,289,126356,2,0,L|235:297,1,69.999998072386,10|0,0:0|2:0,0:0:0:0:
435,367,126499,1,10,0:0:0:0:
479,321,126571,1,8,0:0:0:0:
495,260,126642,2,0,P|502:224|497:187,1,69.999998072386,10|0,0:0|2:0,0:0:0:0:
421,15,126785,2,0,P|414:51|419:88,1,69.999998072386,10|0,0:0|0:0,0:0:0:0:
428,221,126928,6,0,L|278:204,1,150.000006169081,10|0,0:0|0:0,0:0:0:0:
115,161,127214,1,10,0:0:0:0:
64,123,127285,1,0,0:0:0:0:
37,66,127356,2,0,B|51:32|51:32|87:12,1,69.999998072386,0|0,0:0|2:0,0:0:0:0:
229,63,127499,2,0,L|242:134,1,69.999998072386,10|0,0:0|2:0,0:0:0:0:
271,285,127642,1,10,0:0:0:0:
312,332,127714,1,0,0:0:0:0:
371,311,127785,2,0,L|442:318,1,69.999998072386,0|0,0:0|2:0,0:0:0:0:
512,187,127928,2,0,L|471:198,1,34.999999036193,2|2,0:0|0:0,0:0:0:0:
480,132,127999,2,0,L|441:163,1,34.999999036193,2|2,0:0|0:0,0:0:0:0:
428,97,128071,6,0,L|354:108,1,69.999998072386,10|0,0:0|2:0,0:0:0:0:
328,259,128214,2,0,L|402:248,1,69.999998072386,10|0,0:0|2:0,0:0:0:0:
378,38,128356,1,10,0:0:0:0:
315,47,128428,1,0,0:0:0:0:
253,57,128499,2,0,L|179:68,1,69.999998072386,0|0,0:0|2:0,0:0:0:0:
23,141,128642,2,0,P|17:208|64:261,1,139.999996144772,10|0,0:0|0:0,0:0:0:0:
125,252,128856,1,0,0:0:0:0:
168,298,128928,2,0,L|240:309,1,69.999998072386,10|0,0:0|2:0,0:0:0:0:
409,354,129071,2,0,L|437:376,1,34.999999036193,10|2,0:0|0:0,0:0:0:0:
464,313,129142,1,0,0:0:0:0:
494,249,129214,6,0,B|494:155|494:155|459:112,1,150.000006169081,14|0,0:0|0:0,0:0:0:0:
301,12,129499,1,10,0:0:0:0:
234,34,129571,1,0,0:0:0:0:
164,28,129642,2,0,L|88:38,1,69.999998072386,0|0,0:0|2:0,0:0:0:0:
28,204,129785,2,0,P|84:251|154:229,1,139.999996144772,10|0,0:0|0:0,0:0:0:0:
202,198,129999,1,0,0:0:0:0:
264,230,130071,2,0,L|292:304,1,69.999998072386,10|0,0:0|2:0,0:0:0:0:
93,384,130214,2,0,L|65:310,1,69.999998072386,10|0,0:0|0:0,0:0:0:0:
154,96,130356,6,0,P|238:87|293:134,1,160.000000476838,14|0,0:0|0:0,0:0:0:0:
201,364,130642,1,10,0:0:0:0:
136,325,130714,1,0,0:0:0:0:
99,259,130785,2,0,P|85:225|90:178,1,75.0000030845407,0|0,0:0|2:0,0:0:0:0:
263,5,130928,5,10,0:0:0:0:
377,241,131071,1,10,0:0:0:0:
150,205,131214,1,10,0:0:0:0:
353,19,131356,1,10,0:0:0:0:
490,227,131499,5,10,0:0:0:0:
236,155,131642,2,0,L|194:148,4,37.5000015422703,2|2|2|2|8,0:0|0:0|0:0|0:0|0:0,0:0:0:0:
485,333,131928,5,10,0:0:0:0:
190,235,132071,2,0,L|143:235,4,37.5000015422703,2|2|2|2|8,0:0|0:0|0:0|0:0|0:0,0:0:0:0:
413,287,132356,6,0,L|413:328,6,37.5000015422703,2|2|2|2|2|2|2,0:0|0:0|0:0|0:0|0:0|0:0|0:0,0:0:0:0:
447,225,132642,2,0,P|483:127|343:144,1,300.000012338163,10|0,0:0|0:0,0:0:0:0:
295,343,133071,2,0,B|226:398|155:341|155:341|85:284|15:341,1,300.000012338163,10|8,0:0|0:0,0:0:0:0:
16,200,133499,5,8,0:0:0:0:
80,160,133571,1,8,0:0:0:0:
153,145,133642,1,8,0:0:0:0:
228,150,133714,1,8,0:0:0:0:
299,172,133785,2,0,B|341:183|371:222|371:266|371:266|371:309|342:348|300:360|300:360|273:286|205:234|126:230|126:230|85:222|44:248|35:289|35:289|25:330|50:371|90:382|90:382|131:393|173:370|186:330|186:330|198:290|177:247|137:233|137:233|92:226|55:194|41:151|41:151|27:108|37:61|69:28|69:28|79:64|106:92|142:102|142:102|177:113|215:104|243:80|243:80|261:63|264:35|248:16|248:16|232:-4|205:-8|184:7|184:7|164:21|158:48|171:70|171:70|184:91|211:98|233:87|233:87|316:30|428:46|491:125|491:125|455:144|434:183|439:224|439:224|444:265|473:298|513:308,1,2240,4|0,0:0|2:0,0:0:0:0:
