osu file format v14

[General]
AudioFilename: audio.mp3
AudioLeadIn: 0
PreviewTime: 97214
Countdown: 0
SampleSet: Soft
StackLeniency: 0.4
Mode: 0
LetterboxInBreaks: 0
WidescreenStoryboard: 1

[Editor]
DistanceSpacing: 1
BeatDivisor: 4
GridSize: 4
TimelineZoom: 2.799999

[Metadata]
Title:Grievous Lady
TitleUnicode:Grievous Lady
Artist:Team Grimoire vs. Laur
ArtistUnicode:Team Grimoire vs. Laur
Creator:Feruver
Version:Sly's Extra
Source:Arcaea
Tags:sly instinct AJiSAI IPhong Avoidedoki JackTVN Azrael_- NotABox KittyTrax Bubblekid FinallyV XzeniFX Cubby Jelljel GAOHAO arcaea Melodic Darkcore vicious labyrinth electronic video game instrumental
BeatmapID:2528448
BeatmapSetID:778719

[Difficulty]
HPDrainRate:5.4
CircleSize:4.4
OverallDifficulty:9.4
ApproachRate:9.6
SliderMultiplier:1.70000000596047
SliderTickRate:1

[Events]
//Background and Video events
0,0,"DNx2wPjUIAAo71C.jpg",0,0
Video,0,"Grievous Lady.mp4"
//Break Periods
2,17413,18990
2,67699,76133
//Storyboard Layer 0 (Background)
//Storyboard Layer 1 (Fail)
//Storyboard Layer 2 (Pass)
//Storyboard Layer 3 (Foreground)
//Storyboard Layer 4 (Overlay)
//Storyboard Sound Samples

[TimingPoints]
1214,285.714285714286,4,2,1,40,1,0
1214,-200,4,2,1,40,0,0
5785,-142.857142857143,4,2,1,50,0,0
11785,-142.857142857143,4,2,1,30,0,0
11856,-142.857142857143,4,2,1,50,0,0
17214,-142.857142857143,4,2,7,50,0,0
19499,-125,4,2,6,50,0,0
21214,-111.111111111111,4,2,6,50,0,0
21785,-125,4,2,6,50,0,0
23499,-111.111111111111,4,2,6,50,0,0
24071,-125,4,2,6,50,0,0
25785,-111.111111111111,4,2,6,50,0,0
26356,-125,4,2,6,50,0,0
28071,-111.111111111111,4,2,6,50,0,0
28642,-100,4,2,1,50,0,0
37785,-83.3333333333333,4,1,2,60,0,1
37856,-83.3333333333333,4,1,1,60,0,1
45785,-66.6666666666667,4,1,1,60,0,1
46714,-83.3333333333333,4,1,1,60,0,1
52785,-66.6666666666667,4,1,1,60,0,1
52928,-83.3333333333333,4,1,1,60,0,1
53785,-76.9230769230769,4,1,1,60,0,0
54071,-71.4285714285714,4,1,1,60,0,0
54356,-66.6666666666667,4,1,1,60,0,0
54642,-62.5,4,1,1,60,0,0
54928,-76.9230769230769,4,1,1,60,0,0
56071,-66.6666666666667,4,1,2,60,0,1
56142,-66.6666666666667,4,1,1,60,0,1
65214,-125,4,1,2,50,0,0
65499,-125,4,1,2,40,0,0
65785,-125,4,1,2,35,0,0
66071,-125,4,1,2,30,0,0
66356,-125,4,1,2,25,0,0
66642,-125,4,1,2,20,0,0
66928,-125,4,1,2,15,0,0
67214,-125,4,1,2,5,0,0
67499,-125,4,1,2,50,0,0
76642,-142.857142857143,4,2,1,50,0,0
88071,-100,4,2,6,50,0,0
92642,-100,4,1,1,50,0,0
94928,-142.857142857143,4,2,1,50,0,0
97214,-66.6666666666667,4,1,2,60,0,1
97356,-71.4285714285714,4,1,1,60,0,1
98356,-66.6666666666667,4,1,1,60,0,1
98499,-71.4285714285714,4,1,1,60,0,1
99499,-66.6666666666667,4,1,1,60,0,1
99642,-71.4285714285714,4,1,1,60,0,1
100642,-66.6666666666667,4,1,1,60,0,1
100785,-71.4285714285714,4,1,1,60,0,1
101785,-66.6666666666667,4,1,1,60,0,1
101928,-71.4285714285714,4,1,1,60,0,1
102928,-66.6666666666667,4,1,1,60,0,1
103071,-71.4285714285714,4,1,1,60,0,1
106356,-66.6666666666667,4,1,1,60,0,1
106499,-71.4285714285714,4,1,2,60,0,1
106571,-71.4285714285714,4,1,1,60,0,1
107499,-66.6666666666667,4,1,1,60,0,1
107642,-71.4285714285714,4,1,1,60,0,1
108642,-66.6666666666667,4,1,1,60,0,1
108785,-71.4285714285714,4,1,1,60,0,1
109785,-66.6666666666667,4,1,1,60,0,1
109928,-71.4285714285714,4,1,1,60,0,1
110928,-66.6666666666667,4,1,2,60,0,1
111071,-71.4285714285714,4,1,1,60,0,1
112071,-66.6666666666667,4,1,2,60,0,1
112214,-71.4285714285714,4,1,1,60,0,1
113214,-66.6666666666667,4,1,1,60,0,1
113356,-71.4285714285714,4,1,1,60,0,1
115499,-66.6666666666667,4,1,2,60,0,1
115642,-71.4285714285714,4,1,1,60,0,1
116642,-66.6666666666667,4,1,1,60,0,1
116785,-71.4285714285714,4,1,1,60,0,1
117785,-66.6666666666667,4,1,1,60,0,1
117928,-71.4285714285714,4,1,1,60,0,1
118928,-66.6666666666667,4,1,1,60,0,1
119071,-71.4285714285714,4,1,1,60,0,1
121214,-66.6666666666667,4,1,1,60,0,1
121356,-71.4285714285714,4,1,1,60,0,1
123499,-66.6666666666667,4,1,1,60,0,1
123642,-71.4285714285714,4,1,1,60,0,1
124642,-66.6666666666667,4,1,2,60,0,1
124785,-71.4285714285714,4,1,1,60,0,1
125785,-66.6666666666667,4,1,1,60,0,1
125928,-71.4285714285714,4,1,1,60,0,1
126928,-66.6666666666667,4,1,1,60,0,1
127071,-71.4285714285714,4,1,1,60,0,1
129214,-66.6666666666667,4,1,2,60,0,1
129356,-71.4285714285714,4,1,1,60,0,1
130356,-62.5,4,1,2,60,0,1
130499,-66.6666666666667,4,1,1,60,0,1
132928,-66.6666666666667,4,1,1,5,0,1
132964,-66.6666666666667,4,1,1,60,0,1
133356,-66.6666666666667,4,1,1,5,0,1
133392,-66.6666666666667,4,1,1,60,0,1
133785,-142.857142857143,4,2,7,35,0,0
134928,-142.857142857143,4,2,7,25,0,0
136071,-142.857142857143,4,2,7,15,0,0
137214,-142.857142857143,4,2,7,5,0,0
138356,-142.857142857143,4,2,7,5,0,0

[Colours]
Combo1 : 206,119,106
Combo2 : 30,77,123
Combo3 : 162,51,139
Combo4 : 51,64,183
Combo5 : 39,128,180
Combo6 : 96,39,97

[HitObjects]
464,108,1214,6,0,L|476:196,1,85.0000002980235
340,354,1785,1,0,0:0:0:0:
264,296,1928,1,0,0:0:0:0:
251,196,2071,1,0,0:0:0:0:
310,114,2214,1,0,0:0:0:0:
401,139,2356,5,0,0:0:0:0:
367,43,2499,1,0,0:0:0:0:
272,23,2642,1,0,0:0:0:0:
188,76,2785,1,0,0:0:0:0:
144,165,2928,2,0,L|144:252,1,85.0000002980235
298,377,3499,6,0,L|209:357,1,85.0000002980235
17,301,4071,1,0,0:0:0:0:
59,98,4356,1,0,0:0:0:0:
144,250,4642,1,0,0:0:0:0:
206,68,4928,1,0,0:0:0:0:
266,263,5214,1,0,0:0:0:0:
347,77,5499,1,0,0:0:0:0:
432,232,5785,5,4,0:0:0:0:
480,77,5928,1,0,0:0:0:0:
324,110,6071,2,0,L|255:110,1,59.4999983928206
109,69,6356,5,0,0:0:0:0:
42,264,6642,2,0,L|127:283,1,59.4999983928206
191,309,6928,2,0,L|264:290,1,59.4999983928206
356,257,7214,1,0,0:0:0:0:
462,219,7356,1,0,0:0:0:0:
446,332,7499,5,0,0:0:0:0:
356,257,7642,1,0,0:0:0:0:
385,138,7785,2,0,L|389:66,1,59.4999983928206
292,0,8071,6,0,L|288:72,1,59.4999983928206
256,168,8356,1,0,0:0:0:0:
152,221,8499,1,0,0:0:0:0:
159,81,8642,2,0,L|89:61,1,59.4999983928206
66,150,8928,2,0,L|9:187,1,59.4999983928206
81,263,9214,2,0,L|97:325,3,59.4999983928206
186,307,9785,2,0,L|234:360,3,59.4999983928206
309,308,10356,5,6,0:0:0:0:
422,159,10499,1,2,0:0:0:0:
472,328,10642,1,2,0:0:0:0:
288,221,10785,1,2,0:0:0:0:
389,83,10928,2,0,L|456:83,1,59.4999983928206,2|0,0:0|0:0,0:0:0:0:
496,240,11214,2,0,L|429:240,1,59.4999983928206,2|0,0:0|0:0,0:0:0:0:
308,125,11499,2,0,P|258:110|188:137,1,118.999996785641,6|0,0:0|0:0,0:0:0:0:
89,330,12071,5,2,0:0:0:0:
199,319,12214,1,2,0:0:0:0:
309,308,12356,1,2,0:0:0:0:
309,308,12642,2,0,B|348:308|385:290|408:259|408:259|432:229|440:189|430:151|430:151|412:191|368:212|325:201|325:201|283:191|254:152|256:108|256:108|258:65|290:29|333:22|333:22|376:15|418:40|433:81,1,714,6|4,0:0|0:0,0:0:0:0:
346,108,14928,2,0,B|341:64|309:27|265:18|265:18|222:8|177:27|153:65|153:65|130:103|134:152|162:186|162:186|140:158|101:149|69:163|69:163|36:178|18:213|24:248|24:248|31:283|60:310|96:312|96:312|131:314|164:292|175:258|175:258|231:244|288:270|316:320,1,952,6|4,0:0|0:0,0:0:0:0:
430,154,19499,6,0,L|456:227,2,68.0000002384188,4|0|0,1:0|0:0|0:0,0:0:0:0:
362,211,19928,2,0,L|362:288,2,68.0000002384188
273,212,20356,2,0,L|273:289,2,68.0000002384188
205,155,20785,2,0,L|179:228,2,68.0000002384188
293,108,21214,6,0,L|270:34,1,76.4999979336265,4|0,1:0|0:0,0:0:0:0:
114,21,21499,2,0,L|91:95,1,76.4999979336265,4|0,1:0|0:0,0:0:0:0:
44,223,21785,6,0,P|38:264|46:292,2,68.0000002384188,4|0|0,1:0|0:0|0:0,0:0:0:0:
129,255,22214,2,0,P|137:295|154:319,2,68.0000002384188
221,256,22642,2,0,P|253:281|281:288,2,68.0000002384188
290,196,23071,2,0,P|329:209|358:206,2,68.0000002384188
210,25,23499,5,4,1:0:0:0:
333,138,23642,1,4,1:0:0:0:
467,40,23785,2,0,L|456:121,1,76.4999979336265,4|0,1:0|0:0,0:0:0:0:
451,255,24071,6,0,B|467:294|467:294|493:310,2,68.0000002384188,4|0|0,1:0|0:0|0:0,0:0:0:0:
382,311,24499,2,0,B|398:350|398:350|424:366,2,68.0000002384188
313,254,24928,2,0,B|297:215|297:215|271:199,2,68.0000002384188
244,310,25356,2,0,B|228:271|228:271|202:255,2,68.0000002384188
149,344,25785,6,0,L|64:335,1,76.4999979336265,4|0,1:0|0:0,0:0:0:0:
15,173,26071,2,0,L|91:181,1,76.4999979336265,4|0,1:0|0:0,0:0:0:0:
259,199,26356,6,0,L|327:199,2,68.0000002384188,4|0|0,1:0|0:0|0:0,0:0:0:0:
303,122,26785,2,0,L|371:122,2,68.0000002384188
213,122,27214,2,0,L|145:122,2,68.0000002384188
169,198,27643,2,0,L|101:198,2,68.0000002384188
241,285,28071,5,4,1:0:0:0:
109,382,28214,1,4,1:0:0:0:
21,222,28356,2,0,L|40:139,1,76.4999979336265,4|0,1:0|0:0,0:0:0:0:
127,20,28642,6,0,L|301:40,1,170.000000596047,4|0,1:0|0:0,0:0:0:0:
447,97,29071,2,0,L|273:117,1,170.000000596047,4|0,1:0|0:0,0:0:0:0:
127,174,29499,2,0,L|301:194,1,170.000000596047,4|0,1:0|0:0,0:0:0:0:
447,251,29928,2,0,L|273:271,1,170.000000596047,4|0,1:0|0:0,0:0:0:0:
117,329,30356,5,4,1:0:0:0:
206,70,30642,1,4,1:0:0:0:
400,185,30928,6,0,B|424:269|424:269|400:349,1,170.000000596047,4|0,1:0|0:0,0:0:0:0:
252,345,31356,2,0,B|228:261|228:261|252:181,1,170.000000596047,4|0,1:0|0:0,0:0:0:0:
476,185,31785,2,0,B|500:269|500:269|476:349,1,170.000000596047,4|0,1:0|0:0,0:0:0:0:
328,345,32213,2,0,B|304:261|304:261|328:181,1,170.000000596047,4|0,1:0|0:0,0:0:0:0:
406,54,32642,5,4,1:0:0:0:
378,261,32785,1,4,1:0:0:0:
203,161,32928,2,0,L|107:161,1,85.0000002980235,4|0,1:0|0:0,0:0:0:0:
26,302,33214,6,0,P|85:353|178:326,1,170.000000596047,4|0,1:0|0:0,0:0:0:0:
260,193,33642,2,0,P|201:142|108:169,1,170.000000596047,4|0,1:0|0:0,0:0:0:0:
242,332,34071,2,0,P|321:351|385:299,1,170.000000596047,4|0,1:0|0:0,0:0:0:0:
474,151,34499,2,0,P|394:131|330:183,1,170.000000596047,4|0,1:0|0:0,0:0:0:0:
456,325,34928,5,4,1:0:0:0:
172,245,35214,1,4,1:0:0:0:
263,20,35499,6,0,B|289:105|219:105|248:201,1,170.000000596047,4|0,1:0|0:0,0:0:0:0:
58,20,35928,2,0,B|32:105|102:105|73:201,1,170.000000596047,4|0,1:0|0:0,0:0:0:0:
199,48,36356,2,0,B|310:33|310:33|362:62,1,170.000000596047,4|4,1:0|1:0,0:0:0:0:
360,61,37214,1,2,0:0:0:0:
360,61,37499,1,2,0:0:0:0:
450,188,37785,5,12,0:0:0:0:
271,262,37928,6,0,L|211:262,1,50.9999986224177,0|0,0:0|2:0,0:0:0:0:
56,209,38071,1,10,0:0:0:0:
43,186,38142,1,0,0:0:0:0:
39,160,38214,1,0,0:0:0:0:
41,134,38285,1,0,0:0:0:0:
53,100,38356,1,10,0:0:0:0:
76,72,38428,1,0,0:0:0:0:
108,57,38499,1,0,0:0:0:0:
143,53,38571,1,0,0:0:0:0:
187,61,38642,1,10,0:0:0:0:
231,74,38714,1,0,0:0:0:0:
276,75,38785,1,0,0:0:0:0:
320,65,38856,1,0,0:0:0:0:
362,46,38928,6,0,L|422:52,1,50.9999986224177,10|0,0:0|0:0,0:0:0:0:
505,196,39071,2,0,L|445:190,1,50.9999986224177
302,155,39214,1,10,0:0:0:0:
259,191,39285,1,0,0:0:0:0:
240,244,39356,1,0,0:0:0:0:
251,299,39428,1,0,0:0:0:0:
288,342,39499,1,10,0:0:0:0:
341,360,39571,1,0,0:0:0:0:
396,349,39642,1,0,0:0:0:0:
438,312,39714,1,0,0:0:0:0:
456,259,39785,6,0,L|441:208,1,50.9999986224177,10|0,0:0|2:0,0:0:0:0:
392,39,39928,2,0,L|377:90,1,50.9999986224177,10|0,0:0|2:0,0:0:0:0:
329,282,40071,2,0,L|314:231,1,50.9999986224177,10|0,0:0|2:0,0:0:0:0:
248,58,40214,6,0,B|219:58|219:58|206:63|206:63|185:45|185:45|153:45,1,101.999997244835,0|10,0:0|0:0,0:0:0:0:
85,261,40499,6,0,B|117:261|117:261|138:279|138:279|151:274|151:274|180:274,1,101.999997244835,0|10,0:0|0:0,0:0:0:0:
248,58,40785,6,0,B|220:48|220:48|206:48|206:48|193:24|193:24|163:13,1,101.999997244835,0|10,0:0|0:0,0:0:0:0:
85,261,41071,6,0,B|115:271|115:271|128:296|128:296|142:295|142:295|169:305,1,101.999997244835,0|10,0:0|0:0,0:0:0:0:
222,324,41285,1,0,0:0:0:0:
272,332,41356,1,0,0:0:0:0:
321,322,41427,1,0,0:0:0:0:
364,295,41499,1,10,0:0:0:0:
394,254,41570,1,0,0:0:0:0:
408,205,41642,1,0,0:0:0:0:
404,155,41713,1,0,0:0:0:0:
381,109,41785,2,0,L|321:99,1,50.9999986224177,10|0,0:0|2:0,0:0:0:0:
157,117,41928,5,10,0:0:0:0:
122,153,41999,1,0,0:0:0:0:
113,202,42071,1,0,0:0:0:0:
132,249,42142,1,0,0:0:0:0:
174,277,42214,1,10,0:0:0:0:
224,278,42285,1,0,0:0:0:0:
267,252,42356,1,10,0:0:0:0:
330,100,42499,6,0,L|280:82,1,50.9999986224177,0|0,0:0|2:0,0:0:0:0:
157,30,42642,1,10,0:0:0:0:
132,21,42714,1,0,0:0:0:0:
106,18,42785,1,0,0:0:0:0:
81,23,42856,1,0,0:0:0:0:
50,41,42928,1,10,0:0:0:0:
32,71,42999,1,0,0:0:0:0:
29,106,43071,1,0,0:0:0:0:
45,138,43142,1,0,0:0:0:0:
71,175,43214,1,10,0:0:0:0:
92,215,43285,1,0,0:0:0:0:
100,259,43356,1,0,0:0:0:0:
84,304,43428,1,0,0:0:0:0:
55,339,43499,2,0,L|5:351,3,50.9999986224177,10|0|0|0,0:0|0:0|0:0|0:0,0:0:0:0:
42,226,43785,6,0,L|92:214,1,50.9999986224177,10|0,0:0|2:0,0:0:0:0:
173,335,43928,2,0,L|223:323,1,50.9999986224177,10|0,0:0|2:0,0:0:0:0:
302,197,44071,2,0,L|352:185,1,50.9999986224177,10|0,0:0|2:0,0:0:0:0:
480,250,44214,2,0,L|504:243,4,25.4999993112088,2|2|2|2|10,0:0|0:0|0:0|0:0|0:0,0:0:0:0:
365,358,44499,1,10,0:0:0:0:
229,249,44642,6,0,L|229:189,1,50.9999986224177,10|0,0:0|2:0,0:0:0:0:
250,52,44785,1,0,0:0:0:0:
304,40,44856,1,0,0:0:0:0:
359,28,44928,2,0,L|414:28,1,50.9999986224177,10|0,0:0|2:0,0:0:0:0:
478,190,45071,5,0,0:0:0:0:
424,202,45142,1,0,0:0:0:0:
369,214,45214,2,0,L|314:214,1,50.9999986224177,10|0,0:0|2:0,0:0:0:0:
304,40,45356,5,0,0:0:0:0:
358,28,45427,1,0,0:0:0:0:
413,16,45499,2,0,L|468:16,1,50.9999986224177,10|0,0:0|2:0,0:0:0:0:
424,202,45642,5,0,0:0:0:0:
370,214,45713,1,0,0:0:0:0:
315,226,45785,2,0,B|275:232|275:232|250:227|250:227|225:232|225:232|185:227,1,127.500005310774,10|0,0:0|0:0,0:0:0:0:
37,167,46071,5,10,0:0:0:0:
13,114,46142,1,0,0:0:0:0:
28,58,46214,2,0,P|77:22|138:50,1,127.500005310774,0|10,0:0|0:0,0:0:0:0:
103,182,46499,1,10,0:0:0:0:
87,237,46571,1,0,0:0:0:0:
101,292,46642,2,0,P|115:323|136:348,1,63.7500026553872,10|0,0:0|2:0,0:0:0:0:
289,327,46785,5,10,0:0:0:0:
289,327,47071,5,10,0:0:0:0:
443,378,47214,1,10,0:0:0:0:
464,364,47285,1,0,0:0:0:0:
480,344,47356,1,0,0:0:0:0:
488,319,47428,1,0,0:0:0:0:
486,283,47499,1,10,0:0:0:0:
473,249,47571,1,0,0:0:0:0:
448,222,47642,1,0,0:0:0:0:
416,204,47714,1,0,0:0:0:0:
370,202,47785,1,10,0:0:0:0:
327,218,47856,1,0,0:0:0:0:
282,230,47928,1,0,0:0:0:0:
238,221,47999,1,0,0:0:0:0:
202,191,48071,6,0,L|192:138,1,50.9999986224177,10|0,0:0|0:0,0:0:0:0:
299,97,48214,2,0,L|289:44,1,50.9999986224177
176,17,48356,1,10,0:0:0:0:
122,31,48428,1,0,0:0:0:0:
84,71,48499,1,0,0:0:0:0:
71,125,48571,1,0,0:0:0:0:
88,177,48642,6,0,P|105:201|134:222,1,50.9999986224177,10|0,0:0|2:0,0:0:0:0:
253,290,48785,1,2,0:0:0:0:
253,290,48856,2,0,L|303:284,2,50.9999986224177,2|0|0,0:0|2:0|2:0,0:0:0:0:
114,329,49071,2,0,B|63:329|63:329|13:298,1,101.999997244835,2|10,0:0|0:0,0:0:0:0:
9,135,49356,2,0,B|24:63|24:63|41:103,2,101.999997244835,0|10|0,0:0|0:0|0:0,0:0:0:0:
86,257,49785,6,0,L|130:216,1,50.9999986224177,10|0,0:0|2:0,0:0:0:0:
184,343,49928,2,0,L|201:285,1,50.9999986224177,10|0,0:0|2:0,0:0:0:0:
323,343,50071,2,0,L|308:294,1,50.9999986224177,10|0,0:0|2:0,0:0:0:0:
421,257,50214,2,0,L|383:222,1,50.9999986224177,10|0,0:0|2:0,0:0:0:0:
330,80,50356,5,10,0:0:0:0:
359,39,50428,1,0,0:0:0:0:
405,20,50499,1,0,0:0:0:0:
455,30,50571,1,0,0:0:0:0:
490,66,50642,1,10,0:0:0:0:
500,115,50714,1,0,0:0:0:0:
482,162,50785,1,0,0:0:0:0:
441,191,50856,1,0,0:0:0:0:
391,193,50928,6,0,L|331:185,1,50.9999986224177,10|0,0:0|2:0,0:0:0:0:
254,82,51071,2,0,L|194:74,1,50.9999986224177,10|0,0:0|2:0,0:0:0:0:
132,211,51214,2,0,L|72:203,1,50.9999986224177,10|0,0:0|2:0,0:0:0:0:
8,87,51356,1,10,0:0:0:0:
8,87,51642,5,10,0:0:0:0:
152,20,51785,1,10,0:0:0:0:
173,33,51856,1,0,0:0:0:0:
186,54,51928,1,0,0:0:0:0:
191,78,51999,1,0,0:0:0:0:
185,113,52071,1,10,0:0:0:0:
167,143,52142,1,0,0:0:0:0:
138,164,52214,1,0,0:0:0:0:
118,193,52285,1,0,0:0:0:0:
107,237,52356,1,10,0:0:0:0:
115,282,52428,1,0,0:0:0:0:
144,316,52499,1,0,0:0:0:0:
187,332,52571,1,0,0:0:0:0:
232,325,52642,6,0,L|289:314,1,50.9999986224177,10|0,0:0|0:0,0:0:0:0:
419,282,52785,2,0,P|458:224|431:170,1,127.500005310774,0|10,0:0|0:0,0:0:0:0:
400,149,52999,1,0,0:0:0:0:
364,119,53071,1,0,0:0:0:0:
343,78,53142,1,0,0:0:0:0:
351,32,53214,6,0,L|401:30,1,50.9999986224177,10|0,0:0|2:0,0:0:0:0:
511,112,53356,2,0,L|461:114,1,50.9999986224177,10|0,0:0|2:0,0:0:0:0:
312,205,53499,2,0,L|362:203,1,50.9999986224177,10|0,0:0|2:0,0:0:0:0:
469,279,53642,2,0,L|419:281,1,50.9999986224177,10|0,0:0|2:0,0:0:0:0:
294,344,53785,6,0,B|226:344|226:344|187:315,1,110.499995329142,10|0,0:0|2:0,0:0:0:0:
294,344,54071,6,0,B|226:344|226:344|186:298,1,118.999996785641,0|0,0:0|2:0,0:0:0:0:
294,344,54356,6,0,B|226:344|226:344|191:288,1,127.500005310774,10|0,0:0|2:0,0:0:0:0:
294,344,54642,6,0,B|226:344|226:344|198:283,1,136.000000476838
187,248,54856,1,0,0:0:0:0:
190,210,54928,2,0,L|202:150,1,55.2499976645711,10|0,0:0|2:0,0:0:0:0:
330,64,55071,5,0,0:0:0:0:
330,64,55142,1,0,0:0:0:0:
330,64,55214,2,0,L|271:78,1,55.2499976645711,0|0,0:0|2:0,0:0:0:0:
97,116,55356,1,0,0:0:0:0:
97,116,55428,1,0,0:0:0:0:
97,116,55499,5,0,0:0:0:0:
327,201,55642,1,0,0:0:0:0:
184,25,55785,1,0,0:0:0:0:
73,266,55928,1,0,0:0:0:0:
231,94,56071,6,0,L|358:67,1,127.500005310774,14|0,0:0|0:0,0:0:0:0:
425,53,56285,1,0,0:0:0:0:
425,53,56356,1,10,0:0:0:0:
494,161,56499,2,0,L|486:230,1,63.7500026553872
472,339,56642,6,0,P|425:379|357:362,1,127.500005310774,10|0,0:0|0:0,0:0:0:0:
263,228,56856,1,0,0:0:0:0:
263,228,56928,2,0,P|309:187|377:204,1,127.500005310774,10|0,0:0|0:0,0:0:0:0:
290,350,57142,1,0,0:0:0:0:
290,350,57214,6,0,P|231:369|175:326,1,127.500005310774,10|0,0:0|0:0,0:0:0:0:
71,190,57428,1,0,0:0:0:0:
71,190,57500,2,0,P|129:169|185:211,1,127.500005310774,10|0,0:0|0:0,0:0:0:0:
105,357,57785,5,10,0:0:0:0:
14,133,57928,1,0,0:0:0:0:
215,268,58071,1,10,0:0:0:0:
0,296,58214,1,10,0:0:0:0:
87,104,58356,6,0,L|213:133,1,127.500005310774,10|0,0:0|0:0,0:0:0:0:
280,158,58571,1,0,0:0:0:0:
280,158,58642,1,10,0:0:0:0:
445,211,58785,2,0,L|508:211,1,63.7500026553872
458,48,58928,2,0,B|413:19|413:19|333:26,1,127.500005310774,10|0,0:0|0:0,0:0:0:0:
169,118,59214,5,10,0:0:0:0:
169,118,59285,1,8,0:0:0:0:
169,118,59356,1,8,0:0:0:0:
169,118,59428,1,8,0:0:0:0:
169,118,59499,2,0,P|157:179|180:241,1,127.500005310774,10|0,0:0|0:0,0:0:0:0:
311,377,59785,5,10,0:0:0:0:
484,252,59928,1,10,0:0:0:0:
245,172,60071,2,0,L|261:302,1,127.500005310774,10|0,0:0|0:0,0:0:0:0:
279,368,60285,1,0,0:0:0:0:
279,368,60356,1,10,0:0:0:0:
407,255,60499,2,0,L|407:188,1,63.7500026553872
366,56,60642,6,0,P|304:30|238:32,1,127.500005310774,10|0,0:0|0:0,0:0:0:0:
177,47,60856,1,0,0:0:0:0:
177,47,60928,1,10,0:0:0:0:
104,183,61071,2,0,L|116:248,1,63.7500026553872
178,373,61214,6,0,B|207:319|207:319|195:247,1,127.500005310774,10|0,0:0|0:0,0:0:0:0:
52,117,61428,1,0,0:0:0:0:
52,117,61499,2,0,B|23:171|23:171|35:243,1,127.500005310774,10|0,0:0|0:0,0:0:0:0:
216,185,61714,1,0,0:0:0:0:
216,185,61785,6,0,L|345:169,1,127.500005310774,10|0,0:0|0:0,0:0:0:0:
212,12,61999,1,0,0:0:0:0:
212,12,62071,2,0,L|83:28,1,127.500005310774,10|0,0:0|0:0,0:0:0:0:
0,218,62356,5,10,0:0:0:0:
241,94,62499,1,10,0:0:0:0:
0,21,62642,1,10,0:0:0:0:
62,278,62785,1,10,0:0:0:0:
241,94,62928,6,0,L|370:78,1,127.500005310774,10|8,0:0|0:0,0:0:0:0:
440,74,63142,1,8,0:0:0:0:
440,74,63214,1,10,0:0:0:0:
500,194,63356,2,0,L|491:260,1,63.7500026553872
440,377,63499,5,10,0:0:0:0:
386,174,63642,2,0,L|377:240,1,63.7500026553872
326,377,63785,5,10,0:0:0:0:
272,154,63928,2,0,L|263:220,1,63.7500026553872
212,377,64071,5,10,0:0:0:0:
36,316,64214,1,8,0:0:0:0:
36,316,64285,1,8,0:0:0:0:
36,316,64356,2,0,P|20:255|47:199,1,127.500005310774,10|0,0:0|0:0,0:0:0:0:
200,65,64642,5,10,0:0:0:0:
243,38,64714,1,8,0:0:0:0:
292,27,64785,1,8,0:0:0:0:
343,31,64856,1,8,0:0:0:0:
390,50,64928,1,10,0:0:0:0:
429,83,64999,1,8,0:0:0:0:
455,127,65071,1,8,0:0:0:0:
467,176,65142,1,8,0:0:0:0:
457,225,65214,2,0,B|432:253|422:291|430:327|430:327|362:171|362:171|321:293|321:293|272:167|272:167|272:215|240:258|193:271|193:271|146:284|97:264|72:222|72:222|47:181|52:128|85:93|85:93|119:58|171:49|214:71,1,1088,10|4,0:0|0:0,0:0:0:0:
272,167,76642,5,6,0:0:0:0:
272,167,77214,1,2,0:0:0:0:
219,249,77356,1,2,0:0:0:0:
268,327,77499,1,2,0:0:0:0:
74,380,77785,6,0,B|21:319|21:319|12:156,1,237.999993571282,2|2,0:0|0:0,0:0:0:0:
120,14,78642,1,2,0:0:0:0:
90,204,78928,2,0,P|131:267|230:252,1,178.499995178462,2|2,0:0|0:0,0:0:0:0:
281,197,79499,1,2,0:0:0:0:
504,303,79785,1,2,0:0:0:0:
263,372,80071,5,2,0:0:0:0:
263,372,80642,1,2,0:0:0:0:
193,298,80785,1,2,0:0:0:0:
218,202,80928,1,2,0:0:0:0:
413,105,81214,6,0,B|423:185|423:185|446:216|446:216|426:256|426:256|433:331,1,237.999993571282,6|2,0:0|0:0,0:0:0:0:
359,375,81928,1,2,0:0:0:0:
299,315,82071,1,2,0:0:0:0:
343,125,82356,6,0,B|317:70|245:58|245:58|191:96|129:77,1,237.999993571282,6|2,0:0|0:0,0:0:0:0:
73,24,83071,1,2,0:0:0:0:
161,3,83214,1,2,0:0:0:0:
198,224,83499,6,0,P|191:322|111:174,1,475.999987142565,6|2,0:0|0:0,0:0:0:0:
105,173,85785,2,0,B|184:101|301:146|301:146|265:73|265:73|381:103|437:37,1,475.999987142565,6|2,0:0|0:0,0:0:0:0:
436,37,88071,6,0,P|452:101|372:165,1,170.000000596047,4|0,1:0|0:0,0:0:0:0:
282,165,88499,2,0,P|216:117|227:37,1,170.000000596047,4|0,1:0|0:0,0:0:0:0:
381,164,88928,2,0,B|409:270|409:270|463:299,1,170.000000596047,4|0,1:0|0:0,0:0:0:0:
200,299,89356,2,0,B|254:270|254:270|282:164,1,170.000000596047,4|0,1:0|0:0,0:0:0:0:
377,88,89785,5,4,1:0:0:0:
166,6,90071,1,4,1:0:0:0:
130,219,90356,6,0,P|64:266|76:347,1,170.000000596047,4|0,1:0|0:0,0:0:0:0:
284,346,90785,2,0,P|295:266|230:219,1,170.000000596047,4|0,1:0|0:0,0:0:0:0:
49,85,91214,2,0,B|103:114|103:114|131:220,1,170.000000596047,4|0,1:0|0:0,0:0:0:0:
230,220,91642,2,0,B|258:114|258:114|312:85,1,170.000000596047,4|0,1:0|0:0,0:0:0:0:
373,200,92071,5,4,1:0:0:0:
142,155,92214,1,4,1:0:0:0:
313,0,92356,1,4,1:0:0:0:
482,173,92642,5,6,0:0:0:0:
480,207,92928,1,2,0:0:0:0:
479,240,93214,1,6,0:0:0:0:
478,273,93499,1,2,0:0:0:0:
477,307,93785,5,6,0:0:0:0:
442,282,93928,1,2,0:0:0:0:
402,268,94071,1,2,0:0:0:0:
360,266,94214,1,2,0:0:0:0:
319,278,94356,5,2,0:0:0:0:
303,317,94428,1,2,0:0:0:0:
273,347,94499,1,2,0:0:0:0:
234,363,94571,1,2,0:0:0:0:
192,362,94642,1,2,0:0:0:0:
154,344,94714,1,2,0:0:0:0:
125,313,94785,1,2,0:0:0:0:
112,273,94856,1,2,0:0:0:0:
115,231,94928,6,0,B|145:184|145:184|211:170,1,118.999996785641,4|0,0:0|0:0,0:0:0:0:
408,123,95499,2,0,L|465:109,2,59.4999983928206
201,249,96071,5,0,3:0:0:0:
371,199,96214,1,0,3:0:0:0:
371,199,96285,1,0,3:0:0:0:
371,199,96356,1,8,3:0:0:0:
261,306,96499,1,0,3:0:0:0:
303,143,96642,1,0,3:0:0:0:
129,217,96785,1,0,3:0:0:0:
232,51,96928,1,4,3:0:0:0:
284,232,97071,1,0,3:0:0:0:
58,144,97214,6,0,L|184:123,1,127.500005310774,14|0,0:0|0:0,0:0:0:0:
507,195,97499,1,10,0:0:0:0:
454,203,97571,1,0,0:0:0:0:
401,212,97642,2,0,L|281:231,1,118.999996785641,0|10,0:0|0:0,0:0:0:0:
379,39,97928,1,0,0:0:0:0:
431,31,97999,1,0,0:0:0:0:
484,22,98071,1,10,0:0:0:0:
338,186,98214,1,0,0:0:0:0:
227,7,98356,6,0,P|193:45|202:117,1,127.500005310774,10|0,0:0|0:0,0:0:0:0:
307,295,98642,1,10,0:0:0:0:
267,260,98714,1,0,0:0:0:0:
215,260,98785,2,0,B|152:267|152:267|116:309,1,118.999996785641,0|10,0:0|0:0,0:0:0:0:
30,165,99071,1,0,0:0:0:0:
53,118,99142,1,0,0:0:0:0:
41,66,99213,1,10,0:0:0:0:
205,188,99356,1,10,0:0:0:0:
23,326,99499,6,0,B|53:372|53:372|128:381,1,127.500005310774,10|0,0:0|0:0,0:0:0:0:
307,295,99785,1,10,0:0:0:0:
359,286,99856,1,0,0:0:0:0:
412,278,99928,2,0,B|498:264|498:264|472:300,1,118.999996785641,0|10,0:0|0:0,0:0:0:0:
307,384,100214,1,0,0:0:0:0:
255,375,100285,1,0,0:0:0:0:
202,367,100356,1,10,0:0:0:0:
100,171,100499,1,8,0:0:0:0:
152,180,100570,1,8,0:0:0:0:
205,188,100642,6,0,P|266:174|298:120,1,127.500005310774,10|0,0:0|0:0,0:0:0:0:
423,0,100928,1,10,0:0:0:0:
460,37,100999,1,0,0:0:0:0:
465,89,101071,2,0,L|446:209,1,118.999996785641,10|0,0:0|0:0,0:0:0:0:
323,366,101356,1,10,0:0:0:0:
286,329,101428,1,0,0:0:0:0:
281,277,101499,1,10,0:0:0:0:
391,73,101642,1,10,0:0:0:0:
483,278,101785,6,0,B|415:278|415:278|373:235,1,127.500005310774,10|0,0:0|0:0,0:0:0:0:
302,31,102071,1,10,0:0:0:0:
354,36,102142,1,0,0:0:0:0:
391,73,102214,2,0,P|383:133|335:169,1,118.999996785641,0|10,0:0|0:0,0:0:0:0:
158,200,102499,1,0,0:0:0:0:
106,195,102570,1,0,0:0:0:0:
69,158,102642,1,10,0:0:0:0:
221,29,102785,1,10,0:0:0:0:
297,234,102928,6,0,P|247:272|186:263,1,127.500005310774,10|0,0:0|0:0,0:0:0:0:
2,128,103214,1,10,0:0:0:0:
39,91,103286,1,0,0:0:0:0:
91,86,103356,2,0,B|155:86|187:142|187:142|219:86|291:86,1,237.999993571282,10|10,0:0|0:0,0:0:0:0:
339,91,103714,1,0,0:0:0:0:
376,128,103785,1,0,0:0:0:0:
459,313,103928,1,10,0:0:0:0:
272,164,104071,5,10,0:0:0:0:
314,384,104214,1,10,0:0:0:0:
490,208,104356,2,0,L|430:213,2,59.4999983928206,10|0|0,0:0|0:0|0:0,0:0:0:0:
292,313,104642,1,10,0:0:0:0:
376,128,104785,2,0,L|435:122,2,59.4999983928206,10|0|0,0:0|0:0|0:0,0:0:0:0:
216,300,105071,1,10,0:0:0:0:
411,196,105214,5,10,0:0:0:0:
191,122,105356,1,10,0:0:0:0:
371,304,105499,1,10,0:0:0:0:
333,64,105642,1,10,0:0:0:0:
148,265,105785,5,8,0:0:0:0:
89,255,105856,1,8,0:0:0:0:
43,219,105928,1,8,0:0:0:0:
18,165,105999,1,8,0:0:0:0:
22,106,106071,1,8,0:0:0:0:
53,56,106142,1,8,0:0:0:0:
104,26,106214,1,8,0:0:0:0:
163,24,106285,1,8,0:0:0:0:
216,49,106356,6,0,B|216:89|216:89|224:105|224:105|216:121|216:121|216:177,1,127.500005310774,0|14,0:0|0:0,0:0:0:0:
188,360,106642,1,10,0:0:0:0:
141,383,106714,1,0,0:0:0:0:
89,371,106785,2,0,B|2:357|2:357|38:331,1,118.999996785641,0|10,0:0|0:0,0:0:0:0:
164,184,107071,1,0,0:0:0:0:
216,172,107143,1,0,0:0:0:0:
262,196,107214,1,10,0:0:0:0:
366,369,107356,1,0,0:0:0:0:
497,191,107499,6,0,B|438:165|438:165|379:191,1,127.500005310774,10|0,0:0|0:0,0:0:0:0:
245,359,107785,1,10,0:0:0:0:
298,351,107857,1,0,0:0:0:0:
351,342,107928,2,0,B|410:331|410:331|443:280,1,118.999996785641,0|10,0:0|0:0,0:0:0:0:
348,119,108214,1,0,0:0:0:0:
311,156,108286,1,0,0:0:0:0:
306,208,108357,1,10,0:0:0:0:
512,265,108499,1,8,0:0:0:0:
452,45,108642,6,0,L|324:45,1,127.500005310774,10|0,0:0|0:0,0:0:0:0:
138,168,108928,1,10,0:0:0:0:
190,174,108999,1,0,0:0:0:0:
244,181,109071,2,0,B|268:125|268:125|244:69,1,118.999996785641,0|10,0:0|0:0,0:0:0:0:
16,25,109356,2,0,B|38:81|38:81|95:104,1,118.999996785641,0|10,0:0|0:0,0:0:0:0:
151,98,109571,1,8,0:0:0:0:
210,94,109642,1,8,0:0:0:0:
270,90,109714,1,8,0:0:0:0:
329,86,109785,6,0,P|388:105|415:161,1,127.500005310774,10|0,0:0|0:0,0:0:0:0:
327,350,110071,1,10,0:0:0:0:
277,333,110142,1,0,0:0:0:0:
249,287,110214,2,0,B|284:238|284:238|345:231,1,118.999996785641,0|10,0:0|0:0,0:0:0:0:
512,306,110499,5,0,0:0:0:0:
512,306,110571,1,0,0:0:0:0:
512,306,110642,1,10,0:0:0:0:
289,375,110785,1,10,0:0:0:0:
493,179,110928,6,0,L|512:309,1,127.500005310774,14|0,0:0|0:0,0:0:0:0:
288,223,111214,1,10,0:0:0:0:
288,223,111285,1,0,0:0:0:0:
288,223,111356,2,0,L|271:104,1,118.999996785641,0|10,0:0|0:0,0:0:0:0:
467,2,111642,5,0,0:0:0:0:
467,2,111714,1,0,0:0:0:0:
467,2,111785,1,10,0:0:0:0:
419,214,111928,1,0,0:0:0:0:
200,38,112071,6,0,B|256:5|256:5|318:21,1,127.500005310774,14|0,0:0|0:0,0:0:0:0:
119,162,112356,1,10,0:0:0:0:
119,162,112428,1,0,0:0:0:0:
119,162,112499,2,0,B|67:191|67:191|10:177,1,118.999996785641,0|10,0:0|0:0,0:0:0:0:
272,87,112785,5,0,0:0:0:0:
272,87,112856,1,0,0:0:0:0:
272,87,112928,1,10,0:0:0:0:
125,242,113071,1,10,0:0:0:0:
0,9,113214,6,0,B|44:9|44:9|56:5|56:5|68:13|68:13|80:9|80:9|128:9,1,127.500005310774,10|0,0:0|0:0,0:0:0:0:
387,87,113499,1,10,0:0:0:0:
387,87,113571,1,0,0:0:0:0:
387,87,113642,2,0,B|347:87|347:87|336:83|336:83|325:90|325:90|315:87|315:87|271:87,2,118.999996785641,0|10|0,0:0|0:0|0:0,0:0:0:0:
496,219,114071,5,10,0:0:0:0:
286,158,114214,1,10,0:0:0:0:
444,344,114356,2,0,B|452:284|452:284|416:244|416:244|424:180,2,178.499995178462,10|10|10,0:0|0:0|0:0,0:0:0:0:
444,344,115071,5,8,0:0:0:0:
274,290,115214,1,8,0:0:0:0:
118,363,115356,2,0,L|81:358,2,29.7499991964103,2|2|2,0:0|0:0|0:0,0:0:0:0:
47,337,115499,6,0,B|21:278|21:278|47:219,1,127.500005310774,4|8,0:0|0:0,0:0:0:0:
157,92,115785,1,10,0:0:0:0:
210,92,115856,1,0,0:0:0:0:
264,92,115928,2,0,B|328:92|328:92|368:132,1,118.999996785641,0|10,0:0|0:0,0:0:0:0:
211,278,116214,1,0,0:0:0:0:
158,278,116285,1,0,0:0:0:0:
105,278,116356,1,10,0:0:0:0:
0,105,116499,1,0,0:0:0:0:
210,163,116642,6,0,P|234:220|210:277,1,127.500005310774,10|0,0:0|0:0,0:0:0:0:
24,384,116928,1,10,0:0:0:0:
0,337,116999,1,0,0:0:0:0:
12,285,117071,2,0,B|34:251|34:251|112:236,1,118.999996785641,0|10,0:0|0:0,0:0:0:0:
292,323,117356,1,0,0:0:0:0:
344,327,117427,1,0,0:0:0:0:
386,297,117499,1,10,0:0:0:0:
473,145,117642,1,10,0:0:0:0:
333,11,117785,6,0,B|300:43|300:43|294:127,1,127.500005310774,10|0,0:0|0:0,0:0:0:0:
468,204,118071,2,0,L|472:143,2,59.4999983928206,10|0|0,0:0|0:0|0:0,0:0:0:0:
292,323,118356,5,10,0:0:0:0:
177,142,118499,1,10,0:0:0:0:
375,71,118642,1,10,0:0:0:0:
386,297,118785,1,10,0:0:0:0:
246,110,118928,6,0,B|222:74|222:74|138:58,1,127.500005310774,10|0,0:0|0:0,0:0:0:0:
0,200,119214,1,10,0:0:0:0:
42,230,119286,1,0,0:0:0:0:
94,226,119356,2,0,P|151:223|193:263,1,118.999996785641,0|10,0:0|0:0,0:0:0:0:
205,310,119571,1,0,0:0:0:0:
199,355,119642,2,0,L|193:390,4,29.7499991964103,2|2|2|2|10,0:0|0:0|0:0|0:0|0:0,0:0:0:0:
64,319,119928,2,0,L|70:284,2,29.7499991964103,2|2|2,0:0|0:0|0:0,0:0:0:0:
75,352,120071,6,0,L|16:334,1,59.4999983928206,10|0,0:0|2:0,0:0:0:0:
188,243,120214,2,0,L|247:261,1,59.4999983928206,8|0,0:0|2:0,0:0:0:0:
28,193,120356,1,10,0:0:0:0:
28,193,120428,1,0,0:0:0:0:
28,193,120499,2,0,L|149:169,1,118.999996785641,0|10,0:0|0:0,0:0:0:0:
384,129,120785,1,0,0:0:0:0:
384,129,120856,1,0,0:0:0:0:
384,129,120928,1,10,0:0:0:0:
244,260,121071,1,10,0:0:0:0:
172,44,121214,6,0,B|124:44|124:44|108:32|108:32|92:40|92:40|48:40,1,127.500005310774,10|0,0:0|0:0,0:0:0:0:
215,184,121499,1,10,0:0:0:0:
269,185,121571,1,0,0:0:0:0:
308,149,121642,2,0,P|332:93|308:37,1,118.999996785641,0|10,0:0|0:0,0:0:0:0:
106,114,121928,1,0,0:0:0:0:
106,114,121999,1,0,0:0:0:0:
106,114,122071,1,10,0:0:0:0:
229,253,122214,1,8,0:0:0:0:
245,15,122356,5,10,0:0:0:0:
118,237,122499,1,8,0:0:0:0:
374,193,122642,1,8,0:0:0:0:
175,110,122785,5,8,0:0:0:0:
274,336,122928,1,8,0:0:0:0:
486,207,123071,1,8,0:0:0:0:
248,100,123214,5,8,0:0:0:0:
254,159,123285,1,8,0:0:0:0:
261,218,123356,1,8,0:0:0:0:
268,277,123428,1,8,0:0:0:0:
274,336,123499,6,0,P|332:361|391:336,1,127.500005310774,10|0,0:0|0:0,0:0:0:0:
498,167,123785,1,10,0:0:0:0:
498,167,123856,1,0,0:0:0:0:
498,167,123928,2,0,P|442:143|386:167,1,118.999996785641,0|10,0:0|0:0,0:0:0:0:
200,294,124214,2,0,L|147:325,2,59.4999983928206,10|0|0,0:0|0:0|0:0,0:0:0:0:
307,146,124499,2,0,L|270:141,2,29.7499991964103,2|2|2,0:0|0:0|0:0,0:0:0:0:
335,118,124642,6,0,B|312:77|312:77|234:59,1,127.500005310774,14|0,0:0|0:0,0:0:0:0:
12,127,124928,1,10,0:0:0:0:
47,83,124999,1,0,0:0:0:0:
105,69,125071,2,0,L|165:69,1,59.4999983928206,0|0,0:0|2:0,0:0:0:0:
279,168,125214,2,0,P|335:192|391:168,1,118.999996785641,10|0,0:0|0:0,0:0:0:0:
428,138,125428,1,0,0:0:0:0:
454,91,125499,1,10,0:0:0:0:
265,0,125642,1,10,0:0:0:0:
325,221,125785,6,0,B|266:247|266:247|207:221,1,127.500005310774,10|0,0:0|0:0,0:0:0:0:
22,174,126071,1,10,0:0:0:0:
76,150,126142,1,0,0:0:0:0:
131,172,126214,1,0,0:0:0:0:
293,311,126356,5,10,0:0:0:0:
83,237,126499,1,10,0:0:0:0:
83,237,126571,1,8,0:0:0:0:
83,237,126642,1,10,0:0:0:0:
253,113,126785,1,10,0:0:0:0:
141,359,126928,6,0,L|267:339,1,127.500005310774,10|0,0:0|0:0,0:0:0:0:
484,260,127214,1,10,0:0:0:0:
475,312,127285,1,0,0:0:0:0:
467,365,127356,1,0,0:0:0:0:
249,269,127499,1,10,0:0:0:0:
464,185,127642,2,0,L|474:121,2,59.4999983928206,10|0|0,0:0|0:0|0:0,0:0:0:0:
296,334,127928,2,0,L|266:338,2,29.7499991964103,2|2|2,0:0|0:0|0:0,0:0:0:0:
324,351,128071,6,0,L|388:341,1,59.4999983928206,10|0,0:0|2:0,0:0:0:0:
512,232,128214,2,0,L|448:242,1,59.4999983928206,10|0,0:0|2:0,0:0:0:0:
302,186,128356,1,10,0:0:0:0:
302,186,128428,1,0,0:0:0:0:
302,186,128499,2,0,L|182:204,1,118.999996785641,0|10,0:0|0:0,0:0:0:0:
33,332,128785,1,0,0:0:0:0:
78,368,128856,1,0,0:0:0:0:
136,365,128927,1,10,0:0:0:0:
136,142,129071,1,10,0:0:0:0:
77,138,129142,1,0,0:0:0:0:
32,175,129214,6,0,P|35:237|81:278,1,127.500005310774,14|0,0:0|0:0,0:0:0:0:
302,186,129499,1,10,0:0:0:0:
302,186,129571,1,0,0:0:0:0:
302,186,129642,2,0,P|261:142|203:141,1,118.999996785641,0|10,0:0|0:0,0:0:0:0:
203,345,129928,1,0,0:0:0:0:
255,368,129999,1,0,0:0:0:0:
310,349,130071,2,0,L|374:339,1,59.4999983928206,10|0,0:0|2:0,0:0:0:0:
512,375,130214,2,0,L|448:385,1,59.4999983928206,10|0,0:0|0:0,0:0:0:0:
383,212,130356,6,0,B|337:218|337:218|320:230|320:230|300:224|300:224|242:233,1,136.000000476838,14|0,0:0|0:0,0:0:0:0:
387,34,130642,1,10,0:0:0:0:
454,23,130713,1,0,0:0:0:0:
509,64,130784,1,0,0:0:0:0:
410,267,130928,5,10,0:0:0:0:
278,48,131071,1,10,0:0:0:0:
512,149,131214,1,10,0:0:0:0:
270,226,131356,1,10,0:0:0:0:
445,70,131499,5,10,0:0:0:0:
340,282,131642,2,0,L|308:287,4,31.8750013276936,2|2|2|2|8,0:0|0:0|0:0|0:0|0:0,0:0:0:0:
495,124,131928,5,10,0:0:0:0:
252,201,132071,2,0,L|220:206,4,31.8750013276936,2|2|2|2|8,0:0|0:0|0:0|0:0|0:0,0:0:0:0:
337,78,132356,6,0,L|369:73,6,31.8750013276936,2|2|2|2|2|2|2,0:0|0:0|0:0|0:0|0:0|0:0|0:0,0:0:0:0:
303,86,132642,2,0,B|237:107|183:62|183:62|129:18|63:41,1,255.000010621549,10|0,0:0|0:0,0:0:0:0:
63,188,133071,2,0,P|139:194|64:121,1,255.000010621549,10|0,0:0|0:0,0:0:0:0:
33,271,133499,5,8,0:0:0:0:
64,303,133571,1,8,0:0:0:0:
102,325,133642,1,8,0:0:0:0:
145,337,133714,1,8,0:0:0:0:
190,338,133785,2,0,B|238:339|285:318|318:282|318:282|351:246|367:198|360:149|360:149|329:129|317:90|328:55|328:55|340:20|372:-2|409:-1|409:-1|446:-1|477:24|488:59|488:59|497:95|482:132|450:151|450:151|432:229|459:310|520:361|520:361|403:217|200:176|36:265|36:265|4:245|-10:208|-4:172|-4:172|3:135|31:107|68:100|68:100|105:94|142:109|161:141|161:141|217:129|217:72,1,1903.99994857026,4|0,0:0|2:0,0:0:0:0:
