osu file format v14

[General]
AudioFilename: audio.mp3
AudioLeadIn: 0
PreviewTime: 97214
Countdown: 0
SampleSet: Soft
StackLeniency: 0.5
Mode: 0
LetterboxInBreaks: 0
WidescreenStoryboard: 1

[Editor]
DistanceSpacing: 1.9
BeatDivisor: 8
GridSize: 4
TimelineZoom: 3.899998

[Metadata]
Title:Grievous Lady
TitleUnicode:Grievous Lady
Artist:Team Grimoire vs. Laur
ArtistUnicode:Team Grimoire vs. Laur
Creator:Feruver
Version:GAO HAO's Expert
Source:Arcaea
Tags:sly instinct AJiSAI IPhong Avoidedoki JackTVN Azrael_- NotABox KittyTrax Bubblekid FinallyV XzeniFX Cubby Jelljel GAOHAO arcaea Melodic Darkcore vicious labyrinth electronic video game instrumental
BeatmapID:2528447
BeatmapSetID:778719

[Difficulty]
HPDrainRate:4.7
CircleSize:4.1
OverallDifficulty:8.8
ApproachRate:9.4
SliderMultiplier:2.40000000596047
SliderTickRate:1

[Events]
//Background and Video events
0,0,"DNx2wPjUIAAo71C.jpg",0,0
Video,0,"Grievous Lady.mp4"
//Break Periods
2,67699,76102
//Storyboard Layer 0 (Background)
//Storyboard Layer 1 (Fail)
//Storyboard Layer 2 (Pass)
//Storyboard Layer 3 (Foreground)
//Storyboard Layer 4 (Overlay)
//Storyboard Sound Samples

[TimingPoints]
1214,285.714285714286,4,2,1,60,1,0
1214,-142.857142857143,4,2,1,60,0,0
1428,-80,4,2,1,5,0,0
1499,-100,4,2,1,60,0,0
1642,-100,4,2,1,5,0,0
1785,-100,4,2,1,60,0,0
2928,-100,4,2,1,60,0,0
4071,-133.333333333333,4,2,1,60,0,0
4285,-133.333333333333,4,2,1,5,0,0
4356,-133.333333333333,4,2,1,60,0,0
4571,-133.333333333333,4,2,1,5,0,0
4642,-133.333333333333,4,2,1,60,0,0
4856,-133.333333333333,4,2,1,5,0,0
4928,-133.333333333333,4,2,1,60,0,0
10356,-133.333333333333,4,2,1,60,0,0
12642,-133.333333333333,4,2,1,60,0,0
17214,-500,4,1,1,60,0,0
19499,-133.333333333333,4,1,1,60,0,0
23571,-133.333333333333,4,1,1,5,0,0
23642,-133.333333333333,4,1,1,30,0,0
23714,-133.333333333333,4,1,1,5,0,0
23785,-133.333333333333,4,1,1,60,0,0
23856,-133.333333333333,4,1,1,5,0,0
24071,-133.333333333333,4,1,1,60,0,0
28214,-133.333333333333,4,1,1,30,0,0
28356,-133.333333333333,4,1,1,60,0,0
28642,-95.2380952380952,4,1,1,60,0,0
29071,-86.9565217391304,4,1,1,60,0,0
29499,-80,4,1,1,60,0,0
29928,-74.0740740740741,4,1,1,60,0,0
30356,-68.9655172413793,4,1,1,60,0,0
30928,-74.0740740740741,4,1,1,60,0,0
31356,-68.9655172413793,4,1,1,60,0,0
31785,-64.5161290322581,4,1,1,60,0,0
32214,-60.6060606060606,4,1,1,60,0,0
32642,-58.8235294117647,4,1,1,60,0,0
32714,-58.8235294117647,4,1,1,5,0,0
32785,-95.2380952380952,4,1,1,45,0,0
32856,-95.2380952380952,4,1,1,5,0,0
32928,-95.2380952380952,4,1,1,60,0,0
32999,-95.2380952380952,4,1,1,5,0,0
33214,-95.2380952380952,4,1,1,60,0,0
33642,-64.5161290322581,4,1,1,60,0,0
34071,-48.780487804878,4,1,1,60,0,0
34499,-40,4,1,1,60,0,0
36642,-80,4,1,1,60,0,0
37785,-80,4,1,1,60,0,1
39856,-80,4,1,1,5,0,1
39928,-80,4,1,1,60,0,1
39999,-80,4,1,1,5,0,1
40071,-80,4,1,1,60,0,1
41856,-80,4,1,1,5,0,1
41928,-80,4,1,1,60,0,1
49856,-80,4,1,1,5,0,1
49928,-80,4,1,1,60,0,1
49999,-80,4,1,1,5,0,1
50071,-80,4,1,1,60,0,1
50142,-80,4,1,1,5,0,1
50214,-80,4,1,1,60,0,1
50285,-80,4,1,1,5,0,1
50356,-80,4,1,1,60,0,1
51428,-80,4,1,1,5,0,1
51499,-80,4,1,1,25,0,1
51642,-80,4,1,1,60,0,1
53785,-80,4,1,1,50,0,0
55499,-100,4,1,1,60,0,0
55785,-71.4285714285714,4,1,1,60,0,0
56071,-62.5,4,1,1,60,0,1
57214,-55.5555555555556,4,1,1,60,0,1
62928,-80,4,1,1,60,0,1
65214,-100,4,1,1,60,0,0
65785,-100,4,1,1,50,0,0
66356,-100,4,1,1,40,0,0
66928,-100,4,1,1,55,0,0
67499,-133.333333333333,4,2,1,60,0,0
80642,-111.111111111111,4,2,1,60,0,0
85785,-200,4,2,1,60,0,0
86928,-166.666666666667,4,2,1,60,0,0
88071,-111.111111111111,4,1,1,60,0,0
92714,-52.6315789473684,4,1,1,5,0,0
92928,-52.6315789473684,4,1,1,60,0,0
92999,-34.4827586206897,4,1,1,5,0,0
93214,-52.6315789473684,4,1,1,60,0,0
93285,-52.6315789473684,4,1,1,5,0,0
93499,-52.6315789473684,4,1,1,60,0,0
93571,-34.4827586206897,4,1,1,5,0,0
93785,-111.111111111111,4,1,1,60,0,0
94928,-86.9565217391304,4,1,1,45,0,0
97214,-80,4,1,1,60,0,1
99285,-80,4,1,1,5,0,1
99356,-80,4,1,1,60,0,1
99428,-80,4,1,1,5,0,1
99499,-80,4,1,1,60,0,1
100999,-80,4,1,1,5,0,1
101071,-80,4,1,1,60,0,1
101285,-80,4,1,1,5,0,1
101356,-80,4,1,1,60,0,1
101428,-80,4,1,1,5,0,1
101499,-80,4,1,1,60,0,1
101571,-80,4,1,1,5,0,1
101642,-80,4,1,1,60,0,1
101714,-80,4,1,1,5,0,1
101785,-80,4,1,1,60,0,1
101856,-80,4,1,1,5,0,1
101928,-80,4,1,1,60,0,1
104142,-80,4,1,1,5,0,1
104214,-80,4,1,1,60,0,1
104285,-80,4,1,1,5,0,1
104356,-80,4,1,1,60,0,1
104928,-80,4,1,1,5,0,1
105071,-80,4,1,1,60,0,1
106356,-500,4,1,1,5,0,1
106499,-80,4,1,1,60,0,1
112285,-80,4,1,1,5,0,1
112356,-80,4,1,1,60,0,1
117571,-80,4,1,1,5,0,1
117642,-80,4,1,1,60,0,1
117714,-80,4,1,1,5,0,1
117785,-80,4,1,1,60,0,1
118428,-80,4,1,1,5,0,1
118499,-80,4,1,1,60,0,1
118571,-80,4,1,1,5,0,1
118642,-80,4,1,1,60,0,1
118714,-80,4,1,1,5,0,1
118785,-80,4,1,1,60,0,1
118856,-80,4,1,1,5,0,1
118928,-80,4,1,1,60,0,1
125571,-80,4,1,1,5,0,1
125642,-80,4,1,1,60,0,1
125714,-80,4,1,1,5,0,1
125785,-80,4,1,1,60,0,1
129214,-71.4285714285714,4,1,1,60,0,1
130356,-58.8235294117647,4,1,1,60,0,1
131642,-50,4,1,1,60,0,1
132642,-100,4,1,1,60,0,0
133785,-100,4,1,1,60,0,0
138356,-100,4,1,1,5,0,0

[Colours]
Combo1 : 234,123,223
Combo2 : 192,192,192
Combo3 : 114,50,177
Combo4 : 0,92,185

[HitObjects]
111,102,1214,6,0,P|158:91|235:158,1,125.99999646771,0|0,0:0|0:0,0:0:0:0:
308,200,1499,2,0,P|380:207|448:157,1,120.000000298023,0|0,0:0|0:0,0:0:0:0:
447,82,1785,6,0,P|382:47|317:31,1,120.000000298023,0|0,0:0|0:0,0:0:0:0:
242,297,2071,2,0,P|297:230|313:157,1,120.000000298023,0|0,0:0|0:0,0:0:0:0:
140,218,2356,6,0,L|108:90,1,120.000000298023,0|0,0:0|0:0,0:0:0:0:
192,24,2642,2,0,B|233:72|233:72|221:132,1,120.000000298023,0|0,0:0|0:0,0:0:0:0:
221,262,2928,1,0,0:0:0:0:
320,324,3214,1,0,0:0:0:0:
369,209,3499,6,0,P|418:139|426:76,1,120.000000298023,0|0,0:0|0:0,0:0:0:0:
252,32,3785,2,0,P|255:120|294:173,1,120.000000298023,0|0,0:0|0:0,0:0:0:0:
328,275,4071,5,0,0:0:0:0:
453,305,4356,6,0,L|443:265,2,22.5000009141863,0|0|0,0:0|0:0|0:0,0:0:0:0:
327,11,4642,6,0,L|329:116,1,90.0000036567453,0|0,0:0|0:0,0:0:0:0:
328,275,4928,6,0,L|332:178,1,90.0000036567453,0|0,0:0|0:0,0:0:0:0:
251,171,5214,5,0,0:0:0:0:
233,92,5356,1,0,0:0:0:0:
251,171,5499,1,0,0:0:0:0:
322,141,5642,5,0,0:0:0:0:
328,275,5785,2,0,B|394:346|394:346|482:340|482:340|526:266|526:266|488:183|488:183|399:185|399:185|318:139,1,540.000021940472,4|0,0:0|0:0,0:0:0:0:
212,87,6785,1,0,0:0:0:0:
131,143,6928,2,0,B|131:235|131:235|167:258|219:245|219:245|219:348|219:348|216:292|231:269,1,360.000014626981,4|0,0:0|0:0,0:0:0:0:
280,220,7642,5,0,0:0:0:0:
349,178,7785,1,0,0:0:0:0:
422,143,7928,1,0,0:0:0:0:
449,217,8071,6,0,L|457:310,1,90.0000036567453,4|0,0:0|0:0,0:0:0:0:
331,331,8356,2,0,L|352:221,1,90.0000036567453,0|0,0:0|0:0,0:0:0:0:
186,236,8642,6,0,P|238:200|297:195,1,90.0000036567453,0|0,0:0|0:0,0:0:0:0:
202,189,8928,2,0,P|257:163|307:159,1,90.0000036567453,0|0,0:0|0:0,0:0:0:0:
363,223,9214,6,0,B|411:236|411:236|452:235|517:216|517:216|468:231|450:242|450:242|464:390,1,360.000014626981,4|0,0:0|0:0,0:0:0:0:
325,301,9928,2,0,L|222:282,1,90.0000036567453,0|0,0:0|0:0,0:0:0:0:
111,330,10214,1,0,0:0:0:0:
88,201,10356,6,0,P|142:188|164:188,1,45.0000018283726,4|0,0:0|0:0,0:0:0:0:
185,252,10499,2,0,P|216:249|267:241,1,45.0000018283726,0|0,0:0|0:0,0:0:0:0:
240,164,10642,2,0,P|273:158|318:163,1,45.0000018283726,0|0,0:0|0:0,0:0:0:0:
328,239,10785,2,0,P|369:252|405:238,1,45.0000018283726,0|0,0:0|0:0,0:0:0:0:
453,276,10928,2,0,B|422:366|422:366|311:367,1,180.000007313491,0|0,0:0|0:0,0:0:0:0:
242,368,11499,6,0,P|223:340|219:308,1,45.0000018283726,4|0,0:0|0:0,0:0:0:0:
324,304,11642,2,0,P|347:283|352:257,1,45.0000018283726,0|0,0:0|0:0,0:0:0:0:
225,245,11785,2,0,P|212:223|206:190,1,45.0000018283726,0|0,0:0|0:0,0:0:0:0:
345,196,11928,2,0,P|354:179|357:142,1,45.0000018283726,0|0,0:0|0:0,0:0:0:0:
273,92,12071,2,0,L|276:199,2,90.0000036567453,0|0|0,0:0|0:0|0:0,0:0:0:0:
215,52,12642,6,4,B|299:69|444:33|444:33|419:85|367:110|367:110|419:159|498:176|498:176|405:214|356:188|356:188|378:257|447:326|447:326|369:307|324:248|324:248|353:340|353:340|316:340,1,1080.00004388094,4|4,0:0|0:0,0:0:0:0:
297,53,14928,6,0,B|213:70|68:34|68:34|93:86|145:111|145:111|93:160|14:177|14:177|107:215|156:189|156:189|134:258|65:327|65:327|143:308|188:249|188:249|159:341|159:341|192:341,1,1080.00004388094,4|0,0:0|0:0,0:0:0:0:
272,305,16785,5,0,0:0:0:0:
369,248,16928,1,0,0:0:0:0:
457,180,17071,1,0,0:0:0:0:
446,94,17214,6,0,P|290:121|184:288,1,360.00000089407,4|0,0:0|0:0,0:0:0:0:
288,41,19499,6,0,P|195:42|80:42,1,180.000007313491,4|0,0:0|0:0,0:0:0:0:
174,111,19928,2,0,L|384:110,1,180.000007313491,0|0,0:0|0:0,0:0:0:0:
302,191,20356,2,0,L|104:191,1,180.000007313491,0|0,0:0|0:0,0:0:0:0:
251,275,20785,2,0,L|450:266,1,180.000007313491,0|0,0:0|0:0,0:0:0:0:
256,142,21214,1,4,0:0:0:0:
94,246,21499,1,4,0:0:0:0:
270,87,21785,6,0,L|289:265,1,180.000007313491,4|0,0:0|0:0,0:0:0:0:
270,87,22214,2,0,B|282:226|282:226|222:231,1,180.000007313491,0|0,0:0|0:0,0:0:0:0:
270,87,22642,2,0,B|282:183|282:183|198:187,1,180.000007313491,0|0,0:0|0:0,0:0:0:0:
270,87,23071,2,0,B|278:134|278:134|145:141,1,180.000007313491,0|0,0:0|0:0,0:0:0:0:
102,39,23499,6,0,L|168:14,1,45.0000018283726,4|0,0:0|0:0,0:0:0:0:
79,152,23642,2,0,L|48:111,1,45.0000018283726,4|0,0:0|0:0,0:0:0:0:
186,114,23785,2,0,L|177:173,1,45.0000018283726,4|0,0:0|0:0,0:0:0:0:
349,83,24071,6,0,P|339:175|347:271,1,180.000007313491,4|0,0:0|0:0,0:0:0:0:
425,173,24499,2,0,P|432:107|492:6,1,180.000007313491,0|0,0:0|0:0,0:0:0:0:
478,239,24928,2,0,P|472:305|350:364,1,180.000007313491,0|0,0:0|0:0,0:0:0:0:
351,283,25356,2,0,P|285:266|159:296,1,180.000007313491,0|0,0:0|0:0,0:0:0:0:
86,337,25785,2,4,P|75:267|101:129,1,180.000007313491,4|4,0:0|0:0,0:0:0:0:
174,83,26356,6,0,P|243:84|357:155,1,180.000007313491,4|0,0:0|0:0,0:0:0:0:
312,213,26785,2,0,P|221:200|141:132,1,180.000007313491,0|0,0:0|0:0,0:0:0:0:
174,81,27214,6,0,P|243:82|357:153,1,180.000007313491,0|0,0:0|0:0,0:0:0:0:
310,222,27642,2,0,P|219:209|139:141,1,180.000007313491,0|0,0:0|0:0,0:0:0:0:
178,53,28071,5,4,0:0:0:0:
353,100,28214,1,4,0:0:0:0:
178,53,28356,1,4,0:0:0:0:
456,312,28642,6,4,L|180:308,1,251.99999293542,4|0,0:0|0:0,0:0:0:0:
456,312,29071,6,4,L|172:308,1,276.000005949736,4|0,0:0|0:0,0:0:0:0:
456,312,29499,6,4,L|148:308,1,300.000000745059,4|0,0:0|0:0,0:0:0:0:
456,312,29928,6,4,L|120:308,1,324.000002040625,4|0,0:0|0:0,0:0:0:0:
456,312,30356,2,4,L|280:312,2,174.000005742193,4|0|4,0:0|0:0|0:0,0:0:0:0:
138,131,30928,6,4,B|56:91|56:91|157:45|238:53|295:80,1,324.000002040625,4|0,0:0|0:0,0:0:0:0:
374,253,31356,6,4,B|456:293|456:293|355:339|274:331|198:297,1,348.000011484386,4|0,0:0|0:0,0:0:0:0:
138,131,31785,6,4,B|56:91|56:91|157:45|238:53|340:96,1,372.000003762008,4|0,0:0|0:0,0:0:0:0:
374,253,32213,6,4,B|456:293|456:293|355:339|274:331|168:288,1,372.000003762008,4|0,0:0|0:0,0:0:0:0:
438,101,32642,2,0,L|436:-17,1,102.000002198816,4|0,0:0|0:0,0:0:0:0:
242,99,32785,2,0,L|243:201,1,62.999998233855,4|0,0:0|0:0,0:0:0:0:
438,101,32928,2,0,L|436:12,1,62.999998233855,4|0,0:0|0:0,0:0:0:0:
255,217,33214,6,4,B|314:242|424:239|424:239|349:206,1,251.99999293542,4|0,0:0|0:0,0:0:0:0:
255,217,33642,2,4,B|180:244|64:228|64:228|153:217|289:108,1,372.000003762008,4|0,0:0|0:0,0:0:0:0:
255,217,34071,2,4,B|356:256|513:260|513:260|349:215|297:99,1,492.000008729221,4|0,0:0|0:0,0:0:0:0:
255,217,34499,2,4,B|153:244|10:227|10:227|142:255|348:-33,1,600.000001490117,4|0,0:0|0:0,0:0:0:0:
442,72,34928,6,4,B|439:126|439:126|447:146|447:146|436:169|436:169|436:221|436:221|428:272|428:272|435:295|435:295|436:371|436:371|408:354|408:354|383:373|383:373|371:389|371:389|362:373|362:373|316:375|316:375|285:350|285:350|255:349|255:349|252:321|252:321|219:263,1,600.000001490117,4|4,0:0|0:0,0:0:0:0:
124,113,35499,2,0,B|123:126|123:126|122:139|122:139|118:156|118:156|120:164|120:164|120:186|120:186|122:200|122:200|115:220|115:220|120:242|120:242|112:274|112:274|129:304|129:304|113:331|113:331|133:351|133:351|109:370|109:370|173:368,2,300.000000745059,4|0|0,0:0|0:0|0:0,0:0:0:0:
226,296,35928,2,0,B|215:296|215:296|239:277|239:277|219:257|219:257|235:230|235:230|218:200|218:200|226:168|226:168|221:146|221:146|228:126|228:126|226:112|226:112|226:90|226:90|224:82|224:82|228:65|228:65|229:52|229:52|230:39,2,300.000000745059,4|0|0,0:0|0:0|0:0,0:0:0:0:
359,68,36356,2,4,B|360:81|360:81|361:94|361:94|365:111|365:111|363:119|363:119|363:141|363:141|361:155|361:155|368:175|368:175|363:197|363:197|371:229|371:229|354:259|354:259|370:286|370:286|350:306|350:306|374:325|374:325|364:325,1,300.000000745059,4|0,0:0|0:0,0:0:0:0:
359,68,36642,2,4,B|358:81|358:81|357:94|357:94|353:111|353:111|355:119|355:119|355:141|355:141|357:155|357:155|350:175|350:175|355:197|355:197|347:229|347:229|364:259|364:259|348:286|348:286|368:306|368:306|344:325|344:325|408:323,1,300.000000745059,4|0,0:0|0:0,0:0:0:0:
207,312,37214,6,0,P|104:273|81:94,1,300.000000745059,0|0,0:0|0:0,0:0:0:0:
355,30,37785,6,2,P|250:90|207:137,1,150.000000372529,12|0,0:0|0:0,0:0:0:0:
136,245,38071,5,8,0:0:0:0:
136,245,38142,1,0,0:0:0:0:
136,245,38214,2,0,L|117:134,1,75.0000001862647,0|0,0:0|0:0,0:0:0:0:
225,30,38356,1,8,0:0:0:0:
225,30,38428,1,0,0:0:0:0:
225,30,38499,2,0,L|241:132,1,75.0000001862647,0|0,0:0|0:0,0:0:0:0:
362,247,38642,5,8,0:0:0:0:
362,247,38714,1,0,0:0:0:0:
362,247,38785,2,0,L|378:147,1,75.0000001862647,0|0,0:0|0:0,0:0:0:0:
399,49,38928,1,8,0:0:0:0:
399,49,38999,1,0,0:0:0:0:
399,49,39071,2,0,L|269:100,1,75.0000001862647,0|0,0:0|0:0,0:0:0:0:
205,102,39214,6,0,P|155:10|138:-2,3,75.0000001862647,8|0|0|0,0:0|0:0|0:0|0:0,0:0:0:0:
330,77,39499,2,0,P|320:158|325:182,3,75.0000001862647,8|0|0|0,0:0|0:0|0:0|0:0,0:0:0:0:
177,33,39785,2,0,P|232:42|288:41,1,75.0000001862647,8|0,0:0|0:0,0:0:0:0:
97,110,39928,2,0,P|84:149|86:210,1,75.0000001862647,8|0,0:0|0:0,0:0:0:0:
248,182,40071,2,0,P|253:229|253:271,1,75.0000001862647,8|0,0:0|0:0,0:0:0:0:
155,300,40214,6,2,L|97:346,2,75.0000001862647,0|0|8,0:0|0:0|0:0,0:0:0:0:
352,314,40499,2,2,L|445:330,2,75.0000001862647,0|0|8,0:0|0:0|0:0,0:0:0:0:
254,105,40785,2,2,L|269:25,2,75.0000001862647,0|0|8,0:0|0:0|0:0,0:0:0:0:
168,216,41071,5,0,0:0:0:0:
234,220,41142,1,0,0:0:0:0:
301,211,41214,2,4,P|337:137|342:86,1,75.0000001862647,8|0,0:0|0:0,0:0:0:0:
254,105,41356,2,4,P|232:76|217:41,1,75.0000001862647,0|0,0:0|0:0,0:0:0:0:
410,197,41499,2,4,L|452:107,1,75.0000001862647,8|0,0:0|0:0,0:0:0:0:
410,197,41642,2,4,L|297:171,1,75.0000001862647,0|0,0:0|0:0,0:0:0:0:
410,197,41785,2,4,L|409:300,1,75.0000001862647,8|0,0:0|0:0,0:0:0:0:
254,105,41928,1,8,0:0:0:0:
254,105,42214,6,6,L|259:9,1,75.0000001862647,8|0,0:0|0:0,0:0:0:0:
250,352,42356,5,8,0:0:0:0:
392,201,42642,5,8,0:0:0:0:
435,130,42714,1,0,0:0:0:0:
432,48,42785,1,0,0:0:0:0:
392,201,42928,5,8,0:0:0:0:
435,130,42999,1,0,0:0:0:0:
432,48,43071,1,0,0:0:0:0:
392,201,43214,5,8,0:0:0:0:
435,130,43285,1,0,0:0:0:0:
432,48,43356,1,0,0:0:0:0:
292,28,43499,2,10,L|176:58,2,75.0000001862647,8|0|0,0:0|0:0|0:0,0:0:0:0:
243,151,43785,2,0,L|153:177,3,75.0000001862647,8|0|8|0,0:0|0:0|0:0|0:0,0:0:0:0:
309,235,44071,2,0,L|411:219,1,75.0000001862647,8|0,0:0|0:0,0:0:0:0:
255,287,44214,2,0,L|218:289,5,25.0000000620882,2|0|0|0|0|0,0:0|0:0|0:0|0:0|0:0|0:0,0:0:0:0:
255,287,44356,2,0,P|328:338|359:337,1,100.000000248353,8|0,0:0|0:0,0:0:0:0:
448,240,44642,2,0,L|457:68,1,150.000000372529,8|0,0:0|0:0,0:0:0:0:
303,69,44928,5,8,0:0:0:0:
221,75,44999,1,0,0:0:0:0:
138,81,45071,1,0,0:0:0:0:
303,69,45214,5,8,0:0:0:0:
386,63,45285,1,0,0:0:0:0:
468,57,45356,1,0,0:0:0:0:
303,69,45499,5,8,0:0:0:0:
313,151,45571,1,0,0:0:0:0:
322,232,45642,1,0,0:0:0:0:
193,185,45785,2,4,P|267:238|367:196,1,150.000000372529,8|0,0:0|0:0,0:0:0:0:
445,351,46071,2,8,L|445:188,1,150.000000372529,8|0,0:0|0:0,0:0:0:0:
271,277,46356,5,8,0:0:0:0:
122,140,46499,1,8,0:0:0:0:
122,140,46571,1,0,0:0:0:0:
122,140,46642,2,0,B|258:130,1,75.0000001862647,8|0,0:0|0:0,0:0:0:0:
350,56,46785,2,0,L|312:245,1,150.000000372529,8|0,0:0|0:0,0:0:0:0:
438,317,47071,1,8,0:0:0:0:
381,186,47214,5,8,0:0:0:0:
381,186,47285,1,0,0:0:0:0:
381,186,47356,2,8,L|273:148,1,75.0000001862647,0|0,0:0|0:0,0:0:0:0:
245,277,47499,1,8,0:0:0:0:
245,277,47571,1,0,0:0:0:0:
245,277,47642,2,8,L|325:254,1,75.0000001862647,0|0,0:0|0:0,0:0:0:0:
503,276,47785,2,8,L|401:256,3,75.0000001862647,8|0|0|0,0:0|0:0|0:0|0:0,0:0:0:0:
379,324,48071,5,8,0:0:0:0:
334,320,48142,1,0,0:0:0:0:
288,316,48214,1,0,0:0:0:0:
243,312,48285,1,0,0:0:0:0:
198,308,48356,1,8,0:0:0:0:
152,304,48428,1,0,0:0:0:0:
107,300,48499,6,8,L|120:209,1,75.0000001862647,0|0,0:0|0:0,0:0:0:0:
175,169,48642,2,8,L|277:185,1,75.0000001862647,8|0,0:0|0:0,0:0:0:0:
338,193,48785,2,8,B|337:210|335:238,1,37.5000000931323,2|0,0:0|0:0,0:0:0:0:
338,193,48856,2,8,L|333:270,1,75.0000001862647,2|8,0:0|0:0,0:0:0:0:
330,352,49071,1,8,0:0:0:0:
330,353,49214,2,0,L|495:369,1,150.000000372529,0|0,0:0|0:0,0:0:0:0:
448,184,49499,6,0,P|385:117|375:108,1,75.0000001862647,8|0,0:0|0:0,0:0:0:0:
300,64,49642,1,0,0:0:0:0:
343,214,49785,2,0,P|328:191|281:156,1,75.0000001862647,8|0,0:0|0:0,0:0:0:0:
146,120,49928,2,0,P|173:132|212:166,1,75.0000001862647,8|0,0:0|0:0,0:0:0:0:
84,208,50071,2,0,P|55:181|17:160,1,75.0000001862647,8|0,0:0|0:0,0:0:0:0:
108,313,50214,2,0,P|134:332|168:364,1,75.0000001862647,8|0,0:0|0:0,0:0:0:0:
228,267,50428,2,8,L|375:271,1,75.0000001862647,0|0,0:0|0:0,0:0:0:0:
420,269,50571,5,0,0:0:0:0:
420,269,50642,1,8,0:0:0:0:
420,269,50714,2,8,L|415:175,1,75.0000001862647,0|0,0:0|0:0,0:0:0:0:
366,148,50856,1,0,0:0:0:0:
366,148,50928,1,8,0:0:0:0:
366,148,50999,2,8,L|257:148,1,75.0000001862647,0|8,0:0|0:0,0:0:0:0:
243,210,51142,5,0,0:0:0:0:
243,210,51214,1,8,0:0:0:0:
243,210,51285,2,8,L|240:295,1,75.0000001862647,0|8,0:0|0:0,0:0:0:0:
309,335,51428,1,0,0:0:0:0:
512,373,51642,5,0,0:0:0:0:
463,242,51785,2,4,P|475:122|469:52,1,150.000000372529,8|0,0:0|0:0,0:0:0:0:
360,49,52071,5,8,0:0:0:0:
361,56,52142,1,0,0:0:0:0:
361,63,52214,2,8,L|449:66,1,75.0000001862647,0|0,0:0|0:0,0:0:0:0:
262,165,52356,1,8,0:0:0:0:
262,135,52427,1,0,0:0:0:0:
262,107,52499,2,8,L|157:106,1,75.0000001862647,0|0,0:0|0:0,0:0:0:0:
384,188,52643,5,8,0:0:0:0:
382,269,52714,1,0,0:0:0:0:
381,351,52785,2,0,L|493:356,1,75.0000001862647,0|0,0:0|0:0,0:0:0:0:
287,351,52928,2,0,L|289:244,3,75.0000001862647,8|0|0|0,0:0|0:0|0:0|0:0,0:0:0:0:
189,348,53214,2,8,L|96:343,3,75.0000001862647,8|0|8|0,0:0|0:0|0:0|0:0,0:0:0:0:
195,253,53499,2,8,B|168:231|168:231|118:254,3,75.0000001862647,8|0|8|0,0:0|0:0|0:0|0:0,0:0:0:0:
287,179,53785,5,8,0:0:0:0:
308,47,54356,1,8,0:0:0:0:
396,144,54928,2,4,B|267:222|267:222|86:192,1,300.000000745059,0|0,0:0|0:0,0:0:0:0:
261,26,55499,1,0,0:0:0:0:
261,26,56071,6,2,L|474:32,1,192.000000476838,12|0,0:0|0:0,0:0:0:0:
460,163,56285,1,0,0:0:0:0:
453,172,56356,2,2,L|244:159,1,192.000000476838,8|0,0:0|0:0,0:0:0:0:
150,229,56571,5,0,0:0:0:0:
145,234,56642,2,8,L|107:29,1,192.000000476838,8|0,0:0|0:0,0:0:0:0:
246,210,56856,1,0,0:0:0:0:
255,218,56928,2,8,L|288:-8,1,192.000000476838,8|0,0:0|0:0,0:0:0:0:
362,20,57142,5,0,0:0:0:0:
442,31,57214,2,2,L|466:271,1,215.999993944646,12|0,0:0|0:0,0:0:0:0:
430,316,57428,1,0,0:0:0:0:
362,373,57499,2,2,P|205:350|147:295,1,215.999993944646,8|0,0:0|0:0,0:0:0:0:
85,247,57714,5,0,0:0:0:0:
75,239,57785,2,8,L|194:217,1,107.999996972323,8|0,0:0|0:0,0:0:0:0:
266,144,57928,1,0,0:0:0:0:
273,138,57999,2,8,L|110:111,1,107.999996972323,0|8,0:0|0:0,0:0:0:0:
71,129,58142,1,0,0:0:0:0:
63,115,58214,2,8,P|157:48|247:47,1,107.999996972323,8|0,0:0|0:0,0:0:0:0:
249,36,58356,5,4,0:0:0:0:
262,32,58428,2,2,P|346:38|490:139,1,215.999993944646,0|0,0:0|0:0,0:0:0:0:
456,182,58642,1,8,0:0:0:0:
452,194,58714,2,2,P|338:216|223:156,1,215.999993944646,0|0,0:0|0:0,0:0:0:0:
147,141,58928,1,8,0:0:0:0:
139,135,58999,2,8,P|117:251|161:394,1,215.999993944646,0|0,0:0|0:0,0:0:0:0:
255,375,59214,5,8,0:0:0:0:
256,342,59285,1,8,0:0:0:0:
257,309,59356,1,8,0:0:0:0:
258,276,59428,1,8,0:0:0:0:
259,243,59499,2,2,P|367:228|490:274,1,215.999993944646,12|0,0:0|0:0,0:0:0:0:
381,346,59714,5,0,0:0:0:0:
381,346,59785,2,2,L|364:198,1,107.999996972323,8|0,0:0|0:0,0:0:0:0:
359,154,59928,2,2,L|222:160,1,107.999996972323,8|0,0:0|0:0,0:0:0:0:
162,174,60071,2,2,B|63:236|75:334|75:334|208:359,1,323.999990916968,8|0,0:0|0:0,0:0:0:0:
296,336,60356,2,8,P|357:186|330:48,1,215.999993944646,8|8,0:0|0:0,0:0:0:0:
335,50,60571,5,0,0:0:0:0:
323,40,60642,2,2,L|79:57,1,215.999993944646,12|0,0:0|0:0,0:0:0:0:
82,182,60856,1,0,0:0:0:0:
78,190,60928,2,2,L|302:171,1,215.999993944646,8|0,0:0|0:0,0:0:0:0:
399,116,61142,1,0,0:0:0:0:
405,108,61214,2,8,L|436:329,1,215.999993944646,8|0,0:0|0:0,0:0:0:0:
320,341,61428,1,0,0:0:0:0:
313,348,61499,2,8,L|294:118,1,215.999993944646,8|0,0:0|0:0,0:0:0:0:
279,127,61714,5,0,0:0:0:0:
193,91,61785,2,2,P|159:229|196:366,1,215.999993944646,12|0,0:0|0:0,0:0:0:0:
173,315,61999,1,0,0:0:0:0:
247,333,62071,2,2,P|278:255|299:83,1,215.999993944646,8|0,0:0|0:0,0:0:0:0:
288,117,62285,1,0,0:0:0:0:
278,111,62356,6,8,L|255:248,1,107.999996972323,8|0,0:0|0:0,0:0:0:0:
382,264,62499,2,8,L|391:144,1,107.999996972323,8|0,0:0|0:0,0:0:0:0:
251,209,62642,6,8,L|268:72,1,107.999996972323,8|0,0:0|0:0,0:0:0:0:
400,160,62785,2,8,L|387:289,1,107.999996972323,8|0,0:0|0:0,0:0:0:0:
360,363,62928,5,12,0:0:0:0:
337,365,62999,1,0,0:0:0:0:
314,360,63071,1,0,0:0:0:0:
293,351,63142,1,0,0:0:0:0:
273,340,63214,2,2,P|228:233|274:98,1,225.000000558794,8|0,0:0|0:0,0:0:0:0:
308,74,63499,2,2,P|425:51|492:136,1,225.000000558794,12|0,0:0|0:0,0:0:0:0:
461,194,63785,2,8,L|273:196,2,150.000000372529,8|0|12,0:0|0:0|0:0,0:0:0:0:
450,314,64249,6,0,L|442:306|439:303|435:299|481:297,2,37.5000000931323,0|8|0,0:0|0:0|0:0,0:0:0:0:
450,314,64356,2,10,L|286:314,1,150.000000372529,8|0,0:0|0:0,0:0:0:0:
196,285,64642,6,10,L|195:348,1,37.5000000931323,12|0,0:0|0:0,0:0:0:0:
150,285,64714,2,10,L|150:338,1,37.5000000931323,8|0,0:0|0:0,0:0:0:0:
107,285,64785,2,10,L|107:341,1,37.5000000931323,8|0,0:0|0:0,0:0:0:0:
63,285,64856,2,10,L|60:348,1,37.5000000931323,8|0,0:0|0:0,0:0:0:0:
62,264,64928,2,10,L|64:209,1,37.5000000931323,8|0,0:0|0:0,0:0:0:0:
109,260,64999,2,10,L|107:193,1,37.5000000931323,8|0,0:0|0:0,0:0:0:0:
149,262,65071,2,10,L|150:199,1,37.5000000931323,8|0,0:0|0:0,0:0:0:0:
189,264,65142,2,10,L|189:207,1,37.5000000931323,8|0,0:0|0:0,0:0:0:0:
189,264,65214,2,10,B|434:264|434:264|484:32|484:32|245:31|245:31|336:113|336:113|209:112|209:112|144:23|144:23|24:24|24:24|28:219,1,1380.00000342727,12|0,0:0|0:0,0:0:0:0:
256,192,66928,12,0,67499,0:0:0:0:
87,258,76642,6,0,P|115:186|217:161,1,180.000007313491,4|0,0:0|0:0,0:0:0:0:
306,286,77214,1,0,0:0:0:0:
379,246,77356,1,0,0:0:0:0:
427,173,77499,1,0,0:0:0:0:
347,116,77785,2,0,B|315:63|320:36|320:36|274:25|219:33|219:33|212:130,1,270.000010970236,0|0,0:0|0:0,0:0:0:0:
200,228,78356,2,0,P|126:256|56:161,1,180.000007313491,0|0,0:0|0:0,0:0:0:0:
49,106,78928,6,4,B|95:106|95:106|95:61|95:61|145:61|145:61|143:108|143:108|227:107,1,270.000010970236,0|0,0:0|0:0,0:0:0:0:
294,45,79499,1,0,0:0:0:0:
438,231,79785,1,0,0:0:0:0:
227,109,80071,1,0,0:0:0:0:
184,263,80642,6,2,P|265:254|296:242,2,107.999996972323,0|0|0,0:0|0:0|0:0,0:0:0:0:
83,313,81214,6,4,P|72:219|125:104,1,215.999993944646,4|0,0:0|0:0,0:0:0:0:
198,61,81785,2,2,P|269:47|329:50,2,107.999996972323,0|0|0,0:0|0:0|0:0,0:0:0:0:
82,312,82356,6,4,P|73:206|119:110,1,215.999993944646,4|0,0:0|0:0,0:0:0:0:
197,61,82928,2,2,P|250:48|342:67,2,107.999996972323,0|0|0,0:0|0:0|0:0,0:0:0:0:
83,313,83499,6,8,P|72:219|125:104,1,215.999993944646,4|0,0:0|0:0,0:0:0:0:
198,61,84071,2,2,P|269:47|329:50,2,107.999996972323,0|0|0,0:0|0:0|0:0,0:0:0:0:
83,313,84642,6,12,P|72:219|125:104,1,215.999993944646,4|0,0:0|0:0,0:0:0:0:
198,61,85213,2,2,P|269:47|329:50,2,107.999996972323,0|0|0,0:0|0:0|0:0,0:0:0:0:
418,123,85785,6,12,P|372:192|403:72,1,450.000001117588,4|0,0:0|0:0,0:0:0:0:
401,69,86928,6,12,P|238:171|418:123,1,539.999984861614,4|0,0:0|0:0,0:0:0:0:
478,66,88071,6,12,L|523:370,1,269.999992430807,4|0,0:0|0:0,0:0:0:0:
500,349,88499,2,12,L|463:66,1,269.999992430807,0|0,0:0|0:0,0:0:0:0:
449,75,88928,2,12,L|480:366,1,269.999992430807,0|0,0:0|0:0,0:0:0:0:
467,352,89356,2,12,L|442:70,1,269.999992430807,0|0,0:0|0:0,0:0:0:0:
336,38,89785,1,4,0:0:0:0:
102,350,90071,1,4,0:0:0:0:
41,67,90356,6,4,P|114:25|303:101,1,269.999992430807,4|0,0:0|0:0,0:0:0:0:
156,101,90785,2,4,P|277:182|430:126,1,269.999992430807,0|0,0:0|0:0,0:0:0:0:
444,51,91214,2,4,P|489:193|436:338,1,269.999992430807,0|0,0:0|0:0,0:0:0:0:
377,355,91642,2,4,P|346:278|366:99,1,215.999993944646,0|0,0:0|0:0,0:0:0:0:
221,107,92071,1,4,0:0:0:0:
105,221,92214,1,4,0:0:0:0:
57,66,92356,1,4,0:0:0:0:
57,66,92714,6,2,B|171:55|171:55|188:191|188:191|69:206,1,341.999991716982,0|4,0:0|0:0,0:0:0:0:
98,202,92999,2,2,B|187:190|187:190|172:58|172:58|41:67|40:67|40:67|60:290,1,522.000017226579,0|4,0:0|0:0,0:0:0:0:
54,233,93285,6,2,B|43:67|43:67|171:57|171:57|180:120,1,341.999991716982,0|4,0:0|0:0,0:0:0:0:
177,103,93571,2,2,B|171:54|171:54|41:69|41:69|56:241,1,348.000011484386,0|0,0:0|0:0,0:0:0:0:
54,233,93785,5,4,0:0:0:0:
64,232,93856,1,0,0:0:0:0:
80,232,93928,1,4,0:0:0:0:
101,229,93999,1,0,0:0:0:0:
122,228,94071,1,4,0:0:0:0:
148,226,94142,1,0,0:0:0:0:
180,223,94214,1,4,0:0:0:0:
217,220,94285,1,0,0:0:0:0:
259,217,94356,6,8,L|305:277,1,53.9999984861614,0|0,0:0|0:0,0:0:0:0:
208,155,94499,6,8,L|131:102,1,53.9999984861614,0|0,0:0|0:0,0:0:0:0:
341,125,94642,6,8,L|404:154,1,53.9999984861614,0|0,0:0|0:0,0:0:0:0:
187,40,94785,6,8,L|97:2,1,53.9999984861614,0|0,0:0|0:0,0:0:0:0:
38,31,94928,6,0,L|68:305,2,276.000005949736,0|0|0,0:0|0:0|0:0,0:0:0:0:
146,42,95642,1,0,0:0:0:0:
248,101,95785,2,2,L|269:270,1,138.000002974868,0|0,0:0|0:0,0:0:0:0:
380,299,96071,5,0,0:0:0:0:
358,138,96214,1,0,0:0:0:0:
358,138,96285,1,0,0:0:0:0:
358,138,96356,1,0,0:0:0:0:
476,189,96499,1,0,0:0:0:0:
226,165,96642,2,8,P|145:138|101:76,1,138.000002974868,0|0,0:0|0:0,0:0:0:0:
306,246,96928,2,8,P|382:252|453:289,1,138.000002974868,0|0,0:0|0:0,0:0:0:0:
267,325,97214,6,0,P|228:322|171:244,1,75.0000001862647,12|0,0:0|0:0,0:0:0:0:
72,133,97356,2,0,P|66:165|74:221,1,75.0000001862647,0|0,0:0|0:0,0:0:0:0:
50,347,97499,1,8,0:0:0:0:
73,115,97642,1,0,0:0:0:0:
230,241,97785,2,0,P|339:275|409:264,1,150.000000372529,8|0,0:0|0:0,0:0:0:0:
310,139,98071,2,0,P|205:78|166:63,1,150.000000372529,8|0,0:0|0:0,0:0:0:0:
230,241,98356,5,8,0:0:0:0:
380,334,98499,2,0,P|417:266|421:188,1,150.000000372529,0|8,0:0|0:0,0:0:0:0:
230,241,98785,1,0,0:0:0:0:
84,154,98928,2,0,P|48:244|54:304,1,150.000000372529,8|0,0:0|0:0,0:0:0:0:
230,241,99214,2,0,L|244:152,1,75.0000001862647,8|0,0:0|0:0,0:0:0:0:
235,245,99356,2,0,L|247:170,1,75.0000001862647,8|0,0:0|0:0,0:0:0:0:
246,46,99499,6,0,L|396:77,1,150.000000372529,8|0,0:0|0:0,0:0:0:0:
444,151,99785,1,8,0:0:0:0:
339,362,99928,2,0,L|366:192,1,150.000000372529,0|8,0:0|0:0,0:0:0:0:
444,151,100214,1,0,0:0:0:0:
390,77,100356,2,0,L|294:88,1,75.0000001862647,8|0,0:0|0:0,0:0:0:0:
227,96,100499,2,0,L|212:197,1,75.0000001862647,8|8,0:0|0:0,0:0:0:0:
204,260,100642,6,0,P|112:260|72:212,1,150.000000372529,8|0,0:0|0:0,0:0:0:0:
63,113,100928,1,8,0:0:0:0:
301,265,101071,2,0,P|371:268|435:185,1,150.000000372529,8|0,0:0|0:0,0:0:0:0:
452,123,101356,1,8,0:0:0:0:
255,0,101499,5,8,0:0:0:0:
255,7,101571,1,0,0:0:0:0:
255,14,101642,1,8,0:0:0:0:
255,21,101714,1,0,0:0:0:0:
256,27,101785,6,0,P|310:111|391:139,1,150.000000372529,8|0,0:0|0:0,0:0:0:0:
353,133,102071,1,8,0:0:0:0:
149,127,102213,2,0,P|200:72|247:-1,1,150.000000372529,0|8,0:0|0:0,0:0:0:0:
149,127,102499,1,0,0:0:0:0:
206,194,102642,6,0,L|322:185,1,75.0000001862647,8|0,0:0|0:0,0:0:0:0:
399,289,102785,2,0,L|300:298,1,75.0000001862647,8|0,0:0|0:0,0:0:0:0:
174,341,102928,2,0,B|209:185,1,150.000000372529,8|0,0:0|0:0,0:0:0:0:
212,84,103214,1,8,0:0:0:0:
399,289,103356,2,0,L|358:118,1,150.000000372529,8|0,0:0|0:0,0:0:0:0:
345,50,103642,1,8,0:0:0:0:
207,195,103785,5,0,0:0:0:0:
199,197,103856,1,0,0:0:0:0:
191,199,103928,1,8,0:0:0:0:
183,201,103999,1,0,0:0:0:0:
175,203,104071,2,0,L|140:132,1,75.0000001862647,8|0,0:0|0:0,0:0:0:0:
235,31,104214,2,0,L|267:106,1,75.0000001862647,8|0,0:0|0:0,0:0:0:0:
360,237,104356,5,8,0:0:0:0:
360,237,104499,2,0,P|314:313|205:325,1,150.000000372529,0|8,0:0|0:0,0:0:0:0:
135,331,104785,1,8,0:0:0:0:
360,237,104928,2,0,P|314:313|205:325,1,150.000000372529,0|8,0:0|0:0,0:0:0:0:
216,250,105142,1,0,0:0:0:0:
173,140,105214,2,0,P|258:85|337:84,1,150.000000372529,8|8,0:0|0:0,0:0:0:0:
438,218,105499,1,8,0:0:0:0:
173,140,105642,2,0,P|258:85|337:84,1,150.000000372529,8|8,0:0|0:0,0:0:0:0:
312,80,105856,5,8,0:0:0:0:
319,80,105928,1,8,0:0:0:0:
326,80,105999,1,8,0:0:0:0:
333,79,106071,1,8,0:0:0:0:
354,151,106142,5,8,0:0:0:0:
346,151,106214,1,8,0:0:0:0:
338,151,106285,1,0,0:0:0:0:
330,153,106356,2,0,L|313:154,1,12.0000000298023,12|0,0:0|0:0,0:0:0:0:
173,140,106499,6,0,L|177:316,1,150.000000372529,0|8,0:0|0:0,0:0:0:0:
237,324,106714,1,0,0:0:0:0:
298,356,106785,2,0,L|295:202,1,150.000000372529,0|8,0:0|0:0,0:0:0:0:
288,47,107071,1,0,0:0:0:0:
419,104,107214,2,0,L|424:275,1,150.000000372529,8|0,0:0|0:0,0:0:0:0:
426,354,107499,6,0,P|347:355|255:296,1,150.000000372529,8|0,0:0|0:0,0:0:0:0:
187,236,107785,1,8,0:0:0:0:
408,336,107928,2,0,P|340:323|262:271,1,150.000000372529,0|8,0:0|0:0,0:0:0:0:
186,167,108214,1,0,0:0:0:0:
388,305,108356,2,0,P|294:279|250:232,1,150.000000372529,8|8,0:0|0:0,0:0:0:0:
205,184,108571,1,0,0:0:0:0:
188,98,108642,6,0,P|292:55|381:55,1,150.000000372529,8|0,0:0|0:0,0:0:0:0:
458,100,108928,1,8,0:0:0:0:
203,108,109071,2,0,P|329:70|378:75,1,150.000000372529,0|8,0:0|0:0,0:0:0:0:
458,168,109356,1,0,0:0:0:0:
366,216,109499,6,0,L|367:276,1,37.5000000931323,8|0,0:0|0:0,0:0:0:0:
332,210,109571,2,0,L|313:253,1,37.5000000931323,8|0,0:0|0:0,0:0:0:0:
300,194,109642,2,0,L|241:220,1,37.5000000931323,8|0,0:0|0:0,0:0:0:0:
276,155,109714,2,0,L|232:127,1,37.5000000931323,8|0,0:0|0:0,0:0:0:0:
282,97,109785,6,0,P|215:64|128:76,1,150.000000372529,8|0,0:0|0:0,0:0:0:0:
42,128,110071,1,8,0:0:0:0:
216,143,110214,2,0,P|157:191|127:273,1,150.000000372529,0|8,0:0|0:0,0:0:0:0:
220,327,110499,1,0,0:0:0:0:
316,182,110642,2,0,P|369:265|436:295,1,150.000000372529,8|8,0:0|0:0,0:0:0:0:
494,184,110928,6,0,P|411:96|355:80,1,150.000000372529,12|0,0:0|0:0,0:0:0:0:
193,16,111214,1,8,0:0:0:0:
394,189,111356,2,0,P|309:173|213:178,1,150.000000372529,0|8,0:0|0:0,0:0:0:0:
55,190,111642,1,0,0:0:0:0:
324,239,111785,2,0,P|231:282|177:339,1,150.000000372529,8|0,0:0|0:0,0:0:0:0:
76,375,112071,6,0,L|62:221,1,150.000000372529,12|0,0:0|0:0,0:0:0:0:
143,110,112356,1,8,0:0:0:0:
222,383,112499,2,0,L|227:215,1,150.000000372529,0|8,0:0|0:0,0:0:0:0:
327,124,112785,1,0,0:0:0:0:
330,380,112928,2,0,L|397:244,1,150.000000372529,8|8,0:0|0:0,0:0:0:0:
482,183,113142,1,0,0:0:0:0:
461,88,113214,6,0,L|301:72,1,150.000000372529,12|0,0:0|0:0,0:0:0:0:
200,104,113499,1,8,0:0:0:0:
450,203,113642,2,0,L|280:179,1,150.000000372529,0|8,0:0|0:0,0:0:0:0:
170,281,113928,1,0,0:0:0:0:
170,281,113999,1,0,0:0:0:0:
170,281,114071,2,0,L|326:285,1,150.000000372529,8|8,0:0|0:0,0:0:0:0:
491,354,114356,6,0,L|394:192,1,150.000000372529,8|0,0:0|0:0,0:0:0:0:
348,102,114571,2,0,L|256:254,1,150.000000372529,8|0,0:0|0:0,0:0:0:0:
225,319,114785,2,0,L|419:324,1,150.000000372529,8|0,0:0|0:0,0:0:0:0:
431,202,115071,1,8,0:0:0:0:
426,48,115214,5,8,0:0:0:0:
426,48,115261,1,0,0:0:0:0:
426,48,115309,1,0,0:0:0:0:
426,48,115356,1,2,0:0:0:0:
426,48,115404,1,0,0:0:0:0:
426,48,115452,1,0,0:0:0:0:
426,48,115499,6,0,L|433:203,1,150.000000372529,0|8,0:0|0:0,0:0:0:0:
325,286,115785,1,8,0:0:0:0:
272,23,115928,2,0,L|274:215,1,150.000000372529,0|8,0:0|0:0,0:0:0:0:
160,290,116214,1,0,0:0:0:0:
67,26,116356,2,0,L|72:189,1,150.000000372529,8|0,0:0|0:0,0:0:0:0:
72,278,116571,5,0,0:0:0:0:
73,375,116642,2,0,L|268:370,1,150.000000372529,8|0,0:0|0:0,0:0:0:0:
306,289,116928,1,8,0:0:0:0:
158,209,117071,2,0,L|326:206,1,150.000000372529,0|8,0:0|0:0,0:0:0:0:
407,128,117356,1,0,0:0:0:0:
254,47,117499,2,0,L|406:44,1,150.000000372529,8|8,0:0|0:0,0:0:0:0:
407,216,117785,6,0,B|409:296|409:296|326:295,1,150.000000372529,8|0,0:0|0:0,0:0:0:0:
330,125,118071,1,8,0:0:0:0:
253,214,118214,6,0,B|255:294|255:294|172:293,1,150.000000372529,0|8,0:0|0:0,0:0:0:0:
179,133,118499,2,0,L|176:42,1,75.0000001862647,8|0,0:0|0:0,0:0:0:0:
114,211,118642,2,0,L|111:329,1,75.0000001862647,8|0,0:0|0:0,0:0:0:0:
44,128,118785,2,0,L|46:29,1,75.0000001862647,8|0,0:0|0:0,0:0:0:0:
253,214,118928,6,0,B|253:289|253:289|348:290,1,150.000000372529,8|0,0:0|0:0,0:0:0:0:
253,112,119214,1,8,0:0:0:0:
329,217,119356,1,0,0:0:0:0:
331,112,119499,6,0,L|332:61,1,37.5000000931323,10|2,0:0|0:0,0:0:0:0:
331,112,119571,2,0,L|380:100,1,37.5000000931323,2|2,0:0|0:0,0:0:0:0:
331,112,119642,2,0,L|360:157,1,37.5000000931323,2|2,0:0|0:0,0:0:0:0:
331,112,119714,2,0,L|302:150,1,37.5000000931323,2|0,0:0|0:0,0:0:0:0:
331,112,119785,2,0,L|279:95,7,37.5000000931323,10|2|2|2|2|2|2|0,0:0|0:0|0:0|0:0|0:0|0:0|0:0|0:0,0:0:0:0:
331,112,120071,6,0,L|359:275,1,150.000000372529,8|8,0:0|0:0,0:0:0:0:
215,33,120356,1,8,0:0:0:0:
91,121,120499,2,0,L|104:306,1,150.000000372529,0|8,0:0|0:0,0:0:0:0:
209,357,120785,1,0,0:0:0:0:
324,272,120928,2,0,L|309:98,1,150.000000372529,8|8,0:0|0:0,0:0:0:0:
392,35,121214,6,0,L|408:199,1,150.000000372529,8|0,0:0|0:0,0:0:0:0:
428,299,121499,1,8,0:0:0:0:
317,216,121642,2,0,L|306:32,1,150.000000372529,0|8,0:0|0:0,0:0:0:0:
230,305,121928,1,0,0:0:0:0:
125,217,122071,2,0,L|105:37,1,150.000000372529,8|8,0:0|0:0,0:0:0:0:
209,24,122356,6,0,L|300:15,1,75.0000001862647,8|0,0:0|0:0,0:0:0:0:
297,92,122499,2,0,L|204:109,1,75.0000001862647,8|0,0:0|0:0,0:0:0:0:
231,176,122642,2,0,L|330:156,1,75.0000001862647,8|0,0:0|0:0,0:0:0:0:
312,243,122785,2,0,L|220:267,1,75.0000001862647,8|0,0:0|0:0,0:0:0:0:
134,358,122928,5,8,0:0:0:0:
122,300,122999,1,0,0:0:0:0:
110,240,123071,1,8,0:0:0:0:
99,181,123142,1,0,0:0:0:0:
88,121,123214,2,0,L|190:112,1,75.0000001862647,8|8,0:0|0:0,0:0:0:0:
232,46,123356,1,8,0:0:0:0:
232,46,123428,1,8,0:0:0:0:
232,46,123499,6,0,L|401:32,1,150.000000372529,8|0,0:0|0:0,0:0:0:0:
442,93,123785,1,8,0:0:0:0:
241,174,123928,2,0,L|418:164,1,150.000000372529,0|8,0:0|0:0,0:0:0:0:
494,229,124214,1,0,0:0:0:0:
394,266,124356,2,0,L|290:278,1,100.000000248353,0|0,0:0|0:0,0:0:0:0:
218,284,124499,5,2,0:0:0:0:
172,286,124547,1,0,0:0:0:0:
127,288,124594,1,0,0:0:0:0:
81,291,124642,2,0,L|73:180,1,75.0000001862647,12|0,0:0|0:0,0:0:0:0:
68,86,124785,6,0,L|245:77,1,150.000000372529,0|8,0:0|0:0,0:0:0:0:
395,147,125071,1,0,0:0:0:0:
395,147,125214,2,0,L|203:163,1,150.000000372529,8|0,0:0|0:0,0:0:0:0:
138,324,125499,2,0,L|347:303,1,150.000000372529,8|8,0:0|0:0,0:0:0:0:
356,358,125714,1,0,0:0:0:0:
411,296,125785,6,0,L|393:136,1,150.000000372529,8|0,0:0|0:0,0:0:0:0:
381,48,126071,1,8,0:0:0:0:
248,36,126214,2,0,L|270:236,1,150.000000372529,0|8,0:0|0:0,0:0:0:0:
274,252,126428,1,0,0:0:0:0:
288,310,126499,2,0,L|108:329,1,150.000000372529,8|8,0:0|0:0,0:0:0:0:
131,219,126785,1,8,0:0:0:0:
131,219,126928,6,0,L|303:206,1,150.000000372529,8|0,0:0|0:0,0:0:0:0:
424,204,127214,1,8,0:0:0:0:
400,49,127356,2,0,L|227:59,1,150.000000372529,0|8,0:0|0:0,0:0:0:0:
118,65,127642,1,0,0:0:0:0:
131,220,127785,2,0,L|138:342,1,75.0000001862647,0|0,0:0|0:0,0:0:0:0:
139,371,127928,5,2,0:0:0:0:
183,371,127975,1,0,0:0:0:0:
228,371,128023,1,0,0:0:0:0:
273,371,128071,2,0,L|264:275,1,75.0000001862647,0|0,0:0|0:0,0:0:0:0:
251,197,128214,6,0,L|354:176,1,75.0000001862647,8|0,0:0|0:0,0:0:0:0:
435,175,128356,2,0,P|436:78|366:25,1,150.000000372529,8|0,0:0|0:0,0:0:0:0:
354,114,128642,1,8,0:0:0:0:
287,57,128785,2,0,P|249:137|258:224,1,150.000000372529,0|8,0:0|0:0,0:0:0:0:
179,265,129071,1,0,0:0:0:0:
179,265,129142,1,0,0:0:0:0:
179,265,129214,6,0,P|310:281|390:270,1,167.99999529028,12|0,0:0|0:0,0:0:0:0:
172,145,129499,1,8,0:0:0:0:
172,145,129642,2,0,P|285:176|399:162,1,167.99999529028,0|8,0:0|0:0,0:0:0:0:
179,265,129928,1,0,0:0:0:0:
52,283,130071,2,0,L|43:85,1,167.99999529028,8|0,0:0|0:0,0:0:0:0:
105,56,130285,1,0,0:0:0:0:
189,100,130356,6,0,L|394:90,1,204.000004397631,12|0,0:0|0:0,0:0:0:0:
471,165,130642,1,8,0:0:0:0:
177,233,130785,2,0,L|417:224,1,204.000004397631,0|8,0:0|0:0,0:0:0:0:
483,317,131071,5,8,0:0:0:0:
480,227,131214,1,8,0:0:0:0:
483,317,131356,1,8,0:0:0:0:
480,227,131499,6,0,L|359:230,1,102.000002198816,8|0,0:0|0:0,0:0:0:0:
247,244,131642,6,0,L|245:159,1,60.0000001490117,2|2,0:0|0:0,0:0:0:0:
219,247,131714,2,0,L|215:180,1,60.0000001490117,2|2,0:0|0:0,0:0:0:0:
189,248,131785,2,0,L|183:178,3,60.0000001490117,10|0|0|0,0:0|0:0|0:0|0:0,0:0:0:0:
118,16,131964,6,0,L|118:98,1,60.0000001490117,0|0,0:0|0:0,0:0:0:0:
145,15,132035,2,0,L|147:89,1,60.0000001490117,0|10,0:0|0:0,0:0:0:0:
177,16,132106,2,0,L|173:103,3,60.0000001490117,2|2|2|10,0:0|0:0|0:0|0:0,0:0:0:0:
339,26,132356,6,0,L|245:26,1,60.0000001490117,2|2,0:0|0:0,0:0:0:0:
355,33,132428,2,0,L|448:34,1,60.0000001490117,2|2,0:0|0:0,0:0:0:0:
335,50,132499,2,0,L|237:60,1,60.0000001490117,2|2,0:0|0:0,0:0:0:0:
362,70,132571,2,0,L|458:80,1,60.0000001490117,2|0,0:0|0:0,0:0:0:0:
337,84,132642,1,8,0:0:0:0:
177,81,133071,1,8,0:0:0:0:
34,15,133499,5,8,0:0:0:0:
44,129,133571,1,8,0:0:0:0:
56,241,133642,1,8,0:0:0:0:
69,355,133714,1,8,0:0:0:0:
69,355,133785,2,0,B|57:239|57:239|194:216,3,240.000000596047,12|0|0|0,0:0|0:0|0:0|0:0,0:0:0:0:
309,216,134928,2,0,B|319:340|319:340|203:350,3,240.000000596047,0|0|0|0,0:0|0:0|0:0|0:0,0:0:0:0:
316,145,136071,6,0,B|296:134|296:134|287:148|287:148|270:136|270:136|255:149|255:149|240:139|240:139|216:147|216:147|201:137|201:137|184:146|184:146|166:138|166:138|145:148|145:148|116:140|116:140|93:147,3,240.000000596047,0|0|0|0,0:0|0:0|0:0|0:0,0:0:0:0:
111,231,137214,6,0,B|115:237|115:237|119:225|119:225|124:237|124:237|130:226|130:226|134:239|134:239|136:228|136:228|141:239|141:239|142:226|142:226|150:242|150:242|154:226|154:226|160:244|160:244|167:225|167:225|173:250|173:250|182:225|182:225|184:252,3,240.000000596047,0|0|0|0,0:0|0:0|0:0|0:0,0:0:0:0:
315,237,138356,1,0,0:0:0:0:
