osu file format v14

[General]
AudioFilename: audio.mp3
AudioLeadIn: 0
PreviewTime: 97214
Countdown: 0
SampleSet: Soft
StackLeniency: 0.7
Mode: 0
LetterboxInBreaks: 0
WidescreenStoryboard: 1

[Editor]
DistanceSpacing: 0.8
BeatDivisor: 4
GridSize: 4
TimelineZoom: 1.4

[Metadata]
Title:Grievous Lady
TitleUnicode:Grievous Lady
Artist:Team Grimoire vs. Laur
ArtistUnicode:Team Grimoire vs. Laur
Creator:Feruver
Version:Expert
Source:Arcaea
Tags:sly instinct AJiSAI IPhong Avoidedoki JackTVN Azrael_- NotABox KittyTrax Bubblekid FinallyV XzeniFX Cubby Jelljel GAOHAO arcaea Melodic Darkcore vicious labyrinth electronic video game instrumental
BeatmapID:2125714
BeatmapSetID:778719

[Difficulty]
HPDrainRate:5
CircleSize:3.2
OverallDifficulty:8.5
ApproachRate:9.4
SliderMultiplier:1.30000000596047
SliderTickRate:1

[Events]
//Background and Video events
0,0,"DNx2wPjUIAAo71C.jpg",0,0
Video,0,"Grievous Lady.mp4"
//Break Periods
2,17413,18910
//Storyboard Layer 0 (Background)
//Storyboard Layer 1 (Fail)
//Storyboard Layer 2 (Pass)
//Storyboard Layer 3 (Foreground)
//Storyboard Layer 4 (Overlay)
//Storyboard Sound Samples

[TimingPoints]
1214,285.714285714286,4,2,1,60,1,0
1428,-100,4,2,1,5,0,0
1499,-100,4,2,1,60,0,0
1642,-100,4,2,1,5,0,0
1785,-100,4,2,1,60,0,0
4285,-100,4,2,1,5,0,0
4356,-100,4,2,1,60,0,0
4571,-100,4,2,1,5,0,0
4642,-100,4,2,1,60,0,0
4856,-100,4,2,1,5,0,0
4928,-100,4,2,1,60,0,0
10356,-142.857142857143,4,2,1,60,0,0
17214,-142.857142857143,4,1,1,60,0,0
19499,-100,4,1,1,60,0,0
23642,-100,4,1,1,30,0,0
23785,-100,4,1,1,60,0,0
28214,-100,4,1,1,30,0,0
28356,-100,4,1,1,60,0,0
28632,-74.0740740740741,4,1,1,60,0,0
32785,-74.0740740740741,4,1,1,45,0,0
32928,-74.0740740740741,4,1,1,60,0,0
37785,-62.5,4,1,1,60,0,1
65214,-100,4,1,1,60,0,0
67499,-100,4,2,1,60,0,0
86928,-100,4,1,1,60,0,0
88061,-83.3333333333333,4,1,1,60,0,0
94928,-100,4,1,1,60,0,0
97214,-62.5,4,1,1,60,0,1
133785,-100,4,1,1,60,0,0
138356,-100,4,1,1,60,0,0
138642,-100,4,1,1,5,0,0

[HitObjects]
97,219,1214,6,0,P|122:177|192:154,1,97.5000004470352,0|0,0:0|0:0,0:0:0:0:
219,166,1499,2,0,P|233:126|222:79,1,65.0000002980235,0|0,0:0|0:0,0:0:0:0:
203,11,1785,6,0,L|296:2,1,65.0000002980235,0|0,0:0|0:0,0:0:0:0:
434,35,2071,2,0,L|341:44,1,65.0000002980235,0|0,0:0|0:0,0:0:0:0:
298,134,2356,1,0,0:0:0:0:
497,72,2499,1,0,0:0:0:0:
392,212,2642,5,0,0:0:0:0:
280,33,2785,1,0,0:0:0:0:
382,305,2928,6,0,P|429:346|502:353,2,130.000000596047,0|0|0,0:0|0:0|0:0,0:0:0:0:
22,260,4071,6,0,P|7:206|47:114,1,130.000000596047,0|0,0:0|0:0,0:0:0:0:
244,91,4642,6,0,P|261:137|242:223,1,130.000000596047,0|0,0:0|0:0,0:0:0:0:
0,187,5214,6,0,P|5:130|62:66,1,130.000000596047,0|0,0:0|0:0,0:0:0:0:
227,40,5785,6,0,P|171:52|136:48,1,65.0000002980235,4|0,0:0|0:0,0:0:0:0:
0,94,6071,2,0,P|33:148|91:176,1,130.000000596047,0|0,0:0|0:0,0:0:0:0:
224,142,6642,2,0,P|249:186|235:264,1,130.000000596047,0|4,0:0|0:0,0:0:0:0:
492,374,7499,6,0,P|460:366|434:346,1,65.0000002980235,0|0,0:0|0:0,0:0:0:0:
391,223,7785,1,0,0:0:0:0:
484,17,8071,6,0,P|426:46|393:101,1,130.000000596047,4|0,0:0|0:0,0:0:0:0:
350,199,8499,2,0,P|303:195|282:180,1,65.0000002980235,0|0,0:0|0:0,0:0:0:0:
74,115,8928,2,0,P|53:172|67:243,1,130.000000596047,0|4,0:0|0:0,0:0:0:0:
249,184,9785,1,0,0:0:0:0:
125,105,10356,6,0,P|124:136|135:158,1,45.4999988200667,4|0,0:0|0:0,0:0:0:0:
165,203,10642,2,0,P|191:202|230:197,1,45.4999988200667,0|0,0:0|0:0,0:0:0:0:
284,111,10928,2,0,P|341:114|382:131,2,90.9999976401334,0|0|4,0:0|0:0|0:0,0:0:0:0:
121,136,12071,1,0,0:0:0:0:
135,223,12214,2,0,P|150:253|169:270,1,45.4999988200667,0|0,0:0|0:0,0:0:0:0:
236,273,12642,6,0,B|159:170|159:170|252:88|252:88|328:121|328:121|341:64|341:64|498:68,1,545.9999858408,4|4,0:0|0:0,0:0:0:0:
496,140,14928,6,0,B|481:304|481:304|395:257|395:257|357:317|357:317|277:254|277:254|231:319|231:319|129:245|129:245|51:310,1,727.999981121067,4|0,0:0|0:0,0:0:0:0:
24,65,19499,6,0,P|78:51|228:86,2,195.00000089407,4|0|0,0:0|0:0|0:0,0:0:0:0:
141,129,20785,2,0,P|132:187|31:286,1,195.00000089407,0|4,0:0|0:0,0:0:0:0:
33,168,21499,1,4,0:0:0:0:
169,184,21785,6,0,P|202:214|249:364,2,195.00000089407,4|0|0,0:0|0:0|0:0,0:0:0:0:
190,67,23071,2,0,P|223:38|373:39,1,195.00000089407,0|4,0:0|0:0,0:0:0:0:
388,135,23642,2,0,P|353:159|310:176,1,65.0000002980235,4|4,0:0|0:0,0:0:0:0:
230,384,24071,6,0,P|231:287|277:202,2,195.00000089407,4|0|0,0:0|0:0|0:0,0:0:0:0:
326,225,25356,2,0,P|422:217|510:257,1,195.00000089407,0|4,0:0|0:0,0:0:0:0:
361,322,26071,1,4,0:0:0:0:
239,217,26356,2,0,P|177:284|169:385,1,195.00000089407,4|0,0:0|0:0,0:0:0:0:
327,384,27214,6,0,P|390:382|488:275,1,195.00000089407,0|0,0:0|0:0,0:0:0:0:
383,60,28071,1,4,0:0:0:0:
512,224,28214,1,4,0:0:0:0:
317,259,28356,2,0,P|266:252|190:190,1,130.000000596047,4|4,0:0|0:0,0:0:0:0:
311,120,29071,1,4,0:0:0:0:
489,275,29499,6,0,P|401:317|232:277,1,263.250002211214,4|4,0:0|0:0,0:0:0:0:
191,100,30356,2,0,P|261:89|395:94,2,175.500001474143,4|4|4,0:0|0:0|0:0,0:0:0:0:
512,213,31356,2,0,P|423:247|219:235,1,263.250002211214,4|4,0:0|0:0,0:0:0:0:
0,171,32214,2,0,P|89:137|293:149,1,263.250002211214,4|4,0:0|0:0,0:0:0:0:
414,209,32785,1,4,0:0:0:0:
296,382,32928,1,4,0:0:0:0:
68,209,33214,6,0,P|117:127|285:11,2,263.250002211214,4|4|4,0:0|0:0|0:0,0:0:0:0:
142,384,34499,2,2,B|218:377|320:350|320:350|367:256,1,263.250002211214,4|4,0:0|0:0,0:0:0:0:
399,85,35214,1,4,0:0:0:0:
469,225,35499,2,2,P|450:304|290:330,2,263.250002211214,4|4|4,0:0|0:0|0:0,0:0:0:0:
487,67,36642,2,0,P|426:49|148:120,1,351.000002948286,4|0,0:0|0:0,0:0:0:0:
276,215,37499,1,0,0:0:0:0:
118,316,37785,6,0,P|95:247|104:210,1,104.000000476838,12|0,0:0|0:0,0:0:0:0:
153,96,38071,1,8,0:0:0:0:
263,193,38214,1,0,0:0:0:0:
385,144,38356,2,0,L|443:151,3,52.0000002384188,8|0|0|0,0:0|0:0|0:0|0:0,0:0:0:0:
370,220,38642,2,0,L|409:257,3,52.0000002384188,8|0|0|0,0:0|0:0|0:0|0:0,0:0:0:0:
312,279,38928,2,0,L|322:333,3,52.0000002384188,8|0|0|0,0:0|0:0|0:0|0:0,0:0:0:0:
229,318,39214,2,0,L|204:366,3,52.0000002384188,8|0|0|0,0:0|0:0|0:0|0:0,0:0:0:0:
142,328,39499,2,0,L|93:343,3,52.0000002384188,8|0|0|0,0:0|0:0|0:0|0:0,0:0:0:0:
23,244,39785,5,8,0:0:0:0:
77,143,39928,2,0,P|123:103|177:93,1,104.000000476838,8|8,0:0|0:0,0:0:0:0:
293,100,40214,1,0,0:0:0:0:
293,100,40285,1,0,0:0:0:0:
293,100,40356,1,8,0:0:0:0:
412,234,40499,1,0,0:0:0:0:
412,234,40571,1,0,0:0:0:0:
412,234,40642,1,8,0:0:0:0:
276,314,40785,1,0,0:0:0:0:
276,314,40856,1,0,0:0:0:0:
276,314,40928,1,8,0:0:0:0:
189,173,41071,5,0,0:0:0:0:
93,59,41214,1,8,0:0:0:0:
60,85,41285,1,0,0:0:0:0:
39,119,41356,1,0,0:0:0:0:
27,159,41428,1,0,0:0:0:0:
22,198,41499,2,0,L|21:256,4,52.0000002384188,8|0|0|0|8,0:0|0:0|0:0|0:0|0:0,0:0:0:0:
192,170,41928,5,8,0:0:0:0:
367,242,42071,5,0,0:0:0:0:
387,206,42142,1,0,0:0:0:0:
395,165,42214,1,8,0:0:0:0:
398,123,42285,1,0,0:0:0:0:
388,82,42356,1,8,0:0:0:0:
267,144,42499,5,0,0:0:0:0:
140,251,42642,2,0,P|91:269|33:263,1,104.000000476838,8|0,0:0|0:0,0:0:0:0:
59,161,42928,2,0,L|16:107,3,52.0000002384188,8|0|0|0,0:0|0:0|0:0|0:0,0:0:0:0:
107,93,43214,2,0,L|78:31,3,52.0000002384188,8|0|0|0,0:0|0:0|0:0|0:0,0:0:0:0:
186,60,43499,2,0,L|177:0,3,52.0000002384188,8|0|0|0,0:0|0:0|0:0|0:0,0:0:0:0:
241,71,43785,5,8,0:0:0:0:
427,105,43928,1,8,0:0:0:0:
317,193,44071,1,8,0:0:0:0:
167,193,44214,2,8,L|129:196,2,34.6666668256125,2|0|0,0:0|0:0|0:0,0:0:0:0:
185,192,44356,2,0,P|200:136|245:113,1,104.000000476838,8|0,0:0|0:0,0:0:0:0:
474,197,44642,5,8,0:0:0:0:
420,79,44785,1,0,0:0:0:0:
340,291,44928,5,8,0:0:0:0:
351,151,45071,1,0,0:0:0:0:
216,328,45214,5,8,0:0:0:0:
248,204,45356,1,0,0:0:0:0:
69,337,45499,5,8,0:0:0:0:
157,244,45642,1,0,0:0:0:0:
30,192,45785,6,0,P|60:134|128:114,1,104.000000476838,8|0,0:0|0:0,0:0:0:0:
201,195,46071,1,8,0:0:0:0:
372,193,46214,2,0,P|342:135|274:115,1,104.000000476838,0|8,0:0|0:0,0:0:0:0:
132,247,46499,1,8,0:0:0:0:
332,288,46642,1,8,0:0:0:0:
232,80,46785,1,8,0:0:0:0:
148,147,47071,6,0,P|197:180|251:191,1,104.000000476838,8|8,0:0|0:0,0:0:0:0:
336,99,47356,1,0,0:0:0:0:
317,324,47499,2,0,L|360:378,3,52.0000002384188,8|0|0|0,0:0|0:0|0:0|0:0,0:0:0:0:
407,327,47785,2,0,L|469:346,3,52.0000002384188,8|0|0|0,0:0|0:0|0:0|0:0,0:0:0:0:
453,259,48071,2,0,L|516:254,3,52.0000002384188,8|0|0|0,0:0|0:0|0:0|0:0,0:0:0:0:
462,179,48356,2,0,L|516:116,3,52.0000002384188,8|0|0|0,0:0|0:0|0:0|0:0,0:0:0:0:
445,22,48642,6,0,P|371:62|334:69,1,104.000000476838,8|2,0:0|0:0,0:0:0:0:
342,74,48856,1,2,0:0:0:0:
342,74,48928,1,8,0:0:0:0:
304,189,49071,1,8,0:0:0:0:
172,228,49214,2,0,P|163:164|186:108,1,104.000000476838,0|0,0:0|0:0,0:0:0:0:
278,59,49499,5,8,0:0:0:0:
278,59,49571,1,0,0:0:0:0:
278,59,49642,1,0,0:0:0:0:
378,207,49785,1,8,0:0:0:0:
378,207,49856,1,0,0:0:0:0:
378,207,49928,1,8,0:0:0:0:
232,376,50071,1,8,0:0:0:0:
127,179,50214,1,8,0:0:0:0:
356,38,50356,5,8,0:0:0:0:
396,47,50428,1,0,0:0:0:0:
431,68,50499,1,0,0:0:0:0:
458,99,50571,1,0,0:0:0:0:
478,134,50642,2,0,L|499:187,2,52.0000002384188,8|0|0,0:0|0:0|0:0,0:0:0:0:
366,167,50928,5,8,0:0:0:0:
356,299,51071,5,8,0:0:0:0:
315,291,51142,1,0,0:0:0:0:
281,266,51213,1,8,0:0:0:0:
254,233,51285,1,0,0:0:0:0:
232,197,51356,1,8,0:0:0:0:
35,16,51642,5,0,0:0:0:0:
148,81,51785,2,0,P|204:92|264:89,1,104.000000476838,8|0,0:0|0:0,0:0:0:0:
471,50,52071,2,0,P|423:30|371:25,1,104.000000476838,8|0,0:0|0:0,0:0:0:0:
218,60,52356,2,0,P|226:125|274:174,1,104.000000476838,8|0,0:0|0:0,0:0:0:0:
389,209,52642,1,8,0:0:0:0:
414,52,52785,1,0,0:0:0:0:
494,198,52928,5,8,0:0:0:0:
356,355,53071,2,0,P|299:295|276:240,1,104.000000476838,0|8,0:0|0:0,0:0:0:0:
325,56,53356,1,8,0:0:0:0:
259,287,53499,1,8,0:0:0:0:
159,57,53642,1,8,0:0:0:0:
411,283,53785,6,0,P|429:224|369:92,1,208.000000953675,8|0,0:0|0:0,0:0:0:0:
98,137,54356,2,0,P|61:213|100:340,1,208.000000953675,8|0,0:0|0:0,0:0:0:0:
415,292,54928,2,0,P|418:218|340:114,1,208.000000953675,8|0,0:0|0:0,0:0:0:0:
253,241,55499,5,0,0:0:0:0:
234,329,55642,1,0,0:0:0:0:
161,277,55785,1,0,0:0:0:0:
155,369,55928,1,0,0:0:0:0:
63,322,56071,5,12,0:0:0:0:
18,178,56214,1,0,0:0:0:0:
180,309,56356,1,8,0:0:0:0:
39,244,56499,1,0,0:0:0:0:
200,189,56642,1,8,0:0:0:0:
97,97,56785,1,0,0:0:0:0:
110,269,56928,1,8,0:0:0:0:
194,137,57071,1,0,0:0:0:0:
264,304,57214,2,0,P|314:291|354:259,1,104.000000476838,12|0,0:0|0:0,0:0:0:0:
232,155,57499,5,8,0:0:0:0:
400,260,57642,1,0,0:0:0:0:
342,40,57785,1,8,0:0:0:0:
480,181,57928,1,0,0:0:0:0:
280,244,58071,1,8,0:0:0:0:
311,66,58214,1,8,0:0:0:0:
476,260,58356,2,0,P|438:305|373:328,1,104.000000476838,12|0,0:0|0:0,0:0:0:0:
203,184,58642,5,8,0:0:0:0:
399,209,58785,1,0,0:0:0:0:
292,84,58928,1,8,0:0:0:0:
261,280,59071,1,0,0:0:0:0:
185,79,59214,1,8,0:0:0:0:
144,85,59285,1,8,0:0:0:0:
112,111,59356,1,8,0:0:0:0:
91,147,59428,1,8,0:0:0:0:
83,187,59499,1,12,0:0:0:0:
209,294,59785,5,8,0:0:0:0:
393,236,59928,1,8,0:0:0:0:
115,173,60071,1,8,0:0:0:0:
317,286,60356,5,8,0:0:0:0:
281,113,60499,1,8,0:0:0:0:
155,346,60642,1,12,0:0:0:0:
359,297,60785,1,0,0:0:0:0:
203,162,60928,1,8,0:0:0:0:
277,325,61071,1,0,0:0:0:0:
317,155,61214,1,8,0:0:0:0:
138,235,61356,1,0,0:0:0:0:
393,150,61499,1,8,0:0:0:0:
157,138,61642,1,0,0:0:0:0:
267,317,61785,2,0,P|315:280|343:227,1,104.000000476838,12|0,0:0|0:0,0:0:0:0:
220,64,62071,5,8,0:0:0:0:
178,222,62214,1,0,0:0:0:0:
316,130,62356,1,8,0:0:0:0:
72,145,62499,1,8,0:0:0:0:
296,206,62642,1,8,0:0:0:0:
190,78,62785,1,8,0:0:0:0:
229,281,62928,5,12,0:0:0:0:
140,158,63071,1,0,0:0:0:0:
246,236,63214,5,8,0:0:0:0:
132,203,63356,1,0,0:0:0:0:
233,197,63499,5,12,0:0:0:0:
151,243,63642,1,0,0:0:0:0:
187,159,63785,5,8,0:0:0:0:
201,258,63928,1,8,0:0:0:0:
201,258,63999,2,0,P|209:278|240:299,1,52.0000002384188,0|12,0:0|0:0,0:0:0:0:
396,297,64214,1,8,0:0:0:0:
417,261,64285,1,8,0:0:0:0:
425,220,64356,1,8,0:0:0:0:
318,148,64499,5,0,0:0:0:0:
230,41,64642,1,12,0:0:0:0:
191,60,64714,1,8,0:0:0:0:
160,87,64785,1,8,0:0:0:0:
141,127,64856,1,8,0:0:0:0:
129,167,64928,1,8,0:0:0:0:
126,208,64999,2,4,L|124:280,3,52.0000002384188,8|8|8|12,0:0|0:0|0:0|0:0,0:0:0:0:
256,192,65285,12,0,67499,0:0:0:0:
455,277,68071,6,0,P|487:235|491:196,2,65.0000002980235,0|0|0,0:0|0:0|0:0,0:0:0:0:
368,371,68642,2,0,P|309:357|303:180,1,260.000001192094,0|0,0:0|0:0,0:0:0:0:
413,361,69499,1,0,0:0:0:0:
436,147,69785,2,0,P|485:190|490:333,1,195.00000089407,0|0,0:0|0:0,0:0:0:0:
421,373,70356,1,0,0:0:0:0:
261,332,70642,2,0,P|224:293|215:207,1,130.000000596047,0|0,0:0|0:0,0:0:0:0:
0,175,71499,5,0,0:0:0:0:
39,84,71642,1,0,0:0:0:0:
133,29,71785,2,0,P|189:32|271:62,1,130.000000596047,0|0,0:0|0:0,0:0:0:0:
512,209,72642,5,0,0:0:0:0:
473,300,72785,1,0,0:0:0:0:
379,355,72928,2,0,P|323:352|241:322,1,130.000000596047,0|0,0:0|0:0,0:0:0:0:
324,266,73642,6,0,P|419:258|495:198,1,195.00000089407,0|0,0:0|0:0,0:0:0:0:
171,138,74356,2,0,P|97:139|-4:210,1,195.00000089407,0|0,0:0|0:0,0:0:0:0:
207,305,75214,1,0,0:0:0:0:
298,384,75499,2,0,P|324:330|321:253,2,130.000000596047,0|0|0,0:0|0:0|0:0,0:0:0:0:
69,298,76642,6,0,P|18:198|127:121,1,260.000001192094,4|0,0:0|0:0,0:0:0:0:
205,222,77356,1,0,0:0:0:0:
307,310,77499,2,0,P|355:276|378:193,1,130.000000596047,0|0,0:0|0:0,0:0:0:0:
357,76,78356,6,0,P|420:37|484:27,1,130.000000596047,0|0,0:0|0:0,0:0:0:0:
392,159,78928,2,0,P|360:190|202:213,1,195.00000089407,0|0,0:0|0:0,0:0:0:0:
80,228,79499,1,0,0:0:0:0:
17,134,79785,2,0,B|11:66|11:66|64:26,1,130.000000596047,0|0,0:0|0:0,0:0:0:0:
467,231,80642,5,0,0:0:0:0:
432,347,80785,1,0,0:0:0:0:
328,289,80928,2,0,P|294:273|220:199,1,130.000000596047,0|4,0:0|0:0,0:0:0:0:
150,11,81785,5,0,0:0:0:0:
201,109,81928,1,0,0:0:0:0:
296,49,82071,2,0,P|353:22|427:69,1,130.000000596047,0|4,0:0|0:0,0:0:0:0:
412,268,82928,5,0,0:0:0:0:
329,312,83071,2,0,P|279:308|249:286,1,65.0000002980235,0|0,0:0|0:0,0:0:0:0:
115,254,83499,6,2,B|185:223|297:209|297:209|297:134|297:134|297:92|291:80|202:84|202:84|201:150|201:150|115:150,1,520.000002384188,4|4,0:0|0:0,0:0:0:0:
156,271,85785,6,0,B|248:269|345:242|345:242|342:147|342:147|423:144|423:145|434:172|439:255|427:299|403:328,1,520.000002384188,4|4,0:0|0:0,0:0:0:0:
42,384,88071,6,0,P|10:299|38:162,2,233.999993931771,4|0|0,0:0|0:0|0:0,0:0:0:0:
210,241,89356,2,0,P|282:211|435:251,1,233.999993931771,0|4,0:0|0:0,0:0:0:0:
327,324,90071,1,4,0:0:0:0:
284,115,90356,6,0,B|206:73|206:73|110:189,1,233.999993931771,4|0,0:0|0:0,0:0:0:0:
252,384,91214,2,0,P|281:335|262:162,1,233.999993931771,0|0,0:0|0:0,0:0:0:0:
419,242,92071,1,4,0:0:0:0:
172,169,92214,1,4,0:0:0:0:
400,42,92356,1,4,0:0:0:0:
318,162,92642,6,0,L|304:245,1,77.9999979772572,4|0,0:0|0:0,0:0:0:0:
199,233,92928,2,0,L|227:122,1,77.9999979772572,4|0,0:0|0:0,0:0:0:0:
377,214,93214,2,0,L|296:284,1,77.9999979772572,4|0,0:0|0:0,0:0:0:0:
139,194,93499,2,0,L|220:141,1,77.9999979772572,4|0,0:0|0:0,0:0:0:0:
235,168,93785,6,0,L|198:210,1,38.9999989886286,4|0,0:0|0:0,0:0:0:0:
389,201,93928,2,0,L|420:137,1,38.9999989886286,4|0,0:0|0:0,0:0:0:0:
241,255,94071,2,0,L|228:305,1,38.9999989886286,4|0,0:0|0:0,0:0:0:0:
371,140,94214,2,0,L|375:77,1,38.9999989886286,4|0,0:0|0:0,0:0:0:0:
342,72,94356,1,0,0:0:0:0:
295,54,94428,1,0,0:0:0:0:
256,41,94499,1,0,0:0:0:0:
217,37,94571,1,0,0:0:0:0:
180,47,94642,1,0,0:0:0:0:
141,66,94714,2,0,L|104:86,2,38.9999989886286,0|0|0,0:0|0:0|0:0,0:0:0:0:
147,97,94928,6,0,B|121:130|121:130|93:135|93:135|7:144|-13:149|254:157|217:168|121:211|121:211|181:224|181:224|88:311|88:311|200:259|270:274|276:362|360:311|360:311|411:180|370:78,1,1040.00000476838,0|12,0:0|0:0,0:0:0:0:
308,187,97356,1,0,0:0:0:0:
246,104,97499,2,0,P|182:120|150:164,1,104.000000476838,8|0,0:0|0:0,0:0:0:0:
208,355,97785,2,0,P|207:303|193:253,1,104.000000476838,8|0,0:0|0:0,0:0:0:0:
86,149,98071,1,8,0:0:0:0:
232,67,98214,1,0,0:0:0:0:
272,180,98356,6,0,P|322:191|373:182,1,104.000000476838,8|0,0:0|0:0,0:0:0:0:
493,322,98642,2,0,P|441:314|393:295,1,104.000000476838,8|0,0:0|0:0,0:0:0:0:
388,82,98928,1,8,0:0:0:0:
306,237,99071,1,0,0:0:0:0:
240,87,99214,2,0,P|190:98|148:128,1,104.000000476838,8|8,0:0|0:0,0:0:0:0:
184,334,99499,1,8,0:0:0:0:
252,218,99642,1,0,0:0:0:0:
421,245,99785,2,0,P|385:181|329:157,1,104.000000476838,8|0,0:0|0:0,0:0:0:0:
240,87,100071,1,8,0:0:0:0:
144,247,100214,1,0,0:0:0:0:
296,377,100356,5,8,0:0:0:0:
296,377,100428,1,0,0:0:0:0:
296,377,100499,2,0,P|344:313|344:253,1,104.000000476838,8|8,0:0|0:0,0:0:0:0:
365,128,100785,1,0,0:0:0:0:
130,188,101071,5,8,0:0:0:0:
472,116,101356,5,8,0:0:0:0:
328,60,101499,1,8,0:0:0:0:
448,28,101642,1,8,0:0:0:0:
368,128,101785,2,0,P|328:172|264:184,1,104.000000476838,8|0,0:0|0:0,0:0:0:0:
113,274,102071,2,0,P|153:230|217:218,1,104.000000476838,8|0,0:0|0:0,0:0:0:0:
320,335,102356,5,8,0:0:0:0:
224,140,102499,1,0,0:0:0:0:
447,203,102642,2,0,P|459:139|419:79,1,104.000000476838,8|8,0:0|0:0,0:0:0:0:
278,224,102928,1,8,0:0:0:0:
423,381,103214,5,8,0:0:0:0:
423,381,103356,1,8,0:0:0:0:
278,86,103642,5,8,0:0:0:0:
172,248,103928,5,8,0:0:0:0:
264,336,104071,1,8,0:0:0:0:
340,116,104214,1,8,0:0:0:0:
132,96,104356,2,4,P|160:168|200:200,1,104.000000476838,8|0,0:0|0:0,0:0:0:0:
320,200,104642,1,8,0:0:0:0:
320,200,104785,1,8,0:0:0:0:
92,228,105071,5,8,0:0:0:0:
236,87,105214,1,8,0:0:0:0:
196,284,105356,1,8,0:0:0:0:
104,96,105499,1,8,0:0:0:0:
284,218,105642,1,8,0:0:0:0:
53,223,105785,1,8,0:0:0:0:
52,262,105856,1,8,0:0:0:0:
63,305,105928,1,8,0:0:0:0:
84,338,105999,1,8,0:0:0:0:
130,356,106071,2,4,L|179:371,4,52.0000002384188,8|8|8|8|12,0:0|0:0|0:0|0:0|0:0,0:0:0:0:
212,232,106499,5,0,0:0:0:0:
76,292,106642,2,0,P|52:228|64:160,1,104.000000476838,8|0,0:0|0:0,0:0:0:0:
194,30,106928,2,0,P|149:56|116:95,1,104.000000476838,8|0,0:0|0:0,0:0:0:0:
103,358,107214,1,8,0:0:0:0:
222,120,107356,1,0,0:0:0:0:
261,365,107499,2,0,P|297:328|321:282,1,104.000000476838,8|0,0:0|0:0,0:0:0:0:
392,57,107785,2,0,P|429:123|398:165,1,104.000000476838,8|0,0:0|0:0,0:0:0:0:
212,308,108071,5,8,0:0:0:0:
204,134,108214,1,0,0:0:0:0:
380,232,108356,2,0,P|416:192|412:116,1,104.000000476838,8|8,0:0|0:0,0:0:0:0:
264,52,108642,2,0,P|216:104|200:172,1,104.000000476838,8|0,0:0|0:0,0:0:0:0:
324,256,108928,1,8,0:0:0:0:
140,288,109071,1,0,0:0:0:0:
88,128,109214,2,0,P|104:72|172:48,1,104.000000476838,8|0,0:0|0:0,0:0:0:0:
284,112,109499,5,8,0:0:0:0:
308,144,109571,1,8,0:0:0:0:
336,176,109642,1,8,0:0:0:0:
360,208,109714,1,8,0:0:0:0:
384,244,109785,2,4,P|392:304|364:356,1,104.000000476838,8|0,0:0|0:0,0:0:0:0:
232,288,110071,1,8,0:0:0:0:
72,288,110214,2,0,P|108:216|156:184,1,104.000000476838,0|8,0:0|0:0,0:0:0:0:
360,208,110499,5,0,0:0:0:0:
148,124,110642,1,8,0:0:0:0:
432,68,110785,1,8,0:0:0:0:
200,224,110928,1,12,0:0:0:0:
376,320,111214,6,0,P|408:256|404:192,1,104.000000476838,8|0,0:0|0:0,0:0:0:0:
234,281,111499,1,8,0:0:0:0:
464,116,111642,1,0,0:0:0:0:
264,168,111785,2,0,P|212:160|160:108,1,104.000000476838,8|0,0:0|0:0,0:0:0:0:
124,20,112071,1,12,0:0:0:0:
380,144,112356,5,8,0:0:0:0:
320,260,112499,1,0,0:0:0:0:
196,312,112642,2,0,P|136:328|76:324,2,104.000000476838,8|0|8,0:0|0:0|0:0,0:0:0:0:
416,288,113071,1,8,0:0:0:0:
376,64,113214,2,0,P|296:56|160:66,2,208.000000953675,12|8|8,0:0|0:0|0:0,0:0:0:0:
203,209,113928,2,0,P|231:165|277:143,1,104.000000476838,0|8,0:0|0:0,0:0:0:0:
442,199,114214,1,8,0:0:0:0:
240,280,114356,6,4,P|184:308|76:316,2,156.000000715256,8|8|8,0:0|0:0|0:0,0:0:0:0:
252,156,115071,5,8,0:0:0:0:
376,52,115214,1,8,0:0:0:0:
392,176,115356,2,8,L|416:196,3,26.0000001192094,2|2|2|2,0:0|0:0|0:0|0:0,0:0:0:0:
368,160,115499,2,0,P|316:120|248:108,1,104.000000476838,4|8,0:0|0:0,0:0:0:0:
224,232,115785,2,0,P|164:212|128:152,1,104.000000476838,8|0,0:0|0:0,0:0:0:0:
228,52,116071,1,8,0:0:0:0:
384,228,116214,1,0,0:0:0:0:
196,276,116356,1,8,0:0:0:0:
292,164,116499,1,0,0:0:0:0:
76,120,116642,6,0,P|128:84|208:68,1,104.000000476838,8|0,0:0|0:0,0:0:0:0:
188,228,116928,1,8,0:0:0:0:
180,72,117071,2,0,P|228:72|296:104,1,104.000000476838,0|8,0:0|0:0,0:0:0:0:
188,228,117356,1,0,0:0:0:0:
296,108,117499,2,0,P|356:152|380:204,1,104.000000476838,8|8,0:0|0:0,0:0:0:0:
240,292,117785,2,0,P|184:320|120:320,1,104.000000476838,8|0,0:0|0:0,0:0:0:0:
152,192,118071,1,8,0:0:0:0:
296,152,118214,2,0,P|368:136|424:144,1,104.000000476838,0|8,0:0|0:0,0:0:0:0:
188,104,118499,5,8,0:0:0:0:
296,232,118642,2,0,P|340:280|408:308,2,104.000000476838,8|8|8,0:0|0:0|0:0,0:0:0:0:
416,172,119071,1,0,0:0:0:0:
224,148,119214,2,0,P|168:184|120:236,1,104.000000476838,8|0,0:0|0:0,0:0:0:0:
288,316,119499,1,8,0:0:0:0:
272,104,119642,6,8,L|260:68,4,26.0000001192094,2|2|2|2|10,0:0|0:0|0:0|0:0|0:0,0:0:0:0:
192,208,119928,2,8,L|152:236,4,26.0000001192094,2|2|2|2|10,0:0|0:0|0:0|0:0|0:0,0:0:0:0:
336,252,120214,1,8,0:0:0:0:
436,160,120356,2,0,P|428:100|392:32,1,104.000000476838,8|0,0:0|0:0,0:0:0:0:
260,124,120642,1,8,0:0:0:0:
252,288,120785,1,0,0:0:0:0:
352,164,120928,1,8,0:0:0:0:
136,180,121071,1,8,0:0:0:0:
352,288,121214,2,0,P|408:256|436:204,1,104.000000476838,8|0,0:0|0:0,0:0:0:0:
408,56,121499,5,8,0:0:0:0:
308,92,121642,2,0,P|248:108|192:104,1,104.000000476838,0|8,0:0|0:0,0:0:0:0:
84,96,121928,1,0,0:0:0:0:
28,236,122071,1,8,0:0:0:0:
176,312,122214,1,8,0:0:0:0:
312,224,122356,2,0,P|300:168|256:116,1,104.000000476838,8|8,0:0|0:0,0:0:0:0:
164,180,122642,5,8,0:0:0:0:
376,288,122785,1,8,0:0:0:0:
208,76,122928,1,8,0:0:0:0:
432,152,123071,1,8,0:0:0:0:
192,268,123214,1,8,0:0:0:0:
156,248,123285,1,8,0:0:0:0:
132,216,123356,1,8,0:0:0:0:
120,176,123428,1,8,0:0:0:0:
112,136,123499,1,8,0:0:0:0:
320,278,123642,1,0,0:0:0:0:
240,104,123785,6,4,P|308:152|328:192,1,104.000000476838,8|0,0:0|0:0,0:0:0:0:
200,248,124071,1,8,0:0:0:0:
412,272,124214,1,8,0:0:0:0:
404,108,124499,6,8,L|436:108,3,26.0000001192094,2|2|2|2,0:0|0:0|0:0|0:0,0:0:0:0:
384,108,124642,2,0,P|340:112|264:144,1,104.000000476838,12|0,0:0|0:0,0:0:0:0:
200,120,124928,2,0,P|164:184|164:256,1,104.000000476838,8|0,0:0|0:0,0:0:0:0:
316,304,125214,2,0,P|360:252|376:184,1,104.000000476838,8|0,0:0|0:0,0:0:0:0:
308,124,125499,1,8,0:0:0:0:
128,136,125642,1,8,0:0:0:0:
160,304,125785,6,0,P|224:312|288:276,1,104.000000476838,8|0,0:0|0:0,0:0:0:0:
240,148,126071,1,8,0:0:0:0:
388,204,126214,2,0,P|424:144|412:96,1,104.000000476838,0|8,0:0|0:0,0:0:0:0:
272,72,126499,2,4,P|256:28|256:-4,2,52.0000002384188,8|8|8,0:0|0:0|0:0,0:0:0:0:
208,264,126785,1,8,0:0:0:0:
208,264,126928,2,0,P|164:296|120:184,1,208.000000953675,8|8,0:0|0:0,0:0:0:0:
168,76,127356,6,0,P|220:92|280:136,1,104.000000476838,0|8,0:0|0:0,0:0:0:0:
328,256,127642,1,8,0:0:0:0:
424,144,127928,6,8,L|464:152,3,26.0000001192094,2|2|2|2,0:0|0:0|0:0|0:0,0:0:0:0:
404,140,128071,2,0,P|328:140|260:152,1,104.000000476838,0|8,0:0|0:0,0:0:0:0:
180,132,128356,2,0,P|168:204|192:272,1,104.000000476838,8|0,0:0|0:0,0:0:0:0:
340,296,128642,1,8,0:0:0:0:
136,160,128785,1,0,0:0:0:0:
152,320,128928,1,8,0:0:0:0:
304,240,129071,1,0,0:0:0:0:
24,244,129214,1,12,0:0:0:0:
200,68,129499,6,0,P|252:96|280:144,1,104.000000476838,8|0,0:0|0:0,0:0:0:0:
220,232,129785,1,8,0:0:0:0:
380,248,129928,1,0,0:0:0:0:
384,80,130071,1,8,0:0:0:0:
215,194,130214,1,0,0:0:0:0:
403,366,130356,1,12,0:0:0:0:
376,168,130642,6,0,P|328:136|256:112,1,104.000000476838,8|0,0:0|0:0,0:0:0:0:
224,216,130928,2,0,P|168:192|112:120,1,104.000000476838,8|0,0:0|0:0,0:0:0:0:
200,52,131214,1,8,0:0:0:0:
348,244,131356,1,0,0:0:0:0:
174,357,131499,1,8,0:0:0:0:
68,200,131642,6,8,L|32:188,4,26.0000001192094,2|2|2|2|10,0:0|0:0|0:0|0:0|0:0,0:0:0:0:
204,168,131928,1,8,0:0:0:0:
348,152,132071,2,8,L|384:164,4,26.0000001192094,10|2|2|2|2,0:0|0:0|0:0|0:0|0:0,0:0:0:0:
128,304,132356,5,10,0:0:0:0:
336,308,132499,1,2,0:0:0:0:
278,118,132642,2,4,P|350:55|431:220,1,312.000001430513,8|8,0:0|0:0,0:0:0:0:
328,184,133499,6,4,L|251:195,1,52.0000002384188,8|8,0:0|0:0,0:0:0:0:
123,288,133642,2,4,L|199:277,1,52.0000002384188,8|8,0:0|0:0,0:0:0:0:
364,262,133785,1,12,0:0:0:0:
256,192,133856,12,0,138499,0:0:0:0:
