osu file format v14

[General]
AudioFilename: Grievous Lady.mp3
AudioLeadIn: 0
PreviewTime: 54863
Countdown: 0
SampleSet: None
StackLeniency: 0.6
Mode: 0
LetterboxInBreaks: 0
WidescreenStoryboard: 0

[Editor]
Bookmarks: 53720
DistanceSpacing: 1.1
BeatDivisor: 4
GridSize: 4
TimelineZoom: 1

[Metadata]
Title:Grievous Lady
TitleUnicode:Grievous Lady
Artist:Team Grimoire vs Laur
ArtistUnicode:Team Grimoire vs Laur
Creator:Meii
Version:Fear
Source:
Tags:
BeatmapID:1878633
BeatmapSetID:899348

[Difficulty]
HPDrainRate:7
CircleSize:4.3
OverallDifficulty:9.5
ApproachRate:9.8
SliderMultiplier:2
SliderTickRate:1

[Events]
//Background and Video events
0,0,"68684739_p0 (2).jpg",0,0
//Break Periods
//Storyboard Layer 0 (Background)
//Storyboard Layer 1 (Fail)
//Storyboard Layer 2 (Pass)
//Storyboard Layer 3 (Foreground)
//Storyboard Sound Samples

[TimingPoints]
6,571.428571428571,4,1,0,65,1,0
6,-250,4,1,0,20,0,0
1863,-250,4,1,0,5,0,0
2148,-250,4,1,0,20,0,0
4148,-250,4,1,0,5,0,0
4434,-250,4,1,0,20,0,0
6434,-250,4,1,0,5,0,0
6720,-250,4,1,0,20,0,0
8720,-250,4,1,0,5,0,0
9005,-250,4,1,0,20,0,0
9148,-142.857142857143,4,1,0,15,0,0
11434,-142.857142857143,4,1,0,20,0,0
13720,-117.647058823529,4,1,0,30,0,0
16005,-100,4,1,0,40,0,0
18291,-100,4,1,0,15,0,0
22863,-100,4,1,0,45,0,0
36577,-100,4,1,0,45,0,0
36578,285.714285714286,4,1,0,65,1,0
54862,-76.9230769230769,4,1,0,65,0,0

[HitObjects]
57,250,6,6,0,B|126:238|110:325|110:325|207:327|242:246,1,280
388,332,2291,2,0,B|420:252|368:218|368:218|421:252|469:212|469:212|429:182,1,280
141,33,4577,2,0,B|74:57|31:136|31:136|87:114|164:132,1,280
310,294,6863,2,0,B|370:277|392:225|392:225|354:229|354:229|382:157|462:177,1,280
429,117,9148,5,0,0:0:0:0:
405,90,9434,1,0,0:0:0:0:
375,71,9720,1,0,0:0:0:0:
341,62,10005,1,0,0:0:0:0:
307,70,10291,1,0,0:0:0:0:
279,92,10577,1,0,0:0:0:0:
247,108,10863,1,0,0:0:0:0:
213,97,11148,1,0,0:0:0:0:
143,90,11434,5,0,0:0:0:0:
170,154,11720,1,0,0:0:0:0:
236,176,12005,1,0,0:0:0:0:
305,172,12291,1,0,0:0:0:0:
363,133,12577,1,0,0:0:0:0:
422,169,12863,1,0,0:0:0:0:
422,238,13148,1,0,0:0:0:0:
382,295,13434,1,0,0:0:0:0:
301,321,13720,5,0,0:0:0:0:
324,239,14005,1,0,0:0:0:0:
262,180,14291,1,0,0:0:0:0:
198,236,14577,1,0,0:0:0:0:
237,311,14863,1,0,0:0:0:0:
181,375,15148,1,0,0:0:0:0:
95,378,15434,1,0,0:0:0:0:
36,316,15720,1,0,0:0:0:0:
100,180,16005,5,0,0:0:0:0:
221,91,16291,1,0,0:0:0:0:
205,240,16577,1,0,0:0:0:0:
132,108,16863,1,0,0:0:0:0:
275,149,17148,1,0,0:0:0:0:
337,285,17434,1,0,0:0:0:0:
414,156,17720,1,0,0:0:0:0:
274,209,18005,1,0,0:0:0:0:
209,344,18291,6,0,B|148:367|121:323,2,100
243,308,19005,1,0,0:0:0:0:
232,259,19148,1,0,0:0:0:0:
190,230,19291,1,0,0:0:0:0:
166,185,19434,1,0,0:0:0:0:
179,136,19577,1,0,0:0:0:0:
221,109,19720,1,0,0:0:0:0:
267,90,19863,1,0,0:0:0:0:
291,46,20005,2,0,P|334:25|400:41,1,100
437,116,20577,5,0,0:0:0:0:
372,192,20863,1,0,0:0:0:0:
437,267,21148,1,0,0:0:0:0:
339,290,21434,2,0,L|301:314,2,25
294,314,21720,1,0,0:0:0:0:
254,222,22005,2,0,L|223:236,2,25
208,244,22291,1,0,0:0:0:0:
146,164,22577,2,0,L|114:175,2,25
193,148,22863,5,0,0:0:0:0:
326,214,23005,1,0,0:0:0:0:
314,64,23148,1,0,0:0:0:0:
443,140,23291,1,0,0:0:0:0:
292,142,23434,1,0,0:0:0:0:
7,45,23720,5,0,0:0:0:0:
92,245,24005,2,0,P|182:274|189:176,1,200
170,156,24720,1,0,0:0:0:0:
182,107,24863,1,0,0:0:0:0:
222,78,25005,1,0,0:0:0:0:
296,66,25148,5,0,0:0:0:0:
364,96,25291,1,0,0:0:0:0:
403,159,25434,1,0,0:0:0:0:
397,233,25577,1,0,0:0:0:0:
356,295,25720,1,0,0:0:0:0:
230,213,26005,1,0,0:0:0:0:
129,324,26291,1,0,0:0:0:0:
70,276,26434,1,0,0:0:0:0:
52,203,26577,1,0,0:0:0:0:
85,135,26720,1,0,0:0:0:0:
148,95,26863,1,0,0:0:0:0:
222,87,27005,1,0,0:0:0:0:
291,114,27148,1,0,0:0:0:0:
345,165,27291,1,0,0:0:0:0:
417,184,27434,5,0,0:0:0:0:
342,53,27577,1,0,0:0:0:0:
271,185,27720,1,0,0:0:0:0:
394,100,27863,1,0,0:0:0:0:
246,76,28005,1,0,0:0:0:0:
31,285,28291,1,0,0:0:0:0:
270,374,28577,2,0,P|319:334|294:268,1,100
88,109,29148,5,0,0:0:0:0:
238,104,29291,1,0,0:0:0:0:
206,250,29434,1,0,0:0:0:0:
67,192,29577,1,0,0:0:0:0:
175,87,29720,1,0,0:0:0:0:
256,192,29791,12,0,31434,0:0:0:0:
256,192,32005,12,0,34291,0:0:0:0:
311,160,36578,6,0,B|359:244|421:225|421:225|473:307|370:357,1,300
81,203,37435,2,0,B|6:123|84:65|84:65|135:105|210:44,1,300
366,89,38292,2,0,B|401:173|401:173|261:173,2,200
386,308,39292,1,0,0:0:0:0:
71,210,39720,1,0,0:0:0:0:
365,60,40149,1,0,0:0:0:0:
105,293,40578,2,0,B|70:209|70:209|210:209,2,200
428,359,41578,5,0,0:0:0:0:
200,120,42006,1,0,0:0:0:0:
249,348,42435,1,0,0:0:0:0:
278,19,42863,2,0,L|513:19,2,200
92,292,43863,1,0,0:0:0:0:
418,344,44292,1,0,0:0:0:0:
297,37,44720,1,0,0:0:0:0:
111,310,45149,2,0,P|46:246|71:107,2,200
421,82,46077,5,0,0:0:0:0:
421,82,46149,2,0,L|326:215,1,150
438,169,46506,1,0,0:0:0:0:
438,169,46578,2,0,L|343:302,1,150
210,377,47006,1,0,0:0:0:0:
210,377,47078,2,0,L|297:254,1,150
193,290,47435,1,0,0:0:0:0:
193,290,47507,2,0,L|280:167,2,150
139,303,48006,6,0,P|77:269|65:174,1,150
186,59,48435,1,0,0:0:0:0:
186,59,48506,2,0,P|248:93|262:199,1,150
190,156,48863,1,0,0:0:0:0:
190,156,48934,2,0,P|243:110|341:128,1,150
313,224,49292,1,0,0:0:0:0:
313,224,49363,2,0,P|376:193|396:89,1,150
340,40,49720,1,0,0:0:0:0:
340,40,49792,2,0,L|150:39,2,150
376,81,50292,6,0,L|291:218,1,150
332,312,50649,1,0,0:0:0:0:
332,312,50720,2,0,L|426:170,1,150
512,163,51078,1,0,0:0:0:0:
512,163,51149,2,0,L|418:305,1,150
332,312,51506,1,0,0:0:0:0:
332,312,51578,2,0,L|178:311,1,150
105,231,52006,1,0,0:0:0:0:
105,231,52078,2,0,P|165:181|268:177,2,150
173,270,52578,6,0,P|186:212|117:117,1,150
40,103,52935,1,0,0:0:0:0:
40,103,53006,2,0,P|91:52|185:54,1,150
234,132,53363,1,0,0:0:0:0:
234,132,53435,2,0,B|298:123|318:85|318:85|357:191,1,200
