osu file format v14

[General]
AudioFilename: audio.mp3
AudioLeadIn: 0
PreviewTime: 1155
Countdown: 0
SampleSet: Normal
StackLeniency: 0.2
Mode: 1
LetterboxInBreaks: 0
WidescreenStoryboard: 1

[Editor]
Bookmarks: 19440,37726,56012,67440,88012,97155
DistanceSpacing: 0.8
BeatDivisor: 6
GridSize: 32
TimelineZoom: 2.599999

[Metadata]
Title:Grievous Lady
TitleUnicode:Grievous Lady
Artist:Team Grimoire vs Laur
ArtistUnicode:Team Grimoire vs Laur
Creator:Aorimiku
Version:Oni
Source:Arcaea
Tags:Arcaea Team Grimoire Laur Grievous Lady
BeatmapID:1539475
BeatmapSetID:729313

[Difficulty]
HPDrainRate:5
CircleSize:5
OverallDifficulty:6
ApproachRate:6
SliderMultiplier:1.4
SliderTickRate:1

[Events]
//Background and Video events
0,0,"DNx2wPjUIAAo71C.jpg",0,0
//Break Periods
//Storyboard Layer 0 (Background)
//Storyboard Layer 1 (Fail)
//Storyboard Layer 2 (Pass)
//Storyboard Layer 3 (Foreground)
//Storyboard Layer 4 (Overlay)
//Storyboard Sound Samples

[TimingPoints]
1155,285.714285714286,4,1,0,100,1,0
1155,-111.111111111111,4,1,0,90,0,0
4297,-111.111111111111,4,1,0,90,0,0
4583,-111.111111111111,4,1,0,90,0,0
4869,-111.111111111111,4,1,0,90,0,0
5155,-111.111111111111,4,1,0,90,0,0
5440,-111.111111111111,4,1,0,90,0,0
5726,-100,4,1,0,100,0,1
17155,-66.6666666666667,4,1,0,100,0,1
17440,-100,4,1,0,90,0,0
21155,-95.2380952380952,4,1,0,90,0,1
21226,-100,4,1,0,90,0,0
21440,-90.9090909090909,4,1,0,90,0,1
21512,-100,4,1,0,90,0,0
21726,-100,4,1,0,90,0,0
23440,-95.2380952380952,4,1,0,90,0,1
23512,-95.2380952380952,4,1,0,90,0,0
23583,-95.2380952380952,4,1,0,90,0,1
23655,-95.2380952380952,4,1,0,90,0,0
23726,-95.2380952380952,4,1,0,90,0,1
23797,-100,4,1,0,90,0,0
24012,-100,4,1,0,90,0,0
25726,-95.2380952380952,4,1,0,90,0,1
25797,-100,4,1,0,90,0,0
26012,-90.9090909090909,4,1,0,90,0,1
26083,-100,4,1,0,90,0,0
26297,-100,4,1,0,90,0,0
28012,-95.2380952380952,4,1,0,90,0,1
28083,-95.2380952380952,4,1,0,90,0,0
28155,-95.2380952380952,4,1,0,90,0,1
28226,-95.2380952380952,4,1,0,90,0,0
28297,-95.2380952380952,4,1,0,90,0,1
28369,-100,4,1,0,90,0,0
28583,-90.9090909090909,4,1,0,100,0,1
36583,-90.9090909090909,4,1,0,100,0,0
37012,-111.111111111111,4,1,0,100,0,0
37440,-105.263157894737,4,1,0,100,0,0
37726,-100,4,1,0,100,0,1
53726,-90.9090909090909,4,1,0,100,0,1
53797,-100,4,1,0,100,0,0
54297,-90.9090909090909,4,1,0,100,0,1
54369,-100,4,1,0,100,0,0
54869,-90.9090909090909,4,1,0,100,0,1
54940,-100,4,1,0,100,0,0
55440,-100,4,1,0,100,0,0
56012,-100,4,1,0,100,0,1
65155,-100,4,1,0,100,0,0
67440,-111.111111111111,4,1,0,90,0,0
88012,-100,4,1,0,90,0,0
92583,-98.0392156862745,4,1,0,100,0,1
92655,-90.9090909090909,4,1,0,100,0,0
92869,-96.1538461538461,4,1,0,100,0,1
92940,-90.9090909090909,4,1,0,100,0,0
93155,-94.3396226415094,4,1,0,100,0,1
93226,-83.3333333333333,4,1,0,100,0,0
93440,-92.5925925925926,4,1,0,100,0,1
93512,-83.3333333333333,4,1,0,100,0,0
93726,-95.2380952380952,4,1,0,100,0,1
93797,-95.2380952380952,4,1,0,100,0,0
93869,-93.4579439252336,4,1,0,100,0,1
93940,-95.2380952380952,4,1,0,100,0,0
94012,-90.9090909090909,4,1,0,100,0,1
94083,-90.9090909090909,4,1,0,100,0,0
94155,-89.2857142857143,4,1,0,100,0,1
94226,-90.9090909090909,4,1,0,100,0,0
94297,-98.0392156862745,4,1,0,100,0,0
94369,-97.0873786407767,4,1,0,100,0,0
94440,-96.1538461538461,4,1,0,100,0,0
94512,-95.2380952380952,4,1,0,100,0,0
94583,-94.3396226415094,4,1,0,100,0,0
94655,-93.4579439252336,4,1,0,100,0,0
94726,-92.5925925925926,4,1,0,100,0,0
94797,-91.743119266055,4,1,0,100,0,0
94869,-83.3333333333333,4,1,0,100,0,1
94940,-100,4,1,0,90,0,0
97155,-100,4,1,0,100,0,1
114297,-98.0392156862745,4,1,0,100,0,1
114869,-97.0873786407767,4,1,0,100,0,0
115012,-96.1538461538461,4,1,0,100,0,1
115297,-95.2380952380952,4,1,0,100,0,1
115369,-95.2380952380952,4,1,0,100,0,1
115440,-100,4,1,0,100,0,0
115583,-100,4,1,0,100,0,1
129155,-99.009900990099,4,1,0,100,0,1
130297,-98.0392156862745,4,1,0,100,0,1
131440,-97.0873786407767,4,1,0,100,0,1
131869,-96.1538461538461,4,1,0,100,0,1
132297,-95.2380952380952,4,1,0,100,0,1
133440,-95.2380952380952,4,1,0,100,0,1
133512,-96.1538461538461,4,1,0,100,0,1
133583,-97.0873786407767,4,1,0,100,0,1
133655,-98.0392156862745,4,1,0,100,0,1
133726,-99.009900990099,4,1,0,100,0,0

[HitObjects]
256,192,1155,5,0,0:0:0:0:
256,192,1440,1,8,0:0:0:0:
256,192,1726,1,0,0:0:0:0:
256,192,1869,1,0,0:0:0:0:
256,192,2012,1,8,0:0:0:0:
256,192,2155,1,8,0:0:0:0:
256,192,2297,1,0,0:0:0:0:
256,192,2440,1,0,0:0:0:0:
256,192,2583,1,8,0:0:0:0:
256,192,2726,1,8,0:0:0:0:
256,192,2869,1,0,0:0:0:0:
256,192,3155,1,8,0:0:0:0:
256,192,3440,1,0,0:0:0:0:
256,192,4012,1,0,0:0:0:0:
256,192,4297,1,8,0:0:0:0:
256,192,4583,1,0,0:0:0:0:
256,192,4868,1,8,0:0:0:0:
256,192,5155,1,0,0:0:0:0:
256,192,5440,1,8,0:0:0:0:
256,192,5726,1,12,0:0:0:0:
256,192,5869,1,8,0:0:0:0:
256,192,6012,1,0,0:0:0:0:
256,192,6155,1,0,0:0:0:0:
256,192,6297,1,8,0:0:0:0:
256,192,6583,1,0,0:0:0:0:
256,192,6869,1,8,0:0:0:0:
256,192,7440,1,8,0:0:0:0:
256,192,7583,1,0,0:0:0:0:
256,192,7726,1,8,0:0:0:0:
256,192,8012,1,0,0:0:0:0:
256,192,8297,1,0,0:0:0:0:
256,192,8440,1,0,0:0:0:0:
256,192,8583,1,8,0:0:0:0:
256,192,8869,1,0,0:0:0:0:
256,192,9155,1,8,0:0:0:0:
256,192,9726,1,0,0:0:0:0:
256,192,10297,1,12,0:0:0:0:
256,192,10440,1,0,0:0:0:0:
256,192,10583,1,0,0:0:0:0:
256,192,10726,1,8,0:0:0:0:
256,192,10869,1,8,0:0:0:0:
256,192,11155,1,0,0:0:0:0:
256,192,11440,1,12,0:0:0:0:
256,192,11583,1,0,0:0:0:0:
256,192,11726,1,0,0:0:0:0:
256,192,11869,1,8,0:0:0:0:
256,192,12012,1,0,0:0:0:0:
256,192,12155,1,8,0:0:0:0:
256,192,12297,1,8,0:0:0:0:
256,192,12583,1,4,0:0:0:0:
256,192,13155,1,8,0:0:0:0:
256,192,13440,1,0,0:0:0:0:
256,192,13726,1,0,0:0:0:0:
256,192,13869,1,0,0:0:0:0:
256,192,14012,1,0,0:0:0:0:
256,192,14297,1,12,0:0:0:0:
256,192,14869,1,4,0:0:0:0:
256,192,15012,12,0,16869,0:0:0:0:
256,192,17155,5,4,0:0:0:0:
256,192,19440,1,4,0:0:0:0:
256,192,19583,1,0,0:0:0:0:
256,192,19726,1,0,0:0:0:0:
256,192,19869,1,8,0:0:0:0:
256,192,20012,1,8,0:0:0:0:
256,192,20155,1,8,0:0:0:0:
256,192,20297,1,0,0:0:0:0:
256,192,20440,1,0,0:0:0:0:
256,192,20583,1,0,0:0:0:0:
256,192,20726,1,8,0:0:0:0:
256,192,20869,1,8,0:0:0:0:
256,192,21012,1,8,0:0:0:0:
256,192,21155,1,4,0:0:0:0:
256,192,21440,1,12,0:0:0:0:
256,192,21726,1,4,0:0:0:0:
256,192,21869,1,0,0:0:0:0:
256,192,22012,1,0,0:0:0:0:
256,192,22155,1,8,0:0:0:0:
256,192,22297,1,8,0:0:0:0:
256,192,22440,1,8,0:0:0:0:
256,192,22583,1,0,0:0:0:0:
256,192,22726,1,0,0:0:0:0:
256,192,22869,1,0,0:0:0:0:
256,192,23012,1,8,0:0:0:0:
256,192,23155,1,8,0:0:0:0:
256,192,23297,1,8,0:0:0:0:
256,192,23440,1,4,0:0:0:0:
256,192,23583,1,4,0:0:0:0:
256,192,23726,1,4,0:0:0:0:
256,192,24012,1,4,0:0:0:0:
256,192,24155,1,0,0:0:0:0:
256,192,24297,1,0,0:0:0:0:
256,192,24440,1,8,0:0:0:0:
256,192,24583,1,8,0:0:0:0:
256,192,24726,1,8,0:0:0:0:
256,192,24869,1,0,0:0:0:0:
256,192,25012,1,0,0:0:0:0:
256,192,25155,1,0,0:0:0:0:
256,192,25297,1,8,0:0:0:0:
256,192,25440,1,8,0:0:0:0:
256,192,25583,1,8,0:0:0:0:
256,192,25726,1,4,0:0:0:0:
256,192,26012,1,12,0:0:0:0:
256,192,26297,1,4,0:0:0:0:
256,192,26440,1,0,0:0:0:0:
256,192,26583,1,0,0:0:0:0:
256,192,26726,1,8,0:0:0:0:
256,192,26869,1,8,0:0:0:0:
256,192,27012,1,8,0:0:0:0:
256,192,27155,1,0,0:0:0:0:
256,192,27297,1,0,0:0:0:0:
256,192,27440,1,0,0:0:0:0:
256,192,27583,1,8,0:0:0:0:
256,192,27726,1,8,0:0:0:0:
256,192,27869,1,8,0:0:0:0:
256,192,28012,1,4,0:0:0:0:
256,192,28155,1,4,0:0:0:0:
256,192,28297,1,4,0:0:0:0:
256,192,28583,1,12,0:0:0:0:
256,192,28869,1,0,0:0:0:0:
256,192,29012,1,12,0:0:0:0:
256,192,29297,1,0,0:0:0:0:
256,192,29440,1,12,0:0:0:0:
256,192,29726,1,0,0:0:0:0:
256,192,29869,1,12,0:0:0:0:
256,192,30155,1,0,0:0:0:0:
256,192,30298,1,12,0:0:0:0:
256,192,30584,1,12,0:0:0:0:
256,192,30869,1,12,0:0:0:0:
256,192,31155,1,0,0:0:0:0:
256,192,31297,1,12,0:0:0:0:
256,192,31583,1,0,0:0:0:0:
256,192,31726,1,12,0:0:0:0:
256,192,32012,1,0,0:0:0:0:
256,192,32155,1,12,0:0:0:0:
256,192,32440,1,12,0:0:0:0:
256,192,32584,1,4,0:0:0:0:
256,192,32727,1,12,0:0:0:0:
256,192,32869,1,4,0:0:0:0:
256,192,33155,1,12,0:0:0:0:
256,192,33440,1,0,0:0:0:0:
256,192,33583,1,12,0:0:0:0:
256,192,33869,1,0,0:0:0:0:
256,192,34011,1,12,0:0:0:0:
256,192,34297,1,0,0:0:0:0:
256,192,34440,1,12,0:0:0:0:
256,192,34726,1,0,0:0:0:0:
256,192,34869,1,12,0:0:0:0:
256,192,35155,1,12,0:0:0:0:
256,192,35440,1,12,0:0:0:0:
256,192,35583,1,0,0:0:0:0:
256,192,35726,1,0,0:0:0:0:
256,192,35869,1,12,0:0:0:0:
256,192,36155,1,0,0:0:0:0:
256,192,36297,1,12,0:0:0:0:
256,192,36440,1,0,0:0:0:0:
256,192,36583,1,12,0:0:0:0:
256,192,37155,1,8,0:0:0:0:
256,192,37440,1,8,0:0:0:0:
256,192,37726,1,0,0:0:0:0:
256,192,38012,1,0,0:0:0:0:
256,192,38155,1,8,0:0:0:0:
256,192,38226,1,8,0:0:0:0:
256,192,38297,1,0,0:0:0:0:
256,192,38440,1,8,0:0:0:0:
256,192,38583,1,0,0:0:0:0:
256,192,38726,1,8,0:0:0:0:
256,192,38869,1,0,0:0:0:0:
256,192,39155,1,0,0:0:0:0:
256,192,39297,1,8,0:0:0:0:
256,192,39369,1,8,0:0:0:0:
256,192,39440,1,0,0:0:0:0:
256,192,39512,1,0,0:0:0:0:
256,192,39583,1,8,0:0:0:0:
256,192,39726,1,0,0:0:0:0:
256,192,39869,1,0,0:0:0:0:
256,192,40012,1,0,0:0:0:0:
256,192,40155,1,8,0:0:0:0:
256,192,40226,1,8,0:0:0:0:
256,192,40297,1,0,0:0:0:0:
256,192,40440,1,8,0:0:0:0:
256,192,40512,1,8,0:0:0:0:
256,192,40583,1,0,0:0:0:0:
256,192,40726,1,8,0:0:0:0:
256,192,40797,1,8,0:0:0:0:
256,192,40869,1,0,0:0:0:0:
256,192,41012,1,0,0:0:0:0:
256,192,41155,1,8,0:0:0:0:
256,192,41298,1,8,0:0:0:0:
256,192,41370,1,8,0:0:0:0:
256,192,41441,1,8,0:0:0:0:
256,192,41583,1,0,0:0:0:0:
256,192,41726,1,8,0:0:0:0:
256,192,41869,1,8,0:0:0:0:
256,192,41941,1,8,0:0:0:0:
256,192,42012,1,8,0:0:0:0:
256,192,42155,1,8,0:0:0:0:
256,192,42297,1,0,0:0:0:0:
256,192,42441,1,8,0:0:0:0:
256,192,42584,1,0,0:0:0:0:
256,192,42727,1,8,0:0:0:0:
256,192,42797,1,8,0:0:0:0:
256,192,42869,1,0,0:0:0:0:
256,192,43012,1,8,0:0:0:0:
256,192,43155,1,0,0:0:0:0:
256,192,43298,1,8,0:0:0:0:
256,192,43441,1,0,0:0:0:0:
256,192,43727,1,0,0:0:0:0:
256,192,43869,1,8,0:0:0:0:
256,192,44012,1,0,0:0:0:0:
256,192,44155,1,0,0:0:0:0:
256,192,44202,1,0,0:0:0:0:
256,192,44250,1,0,0:0:0:0:
256,192,44297,1,0,0:0:0:0:
256,192,44440,1,0,0:0:0:0:
256,192,44583,1,8,0:0:0:0:
256,192,44726,1,0,0:0:0:0:
256,192,44797,1,0,0:0:0:0:
256,192,44869,1,8,0:0:0:0:
256,192,45012,1,0,0:0:0:0:
256,192,45083,1,0,0:0:0:0:
256,192,45155,1,8,0:0:0:0:
256,192,45297,1,0,0:0:0:0:
256,192,45368,1,0,0:0:0:0:
256,192,45440,1,8,0:0:0:0:
256,192,45583,1,0,0:0:0:0:
256,192,45726,1,8,0:0:0:0:
256,192,45869,1,0,0:0:0:0:
256,192,46012,1,0,0:0:0:0:
256,192,46083,1,0,0:0:0:0:
256,192,46155,1,8,0:0:0:0:
256,192,46297,1,0,0:0:0:0:
256,192,46440,1,0,0:0:0:0:
256,192,46511,1,0,0:0:0:0:
256,192,46583,1,8,0:0:0:0:
256,192,46726,1,0,0:0:0:0:
256,192,47012,1,0,0:0:0:0:
256,192,47155,1,0,0:0:0:0:
256,192,47297,1,8,0:0:0:0:
256,192,47440,1,0,0:0:0:0:
256,192,47583,1,8,0:0:0:0:
256,192,47655,1,8,0:0:0:0:
256,192,47726,1,0,0:0:0:0:
256,192,47869,1,8,0:0:0:0:
256,192,48012,1,0,0:0:0:0:
256,192,48298,1,0,0:0:0:0:
256,192,48440,1,8,0:0:0:0:
256,192,48583,1,0,0:0:0:0:
256,192,48726,1,0,0:0:0:0:
256,192,48797,1,0,0:0:0:0:
256,192,49012,1,0,0:0:0:0:
256,192,49155,1,0,0:0:0:0:
256,192,49297,1,8,0:0:0:0:
256,192,49369,1,8,0:0:0:0:
256,192,49440,1,0,0:0:0:0:
256,192,49583,1,8,0:0:0:0:
256,192,49655,1,8,0:0:0:0:
256,192,49726,1,0,0:0:0:0:
256,192,49869,1,8,0:0:0:0:
256,192,49940,1,8,0:0:0:0:
256,192,50012,1,0,0:0:0:0:
256,192,50155,1,0,0:0:0:0:
256,192,50297,1,8,0:0:0:0:
256,192,50440,1,8,0:0:0:0:
256,192,50511,1,8,0:0:0:0:
256,192,50583,1,8,0:0:0:0:
256,192,50726,1,0,0:0:0:0:
256,192,50869,1,8,0:0:0:0:
256,192,51012,1,8,0:0:0:0:
256,192,51083,1,8,0:0:0:0:
256,192,51155,1,8,0:0:0:0:
256,192,51297,1,8,0:0:0:0:
256,192,51583,1,0,0:0:0:0:
256,192,51726,1,0,0:0:0:0:
256,192,51869,1,8,0:0:0:0:
256,192,52012,1,0,0:0:0:0:
256,192,52154,1,8,0:0:0:0:
256,192,52226,1,8,0:0:0:0:
256,192,52297,1,0,0:0:0:0:
256,192,52440,1,8,0:0:0:0:
256,192,52583,1,0,0:0:0:0:
256,192,52725,1,8,0:0:0:0:
256,192,52868,1,0,0:0:0:0:
256,192,53012,1,8,0:0:0:0:
256,192,53155,1,0,0:0:0:0:
256,192,53297,1,8,0:0:0:0:
256,192,53369,1,8,0:0:0:0:
256,192,53440,1,0,0:0:0:0:
256,192,53583,1,0,0:0:0:0:
256,192,53726,1,12,0:0:0:0:
256,192,54012,1,0,0:0:0:0:
256,192,54297,1,12,0:0:0:0:
256,192,54583,1,0,0:0:0:0:
256,192,54869,1,12,0:0:0:0:
256,192,55155,1,0,0:0:0:0:
256,192,55440,1,8,0:0:0:0:
256,192,55583,1,8,0:0:0:0:
256,192,55726,1,8,0:0:0:0:
256,192,55869,1,0,0:0:0:0:
256,192,56012,1,12,0:0:0:0:
256,192,56155,1,0,0:0:0:0:
256,192,56226,1,0,0:0:0:0:
256,192,56297,1,8,0:0:0:0:
256,192,56440,1,0,0:0:0:0:
256,192,56512,1,0,0:0:0:0:
256,192,56583,1,8,0:0:0:0:
256,192,56726,1,0,0:0:0:0:
256,192,56797,1,0,0:0:0:0:
256,192,56869,1,8,0:0:0:0:
256,192,57012,1,0,0:0:0:0:
256,192,57155,1,8,0:0:0:0:
256,192,57297,1,0,0:0:0:0:
256,192,57369,1,0,0:0:0:0:
256,192,57440,1,8,0:0:0:0:
256,192,57583,1,8,0:0:0:0:
256,192,57726,1,4,0:0:0:0:
256,192,57869,1,4,0:0:0:0:
256,192,58012,1,12,0:0:0:0:
256,192,58155,1,12,0:0:0:0:
256,192,58297,1,8,0:0:0:0:
256,192,58440,1,0,0:0:0:0:
256,192,58512,1,0,0:0:0:0:
256,192,58583,1,8,0:0:0:0:
256,192,58726,1,0,0:0:0:0:
256,192,58797,1,0,0:0:0:0:
256,192,58869,1,8,0:0:0:0:
256,192,59012,1,8,0:0:0:0:
256,192,59155,1,0,0:0:0:0:
256,192,59226,1,0,0:0:0:0:
256,192,59297,1,0,0:0:0:0:
256,192,59369,1,0,0:0:0:0:
256,192,59440,1,8,0:0:0:0:
256,192,59726,1,4,0:0:0:0:
256,192,59869,1,12,0:0:0:0:
256,192,60012,1,4,0:0:0:0:
256,192,60298,1,8,0:0:0:0:
256,192,60440,1,0,0:0:0:0:
256,192,60584,1,12,0:0:0:0:
256,192,60726,1,0,0:0:0:0:
256,192,60797,1,0,0:0:0:0:
256,192,60869,1,8,0:0:0:0:
256,192,61012,1,0,0:0:0:0:
256,192,61083,1,0,0:0:0:0:
256,192,61155,1,8,0:0:0:0:
256,192,61297,1,0,0:0:0:0:
256,192,61369,1,0,0:0:0:0:
256,192,61440,1,8,0:0:0:0:
256,192,61583,1,0,0:0:0:0:
256,192,61726,1,8,0:0:0:0:
256,192,61869,1,0,0:0:0:0:
256,192,61940,1,0,0:0:0:0:
256,192,62012,1,8,0:0:0:0:
256,192,62155,1,8,0:0:0:0:
256,192,62298,1,4,0:0:0:0:
256,192,62440,1,4,0:0:0:0:
256,192,62583,1,12,0:0:0:0:
256,192,62726,1,12,0:0:0:0:
256,192,62869,1,0,0:0:0:0:
256,192,63012,1,0,0:0:0:0:
256,192,63155,1,8,0:0:0:0:
256,192,63297,1,8,0:0:0:0:
256,192,63369,1,8,0:0:0:0:
256,192,63440,1,0,0:0:0:0:
256,192,63583,1,0,0:0:0:0:
256,192,63726,1,8,0:0:0:0:
256,192,63869,1,8,0:0:0:0:
256,192,64012,1,0,0:0:0:0:
256,192,64083,1,0,0:0:0:0:
256,192,64155,1,0,0:0:0:0:
256,192,64226,1,0,0:0:0:0:
256,192,64297,1,8,0:0:0:0:
256,192,64583,1,0,0:0:0:0:
256,192,64655,1,0,0:0:0:0:
256,192,64726,1,0,0:0:0:0:
256,192,64797,1,0,0:0:0:0:
256,192,64869,1,8,0:0:0:0:
256,192,64940,1,8,0:0:0:0:
256,192,65012,1,8,0:0:0:0:
256,192,65083,1,8,0:0:0:0:
256,192,65155,12,0,67297,0:0:0:0:
256,192,67440,5,0,0:0:0:0:
256,192,68012,1,0,0:0:0:0:
256,192,68155,1,0,0:0:0:0:
256,192,68297,1,8,0:0:0:0:
256,192,68583,1,8,0:0:0:0:
256,192,69155,1,0,0:0:0:0:
256,192,69440,1,8,0:0:0:0:
256,192,69726,1,0,0:0:0:0:
256,192,70155,1,0,0:0:0:0:
256,192,70297,1,0,0:0:0:0:
256,192,70583,1,0,0:0:0:0:
256,192,70869,1,8,0:0:0:0:
256,192,71440,1,0,0:0:0:0:
256,192,71583,1,0,0:0:0:0:
256,192,71726,1,8,0:0:0:0:
256,192,72012,1,8,0:0:0:0:
256,192,72583,1,8,0:0:0:0:
256,192,72726,1,8,0:0:0:0:
256,192,72869,1,0,0:0:0:0:
256,192,73155,1,8,0:0:0:0:
256,192,73583,1,0,0:0:0:0:
256,192,74012,1,0,0:0:0:0:
256,192,74297,1,8,0:0:0:0:
256,192,74726,1,0,0:0:0:0:
256,192,75155,1,0,0:0:0:0:
256,192,75440,1,0,0:0:0:0:
256,192,75726,1,8,0:0:0:0:
256,192,76012,1,0,0:0:0:0:
256,192,76583,1,12,0:0:0:0:
256,192,77155,1,0,0:0:0:0:
256,192,77297,1,0,0:0:0:0:
256,192,77440,1,8,0:0:0:0:
256,192,77726,1,8,0:0:0:0:
256,192,78297,1,0,0:0:0:0:
256,192,78583,1,8,0:0:0:0:
256,192,78869,1,8,0:0:0:0:
256,192,79297,1,8,0:0:0:0:
256,192,79440,1,8,0:0:0:0:
256,192,79726,1,0,0:0:0:0:
256,192,80012,1,8,0:0:0:0:
256,192,80583,1,0,0:0:0:0:
256,192,80726,1,0,0:0:0:0:
256,192,80869,1,8,0:0:0:0:
256,192,81155,1,12,0:0:0:0:
256,192,81440,1,0,0:0:0:0:
256,192,81726,1,0,0:0:0:0:
256,192,81869,1,0,0:0:0:0:
256,192,82012,1,8,0:0:0:0:
256,192,82297,1,12,0:0:0:0:
256,192,82583,1,0,0:0:0:0:
256,192,82869,1,0,0:0:0:0:
256,192,83012,1,8,0:0:0:0:
256,192,83155,1,8,0:0:0:0:
256,192,83440,1,12,0:0:0:0:
256,192,84012,1,0,0:0:0:0:
256,192,84297,1,0,0:0:0:0:
256,192,84440,1,0,0:0:0:0:
256,192,84583,1,8,0:0:0:0:
256,192,85155,1,8,0:0:0:0:
256,192,85440,1,0,0:0:0:0:
256,192,85583,1,8,0:0:0:0:
256,192,85726,1,12,0:0:0:0:
256,192,86297,1,8,0:0:0:0:
256,192,86583,1,8,0:0:0:0:
256,192,86726,1,0,0:0:0:0:
256,192,86869,1,8,0:0:0:0:
256,192,87012,2,0,L|300:188,12,31.4999990386963
256,128,88012,1,4,0:0:0:0:
256,128,88155,1,0,0:0:0:0:
256,128,88297,1,8,0:0:0:0:
256,128,88440,1,0,0:0:0:0:
256,128,88583,1,0,0:0:0:0:
256,128,88726,1,8,0:0:0:0:
256,128,88869,1,0,0:0:0:0:
256,128,89012,1,0,0:0:0:0:
256,128,89155,1,8,0:0:0:0:
256,128,89297,1,0,0:0:0:0:
256,128,89440,1,0,0:0:0:0:
256,128,89583,1,8,0:0:0:0:
256,128,89726,1,4,0:0:0:0:
256,128,90012,1,12,0:0:0:0:
256,128,90297,1,4,0:0:0:0:
256,128,90440,1,0,0:0:0:0:
256,128,90583,1,8,0:0:0:0:
256,128,90726,1,0,0:0:0:0:
256,128,90869,1,0,0:0:0:0:
256,128,91012,1,8,0:0:0:0:
256,128,91155,1,0,0:0:0:0:
256,128,91297,1,0,0:0:0:0:
256,128,91440,1,8,0:0:0:0:
256,128,91583,1,0,0:0:0:0:
256,128,91726,1,0,0:0:0:0:
256,128,91869,1,8,0:0:0:0:
256,192,92012,1,4,0:0:0:0:
256,192,92155,1,4,0:0:0:0:
256,192,92297,1,12,0:0:0:0:
256,192,92583,1,4,0:0:0:0:
256,192,92869,1,4,0:0:0:0:
256,192,93155,1,12,0:0:0:0:
256,192,93440,1,12,0:0:0:0:
256,192,93726,1,4,0:0:0:0:
256,192,93869,1,4,0:0:0:0:
256,192,94012,1,12,0:0:0:0:
256,192,94155,1,12,0:0:0:0:
256,192,94297,1,0,0:0:0:0:
256,192,94369,1,0,0:0:0:0:
256,192,94440,1,0,0:0:0:0:
256,192,94512,1,0,0:0:0:0:
256,192,94583,1,8,0:0:0:0:
256,192,94655,1,8,0:0:0:0:
256,192,94726,1,8,0:0:0:0:
256,192,94797,1,8,0:0:0:0:
256,192,94869,1,0,0:0:0:0:
256,192,97155,5,0,0:0:0:0:
256,192,97297,1,0,0:0:0:0:
256,192,97369,1,0,0:0:0:0:
256,192,97440,1,8,0:0:0:0:
256,192,97583,1,8,0:0:0:0:
256,192,97726,1,0,0:0:0:0:
256,192,97869,1,0,0:0:0:0:
256,192,98012,1,8,0:0:0:0:
256,192,98155,1,0,0:0:0:0:
256,192,98226,1,0,0:0:0:0:
256,192,98297,1,8,0:0:0:0:
256,192,98440,1,8,0:0:0:0:
256,192,98583,1,0,0:0:0:0:
256,192,98726,1,8,0:0:0:0:
256,192,98797,1,8,0:0:0:0:
256,192,98869,1,0,0:0:0:0:
256,192,99012,1,0,0:0:0:0:
256,192,99155,1,8,0:0:0:0:
256,192,99297,1,0,0:0:0:0:
256,192,99369,1,0,0:0:0:0:
256,192,99440,1,8,0:0:0:0:
256,192,99583,1,8,0:0:0:0:
256,192,99726,1,0,0:0:0:0:
256,192,99869,1,8,0:0:0:0:
256,192,100012,1,8,0:0:0:0:
256,192,100155,1,0,0:0:0:0:
256,192,100226,1,0,0:0:0:0:
256,192,100297,1,8,0:0:0:0:
256,192,100369,1,8,0:0:0:0:
256,192,100440,1,0,0:0:0:0:
256,192,100583,1,8,0:0:0:0:
256,192,100726,1,8,0:0:0:0:
256,192,100869,1,0,0:0:0:0:
256,192,101012,1,8,0:0:0:0:
256,192,101297,1,0,0:0:0:0:
256,192,101440,1,8,0:0:0:0:
256,192,101583,1,0,0:0:0:0:
256,192,101655,1,0,0:0:0:0:
256,192,101726,1,8,0:0:0:0:
256,192,101869,1,8,0:0:0:0:
256,192,102012,1,0,0:0:0:0:
256,192,102155,1,8,0:0:0:0:
256,192,102297,1,8,0:0:0:0:
256,192,102440,1,0,0:0:0:0:
256,192,102512,1,0,0:0:0:0:
256,192,102583,1,8,0:0:0:0:
256,192,102726,1,8,0:0:0:0:
256,192,102869,1,0,0:0:0:0:
256,192,103012,1,8,0:0:0:0:
256,192,103155,1,8,0:0:0:0:
256,192,103297,1,0,0:0:0:0:
256,192,103583,1,0,0:0:0:0:
256,192,103726,1,8,0:0:0:0:
256,192,103869,1,0,0:0:0:0:
256,192,103940,1,0,0:0:0:0:
256,192,104012,1,8,0:0:0:0:
256,192,104155,1,8,0:0:0:0:
256,192,104297,1,0,0:0:0:0:
256,192,104440,1,8,0:0:0:0:
256,192,104583,1,8,0:0:0:0:
256,192,104655,1,8,0:0:0:0:
256,192,104726,1,0,0:0:0:0:
256,192,104869,1,8,0:0:0:0:
256,192,105012,1,8,0:0:0:0:
256,192,105155,1,0,0:0:0:0:
256,192,105297,1,0,0:0:0:0:
256,192,105440,1,0,0:0:0:0:
256,192,105512,1,0,0:0:0:0:
256,192,105583,1,0,0:0:0:0:
256,192,105726,1,0,0:0:0:0:
256,192,105797,1,0,0:0:0:0:
256,192,105869,1,0,0:0:0:0:
256,192,105940,1,0,0:0:0:0:
256,192,106012,1,0,0:0:0:0:
256,192,106083,1,0,0:0:0:0:
256,192,106155,1,0,0:0:0:0:
256,192,106226,1,0,0:0:0:0:
256,192,106440,1,0,0:0:0:0:
256,192,106583,1,0,0:0:0:0:
256,192,106655,1,0,0:0:0:0:
256,192,106726,1,8,0:0:0:0:
256,192,106869,1,8,0:0:0:0:
256,192,107012,1,0,0:0:0:0:
256,192,107155,1,8,0:0:0:0:
256,192,107297,1,0,0:0:0:0:
256,192,107369,1,0,0:0:0:0:
256,192,107440,1,8,0:0:0:0:
256,192,107583,1,8,0:0:0:0:
256,192,107726,1,0,0:0:0:0:
256,192,107869,1,8,0:0:0:0:
256,192,107940,1,8,0:0:0:0:
256,192,108012,1,0,0:0:0:0:
256,192,108155,1,0,0:0:0:0:
256,192,108297,1,8,0:0:0:0:
256,192,108440,1,0,0:0:0:0:
256,192,108512,1,0,0:0:0:0:
256,192,108583,1,8,0:0:0:0:
256,192,108726,1,8,0:0:0:0:
256,192,108869,1,0,0:0:0:0:
256,192,108940,1,0,0:0:0:0:
256,192,109012,1,8,0:0:0:0:
256,192,109155,1,8,0:0:0:0:
256,192,109297,1,0,0:0:0:0:
256,192,109440,1,0,0:0:0:0:
256,192,109512,1,0,0:0:0:0:
256,192,109583,1,0,0:0:0:0:
256,192,109655,1,0,0:0:0:0:
256,192,109726,1,0,0:0:0:0:
256,192,109869,1,8,0:0:0:0:
256,192,110012,1,0,0:0:0:0:
256,192,110155,1,8,0:0:0:0:
256,192,110440,1,0,0:0:0:0:
256,192,110583,1,8,0:0:0:0:
256,192,110726,1,0,0:0:0:0:
256,192,110869,1,12,0:0:0:0:
256,192,111155,1,8,0:0:0:0:
256,192,111297,1,8,0:0:0:0:
256,192,111369,1,8,0:0:0:0:
256,192,111440,1,0,0:0:0:0:
256,192,111583,1,8,0:0:0:0:
256,192,111726,1,0,0:0:0:0:
256,192,111797,1,0,0:0:0:0:
256,192,111869,1,8,0:0:0:0:
256,192,112012,1,12,0:0:0:0:
256,192,112297,1,8,0:0:0:0:
256,192,112440,1,0,0:0:0:0:
256,192,112512,1,0,0:0:0:0:
256,192,112583,1,8,0:0:0:0:
256,192,112726,1,8,0:0:0:0:
256,192,112869,1,0,0:0:0:0:
256,192,112940,1,0,0:0:0:0:
256,192,113012,1,8,0:0:0:0:
256,192,113155,1,12,0:0:0:0:
256,192,113440,1,8,0:0:0:0:
256,192,113583,1,0,0:0:0:0:
256,192,113655,1,0,0:0:0:0:
256,192,113726,1,8,0:0:0:0:
256,192,113869,1,0,0:0:0:0:
256,192,113940,1,0,0:0:0:0:
256,192,114012,1,8,0:0:0:0:
256,192,114083,1,8,0:0:0:0:
256,192,114155,1,0,0:0:0:0:
256,192,114297,1,4,0:0:0:0:
256,192,114512,1,4,0:0:0:0:
256,192,114726,1,4,0:0:0:0:
256,192,115012,1,12,0:0:0:0:
256,192,115155,1,12,0:0:0:0:
256,192,115297,1,8,0:0:0:0:
256,192,115369,1,8,0:0:0:0:
256,192,115583,1,0,0:0:0:0:
256,192,115726,1,0,0:0:0:0:
256,192,115797,1,0,0:0:0:0:
256,192,115869,1,8,0:0:0:0:
256,192,116012,1,8,0:0:0:0:
256,192,116155,1,0,0:0:0:0:
256,192,116226,1,0,0:0:0:0:
256,192,116298,1,0,0:0:0:0:
256,192,116440,1,0,0:0:0:0:
256,192,116512,1,0,0:0:0:0:
256,192,116583,1,8,0:0:0:0:
256,192,116726,1,8,0:0:0:0:
256,192,116869,1,0,0:0:0:0:
256,192,117012,1,8,0:0:0:0:
256,192,117083,1,8,0:0:0:0:
256,192,117155,1,0,0:0:0:0:
256,192,117297,1,0,0:0:0:0:
256,192,117440,1,8,0:0:0:0:
256,192,117512,1,8,0:0:0:0:
256,192,117583,1,0,0:0:0:0:
256,192,117655,1,0,0:0:0:0:
256,192,117726,1,8,0:0:0:0:
256,192,117869,1,8,0:0:0:0:
256,192,118012,1,0,0:0:0:0:
256,192,118083,1,0,0:0:0:0:
256,192,118155,1,8,0:0:0:0:
256,192,118297,1,8,0:0:0:0:
256,192,118440,1,0,0:0:0:0:
256,192,118583,1,0,0:0:0:0:
256,192,118655,1,0,0:0:0:0:
256,192,118726,1,0,0:0:0:0:
256,192,118797,1,0,0:0:0:0:
256,192,118869,1,8,0:0:0:0:
256,192,119012,1,0,0:0:0:0:
256,192,119155,1,8,0:0:0:0:
256,192,119226,1,8,0:0:0:0:
256,192,119297,1,0,0:0:0:0:
256,192,119440,1,8,0:0:0:0:
256,192,119583,1,0,0:0:0:0:
256,192,119655,1,0,0:0:0:0:
256,192,119726,1,8,0:0:0:0:
256,192,119797,1,8,0:0:0:0:
256,192,119869,1,0,0:0:0:0:
256,192,119940,1,0,0:0:0:0:
256,192,120012,1,8,0:0:0:0:
256,192,120155,1,8,0:0:0:0:
256,192,120297,1,0,0:0:0:0:
256,192,120440,1,8,0:0:0:0:
256,192,120512,1,8,0:0:0:0:
256,192,120583,1,0,0:0:0:0:
256,192,120726,1,0,0:0:0:0:
256,192,120869,1,8,0:0:0:0:
256,192,121012,1,8,0:0:0:0:
256,192,121083,1,8,0:0:0:0:
256,192,121155,1,0,0:0:0:0:
256,192,121297,1,8,0:0:0:0:
256,192,121440,1,0,0:0:0:0:
256,192,121512,1,0,0:0:0:0:
256,192,121583,1,8,0:0:0:0:
256,192,121726,1,8,0:0:0:0:
256,192,121869,1,0,0:0:0:0:
256,192,121940,1,0,0:0:0:0:
256,192,122012,1,0,0:0:0:0:
256,192,122155,1,0,0:0:0:0:
256,192,122226,1,0,0:0:0:0:
256,192,122297,1,8,0:0:0:0:
256,192,122440,1,8,0:0:0:0:
256,192,122583,1,0,0:0:0:0:
256,192,122655,1,0,0:0:0:0:
256,192,122726,1,0,0:0:0:0:
256,192,122869,1,0,0:0:0:0:
256,192,123012,1,0,0:0:0:0:
256,192,123083,1,0,0:0:0:0:
256,192,123155,1,0,0:0:0:0:
256,192,123226,1,0,0:0:0:0:
256,192,123297,1,0,0:0:0:0:
256,192,123440,1,12,0:0:0:0:
256,192,123726,1,4,0:0:0:0:
256,192,123869,1,12,0:0:0:0:
256,192,124155,1,8,0:0:0:0:
256,192,124297,1,8,0:0:0:0:
256,192,124440,1,0,0:0:0:0:
256,192,124488,1,0,0:0:0:0:
256,192,124535,1,0,0:0:0:0:
256,192,124583,1,0,0:0:0:0:
256,192,124726,1,8,0:0:0:0:
256,192,124869,1,0,0:0:0:0:
256,192,124940,1,0,0:0:0:0:
256,192,125012,1,8,0:0:0:0:
256,192,125155,1,8,0:0:0:0:
256,192,125297,1,0,0:0:0:0:
256,192,125369,1,0,0:0:0:0:
256,192,125440,1,0,0:0:0:0:
256,192,125583,1,0,0:0:0:0:
256,192,125655,1,0,0:0:0:0:
256,192,125726,1,8,0:0:0:0:
256,192,125869,1,8,0:0:0:0:
256,192,126012,1,0,0:0:0:0:
256,192,126155,1,8,0:0:0:0:
256,160,126226,1,8,0:0:0:0:
256,192,126297,1,0,0:0:0:0:
256,192,126440,1,0,0:0:0:0:
256,192,126583,1,8,0:0:0:0:
256,192,126655,1,8,0:0:0:0:
256,192,126726,1,8,0:0:0:0:
256,192,126797,1,8,0:0:0:0:
256,192,126869,1,0,0:0:0:0:
256,192,127012,1,8,0:0:0:0:
256,192,127155,1,0,0:0:0:0:
256,192,127297,1,0,0:0:0:0:
256,160,127369,1,0,0:0:0:0:
256,192,127440,1,8,0:0:0:0:
256,192,127583,1,8,0:0:0:0:
256,192,127869,1,0,0:0:0:0:
256,192,127916,1,0,0:0:0:0:
256,192,127964,1,0,0:0:0:0:
256,192,128012,1,0,0:0:0:0:
256,192,128155,1,8,0:0:0:0:
256,192,128297,1,0,0:0:0:0:
256,192,128369,1,0,0:0:0:0:
256,192,128440,1,8,0:0:0:0:
256,192,128583,1,0,0:0:0:0:
256,192,128726,1,0,0:0:0:0:
256,192,128797,1,0,0:0:0:0:
256,192,128869,1,8,0:0:0:0:
256,192,129012,1,0,0:0:0:0:
256,192,129155,1,12,0:0:0:0:
256,192,129297,1,8,0:0:0:0:
256,192,129369,1,8,0:0:0:0:
256,192,129440,1,0,0:0:0:0:
256,192,129583,1,8,0:0:0:0:
256,192,129726,1,0,0:0:0:0:
256,192,129869,1,0,0:0:0:0:
256,192,129940,1,8,0:0:0:0:
256,192,130012,1,0,0:0:0:0:
256,192,130155,1,0,0:0:0:0:
256,192,130297,1,12,0:0:0:0:
256,192,130440,1,8,0:0:0:0:
256,192,130512,1,8,0:0:0:0:
256,192,130583,1,0,0:0:0:0:
256,192,130726,1,8,0:0:0:0:
256,192,130869,1,0,0:0:0:0:
256,192,131012,1,0,0:0:0:0:
256,192,131083,1,0,0:0:0:0:
256,192,131155,1,0,0:0:0:0:
256,192,131226,1,0,0:0:0:0:
256,192,131297,1,8,0:0:0:0:
256,192,131440,1,12,0:0:0:0:
256,192,131583,1,8,0:0:0:0:
256,192,131655,1,8,0:0:0:0:
256,192,131726,1,0,0:0:0:0:
256,192,131869,1,12,0:0:0:0:
256,192,132012,1,8,0:0:0:0:
256,192,132083,1,8,0:0:0:0:
256,192,132155,1,0,0:0:0:0:
256,192,132297,1,12,0:0:0:0:
256,192,132440,1,4,0:0:0:0:
256,192,132583,1,12,0:0:0:0:
256,192,133012,1,4,0:0:0:0:
256,192,133440,1,8,0:0:0:0:
256,192,133512,1,8,0:0:0:0:
256,192,133583,1,8,0:0:0:0:
256,192,133655,1,8,0:0:0:0:
256,192,133726,1,0,0:0:0:0:
