osu file format v14

[General]
AudioFilename: audio.mp3
AudioLeadIn: 0
PreviewTime: 1155
Countdown: 0
SampleSet: Normal
StackLeniency: 0.2
Mode: 1
LetterboxInBreaks: 0
WidescreenStoryboard: 1

[Editor]
Bookmarks: 19440,28583,37726,56012,67440,88012,97155,106297,115440,124583
DistanceSpacing: 0.8
BeatDivisor: 2
GridSize: 32
TimelineZoom: 2.5

[Metadata]
Title:Grievous Lady
TitleUnicode:Grievous Lady
Artist:Team Grimoire vs Laur
ArtistUnicode:Team Grimoire vs Laur
Creator:Aorimiku
Version:Kantan
Source:Arcaea
Tags:Arcaea Team Grimoire Laur Grievous Lady
BeatmapID:1678672
BeatmapSetID:729313

[Difficulty]
HPDrainRate:6.5
CircleSize:5
OverallDifficulty:3
ApproachRate:6
SliderMultiplier:1.40399990653992
SliderTickRate:1

[Events]
//Background and Video events
0,0,"DNx2wPjUIAAo71C.jpg",0,0
//Break Periods
//Storyboard Layer 0 (Background)
//Storyboard Layer 1 (Fail)
//Storyboard Layer 2 (Pass)
//Storyboard Layer 3 (Foreground)
//Storyboard Layer 4 (Overlay)
//Storyboard Sound Samples

[TimingPoints]
1155,285.714285714286,4,1,0,100,1,0
5726,-100,4,1,0,100,0,1
17155,-100,4,1,0,100,0,0
28583,-100,4,1,0,100,0,1
36583,-100,4,1,0,100,0,0
37726,-100,4,1,0,100,0,1
65155,-100,4,1,0,100,0,0
81155,-100,4,1,0,100,0,1
81226,-100,4,1,0,100,0,0
82297,-100,4,1,0,100,0,1
82369,-100,4,1,0,100,0,0
83440,-100,4,1,0,100,0,1
83512,-100,4,1,0,100,0,0
97155,-100,4,1,0,100,0,1
133726,-100,4,1,0,100,0,0

[HitObjects]
256,192,1155,5,0,0:0:0:0:
256,192,1726,1,0,0:0:0:0:
256,192,2297,1,8,0:0:0:0:
256,192,3440,1,0,0:0:0:0:
256,192,4012,1,8,0:0:0:0:
256,192,4583,1,0,0:0:0:0:
256,192,5726,1,12,0:0:0:0:
256,192,6012,1,0,0:0:0:0:
256,192,6297,1,8,0:0:0:0:
256,192,6869,1,8,0:0:0:0:
256,192,8012,1,0,0:0:0:0:
256,192,8297,1,8,0:0:0:0:
256,192,8583,1,0,0:0:0:0:
256,192,9155,1,8,0:0:0:0:
256,192,10297,1,4,0:0:0:0:
256,192,10583,1,0,0:0:0:0:
256,192,10869,1,8,0:0:0:0:
256,192,11440,1,4,0:0:0:0:
256,192,11726,1,0,0:0:0:0:
256,192,12012,1,8,0:0:0:0:
256,192,12583,1,4,0:0:0:0:
256,192,13726,1,4,0:0:0:0:
256,192,14297,1,12,0:0:0:0:
256,192,14869,2,0,L|416:192,8,140.399990653992
256,192,19440,5,4,0:0:0:0:
256,192,19869,1,4,0:0:0:0:
256,192,20297,1,4,0:0:0:0:
256,192,20726,1,4,0:0:0:0:
256,192,21155,1,0,0:0:0:0:
256,192,21440,1,0,0:0:0:0:
256,192,21726,1,4,0:0:0:0:
256,192,22155,1,4,0:0:0:0:
256,192,22583,1,4,0:0:0:0:
256,192,23012,1,4,0:0:0:0:
256,192,23440,1,0,0:0:0:0:
256,192,23726,1,0,0:0:0:0:
256,192,24012,1,4,0:0:0:0:
256,192,24440,1,4,0:0:0:0:
256,192,24869,1,4,0:0:0:0:
256,192,25297,1,4,0:0:0:0:
256,192,25726,1,0,0:0:0:0:
256,192,26012,1,0,0:0:0:0:
256,192,26297,1,4,0:0:0:0:
256,192,26726,1,4,0:0:0:0:
256,192,27155,1,4,0:0:0:0:
256,192,27583,1,4,0:0:0:0:
256,192,28012,1,0,0:0:0:0:
256,192,28297,1,0,0:0:0:0:
256,192,28583,1,4,0:0:0:0:
256,192,29012,1,8,0:0:0:0:
256,192,29440,1,4,0:0:0:0:
256,192,29869,1,8,0:0:0:0:
256,192,30297,1,4,0:0:0:0:
256,192,30583,1,4,0:0:0:0:
256,192,30869,1,4,0:0:0:0:
256,192,31297,1,8,0:0:0:0:
256,192,31726,1,4,0:0:0:0:
256,192,32155,1,8,0:0:0:0:
256,192,32583,1,0,0:0:0:0:
256,192,32869,1,0,0:0:0:0:
256,192,33155,1,4,0:0:0:0:
256,192,33583,1,8,0:0:0:0:
256,192,34012,1,4,0:0:0:0:
256,192,34440,1,8,0:0:0:0:
256,192,34869,1,4,0:0:0:0:
256,192,35155,1,4,0:0:0:0:
256,192,35440,1,4,0:0:0:0:
256,192,35869,1,8,0:0:0:0:
256,192,36297,1,0,0:0:0:0:
256,192,36583,1,8,0:0:0:0:
256,192,37726,1,0,0:0:0:0:
256,192,38012,1,8,0:0:0:0:
256,192,38297,1,0,0:0:0:0:
256,192,38583,1,8,0:0:0:0:
256,192,38869,1,0,0:0:0:0:
256,192,39155,1,8,0:0:0:0:
256,192,39440,1,0,0:0:0:0:
256,192,40012,1,0,0:0:0:0:
256,192,40297,1,0,0:0:0:0:
256,192,40583,1,0,0:0:0:0:
256,192,41155,1,8,0:0:0:0:
256,192,41440,1,8,0:0:0:0:
256,192,41726,1,8,0:0:0:0:
256,192,42297,1,0,0:0:0:0:
256,192,42583,1,8,0:0:0:0:
256,192,42869,1,0,0:0:0:0:
256,192,43155,1,8,0:0:0:0:
256,192,43440,1,0,0:0:0:0:
256,192,43726,1,8,0:0:0:0:
256,192,44012,1,0,0:0:0:0:
256,192,44583,1,0,0:0:0:0:
256,192,44869,1,0,0:0:0:0:
256,192,45155,1,8,0:0:0:0:
256,192,45440,1,8,0:0:0:0:
256,192,45726,2,0,L|163:192,6,70.199995326996
256,192,47155,1,8,0:0:0:0:
256,192,47440,1,0,0:0:0:0:
256,192,47726,1,8,0:0:0:0:
256,192,48012,1,0,0:0:0:0:
256,192,48297,1,8,0:0:0:0:
256,192,48583,1,0,0:0:0:0:
256,192,49155,1,0,0:0:0:0:
256,192,49440,1,0,0:0:0:0:
256,192,49726,1,0,0:0:0:0:
256,192,50297,1,8,0:0:0:0:
256,192,50583,1,8,0:0:0:0:
256,192,50869,1,8,0:0:0:0:
256,192,51726,1,8,0:0:0:0:
256,192,52012,1,0,0:0:0:0:
256,192,52297,1,8,0:0:0:0:
256,192,52583,1,0,0:0:0:0:
256,192,52869,1,8,0:0:0:0:
256,192,53155,1,0,0:0:0:0:
256,192,53726,1,4,0:0:0:0:
256,192,54297,1,4,0:0:0:0:
256,192,54869,1,12,0:0:0:0:
256,192,56012,1,0,0:0:0:0:
256,192,56297,1,0,0:0:0:0:
256,192,56583,1,8,0:0:0:0:
256,192,56869,1,8,0:0:0:0:
256,192,57155,1,0,0:0:0:0:
256,192,57440,1,0,0:0:0:0:
256,192,57726,1,8,0:0:0:0:
256,192,58297,1,0,0:0:0:0:
256,192,58583,1,0,0:0:0:0:
256,192,58869,1,8,0:0:0:0:
256,192,59155,1,8,0:0:0:0:
256,192,59440,1,8,0:0:0:0:
256,192,59726,1,8,0:0:0:0:
256,192,59869,1,8,0:0:0:0:
256,192,60012,1,8,0:0:0:0:
256,192,60583,1,0,0:0:0:0:
256,192,60869,1,0,0:0:0:0:
256,192,61155,1,8,0:0:0:0:
256,192,61440,1,8,0:0:0:0:
256,192,61726,1,0,0:0:0:0:
256,192,62012,1,0,0:0:0:0:
256,192,62297,1,8,0:0:0:0:
256,192,62869,1,0,0:0:0:0:
256,192,63012,1,0,0:0:0:0:
256,192,63155,1,0,0:0:0:0:
256,192,63440,1,4,0:0:0:0:
256,192,64012,1,8,0:0:0:0:
256,192,64155,1,8,0:0:0:0:
256,192,64297,1,8,0:0:0:0:
256,192,64583,1,12,0:0:0:0:
256,192,65155,2,0,L|96:192,6,140.399990653992
256,192,67440,5,0,0:0:0:0:
256,192,68012,1,0,0:0:0:0:
256,192,68583,1,8,0:0:0:0:
256,192,69726,1,0,0:0:0:0:
256,192,70297,1,8,0:0:0:0:
256,192,70869,1,8,0:0:0:0:
256,192,72012,1,8,0:0:0:0:
256,192,73155,1,0,0:0:0:0:
256,192,74297,1,8,0:0:0:0:
256,192,74869,1,8,0:0:0:0:
256,192,75440,1,0,0:0:0:0:
256,192,76583,1,4,0:0:0:0:
256,192,77155,1,0,0:0:0:0:
256,192,77726,1,8,0:0:0:0:
256,192,78869,1,0,0:0:0:0:
256,192,79440,1,8,0:0:0:0:
256,192,79726,1,8,0:0:0:0:
256,192,80012,1,8,0:0:0:0:
256,192,81155,1,12,0:0:0:0:
256,192,81726,1,0,0:0:0:0:
256,192,82297,1,12,0:0:0:0:
256,192,82869,1,0,0:0:0:0:
256,192,83440,1,12,0:0:0:0:
256,192,84583,1,8,0:0:0:0:
256,192,85726,1,12,0:0:0:0:
256,128,86869,1,8,0:0:0:0:
256,192,88012,1,4,0:0:0:0:
256,192,88440,1,8,0:0:0:0:
256,192,88869,1,0,0:0:0:0:
256,192,89297,1,8,0:0:0:0:
256,192,89726,1,4,0:0:0:0:
256,192,90012,1,4,0:0:0:0:
256,192,90297,1,4,0:0:0:0:
256,192,90726,1,8,0:0:0:0:
256,192,91155,1,0,0:0:0:0:
256,192,91583,1,8,0:0:0:0:
256,192,92012,1,0,0:0:0:0:
256,192,92297,1,0,0:0:0:0:
256,192,92583,1,4,0:0:0:0:
256,192,92869,1,4,0:0:0:0:
256,192,93155,1,4,0:0:0:0:
256,192,93440,1,4,0:0:0:0:
256,192,93726,1,12,0:0:0:0:
256,192,94012,1,12,0:0:0:0:
256,192,94297,1,8,0:0:0:0:
256,192,94440,1,8,0:0:0:0:
256,192,94583,1,8,0:0:0:0:
256,192,94869,1,0,0:0:0:0:
256,192,97155,1,0,0:0:0:0:
256,192,97440,1,0,0:0:0:0:
256,192,97726,1,0,0:0:0:0:
256,192,97869,1,0,0:0:0:0:
256,192,98012,1,0,0:0:0:0:
256,192,98297,1,8,0:0:0:0:
256,192,98869,1,0,0:0:0:0:
256,192,99440,1,0,0:0:0:0:
256,192,99726,1,0,0:0:0:0:
256,192,100012,1,0,0:0:0:0:
256,192,100155,1,0,0:0:0:0:
256,192,100297,1,0,0:0:0:0:
256,192,100583,1,8,0:0:0:0:
256,192,101155,1,0,0:0:0:0:
256,192,101726,1,8,0:0:0:0:
256,192,102012,1,8,0:0:0:0:
256,192,102297,1,8,0:0:0:0:
256,192,102440,1,8,0:0:0:0:
256,192,102583,1,8,0:0:0:0:
256,192,102869,1,0,0:0:0:0:
256,192,103440,1,0,0:0:0:0:
256,192,104012,1,0,0:0:0:0:
256,192,104297,1,0,0:0:0:0:
256,192,104583,1,0,0:0:0:0:
256,192,104726,1,0,0:0:0:0:
256,192,104869,1,0,0:0:0:0:
256,192,105155,2,0,L|352:192,6,70.199995326996
256,192,106583,1,0,0:0:0:0:
256,192,106869,1,0,0:0:0:0:
256,192,107012,1,0,0:0:0:0:
256,192,107155,1,0,0:0:0:0:
256,192,107440,1,8,0:0:0:0:
256,192,108012,1,0,0:0:0:0:
256,192,108583,1,0,0:0:0:0:
256,192,108869,1,0,0:0:0:0:
256,192,109155,1,0,0:0:0:0:
256,192,109297,1,0,0:0:0:0:
256,192,109440,1,0,0:0:0:0:
256,192,109726,1,8,0:0:0:0:
256,192,110297,1,0,0:0:0:0:
256,192,110869,1,12,0:0:0:0:
256,192,111440,1,0,0:0:0:0:
256,192,111726,1,0,0:0:0:0:
256,192,112012,1,12,0:0:0:0:
256,192,112583,1,0,0:0:0:0:
256,192,112869,1,0,0:0:0:0:
256,192,113155,1,12,0:0:0:0:
256,192,113726,1,8,0:0:0:0:
256,192,114012,1,8,0:0:0:0:
256,192,114297,12,0,115155,0:0:0:0:
256,192,115726,5,8,0:0:0:0:
256,192,116012,1,0,0:0:0:0:
256,192,116155,1,0,0:0:0:0:
256,192,116297,1,0,0:0:0:0:
256,192,116583,1,8,0:0:0:0:
256,192,117155,1,0,0:0:0:0:
256,192,117726,1,0,0:0:0:0:
256,192,118012,1,8,0:0:0:0:
256,192,118297,1,0,0:0:0:0:
256,192,118440,1,0,0:0:0:0:
256,192,118583,1,0,0:0:0:0:
256,192,118869,1,8,0:0:0:0:
256,192,119440,1,0,0:0:0:0:
256,192,120012,1,8,0:0:0:0:
256,192,120297,1,0,0:0:0:0:
256,192,120583,1,8,0:0:0:0:
256,192,120726,1,8,0:0:0:0:
256,192,120869,1,8,0:0:0:0:
256,192,121155,1,8,0:0:0:0:
256,192,121726,1,0,0:0:0:0:
256,192,122297,1,8,0:0:0:0:
256,192,122583,1,0,0:0:0:0:
256,192,122869,1,0,0:0:0:0:
256,192,123012,1,0,0:0:0:0:
256,192,123155,1,0,0:0:0:0:
256,192,123440,2,0,L|160:192,6,70
256,192,124869,1,8,0:0:0:0:
256,192,125155,1,0,0:0:0:0:
256,192,125297,1,0,0:0:0:0:
256,192,125440,1,0,0:0:0:0:
256,192,125726,1,8,0:0:0:0:
256,192,126297,1,0,0:0:0:0:
256,192,126869,1,0,0:0:0:0:
256,192,127155,1,8,0:0:0:0:
256,192,127440,1,0,0:0:0:0:
256,192,127583,1,0,0:0:0:0:
256,192,128012,1,8,0:0:0:0:
256,192,128583,1,0,0:0:0:0:
256,192,128869,1,8,0:0:0:0:
256,192,129155,1,12,0:0:0:0:
256,192,129440,1,0,0:0:0:0:
256,192,129726,1,0,0:0:0:0:
256,192,130012,1,8,0:0:0:0:
256,192,130297,1,12,0:0:0:0:
256,192,130583,1,0,0:0:0:0:
256,192,130869,1,8,0:0:0:0:
256,192,131155,1,0,0:0:0:0:
256,192,131440,1,12,0:0:0:0:
256,192,131869,1,12,0:0:0:0:
256,192,132297,1,12,0:0:0:0:
256,192,132583,1,4,0:0:0:0:
256,192,133012,1,4,0:0:0:0:
256,192,133440,1,12,0:0:0:0:
256,192,133726,1,4,0:0:0:0:
