osu file format v14

[General]
AudioFilename: audio.mp3
AudioLeadIn: 0
PreviewTime: 56139
Countdown: 0
SampleSet: Soft
StackLeniency: 0.7
Mode: 3
LetterboxInBreaks: 0
SpecialStyle: 0
WidescreenStoryboard: 1

[Editor]
DistanceSpacing: 1.2
BeatDivisor: 8
GridSize: 8
TimelineZoom: 3.499998

[Metadata]
Title:Grievous Lady
TitleUnicode:Grievous Lady
Artist:Team Grimoire vs Laur
ArtistUnicode:Team Grimoire vs Laur
Creator:[Shana Lesus]
Version:Kneel
Source:Arcaea
Tags:Virtue- UMBRA MORTIS M3-2018 hardcore
BeatmapID:2069247
BeatmapSetID:989289

[Difficulty]
HPDrainRate:9
CircleSize:4
OverallDifficulty:8.5
ApproachRate:5
SliderMultiplier:1.4
SliderTickRate:1

[Events]
//Background and Video events
0,0,"lady.jpg",0,0
//Break Periods
//Storyboard Layer 0 (Background)
//Storyboard Layer 1 (Fail)
//Storyboard Layer 2 (Pass)
//Storyboard Layer 3 (Foreground)
//Storyboard Sound Samples

[TimingPoints]
1294,285.714285714286,4,2,0,10,1,0
56151,-100,4,2,0,10,0,1
65294,-100,4,2,0,10,0,0
97294,-100,4,2,0,10,0,1
133865,-100,4,2,0,10,0,0

[HitObjects]
64,192,1294,128,0,1865:0:0:0:0:
448,192,1579,128,0,1865:0:0:0:0:
192,192,1865,128,0,2008:0:0:0:0:
320,192,1865,128,0,2436:0:0:0:0:
448,192,2008,128,0,2151:0:0:0:0:
64,192,2151,128,0,2294:0:0:0:0:
192,192,2294,128,0,2436:0:0:0:0:
448,192,2436,128,0,3008:0:0:0:0:
64,192,2436,128,0,2579:0:0:0:0:
320,192,2579,128,0,2722:0:0:0:0:
64,192,2722,128,0,2865:0:0:0:0:
192,192,2865,128,0,3008:0:0:0:0:
64,192,3008,128,0,3579:0:0:0:0:
320,192,3294,128,0,3579:0:0:0:0:
192,192,3579,1,0,0:0:0:0:
448,192,3579,128,0,4151:0:0:0:0:
320,192,3865,128,0,4151:0:0:0:0:
64,192,4151,1,0,0:0:0:0:
192,192,4151,128,0,4294:0:0:0:0:
448,192,4294,128,0,4436:0:0:0:0:
64,192,4401,1,0,0:0:0:0:
192,192,4436,1,0,0:0:0:0:
448,192,4579,1,0,0:0:0:0:
320,192,4722,1,0,0:0:0:0:
64,192,4722,128,0,5008:0:0:0:0:
192,192,4972,1,0,0:0:0:0:
320,192,5008,1,0,0:0:0:0:
448,192,5151,1,0,0:0:0:0:
320,192,5294,128,0,5579:0:0:0:0:
192,192,5579,128,0,5865:0:0:0:0:
64,192,5865,128,0,6008:0:0:0:0:
320,192,5865,1,0,0:0:0:0:
448,192,5865,1,0,0:0:0:0:
192,192,6008,1,0,0:0:0:0:
448,192,6151,1,0,0:0:0:0:
320,192,6294,1,0,0:0:0:0:
192,192,6436,128,0,6579:0:0:0:0:
64,192,6436,1,0,0:0:0:0:
448,192,6579,1,0,0:0:0:0:
64,192,6722,1,0,0:0:0:0:
320,192,6865,1,0,0:0:0:0:
448,192,7008,128,0,7151:0:0:0:0:
192,192,7008,1,0,0:0:0:0:
64,192,7151,1,0,0:0:0:0:
320,192,7294,1,0,0:0:0:0:
448,192,7436,1,0,0:0:0:0:
64,192,7579,128,0,7722:0:0:0:0:
192,192,7579,1,0,0:0:0:0:
448,192,7722,1,0,0:0:0:0:
320,192,7865,1,0,0:0:0:0:
192,192,8008,1,0,0:0:0:0:
320,192,8151,128,0,8294:0:0:0:0:
448,192,8151,1,0,0:0:0:0:
64,192,8294,1,0,0:0:0:0:
192,192,8436,1,0,0:0:0:0:
448,192,8579,1,0,0:0:0:0:
192,192,8722,128,0,8865:0:0:0:0:
64,192,8722,1,0,0:0:0:0:
320,192,8865,1,0,0:0:0:0:
448,192,9008,1,0,0:0:0:0:
192,192,9151,1,0,0:0:0:0:
448,192,9294,128,0,9436:0:0:0:0:
64,192,9294,1,0,0:0:0:0:
320,192,9436,1,0,0:0:0:0:
192,192,9579,1,0,0:0:0:0:
448,192,9722,1,0,0:0:0:0:
64,192,9865,128,0,10008:0:0:0:0:
192,192,9865,1,0,0:0:0:0:
320,192,10008,1,0,0:0:0:0:
448,192,10151,1,0,0:0:0:0:
64,192,10294,1,0,0:0:0:0:
320,192,10436,128,0,10579:0:0:0:0:
192,192,10436,1,0,0:0:0:0:
448,192,10436,1,0,0:0:0:0:
64,192,10579,1,0,0:0:0:0:
448,192,10722,1,0,0:0:0:0:
192,192,10865,1,0,0:0:0:0:
64,192,11008,128,0,11151:0:0:0:0:
320,192,11008,1,0,0:0:0:0:
192,192,11151,1,0,0:0:0:0:
448,192,11294,1,0,0:0:0:0:
320,192,11294,1,0,0:0:0:0:
64,192,11436,1,0,0:0:0:0:
448,192,11579,128,0,11722:0:0:0:0:
320,192,11579,1,0,0:0:0:0:
192,192,11579,1,0,0:0:0:0:
64,192,11722,1,0,0:0:0:0:
320,192,11865,1,0,0:0:0:0:
64,192,12008,1,0,0:0:0:0:
320,192,12151,128,0,12294:0:0:0:0:
448,192,12151,1,0,0:0:0:0:
192,192,12294,1,0,0:0:0:0:
448,192,12436,1,0,0:0:0:0:
64,192,12436,1,0,0:0:0:0:
192,192,12579,1,0,0:0:0:0:
64,192,12722,128,0,12865:0:0:0:0:
320,192,12722,1,0,0:0:0:0:
448,192,12722,1,0,0:0:0:0:
192,192,12865,1,0,0:0:0:0:
320,192,13008,1,0,0:0:0:0:
64,192,13151,1,0,0:0:0:0:
320,192,13294,128,0,13436:0:0:0:0:
448,192,13294,1,0,0:0:0:0:
192,192,13436,1,0,0:0:0:0:
64,192,13579,1,0,0:0:0:0:
320,192,13722,1,0,0:0:0:0:
192,192,13865,128,0,14008:0:0:0:0:
448,192,13865,1,0,0:0:0:0:
64,192,14008,1,0,0:0:0:0:
448,192,14151,1,0,0:0:0:0:
320,192,14151,1,0,0:0:0:0:
192,192,14294,1,0,0:0:0:0:
448,192,14436,128,0,14579:0:0:0:0:
64,192,14436,1,0,0:0:0:0:
320,192,14436,1,0,0:0:0:0:
192,192,14579,1,0,0:0:0:0:
320,192,14722,1,0,0:0:0:0:
448,192,14865,1,0,0:0:0:0:
64,192,15008,128,0,15151:0:0:0:0:
192,192,15008,1,0,0:0:0:0:
320,192,15008,1,0,0:0:0:0:
448,192,15151,1,0,0:0:0:0:
192,192,15294,1,0,0:0:0:0:
320,192,15436,1,0,0:0:0:0:
192,192,15579,128,0,15722:0:0:0:0:
64,192,15579,1,0,0:0:0:0:
448,192,15722,1,0,0:0:0:0:
64,192,15865,1,0,0:0:0:0:
320,192,16008,1,0,0:0:0:0:
448,192,16151,128,0,16294:0:0:0:0:
192,192,16151,1,0,0:0:0:0:
64,192,16294,1,0,0:0:0:0:
320,192,16436,1,0,0:0:0:0:
192,192,16436,1,0,0:0:0:0:
448,192,16579,1,0,0:0:0:0:
320,192,16722,128,0,16865:0:0:0:0:
64,192,16722,1,0,0:0:0:0:
192,192,16865,1,0,0:0:0:0:
448,192,17008,1,0,0:0:0:0:
320,192,17008,1,0,0:0:0:0:
192,192,17151,1,0,0:0:0:0:
64,192,17294,1,0,0:0:0:0:
320,192,17294,1,0,0:0:0:0:
448,192,17294,1,0,0:0:0:0:
320,192,17794,128,0,18008:0:0:0:0:
448,192,18436,128,0,18722:0:0:0:0:
64,192,18722,128,0,18936:0:0:0:0:
192,192,18936,128,0,19294:0:0:0:0:
448,192,19579,128,0,19794:0:0:0:0:
64,192,19579,1,0,0:0:0:0:
320,192,19579,1,0,0:0:0:0:
192,192,19722,1,0,0:0:0:0:
448,192,19865,1,0,0:0:0:0:
192,192,20008,128,0,20222:0:0:0:0:
320,192,20008,1,0,0:0:0:0:
448,192,20151,1,0,0:0:0:0:
192,192,20294,1,0,0:0:0:0:
64,192,20436,128,0,20651:0:0:0:0:
448,192,20436,1,0,0:0:0:0:
320,192,20579,1,0,0:0:0:0:
64,192,20722,1,0,0:0:0:0:
320,192,20865,128,0,21079:0:0:0:0:
192,192,20865,1,0,0:0:0:0:
64,192,21008,1,0,0:0:0:0:
320,192,21151,1,0,0:0:0:0:
448,192,21294,128,0,21579:0:0:0:0:
64,192,21294,1,0,0:0:0:0:
192,192,21294,1,0,0:0:0:0:
64,192,21436,1,0,0:0:0:0:
192,192,21579,128,0,21865:0:0:0:0:
320,192,21579,1,0,0:0:0:0:
448,192,21722,1,0,0:0:0:0:
320,192,21865,128,0,22079:0:0:0:0:
448,192,21865,1,0,0:0:0:0:
64,192,21865,1,0,0:0:0:0:
192,192,22008,1,0,0:0:0:0:
320,192,22151,1,0,0:0:0:0:
64,192,22294,128,0,22508:0:0:0:0:
192,192,22294,1,0,0:0:0:0:
448,192,22436,1,0,0:0:0:0:
64,192,22579,1,0,0:0:0:0:
192,192,22722,128,0,22936:0:0:0:0:
448,192,22722,1,0,0:0:0:0:
320,192,22865,1,0,0:0:0:0:
192,192,23008,1,0,0:0:0:0:
320,192,23151,128,0,23365:0:0:0:0:
64,192,23151,1,0,0:0:0:0:
192,192,23294,1,0,0:0:0:0:
320,192,23436,1,0,0:0:0:0:
192,192,23579,128,0,23865:0:0:0:0:
448,192,23579,1,0,0:0:0:0:
64,192,23579,1,0,0:0:0:0:
64,192,23722,1,0,0:0:0:0:
320,192,23722,1,0,0:0:0:0:
320,192,23865,128,0,24151:0:0:0:0:
448,192,23865,1,0,0:0:0:0:
64,192,23865,1,0,0:0:0:0:
192,192,24008,1,0,0:0:0:0:
64,192,24151,128,0,24365:0:0:0:0:
448,192,24151,1,0,0:0:0:0:
192,192,24151,1,0,0:0:0:0:
320,192,24294,1,0,0:0:0:0:
64,192,24436,1,0,0:0:0:0:
320,192,24579,128,0,24794:0:0:0:0:
448,192,24579,1,0,0:0:0:0:
192,192,24722,1,0,0:0:0:0:
320,192,24865,1,0,0:0:0:0:
192,192,25008,128,0,25222:0:0:0:0:
64,192,25008,1,0,0:0:0:0:
448,192,25151,1,0,0:0:0:0:
192,192,25294,1,0,0:0:0:0:
448,192,25436,128,0,25651:0:0:0:0:
320,192,25436,1,0,0:0:0:0:
64,192,25579,1,0,0:0:0:0:
448,192,25722,1,0,0:0:0:0:
64,192,25865,128,0,26151:0:0:0:0:
192,192,25865,1,0,0:0:0:0:
320,192,25865,1,0,0:0:0:0:
448,192,26008,1,0,0:0:0:0:
320,192,26151,128,0,26436:0:0:0:0:
448,192,26151,1,0,0:0:0:0:
192,192,26151,1,0,0:0:0:0:
64,192,26294,1,0,0:0:0:0:
192,192,26436,128,0,26651:0:0:0:0:
64,192,26436,1,0,0:0:0:0:
448,192,26436,1,0,0:0:0:0:
448,192,26579,1,0,0:0:0:0:
192,192,26722,1,0,0:0:0:0:
448,192,26865,128,0,27079:0:0:0:0:
320,192,26865,1,0,0:0:0:0:
192,192,27008,1,0,0:0:0:0:
448,192,27151,1,0,0:0:0:0:
320,192,27294,128,0,27508:0:0:0:0:
64,192,27294,1,0,0:0:0:0:
192,192,27436,1,0,0:0:0:0:
320,192,27579,1,0,0:0:0:0:
192,192,27722,128,0,27936:0:0:0:0:
448,192,27722,1,0,0:0:0:0:
64,192,27865,1,0,0:0:0:0:
192,192,28008,1,0,0:0:0:0:
64,192,28151,128,0,28436:0:0:0:0:
320,192,28151,1,0,0:0:0:0:
448,192,28151,1,0,0:0:0:0:
320,192,28294,1,0,0:0:0:0:
192,192,28294,1,0,0:0:0:0:
192,192,28436,128,0,28722:0:0:0:0:
448,192,28436,1,0,0:0:0:0:
320,192,28436,1,0,0:0:0:0:
64,192,28579,1,0,0:0:0:0:
320,192,28722,128,0,28936:0:0:0:0:
448,192,28722,1,0,0:0:0:0:
64,192,28722,1,0,0:0:0:0:
192,192,28865,1,0,0:0:0:0:
320,192,29008,1,0,0:0:0:0:
64,192,29151,128,0,29365:0:0:0:0:
192,192,29151,1,0,0:0:0:0:
448,192,29151,1,0,0:0:0:0:
320,192,29294,1,0,0:0:0:0:
64,192,29436,1,0,0:0:0:0:
448,192,29579,128,0,29794:0:0:0:0:
192,192,29579,1,0,0:0:0:0:
320,192,29579,1,0,0:0:0:0:
64,192,29722,1,0,0:0:0:0:
448,192,29865,1,0,0:0:0:0:
192,192,30008,128,0,30222:0:0:0:0:
64,192,30008,1,0,0:0:0:0:
320,192,30008,1,0,0:0:0:0:
448,192,30151,1,0,0:0:0:0:
192,192,30294,1,0,0:0:0:0:
320,192,30436,128,0,30722:0:0:0:0:
448,192,30436,1,0,0:0:0:0:
64,192,30436,1,0,0:0:0:0:
192,192,30579,1,0,0:0:0:0:
64,192,30722,128,0,31008:0:0:0:0:
192,192,30722,1,0,0:0:0:0:
448,192,30722,1,0,0:0:0:0:
320,192,30865,1,0,0:0:0:0:
448,192,31008,128,0,31222:0:0:0:0:
320,192,31008,1,0,0:0:0:0:
192,192,31008,1,0,0:0:0:0:
192,192,31151,1,0,0:0:0:0:
448,192,31294,1,0,0:0:0:0:
192,192,31436,128,0,31651:0:0:0:0:
320,192,31436,1,0,0:0:0:0:
64,192,31436,1,0,0:0:0:0:
448,192,31579,1,0,0:0:0:0:
192,192,31722,1,0,0:0:0:0:
320,192,31865,128,0,32079:0:0:0:0:
448,192,31865,1,0,0:0:0:0:
64,192,31865,1,0,0:0:0:0:
192,192,32008,1,0,0:0:0:0:
320,192,32151,1,0,0:0:0:0:
64,192,32294,128,0,32508:0:0:0:0:
192,192,32294,1,0,0:0:0:0:
448,192,32294,1,0,0:0:0:0:
320,192,32436,1,0,0:0:0:0:
64,192,32579,1,0,0:0:0:0:
448,192,32722,128,0,33008:0:0:0:0:
320,192,32722,1,0,0:0:0:0:
192,192,32722,1,0,0:0:0:0:
64,192,32865,1,0,0:0:0:0:
192,192,32865,1,0,0:0:0:0:
192,192,33008,128,0,33294:0:0:0:0:
64,192,33008,1,0,0:0:0:0:
320,192,33008,1,0,0:0:0:0:
448,192,33151,1,0,0:0:0:0:
320,192,33294,128,0,33508:0:0:0:0:
448,192,33294,1,0,0:0:0:0:
64,192,33294,1,0,0:0:0:0:
192,192,33436,1,0,0:0:0:0:
320,192,33579,1,0,0:0:0:0:
64,192,33722,128,0,33936:0:0:0:0:
192,192,33722,1,0,0:0:0:0:
448,192,33722,1,0,0:0:0:0:
320,192,33865,1,0,0:0:0:0:
64,192,34008,1,0,0:0:0:0:
448,192,34151,128,0,34365:0:0:0:0:
192,192,34151,1,0,0:0:0:0:
320,192,34151,1,0,0:0:0:0:
64,192,34294,1,0,0:0:0:0:
448,192,34436,1,0,0:0:0:0:
192,192,34579,128,0,34794:0:0:0:0:
64,192,34579,1,0,0:0:0:0:
448,192,34579,1,0,0:0:0:0:
320,192,34722,1,0,0:0:0:0:
192,192,34865,1,0,0:0:0:0:
448,192,35008,128,0,35294:0:0:0:0:
320,192,35008,1,0,0:0:0:0:
64,192,35008,1,0,0:0:0:0:
192,192,35151,1,0,0:0:0:0:
64,192,35294,128,0,35579:0:0:0:0:
192,192,35294,1,0,0:0:0:0:
320,192,35294,1,0,0:0:0:0:
448,192,35436,1,0,0:0:0:0:
320,192,35579,128,0,35794:0:0:0:0:
448,192,35579,1,0,0:0:0:0:
192,192,35579,1,0,0:0:0:0:
192,192,35722,1,0,0:0:0:0:
320,192,35865,1,0,0:0:0:0:
192,192,36008,128,0,36222:0:0:0:0:
448,192,36008,1,0,0:0:0:0:
64,192,36008,1,0,0:0:0:0:
320,192,36151,1,0,0:0:0:0:
192,192,36294,1,0,0:0:0:0:
448,192,36436,128,0,36651:0:0:0:0:
320,192,36436,1,0,0:0:0:0:
64,192,36436,1,0,0:0:0:0:
192,192,36579,1,0,0:0:0:0:
448,192,36722,1,0,0:0:0:0:
64,192,36722,128,0,37294:0:0:0:0:
320,192,36722,1,0,0:0:0:0:
320,192,37294,128,0,37579:0:0:0:0:
192,192,37579,128,0,37865:0:0:0:0:
448,192,37865,1,0,0:0:0:0:
64,192,37865,1,0,0:0:0:0:
320,192,37936,1,0,0:0:0:0:
192,192,38008,1,0,0:0:0:0:
448,192,38079,1,0,0:0:0:0:
64,192,38151,1,0,0:0:0:0:
192,192,38151,1,0,0:0:0:0:
320,192,38222,1,0,0:0:0:0:
448,192,38294,1,0,0:0:0:0:
64,192,38365,1,0,0:0:0:0:
192,192,38436,1,0,0:0:0:0:
320,192,38436,1,0,0:0:0:0:
448,192,38508,1,0,0:0:0:0:
64,192,38579,1,0,0:0:0:0:
320,192,38651,1,0,0:0:0:0:
192,192,38722,1,0,0:0:0:0:
448,192,38722,1,0,0:0:0:0:
64,192,38794,1,0,0:0:0:0:
320,192,38865,1,0,0:0:0:0:
448,192,38936,1,0,0:0:0:0:
64,192,39008,1,0,0:0:0:0:
192,192,39008,1,0,0:0:0:0:
448,192,39079,1,0,0:0:0:0:
320,192,39151,1,0,0:0:0:0:
64,192,39222,1,0,0:0:0:0:
192,192,39294,1,0,0:0:0:0:
448,192,39294,1,0,0:0:0:0:
320,192,39365,1,0,0:0:0:0:
64,192,39436,1,0,0:0:0:0:
448,192,39508,1,0,0:0:0:0:
192,192,39579,1,0,0:0:0:0:
320,192,39579,1,0,0:0:0:0:
64,192,39651,1,0,0:0:0:0:
320,192,39722,1,0,0:0:0:0:
448,192,39794,1,0,0:0:0:0:
192,192,39865,1,0,0:0:0:0:
64,192,39865,1,0,0:0:0:0:
448,192,39936,1,0,0:0:0:0:
320,192,40008,1,0,0:0:0:0:
192,192,40008,1,0,0:0:0:0:
64,192,40079,1,0,0:0:0:0:
448,192,40151,128,0,40436:0:0:0:0:
320,192,40151,1,0,0:0:0:0:
192,192,40294,1,0,0:0:0:0:
320,192,40436,128,0,40722:0:0:0:0:
64,192,40436,1,0,0:0:0:0:
448,192,40579,1,0,0:0:0:0:
192,192,40722,128,0,41008:0:0:0:0:
64,192,40722,1,0,0:0:0:0:
320,192,40865,1,0,0:0:0:0:
64,192,41008,128,0,41294:0:0:0:0:
448,192,41008,1,0,0:0:0:0:
320,192,41151,1,0,0:0:0:0:
192,192,41294,1,0,0:0:0:0:
320,192,41365,1,0,0:0:0:0:
448,192,41436,1,0,0:0:0:0:
192,192,41508,1,0,0:0:0:0:
320,192,41579,1,0,0:0:0:0:
448,192,41579,1,0,0:0:0:0:
64,192,41651,1,0,0:0:0:0:
320,192,41722,1,0,0:0:0:0:
192,192,41794,1,0,0:0:0:0:
64,192,41865,1,0,0:0:0:0:
448,192,41865,1,0,0:0:0:0:
320,192,41936,1,0,0:0:0:0:
192,192,42008,1,0,0:0:0:0:
64,192,42008,1,0,0:0:0:0:
320,192,42079,1,0,0:0:0:0:
448,192,42151,1,0,0:0:0:0:
192,192,42222,1,0,0:0:0:0:
320,192,42294,1,0,0:0:0:0:
448,192,42294,1,0,0:0:0:0:
64,192,42365,1,0,0:0:0:0:
192,192,42436,1,0,0:0:0:0:
320,192,42436,1,0,0:0:0:0:
64,192,42508,1,0,0:0:0:0:
448,192,42579,1,0,0:0:0:0:
192,192,42651,1,0,0:0:0:0:
320,192,42722,1,0,0:0:0:0:
64,192,42722,1,0,0:0:0:0:
192,192,42794,1,0,0:0:0:0:
448,192,42865,1,0,0:0:0:0:
320,192,42936,1,0,0:0:0:0:
192,192,43008,1,0,0:0:0:0:
64,192,43008,1,0,0:0:0:0:
448,192,43079,1,0,0:0:0:0:
320,192,43151,1,0,0:0:0:0:
192,192,43222,1,0,0:0:0:0:
448,192,43294,1,0,0:0:0:0:
320,192,43294,1,0,0:0:0:0:
64,192,43365,1,0,0:0:0:0:
192,192,43436,1,0,0:0:0:0:
320,192,43508,1,0,0:0:0:0:
192,192,43579,1,0,0:0:0:0:
448,192,43579,1,0,0:0:0:0:
64,192,43651,1,0,0:0:0:0:
320,192,43722,1,0,0:0:0:0:
448,192,43794,1,0,0:0:0:0:
64,192,43865,1,0,0:0:0:0:
320,192,43865,1,0,0:0:0:0:
192,192,43936,1,0,0:0:0:0:
448,192,44008,1,0,0:0:0:0:
320,192,44008,1,0,0:0:0:0:
192,192,44079,1,0,0:0:0:0:
320,192,44151,1,0,0:0:0:0:
64,192,44151,1,0,0:0:0:0:
448,192,44222,1,0,0:0:0:0:
192,192,44294,1,0,0:0:0:0:
64,192,44329,1,0,0:0:0:0:
320,192,44365,1,0,0:0:0:0:
192,192,44401,1,0,0:0:0:0:
64,192,44436,1,0,0:0:0:0:
448,192,44436,1,0,0:0:0:0:
320,192,44508,1,0,0:0:0:0:
448,192,44579,1,0,0:0:0:0:
192,192,44579,1,0,0:0:0:0:
64,192,44651,1,0,0:0:0:0:
320,192,44722,1,0,0:0:0:0:
192,192,44722,1,0,0:0:0:0:
448,192,44722,1,0,0:0:0:0:
64,192,44794,1,0,0:0:0:0:
320,192,44865,1,0,0:0:0:0:
448,192,44936,1,0,0:0:0:0:
192,192,45008,1,0,0:0:0:0:
64,192,45008,1,0,0:0:0:0:
320,192,45079,1,0,0:0:0:0:
64,192,45151,1,0,0:0:0:0:
448,192,45222,1,0,0:0:0:0:
320,192,45294,1,0,0:0:0:0:
192,192,45294,1,0,0:0:0:0:
64,192,45365,1,0,0:0:0:0:
448,192,45436,1,0,0:0:0:0:
192,192,45508,1,0,0:0:0:0:
320,192,45579,1,0,0:0:0:0:
448,192,45579,1,0,0:0:0:0:
64,192,45651,1,0,0:0:0:0:
320,192,45722,1,0,0:0:0:0:
192,192,45794,1,0,0:0:0:0:
64,192,45865,1,0,0:0:0:0:
448,192,45865,128,0,46151:0:0:0:0:
320,192,46008,1,0,0:0:0:0:
192,192,46151,1,0,0:0:0:0:
64,192,46151,1,0,0:0:0:0:
320,192,46222,1,0,0:0:0:0:
192,192,46294,128,0,46579:0:0:0:0:
448,192,46294,1,0,0:0:0:0:
64,192,46436,1,0,0:0:0:0:
448,192,46436,1,0,0:0:0:0:
320,192,46579,1,0,0:0:0:0:
64,192,46579,1,0,0:0:0:0:
320,192,46722,128,0,47008:0:0:0:0:
448,192,46722,1,0,0:0:0:0:
192,192,46722,1,0,0:0:0:0:
448,192,46865,1,0,0:0:0:0:
64,192,46865,1,0,0:0:0:0:
192,192,47008,128,0,47151:0:0:0:0:
448,192,47151,1,0,0:0:0:0:
64,192,47151,1,0,0:0:0:0:
192,192,47294,1,0,0:0:0:0:
320,192,47294,1,0,0:0:0:0:
448,192,47365,1,0,0:0:0:0:
64,192,47436,1,0,0:0:0:0:
320,192,47508,1,0,0:0:0:0:
192,192,47579,1,0,0:0:0:0:
64,192,47579,1,0,0:0:0:0:
448,192,47651,1,0,0:0:0:0:
192,192,47722,1,0,0:0:0:0:
320,192,47794,1,0,0:0:0:0:
64,192,47865,1,0,0:0:0:0:
448,192,47865,1,0,0:0:0:0:
192,192,47936,1,0,0:0:0:0:
64,192,48008,1,0,0:0:0:0:
320,192,48079,1,0,0:0:0:0:
448,192,48151,1,0,0:0:0:0:
192,192,48151,1,0,0:0:0:0:
64,192,48222,1,0,0:0:0:0:
320,192,48294,1,0,0:0:0:0:
448,192,48365,1,0,0:0:0:0:
192,192,48436,1,0,0:0:0:0:
64,192,48436,1,0,0:0:0:0:
320,192,48508,1,0,0:0:0:0:
192,192,48579,1,0,0:0:0:0:
64,192,48651,1,0,0:0:0:0:
320,192,48722,1,0,0:0:0:0:
448,192,48722,1,0,0:0:0:0:
192,192,48794,1,0,0:0:0:0:
448,192,48865,1,0,0:0:0:0:
64,192,48865,1,0,0:0:0:0:
192,192,48936,1,0,0:0:0:0:
320,192,48936,1,0,0:0:0:0:
448,192,49008,1,0,0:0:0:0:
64,192,49008,1,0,0:0:0:0:
192,192,49079,1,0,0:0:0:0:
320,192,49151,1,0,0:0:0:0:
448,192,49151,1,0,0:0:0:0:
192,192,49222,1,0,0:0:0:0:
64,192,49294,128,0,49579:0:0:0:0:
448,192,49294,1,0,0:0:0:0:
320,192,49436,1,0,0:0:0:0:
192,192,49579,128,0,49865:0:0:0:0:
448,192,49579,1,0,0:0:0:0:
320,192,49722,1,0,0:0:0:0:
320,192,49865,128,0,50151:0:0:0:0:
448,192,49865,1,0,0:0:0:0:
64,192,49865,1,0,0:0:0:0:
64,192,50008,1,0,0:0:0:0:
448,192,50008,1,0,0:0:0:0:
448,192,50151,128,0,50436:0:0:0:0:
64,192,50151,1,0,0:0:0:0:
192,192,50151,1,0,0:0:0:0:
192,192,50294,1,0,0:0:0:0:
320,192,50294,1,0,0:0:0:0:
320,192,50436,1,0,0:0:0:0:
64,192,50436,1,0,0:0:0:0:
192,192,50508,1,0,0:0:0:0:
448,192,50579,1,0,0:0:0:0:
320,192,50651,1,0,0:0:0:0:
64,192,50722,1,0,0:0:0:0:
192,192,50722,1,0,0:0:0:0:
448,192,50794,1,0,0:0:0:0:
64,192,50865,1,0,0:0:0:0:
320,192,50936,1,0,0:0:0:0:
192,192,51008,1,0,0:0:0:0:
64,192,51008,1,0,0:0:0:0:
320,192,51079,1,0,0:0:0:0:
192,192,51151,1,0,0:0:0:0:
448,192,51151,1,0,0:0:0:0:
64,192,51222,1,0,0:0:0:0:
320,192,51294,1,0,0:0:0:0:
448,192,51294,1,0,0:0:0:0:
64,192,51365,1,0,0:0:0:0:
320,192,51436,1,0,0:0:0:0:
192,192,51436,1,0,0:0:0:0:
448,192,51508,1,0,0:0:0:0:
192,192,51579,1,0,0:0:0:0:
64,192,51579,128,0,51722:0:0:0:0:
320,192,51722,1,0,0:0:0:0:
448,192,51722,1,0,0:0:0:0:
192,192,51794,1,0,0:0:0:0:
64,192,51865,1,0,0:0:0:0:
448,192,51865,1,0,0:0:0:0:
320,192,51936,1,0,0:0:0:0:
448,192,52008,1,0,0:0:0:0:
64,192,52079,1,0,0:0:0:0:
192,192,52151,5,0,0:0:0:0:
320,192,52151,1,0,0:0:0:0:
448,192,52222,1,0,0:0:0:0:
192,192,52294,1,0,0:0:0:0:
320,192,52365,1,0,0:0:0:0:
64,192,52436,1,0,0:0:0:0:
192,192,52436,1,0,0:0:0:0:
448,192,52508,1,0,0:0:0:0:
64,192,52579,1,0,0:0:0:0:
320,192,52651,1,0,0:0:0:0:
448,192,52722,128,0,53008:0:0:0:0:
192,192,52722,1,0,0:0:0:0:
320,192,52865,1,0,0:0:0:0:
64,192,53008,128,0,53294:0:0:0:0:
192,192,53008,1,0,0:0:0:0:
448,192,53151,1,0,0:0:0:0:
320,192,53222,1,0,0:0:0:0:
448,192,53294,5,0,0:0:0:0:
192,192,53294,1,0,0:0:0:0:
64,192,53365,1,0,0:0:0:0:
320,192,53436,1,0,0:0:0:0:
448,192,53436,1,0,0:0:0:0:
64,192,53508,1,0,0:0:0:0:
192,192,53579,1,0,0:0:0:0:
320,192,53579,1,0,0:0:0:0:
448,192,53651,1,0,0:0:0:0:
64,192,53722,1,0,0:0:0:0:
192,192,53722,1,0,0:0:0:0:
320,192,53794,1,0,0:0:0:0:
320,192,53865,128,0,54436:0:0:0:0:
64,192,53865,1,0,0:0:0:0:
448,192,53865,1,0,0:0:0:0:
448,192,54008,1,0,0:0:0:0:
64,192,54151,128,0,54294:0:0:0:0:
192,192,54151,1,0,0:0:0:0:
448,192,54294,1,0,0:0:0:0:
192,192,54436,128,0,54579:0:0:0:0:
448,192,54436,128,0,54722:0:0:0:0:
64,192,54436,1,0,0:0:0:0:
320,192,54722,128,0,54865:0:0:0:0:
64,192,54722,128,0,55008:0:0:0:0:
192,192,54722,1,0,0:0:0:0:
192,192,54936,1,0,0:0:0:0:
448,192,55008,128,0,55151:0:0:0:0:
320,192,55008,1,0,0:0:0:0:
192,192,55151,1,0,0:0:0:0:
320,192,55222,1,0,0:0:0:0:
192,192,55294,128,0,55436:0:0:0:0:
64,192,55294,1,0,0:0:0:0:
448,192,55294,1,0,0:0:0:0:
320,192,55436,1,0,0:0:0:0:
64,192,55508,1,0,0:0:0:0:
448,192,55579,128,0,55722:0:0:0:0:
192,192,55579,1,0,0:0:0:0:
320,192,55722,128,0,55865:0:0:0:0:
64,192,55722,1,0,0:0:0:0:
192,192,55865,128,0,56008:0:0:0:0:
448,192,55865,1,0,0:0:0:0:
64,192,56008,128,0,56151:0:0:0:0:
320,192,56008,1,0,0:0:0:0:
448,192,56151,128,0,56294:0:0:0:0:
192,192,56151,1,0,0:0:0:0:
64,192,56294,1,0,0:0:0:0:
320,192,56365,1,0,0:0:0:0:
448,192,56436,128,0,56579:0:0:0:0:
192,192,56436,1,0,0:0:0:0:
64,192,56436,1,0,0:0:0:0:
320,192,56579,1,0,0:0:0:0:
64,192,56651,1,0,0:0:0:0:
192,192,56722,128,0,56865:0:0:0:0:
448,192,56722,1,0,0:0:0:0:
320,192,56865,1,0,0:0:0:0:
64,192,56936,1,0,0:0:0:0:
192,192,57008,128,0,57151:0:0:0:0:
448,192,57008,1,0,0:0:0:0:
320,192,57151,1,0,0:0:0:0:
64,192,57222,1,0,0:0:0:0:
320,192,57294,128,0,57436:0:0:0:0:
448,192,57294,1,0,0:0:0:0:
64,192,57436,1,0,0:0:0:0:
192,192,57508,1,0,0:0:0:0:
320,192,57579,128,0,57722:0:0:0:0:
448,192,57579,1,0,0:0:0:0:
64,192,57722,1,0,0:0:0:0:
448,192,57794,1,0,0:0:0:0:
192,192,57865,128,0,58008:0:0:0:0:
320,192,57865,1,0,0:0:0:0:
448,192,58008,128,0,58151:0:0:0:0:
64,192,58008,1,0,0:0:0:0:
320,192,58151,128,0,58294:0:0:0:0:
192,192,58151,1,0,0:0:0:0:
64,192,58294,128,0,58436:0:0:0:0:
448,192,58294,1,0,0:0:0:0:
448,192,58436,128,0,58579:0:0:0:0:
192,192,58436,1,0,0:0:0:0:
192,192,58579,1,0,0:0:0:0:
320,192,58651,1,0,0:0:0:0:
448,192,58722,128,0,58865:0:0:0:0:
64,192,58722,1,0,0:0:0:0:
320,192,58865,1,0,0:0:0:0:
192,192,58936,1,0,0:0:0:0:
64,192,59008,128,0,59151:0:0:0:0:
448,192,59008,1,0,0:0:0:0:
320,192,59151,1,0,0:0:0:0:
192,192,59222,1,0,0:0:0:0:
64,192,59294,128,0,59436:0:0:0:0:
448,192,59294,1,0,0:0:0:0:
192,192,59365,1,0,0:0:0:0:
320,192,59436,1,0,0:0:0:0:
448,192,59508,1,0,0:0:0:0:
320,192,59579,128,0,59722:0:0:0:0:
192,192,59579,1,0,0:0:0:0:
64,192,59722,1,0,0:0:0:0:
448,192,59794,1,0,0:0:0:0:
192,192,59865,128,0,60008:0:0:0:0:
320,192,59865,1,0,0:0:0:0:
64,192,60008,128,0,60151:0:0:0:0:
448,192,60008,1,0,0:0:0:0:
448,192,60151,128,0,60294:0:0:0:0:
320,192,60151,1,0,0:0:0:0:
64,192,60294,1,0,0:0:0:0:
192,192,60365,1,0,0:0:0:0:
320,192,60436,128,0,60579:0:0:0:0:
448,192,60436,1,0,0:0:0:0:
64,192,60579,1,0,0:0:0:0:
192,192,60579,1,0,0:0:0:0:
192,192,60722,128,0,60865:0:0:0:0:
448,192,60722,1,0,0:0:0:0:
320,192,60722,1,0,0:0:0:0:
64,192,60865,1,0,0:0:0:0:
448,192,60936,1,0,0:0:0:0:
192,192,61008,128,0,61151:0:0:0:0:
320,192,61008,1,0,0:0:0:0:
64,192,61151,1,0,0:0:0:0:
320,192,61222,1,0,0:0:0:0:
448,192,61294,128,0,61436:0:0:0:0:
192,192,61294,1,0,0:0:0:0:
192,192,61436,1,0,0:0:0:0:
320,192,61508,1,0,0:0:0:0:
64,192,61579,128,0,61722:0:0:0:0:
448,192,61579,1,0,0:0:0:0:
192,192,61722,1,0,0:0:0:0:
448,192,61794,1,0,0:0:0:0:
320,192,61865,128,0,62008:0:0:0:0:
64,192,61865,1,0,0:0:0:0:
192,192,62008,1,0,0:0:0:0:
448,192,62079,1,0,0:0:0:0:
320,192,62151,128,0,62294:0:0:0:0:
192,192,62151,1,0,0:0:0:0:
64,192,62294,1,0,0:0:0:0:
448,192,62365,1,0,0:0:0:0:
192,192,62436,128,0,62579:0:0:0:0:
320,192,62436,1,0,0:0:0:0:
448,192,62579,128,0,62722:0:0:0:0:
64,192,62579,1,0,0:0:0:0:
320,192,62722,128,0,62865:0:0:0:0:
192,192,62722,1,0,0:0:0:0:
64,192,62865,128,0,63008:0:0:0:0:
448,192,62865,1,0,0:0:0:0:
448,192,63008,128,0,63151:0:0:0:0:
192,192,63008,1,0,0:0:0:0:
320,192,63151,1,0,0:0:0:0:
64,192,63222,1,0,0:0:0:0:
192,192,63294,128,0,63436:0:0:0:0:
448,192,63294,1,0,0:0:0:0:
320,192,63436,1,0,0:0:0:0:
448,192,63508,1,0,0:0:0:0:
64,192,63579,128,0,63722:0:0:0:0:
192,192,63579,1,0,0:0:0:0:
320,192,63722,1,0,0:0:0:0:
192,192,63794,1,0,0:0:0:0:
320,192,63865,128,0,64008:0:0:0:0:
448,192,63865,1,0,0:0:0:0:
64,192,64008,1,0,0:0:0:0:
192,192,64151,128,0,64294:0:0:0:0:
448,192,64151,1,0,0:0:0:0:
320,192,64294,1,0,0:0:0:0:
64,192,64365,1,0,0:0:0:0:
448,192,64436,128,0,64579:0:0:0:0:
192,192,64436,1,0,0:0:0:0:
320,192,64579,1,0,0:0:0:0:
192,192,64651,1,0,0:0:0:0:
64,192,64722,128,0,64865:0:0:0:0:
320,192,64722,1,0,0:0:0:0:
448,192,64794,1,0,0:0:0:0:
320,192,64865,128,0,65008:0:0:0:0:
192,192,64865,1,0,0:0:0:0:
448,192,65008,128,0,65151:0:0:0:0:
64,192,65008,1,0,0:0:0:0:
192,192,65151,128,0,65294:0:0:0:0:
64,192,65151,1,0,0:0:0:0:
320,192,65294,128,0,67008:0:0:0:0:
448,192,65294,1,0,0:0:0:0:
64,192,65579,1,0,0:0:0:0:
192,192,65865,1,0,0:0:0:0:
64,192,66151,1,0,0:0:0:0:
192,192,66436,1,0,0:0:0:0:
64,192,66722,1,0,0:0:0:0:
64,192,67008,128,0,67579:0:0:0:0:
448,192,67008,1,0,0:0:0:0:
448,192,67294,128,0,67579:0:0:0:0:
320,192,67579,1,0,0:0:0:0:
192,192,67579,128,0,67865:0:0:0:0:
448,192,67865,128,0,68151:0:0:0:0:
64,192,68151,128,0,68294:0:0:0:0:
320,192,68151,1,0,0:0:0:0:
192,192,68294,128,0,68436:0:0:0:0:
320,192,68436,128,0,68722:0:0:0:0:
64,192,68722,128,0,69294:0:0:0:0:
448,192,68722,1,0,0:0:0:0:
448,192,69008,1,0,0:0:0:0:
320,192,69151,1,0,0:0:0:0:
448,192,69294,128,0,69579:0:0:0:0:
192,192,69294,1,0,0:0:0:0:
192,192,69579,128,0,69865:0:0:0:0:
320,192,69579,1,0,0:0:0:0:
448,192,69722,1,0,0:0:0:0:
320,192,69865,128,0,70294:0:0:0:0:
64,192,69865,1,0,0:0:0:0:
192,192,70151,1,0,0:0:0:0:
64,192,70294,128,0,70722:0:0:0:0:
448,192,70294,1,0,0:0:0:0:
192,192,70436,1,0,0:0:0:0:
320,192,70579,1,0,0:0:0:0:
448,192,70722,128,0,71008:0:0:0:0:
192,192,70722,1,0,0:0:0:0:
64,192,70865,1,0,0:0:0:0:
320,192,71008,128,0,71722:0:0:0:0:
192,192,71008,1,0,0:0:0:0:
448,192,71151,1,0,0:0:0:0:
192,192,71294,1,0,0:0:0:0:
64,192,71436,1,0,0:0:0:0:
448,192,71579,1,0,0:0:0:0:
64,192,71722,128,0,71865:0:0:0:0:
192,192,71722,1,0,0:0:0:0:
448,192,71865,128,0,72151:0:0:0:0:
320,192,71865,1,0,0:0:0:0:
192,192,72151,128,0,73008:0:0:0:0:
64,192,72151,1,0,0:0:0:0:
320,192,72151,1,0,0:0:0:0:
448,192,72436,1,0,0:0:0:0:
320,192,72722,1,0,0:0:0:0:
448,192,73008,128,0,73294:0:0:0:0:
64,192,73008,1,0,0:0:0:0:
64,192,73294,128,0,73722:0:0:0:0:
192,192,73294,1,0,0:0:0:0:
448,192,73579,1,0,0:0:0:0:
320,192,73722,128,0,74151:0:0:0:0:
192,192,73865,1,0,0:0:0:0:
448,192,74151,128,0,74436:0:0:0:0:
64,192,74151,1,0,0:0:0:0:
192,192,74436,128,0,74865:0:0:0:0:
320,192,74436,1,0,0:0:0:0:
320,192,74722,1,0,0:0:0:0:
64,192,74865,128,0,75294:0:0:0:0:
448,192,74865,1,0,0:0:0:0:
320,192,75008,1,0,0:0:0:0:
192,192,75151,1,0,0:0:0:0:
448,192,75294,128,0,75579:0:0:0:0:
320,192,75294,1,0,0:0:0:0:
192,192,75579,128,0,75865:0:0:0:0:
64,192,75579,1,0,0:0:0:0:
320,192,75865,128,0,76151:0:0:0:0:
448,192,75865,1,0,0:0:0:0:
64,192,76151,128,0,76722:0:0:0:0:
448,192,76722,128,0,77294:0:0:0:0:
192,192,76722,1,0,0:0:0:0:
320,192,76722,1,0,0:0:0:0:
320,192,77294,128,0,77865:0:0:0:0:
64,192,77294,1,0,0:0:0:0:
448,192,77436,1,0,0:0:0:0:
192,192,77579,1,0,0:0:0:0:
192,192,77865,128,0,78436:0:0:0:0:
448,192,77865,1,0,0:0:0:0:
64,192,78151,1,0,0:0:0:0:
64,192,78436,128,0,79008:0:0:0:0:
320,192,78436,1,0,0:0:0:0:
448,192,78722,1,0,0:0:0:0:
320,192,79008,128,0,79579:0:0:0:0:
192,192,79008,1,0,0:0:0:0:
64,192,79436,1,0,0:0:0:0:
448,192,79579,128,0,80151:0:0:0:0:
192,192,79579,1,0,0:0:0:0:
320,192,79865,1,0,0:0:0:0:
64,192,80151,128,0,80722:0:0:0:0:
192,192,80151,1,0,0:0:0:0:
320,192,80722,128,0,81294:0:0:0:0:
192,192,80722,1,0,0:0:0:0:
64,192,80865,1,0,0:0:0:0:
448,192,81008,1,0,0:0:0:0:
192,192,81294,128,0,81579:0:0:0:0:
64,192,81294,1,0,0:0:0:0:
448,192,81294,1,0,0:0:0:0:
64,192,81579,1,0,0:0:0:0:
192,192,81722,1,0,0:0:0:0:
448,192,81865,128,0,82151:0:0:0:0:
320,192,81865,1,0,0:0:0:0:
64,192,82008,1,0,0:0:0:0:
192,192,82151,1,0,0:0:0:0:
64,192,82436,128,0,82722:0:0:0:0:
320,192,82436,1,0,0:0:0:0:
448,192,82436,1,0,0:0:0:0:
192,192,82579,1,0,0:0:0:0:
448,192,82722,1,0,0:0:0:0:
64,192,82865,1,0,0:0:0:0:
320,192,83008,128,0,83294:0:0:0:0:
192,192,83008,1,0,0:0:0:0:
448,192,83151,1,0,0:0:0:0:
64,192,83294,1,0,0:0:0:0:
192,192,83294,1,0,0:0:0:0:
192,192,83579,128,0,83865:0:0:0:0:
448,192,83579,1,0,0:0:0:0:
320,192,83579,1,0,0:0:0:0:
320,192,83865,1,0,0:0:0:0:
192,192,84008,1,0,0:0:0:0:
448,192,84151,128,0,84436:0:0:0:0:
64,192,84151,1,0,0:0:0:0:
320,192,84436,1,0,0:0:0:0:
192,192,84579,1,0,0:0:0:0:
64,192,84722,128,0,85008:0:0:0:0:
448,192,84722,1,0,0:0:0:0:
320,192,84722,1,0,0:0:0:0:
192,192,85008,1,0,0:0:0:0:
320,192,85008,1,0,0:0:0:0:
448,192,85151,1,0,0:0:0:0:
320,192,85294,128,0,85579:0:0:0:0:
64,192,85294,1,0,0:0:0:0:
192,192,85579,1,0,0:0:0:0:
448,192,85579,1,0,0:0:0:0:
320,192,85722,1,0,0:0:0:0:
192,192,85865,128,0,86151:0:0:0:0:
64,192,85865,1,0,0:0:0:0:
448,192,85865,1,0,0:0:0:0:
320,192,86151,1,0,0:0:0:0:
64,192,86294,1,0,0:0:0:0:
448,192,86436,128,0,86722:0:0:0:0:
192,192,86436,1,0,0:0:0:0:
320,192,86722,1,0,0:0:0:0:
192,192,86865,1,0,0:0:0:0:
64,192,87008,128,0,87294:0:0:0:0:
320,192,87008,1,0,0:0:0:0:
448,192,87008,1,0,0:0:0:0:
192,192,87294,1,0,0:0:0:0:
448,192,87436,1,0,0:0:0:0:
320,192,87579,128,0,88151:0:0:0:0:
448,192,87865,128,0,88151:0:0:0:0:
64,192,88151,128,0,88365:0:0:0:0:
192,192,88151,1,0,0:0:0:0:
320,192,88294,1,0,0:0:0:0:
64,192,88436,1,0,0:0:0:0:
448,192,88579,128,0,88794:0:0:0:0:
192,192,88579,1,0,0:0:0:0:
320,192,88722,1,0,0:0:0:0:
448,192,88865,1,0,0:0:0:0:
192,192,89008,128,0,89222:0:0:0:0:
64,192,89008,1,0,0:0:0:0:
320,192,89151,1,0,0:0:0:0:
192,192,89294,1,0,0:0:0:0:
320,192,89436,128,0,89651:0:0:0:0:
448,192,89436,1,0,0:0:0:0:
64,192,89579,1,0,0:0:0:0:
320,192,89722,1,0,0:0:0:0:
64,192,89865,128,0,90151:0:0:0:0:
448,192,89865,1,0,0:0:0:0:
192,192,89865,1,0,0:0:0:0:
320,192,90008,1,0,0:0:0:0:
448,192,90151,128,0,90436:0:0:0:0:
320,192,90151,1,0,0:0:0:0:
192,192,90151,1,0,0:0:0:0:
64,192,90294,1,0,0:0:0:0:
192,192,90436,128,0,90651:0:0:0:0:
320,192,90436,1,0,0:0:0:0:
64,192,90436,1,0,0:0:0:0:
448,192,90579,1,0,0:0:0:0:
192,192,90722,1,0,0:0:0:0:
320,192,90865,128,0,91079:0:0:0:0:
64,192,90865,1,0,0:0:0:0:
448,192,91008,1,0,0:0:0:0:
320,192,91151,1,0,0:0:0:0:
64,192,91294,128,0,91508:0:0:0:0:
192,192,91294,1,0,0:0:0:0:
448,192,91436,1,0,0:0:0:0:
64,192,91579,1,0,0:0:0:0:
448,192,91722,128,0,91936:0:0:0:0:
320,192,91722,1,0,0:0:0:0:
192,192,91865,1,0,0:0:0:0:
448,192,92008,1,0,0:0:0:0:
192,192,92151,128,0,92436:0:0:0:0:
320,192,92151,1,0,0:0:0:0:
64,192,92151,1,0,0:0:0:0:
64,192,92294,1,0,0:0:0:0:
448,192,92294,1,0,0:0:0:0:
64,192,92436,128,0,92722:0:0:0:0:
448,192,92436,1,0,0:0:0:0:
320,192,92436,1,0,0:0:0:0:
192,192,92579,1,0,0:0:0:0:
448,192,92722,128,0,93008:0:0:0:0:
320,192,92722,1,0,0:0:0:0:
192,192,92722,1,0,0:0:0:0:
320,192,93008,128,0,93294:0:0:0:0:
64,192,93008,1,0,0:0:0:0:
192,192,93294,128,0,93579:0:0:0:0:
448,192,93294,1,0,0:0:0:0:
64,192,93579,128,0,93865:0:0:0:0:
320,192,93579,1,0,0:0:0:0:
320,192,93865,128,0,94008:0:0:0:0:
192,192,93865,1,0,0:0:0:0:
448,192,94008,128,0,94151:0:0:0:0:
64,192,94008,1,0,0:0:0:0:
64,192,94151,128,0,94294:0:0:0:0:
320,192,94151,1,0,0:0:0:0:
192,192,94294,128,0,94436:0:0:0:0:
448,192,94294,1,0,0:0:0:0:
448,192,94436,128,0,94508:0:0:0:0:
64,192,94436,1,0,0:0:0:0:
320,192,94508,128,0,94579:0:0:0:0:
64,192,94579,128,0,94651:0:0:0:0:
448,192,94651,128,0,94722:0:0:0:0:
192,192,94722,128,0,94794:0:0:0:0:
64,192,94794,128,0,94865:0:0:0:0:
320,192,94865,128,0,94936:0:0:0:0:
192,192,94936,128,0,95008:0:0:0:0:
448,192,95008,1,0,0:0:0:0:
64,192,95008,1,0,0:0:0:0:
192,192,95294,128,0,95365:0:0:0:0:
448,192,95579,128,0,95722:0:0:0:0:
320,192,95722,128,0,95865:0:0:0:0:
192,192,95865,128,0,96008:0:0:0:0:
64,192,96008,1,0,0:0:0:0:
320,192,96151,1,0,0:0:0:0:
448,192,96151,1,0,0:0:0:0:
192,192,96294,1,0,0:0:0:0:
448,192,96365,1,0,0:0:0:0:
320,192,96436,1,0,0:0:0:0:
64,192,96436,1,0,0:0:0:0:
192,192,96579,1,0,0:0:0:0:
64,192,96579,1,0,0:0:0:0:
448,192,96722,1,0,0:0:0:0:
192,192,96722,1,0,0:0:0:0:
320,192,96865,1,0,0:0:0:0:
448,192,96865,1,0,0:0:0:0:
320,192,97008,1,0,0:0:0:0:
64,192,97008,1,0,0:0:0:0:
448,192,97151,1,0,0:0:0:0:
64,192,97294,128,0,97436:0:0:0:0:
192,192,97294,1,0,0:0:0:0:
320,192,97294,1,0,0:0:0:0:
448,192,97436,1,0,0:0:0:0:
320,192,97436,1,0,0:0:0:0:
192,192,97508,1,0,0:0:0:0:
320,192,97579,1,0,0:0:0:0:
64,192,97579,1,0,0:0:0:0:
448,192,97651,1,0,0:0:0:0:
320,192,97722,128,0,97865:0:0:0:0:
192,192,97722,1,0,0:0:0:0:
64,192,97865,1,0,0:0:0:0:
192,192,97865,1,0,0:0:0:0:
448,192,97936,1,0,0:0:0:0:
320,192,98008,1,0,0:0:0:0:
64,192,98079,1,0,0:0:0:0:
192,192,98151,128,0,98294:0:0:0:0:
448,192,98151,1,0,0:0:0:0:
320,192,98151,1,0,0:0:0:0:
448,192,98294,1,0,0:0:0:0:
64,192,98294,1,0,0:0:0:0:
320,192,98365,1,0,0:0:0:0:
448,192,98436,128,0,98579:0:0:0:0:
192,192,98436,1,0,0:0:0:0:
64,192,98436,1,0,0:0:0:0:
320,192,98579,1,0,0:0:0:0:
192,192,98579,1,0,0:0:0:0:
64,192,98651,1,0,0:0:0:0:
448,192,98722,1,0,0:0:0:0:
320,192,98722,1,0,0:0:0:0:
192,192,98794,1,0,0:0:0:0:
320,192,98865,128,0,99008:0:0:0:0:
64,192,98865,1,0,0:0:0:0:
448,192,99008,1,0,0:0:0:0:
64,192,99008,1,0,0:0:0:0:
320,192,99079,1,0,0:0:0:0:
192,192,99151,1,0,0:0:0:0:
448,192,99222,1,0,0:0:0:0:
64,192,99294,128,0,99436:0:0:0:0:
320,192,99294,1,0,0:0:0:0:
448,192,99436,1,0,0:0:0:0:
320,192,99436,1,0,0:0:0:0:
192,192,99508,1,0,0:0:0:0:
448,192,99579,128,0,99722:0:0:0:0:
64,192,99579,1,0,0:0:0:0:
320,192,99579,1,0,0:0:0:0:
192,192,99722,1,0,0:0:0:0:
64,192,99794,1,0,0:0:0:0:
448,192,99865,1,0,0:0:0:0:
192,192,99865,1,0,0:0:0:0:
320,192,99936,1,0,0:0:0:0:
192,192,100008,128,0,100151:0:0:0:0:
64,192,100008,1,0,0:0:0:0:
320,192,100151,1,0,0:0:0:0:
448,192,100151,1,0,0:0:0:0:
64,192,100222,1,0,0:0:0:0:
320,192,100294,1,0,0:0:0:0:
448,192,100365,1,0,0:0:0:0:
64,192,100436,128,0,100579:0:0:0:0:
192,192,100436,1,0,0:0:0:0:
320,192,100436,1,0,0:0:0:0:
448,192,100579,1,0,0:0:0:0:
320,192,100579,1,0,0:0:0:0:
64,192,100651,1,0,0:0:0:0:
192,192,100651,1,0,0:0:0:0:
320,192,100722,128,0,100865:0:0:0:0:
448,192,100722,1,0,0:0:0:0:
192,192,100865,1,0,0:0:0:0:
64,192,100936,1,0,0:0:0:0:
192,192,101008,1,0,0:0:0:0:
448,192,101008,1,0,0:0:0:0:
320,192,101079,1,0,0:0:0:0:
448,192,101151,128,0,101294:0:0:0:0:
192,192,101151,1,0,0:0:0:0:
64,192,101151,1,0,0:0:0:0:
64,192,101294,1,0,0:0:0:0:
192,192,101365,1,0,0:0:0:0:
320,192,101436,1,0,0:0:0:0:
448,192,101436,1,0,0:0:0:0:
64,192,101508,1,0,0:0:0:0:
192,192,101579,128,0,101722:0:0:0:0:
320,192,101579,1,0,0:0:0:0:
448,192,101579,1,0,0:0:0:0:
448,192,101722,1,0,0:0:0:0:
64,192,101722,1,0,0:0:0:0:
320,192,101794,1,0,0:0:0:0:
64,192,101865,128,0,102008:0:0:0:0:
192,192,101865,1,0,0:0:0:0:
448,192,101865,1,0,0:0:0:0:
320,192,102008,1,0,0:0:0:0:
448,192,102079,1,0,0:0:0:0:
192,192,102151,1,0,0:0:0:0:
64,192,102151,1,0,0:0:0:0:
448,192,102222,1,0,0:0:0:0:
320,192,102294,128,0,102436:0:0:0:0:
192,192,102294,1,0,0:0:0:0:
64,192,102436,1,0,0:0:0:0:
448,192,102436,1,0,0:0:0:0:
320,192,102508,1,0,0:0:0:0:
192,192,102579,1,0,0:0:0:0:
320,192,102651,1,0,0:0:0:0:
448,192,102722,128,0,102865:0:0:0:0:
64,192,102722,1,0,0:0:0:0:
192,192,102722,1,0,0:0:0:0:
64,192,102865,1,0,0:0:0:0:
320,192,102865,1,0,0:0:0:0:
192,192,102936,1,0,0:0:0:0:
64,192,103008,128,0,103151:0:0:0:0:
448,192,103008,1,0,0:0:0:0:
320,192,103008,1,0,0:0:0:0:
320,192,103151,1,0,0:0:0:0:
192,192,103151,1,0,0:0:0:0:
448,192,103222,1,0,0:0:0:0:
320,192,103294,1,0,0:0:0:0:
64,192,103294,1,0,0:0:0:0:
192,192,103365,1,0,0:0:0:0:
320,192,103436,128,0,103579:0:0:0:0:
448,192,103436,1,0,0:0:0:0:
64,192,103436,1,0,0:0:0:0:
192,192,103579,1,0,0:0:0:0:
448,192,103579,1,0,0:0:0:0:
64,192,103651,1,0,0:0:0:0:
320,192,103722,1,0,0:0:0:0:
448,192,103722,1,0,0:0:0:0:
64,192,103794,1,0,0:0:0:0:
192,192,103865,128,0,104008:0:0:0:0:
448,192,103865,1,0,0:0:0:0:
64,192,104008,1,0,0:0:0:0:
448,192,104008,1,0,0:0:0:0:
320,192,104079,1,0,0:0:0:0:
448,192,104151,128,0,104294:0:0:0:0:
192,192,104151,1,0,0:0:0:0:
64,192,104151,1,0,0:0:0:0:
320,192,104294,1,0,0:0:0:0:
192,192,104294,1,0,0:0:0:0:
64,192,104365,1,0,0:0:0:0:
448,192,104436,1,0,0:0:0:0:
192,192,104436,1,0,0:0:0:0:
320,192,104508,1,0,0:0:0:0:
64,192,104579,128,0,104722:0:0:0:0:
448,192,104579,1,0,0:0:0:0:
320,192,104722,1,0,0:0:0:0:
448,192,104722,1,0,0:0:0:0:
192,192,104794,1,0,0:0:0:0:
64,192,104865,1,0,0:0:0:0:
320,192,104865,1,0,0:0:0:0:
448,192,104936,1,0,0:0:0:0:
320,192,105008,128,0,105151:0:0:0:0:
192,192,105008,1,0,0:0:0:0:
64,192,105151,1,0,0:0:0:0:
448,192,105151,1,0,0:0:0:0:
448,192,105294,128,0,105436:0:0:0:0:
64,192,105294,1,0,0:0:0:0:
192,192,105294,1,0,0:0:0:0:
64,192,105436,1,0,0:0:0:0:
320,192,105436,1,0,0:0:0:0:
192,192,105508,1,0,0:0:0:0:
320,192,105579,1,0,0:0:0:0:
64,192,105579,1,0,0:0:0:0:
448,192,105651,1,0,0:0:0:0:
64,192,105722,128,0,105865:0:0:0:0:
192,192,105722,1,0,0:0:0:0:
320,192,105722,1,0,0:0:0:0:
320,192,105865,1,0,0:0:0:0:
448,192,105865,1,0,0:0:0:0:
192,192,105936,1,0,0:0:0:0:
64,192,105936,1,0,0:0:0:0:
320,192,106008,1,0,0:0:0:0:
448,192,106008,1,0,0:0:0:0:
192,192,106079,1,0,0:0:0:0:
64,192,106079,1,0,0:0:0:0:
320,192,106151,128,0,106294:0:0:0:0:
448,192,106151,1,0,0:0:0:0:
64,192,106222,1,0,0:0:0:0:
192,192,106294,1,0,0:0:0:0:
448,192,106365,1,0,0:0:0:0:
320,192,106365,1,0,0:0:0:0:
64,192,106436,128,0,106579:0:0:0:0:
192,192,106436,1,0,0:0:0:0:
192,192,106579,1,0,0:0:0:0:
448,192,106579,1,0,0:0:0:0:
320,192,106579,1,0,0:0:0:0:
64,192,106651,1,0,0:0:0:0:
192,192,106722,1,0,0:0:0:0:
448,192,106722,1,0,0:0:0:0:
320,192,106794,1,0,0:0:0:0:
448,192,106865,128,0,107008:0:0:0:0:
64,192,106865,1,0,0:0:0:0:
192,192,107008,1,0,0:0:0:0:
64,192,107008,1,0,0:0:0:0:
320,192,107079,1,0,0:0:0:0:
64,192,107151,1,0,0:0:0:0:
448,192,107222,1,0,0:0:0:0:
192,192,107294,128,0,107436:0:0:0:0:
320,192,107294,1,0,0:0:0:0:
64,192,107294,1,0,0:0:0:0:
64,192,107436,1,0,0:0:0:0:
448,192,107436,1,0,0:0:0:0:
320,192,107508,1,0,0:0:0:0:
64,192,107579,128,0,107722:0:0:0:0:
448,192,107579,1,0,0:0:0:0:
192,192,107579,1,0,0:0:0:0:
448,192,107722,1,0,0:0:0:0:
320,192,107722,1,0,0:0:0:0:
64,192,107794,1,0,0:0:0:0:
320,192,107865,1,0,0:0:0:0:
448,192,107865,1,0,0:0:0:0:
192,192,107936,1,0,0:0:0:0:
320,192,108008,128,0,108151:0:0:0:0:
448,192,108008,1,0,0:0:0:0:
64,192,108151,1,0,0:0:0:0:
448,192,108151,1,0,0:0:0:0:
192,192,108222,1,0,0:0:0:0:
320,192,108294,1,0,0:0:0:0:
448,192,108294,1,0,0:0:0:0:
64,192,108365,1,0,0:0:0:0:
448,192,108436,128,0,108579:0:0:0:0:
320,192,108436,1,0,0:0:0:0:
192,192,108436,1,0,0:0:0:0:
64,192,108579,1,0,0:0:0:0:
320,192,108579,1,0,0:0:0:0:
192,192,108651,1,0,0:0:0:0:
64,192,108722,128,0,108865:0:0:0:0:
320,192,108722,1,0,0:0:0:0:
448,192,108722,1,0,0:0:0:0:
448,192,108865,1,0,0:0:0:0:
320,192,108936,1,0,0:0:0:0:
192,192,109008,1,0,0:0:0:0:
64,192,109008,1,0,0:0:0:0:
448,192,109079,1,0,0:0:0:0:
320,192,109151,128,0,109294:0:0:0:0:
64,192,109151,1,0,0:0:0:0:
448,192,109294,1,0,0:0:0:0:
192,192,109294,1,0,0:0:0:0:
64,192,109365,1,0,0:0:0:0:
448,192,109436,1,0,0:0:0:0:
320,192,109436,1,0,0:0:0:0:
192,192,109508,1,0,0:0:0:0:
64,192,109579,128,0,109722:0:0:0:0:
448,192,109579,1,0,0:0:0:0:
320,192,109651,1,0,0:0:0:0:
192,192,109651,1,0,0:0:0:0:
448,192,109722,1,0,0:0:0:0:
192,192,109794,1,0,0:0:0:0:
320,192,109794,1,0,0:0:0:0:
448,192,109865,128,0,110008:0:0:0:0:
64,192,109865,1,0,0:0:0:0:
320,192,110008,1,0,0:0:0:0:
64,192,110079,1,0,0:0:0:0:
448,192,110151,1,0,0:0:0:0:
320,192,110151,1,0,0:0:0:0:
192,192,110222,1,0,0:0:0:0:
64,192,110222,1,0,0:0:0:0:
320,192,110294,128,0,110436:0:0:0:0:
448,192,110294,1,0,0:0:0:0:
192,192,110436,1,0,0:0:0:0:
64,192,110436,1,0,0:0:0:0:
320,192,110508,1,0,0:0:0:0:
448,192,110579,1,0,0:0:0:0:
192,192,110579,1,0,0:0:0:0:
64,192,110651,1,0,0:0:0:0:
192,192,110722,128,0,110865:0:0:0:0:
320,192,110722,1,0,0:0:0:0:
448,192,110722,1,0,0:0:0:0:
64,192,110865,1,0,0:0:0:0:
448,192,110865,1,0,0:0:0:0:
320,192,110936,1,0,0:0:0:0:
448,192,111008,128,0,111151:0:0:0:0:
64,192,111008,1,0,0:0:0:0:
192,192,111008,1,0,0:0:0:0:
320,192,111151,1,0,0:0:0:0:
64,192,111222,1,0,0:0:0:0:
320,192,111294,1,0,0:0:0:0:
448,192,111294,1,0,0:0:0:0:
192,192,111365,1,0,0:0:0:0:
64,192,111436,128,0,111579:0:0:0:0:
320,192,111436,1,0,0:0:0:0:
192,192,111579,1,0,0:0:0:0:
448,192,111579,1,0,0:0:0:0:
320,192,111651,1,0,0:0:0:0:
192,192,111722,1,0,0:0:0:0:
448,192,111794,1,0,0:0:0:0:
320,192,111865,128,0,112008:0:0:0:0:
192,192,111865,1,0,0:0:0:0:
64,192,111865,1,0,0:0:0:0:
448,192,112008,1,0,0:0:0:0:
192,192,112008,1,0,0:0:0:0:
64,192,112079,1,0,0:0:0:0:
192,192,112151,128,0,112294:0:0:0:0:
320,192,112151,1,0,0:0:0:0:
448,192,112151,1,0,0:0:0:0:
448,192,112294,1,0,0:0:0:0:
64,192,112294,1,0,0:0:0:0:
320,192,112365,1,0,0:0:0:0:
192,192,112436,1,0,0:0:0:0:
64,192,112436,1,0,0:0:0:0:
320,192,112508,1,0,0:0:0:0:
448,192,112579,128,0,112722:0:0:0:0:
64,192,112579,1,0,0:0:0:0:
320,192,112722,1,0,0:0:0:0:
192,192,112722,1,0,0:0:0:0:
64,192,112794,1,0,0:0:0:0:
192,192,112865,1,0,0:0:0:0:
320,192,112936,1,0,0:0:0:0:
64,192,113008,128,0,113151:0:0:0:0:
192,192,113008,1,0,0:0:0:0:
448,192,113008,1,0,0:0:0:0:
192,192,113151,1,0,0:0:0:0:
320,192,113151,1,0,0:0:0:0:
448,192,113222,1,0,0:0:0:0:
320,192,113294,128,0,113436:0:0:0:0:
64,192,113294,1,0,0:0:0:0:
192,192,113294,1,0,0:0:0:0:
448,192,113436,1,0,0:0:0:0:
64,192,113508,1,0,0:0:0:0:
192,192,113579,1,0,0:0:0:0:
320,192,113579,1,0,0:0:0:0:
448,192,113651,1,0,0:0:0:0:
320,192,113722,128,0,113865:0:0:0:0:
64,192,113722,1,0,0:0:0:0:
192,192,113865,1,0,0:0:0:0:
448,192,113865,1,0,0:0:0:0:
64,192,113936,1,0,0:0:0:0:
448,192,114008,1,0,0:0:0:0:
320,192,114008,1,0,0:0:0:0:
64,192,114079,1,0,0:0:0:0:
192,192,114151,128,0,114294:0:0:0:0:
320,192,114151,1,0,0:0:0:0:
448,192,114151,1,0,0:0:0:0:
448,192,114294,128,0,114436:0:0:0:0:
64,192,114294,1,0,0:0:0:0:
320,192,114294,1,0,0:0:0:0:
64,192,114436,128,0,114579:0:0:0:0:
192,192,114436,1,0,0:0:0:0:
320,192,114436,1,0,0:0:0:0:
192,192,114579,1,0,0:0:0:0:
64,192,114651,128,0,114794:0:0:0:0:
320,192,114651,1,0,0:0:0:0:
448,192,114651,1,0,0:0:0:0:
448,192,114794,1,0,0:0:0:0:
64,192,114865,128,0,115008:0:0:0:0:
192,192,114865,1,0,0:0:0:0:
320,192,114865,1,0,0:0:0:0:
448,192,115079,1,0,0:0:0:0:
320,192,115151,128,0,115294:0:0:0:0:
64,192,115151,1,0,0:0:0:0:
192,192,115151,1,0,0:0:0:0:
192,192,115294,128,0,115436:0:0:0:0:
448,192,115294,1,0,0:0:0:0:
64,192,115294,1,0,0:0:0:0:
448,192,115436,1,0,0:0:0:0:
320,192,115472,1,0,0:0:0:0:
64,192,115508,1,0,0:0:0:0:
192,192,115544,1,0,0:0:0:0:
320,192,115579,1,0,0:0:0:0:
448,192,115579,128,0,115722:0:0:0:0:
64,192,115722,1,0,0:0:0:0:
192,192,115722,1,0,0:0:0:0:
320,192,115794,1,0,0:0:0:0:
192,192,115865,1,0,0:0:0:0:
448,192,115865,1,0,0:0:0:0:
64,192,115936,1,0,0:0:0:0:
192,192,116008,128,0,116151:0:0:0:0:
320,192,116008,1,0,0:0:0:0:
448,192,116151,1,0,0:0:0:0:
64,192,116151,1,0,0:0:0:0:
320,192,116294,1,0,0:0:0:0:
192,192,116294,1,0,0:0:0:0:
64,192,116365,1,0,0:0:0:0:
320,192,116436,128,0,116579:0:0:0:0:
448,192,116436,1,0,0:0:0:0:
64,192,116579,1,0,0:0:0:0:
192,192,116579,1,0,0:0:0:0:
448,192,116651,1,0,0:0:0:0:
64,192,116722,128,0,116865:0:0:0:0:
192,192,116722,1,0,0:0:0:0:
320,192,116722,1,0,0:0:0:0:
320,192,116865,1,0,0:0:0:0:
448,192,116865,1,0,0:0:0:0:
192,192,117008,1,0,0:0:0:0:
448,192,117008,1,0,0:0:0:0:
320,192,117079,1,0,0:0:0:0:
448,192,117151,128,0,117294:0:0:0:0:
64,192,117151,1,0,0:0:0:0:
192,192,117294,1,0,0:0:0:0:
320,192,117294,1,0,0:0:0:0:
64,192,117365,1,0,0:0:0:0:
448,192,117436,1,0,0:0:0:0:
320,192,117436,1,0,0:0:0:0:
64,192,117508,1,0,0:0:0:0:
192,192,117579,128,0,117722:0:0:0:0:
320,192,117579,1,0,0:0:0:0:
448,192,117579,1,0,0:0:0:0:
448,192,117722,1,0,0:0:0:0:
64,192,117722,1,0,0:0:0:0:
320,192,117794,1,0,0:0:0:0:
64,192,117865,128,0,118008:0:0:0:0:
192,192,117865,1,0,0:0:0:0:
448,192,117865,1,0,0:0:0:0:
192,192,118008,1,0,0:0:0:0:
320,192,118079,1,0,0:0:0:0:
448,192,118151,1,0,0:0:0:0:
64,192,118151,1,0,0:0:0:0:
192,192,118222,1,0,0:0:0:0:
448,192,118294,128,0,118436:0:0:0:0:
320,192,118294,1,0,0:0:0:0:
64,192,118436,1,0,0:0:0:0:
192,192,118436,1,0,0:0:0:0:
320,192,118508,1,0,0:0:0:0:
448,192,118579,1,0,0:0:0:0:
192,192,118579,1,0,0:0:0:0:
64,192,118651,1,0,0:0:0:0:
192,192,118722,128,0,118865:0:0:0:0:
320,192,118722,1,0,0:0:0:0:
448,192,118722,1,0,0:0:0:0:
64,192,118865,1,0,0:0:0:0:
320,192,118865,1,0,0:0:0:0:
448,192,118936,1,0,0:0:0:0:
64,192,119008,128,0,119151:0:0:0:0:
192,192,119008,1,0,0:0:0:0:
320,192,119008,1,0,0:0:0:0:
448,192,119151,1,0,0:0:0:0:
320,192,119151,1,0,0:0:0:0:
192,192,119222,1,0,0:0:0:0:
64,192,119294,1,0,0:0:0:0:
448,192,119294,1,0,0:0:0:0:
320,192,119365,1,0,0:0:0:0:
448,192,119436,128,0,119579:0:0:0:0:
192,192,119436,1,0,0:0:0:0:
64,192,119579,1,0,0:0:0:0:
192,192,119579,1,0,0:0:0:0:
320,192,119651,1,0,0:0:0:0:
448,192,119651,1,0,0:0:0:0:
192,192,119722,1,0,0:0:0:0:
64,192,119758,1,0,0:0:0:0:
448,192,119794,1,0,0:0:0:0:
320,192,119829,1,0,0:0:0:0:
192,192,119865,128,0,120008:0:0:0:0:
64,192,119865,1,0,0:0:0:0:
448,192,119936,1,0,0:0:0:0:
320,192,120008,1,0,0:0:0:0:
448,192,120044,1,0,0:0:0:0:
64,192,120079,1,0,0:0:0:0:
192,192,120115,1,0,0:0:0:0:
320,192,120151,128,0,120294:0:0:0:0:
448,192,120151,1,0,0:0:0:0:
64,192,120294,1,0,0:0:0:0:
192,192,120294,1,0,0:0:0:0:
448,192,120294,1,0,0:0:0:0:
320,192,120365,1,0,0:0:0:0:
64,192,120436,1,0,0:0:0:0:
192,192,120436,1,0,0:0:0:0:
448,192,120508,1,0,0:0:0:0:
64,192,120579,128,0,120722:0:0:0:0:
320,192,120579,1,0,0:0:0:0:
192,192,120722,1,0,0:0:0:0:
448,192,120722,1,0,0:0:0:0:
320,192,120794,1,0,0:0:0:0:
64,192,120865,1,0,0:0:0:0:
192,192,120936,1,0,0:0:0:0:
448,192,121008,128,0,121151:0:0:0:0:
320,192,121008,1,0,0:0:0:0:
64,192,121008,1,0,0:0:0:0:
192,192,121151,1,0,0:0:0:0:
320,192,121151,1,0,0:0:0:0:
64,192,121222,1,0,0:0:0:0:
192,192,121294,128,0,121436:0:0:0:0:
320,192,121294,1,0,0:0:0:0:
448,192,121294,1,0,0:0:0:0:
64,192,121436,1,0,0:0:0:0:
320,192,121508,1,0,0:0:0:0:
448,192,121579,1,0,0:0:0:0:
64,192,121579,1,0,0:0:0:0:
192,192,121651,1,0,0:0:0:0:
64,192,121722,128,0,121865:0:0:0:0:
320,192,121722,1,0,0:0:0:0:
448,192,121722,1,0,0:0:0:0:
192,192,121865,1,0,0:0:0:0:
320,192,121865,1,0,0:0:0:0:
448,192,122008,1,0,0:0:0:0:
320,192,122008,1,0,0:0:0:0:
192,192,122079,1,0,0:0:0:0:
448,192,122151,128,0,122294:0:0:0:0:
64,192,122151,1,0,0:0:0:0:
320,192,122151,1,0,0:0:0:0:
192,192,122294,1,0,0:0:0:0:
320,192,122294,1,0,0:0:0:0:
64,192,122365,1,0,0:0:0:0:
192,192,122436,128,0,122579:0:0:0:0:
448,192,122436,1,0,0:0:0:0:
320,192,122436,1,0,0:0:0:0:
64,192,122579,1,0,0:0:0:0:
448,192,122579,1,0,0:0:0:0:
320,192,122651,1,0,0:0:0:0:
192,192,122722,1,0,0:0:0:0:
448,192,122722,1,0,0:0:0:0:
64,192,122794,1,0,0:0:0:0:
320,192,122865,128,0,123008:0:0:0:0:
192,192,122865,1,0,0:0:0:0:
448,192,122865,1,0,0:0:0:0:
64,192,123008,1,0,0:0:0:0:
192,192,123008,1,0,0:0:0:0:
448,192,123079,1,0,0:0:0:0:
320,192,123151,1,0,0:0:0:0:
64,192,123151,1,0,0:0:0:0:
448,192,123222,1,0,0:0:0:0:
64,192,123294,128,0,123436:0:0:0:0:
192,192,123294,1,0,0:0:0:0:
448,192,123365,1,0,0:0:0:0:
320,192,123365,1,0,0:0:0:0:
192,192,123436,1,0,0:0:0:0:
448,192,123508,1,0,0:0:0:0:
320,192,123508,1,0,0:0:0:0:
192,192,123579,128,0,123722:0:0:0:0:
64,192,123579,1,0,0:0:0:0:
448,192,123722,1,0,0:0:0:0:
320,192,123794,1,0,0:0:0:0:
64,192,123865,1,0,0:0:0:0:
192,192,123865,1,0,0:0:0:0:
320,192,123936,1,0,0:0:0:0:
448,192,124008,128,0,124151:0:0:0:0:
64,192,124008,1,0,0:0:0:0:
192,192,124151,1,0,0:0:0:0:
320,192,124151,1,0,0:0:0:0:
64,192,124222,1,0,0:0:0:0:
320,192,124294,1,0,0:0:0:0:
448,192,124294,1,0,0:0:0:0:
192,192,124365,1,0,0:0:0:0:
64,192,124436,128,0,124579:0:0:0:0:
448,192,124436,1,0,0:0:0:0:
192,192,124579,1,0,0:0:0:0:
320,192,124615,1,0,0:0:0:0:
64,192,124651,1,0,0:0:0:0:
192,192,124686,1,0,0:0:0:0:
320,192,124722,128,0,124865:0:0:0:0:
448,192,124722,1,0,0:0:0:0:
192,192,124865,1,0,0:0:0:0:
448,192,124936,1,0,0:0:0:0:
320,192,125008,1,0,0:0:0:0:
192,192,125008,1,0,0:0:0:0:
64,192,125079,1,0,0:0:0:0:
192,192,125151,128,0,125294:0:0:0:0:
448,192,125151,1,0,0:0:0:0:
448,192,125294,1,0,0:0:0:0:
64,192,125294,1,0,0:0:0:0:
320,192,125365,1,0,0:0:0:0:
64,192,125436,1,0,0:0:0:0:
448,192,125436,1,0,0:0:0:0:
192,192,125508,1,0,0:0:0:0:
448,192,125579,128,0,125722:0:0:0:0:
64,192,125579,1,0,0:0:0:0:
320,192,125579,1,0,0:0:0:0:
192,192,125722,1,0,0:0:0:0:
64,192,125722,1,0,0:0:0:0:
448,192,125794,1,0,0:0:0:0:
64,192,125865,128,0,126008:0:0:0:0:
192,192,125865,1,0,0:0:0:0:
320,192,125865,1,0,0:0:0:0:
448,192,126008,1,0,0:0:0:0:
320,192,126008,1,0,0:0:0:0:
192,192,126079,1,0,0:0:0:0:
448,192,126151,1,0,0:0:0:0:
64,192,126151,1,0,0:0:0:0:
320,192,126222,1,0,0:0:0:0:
192,192,126294,128,0,126436:0:0:0:0:
64,192,126294,1,0,0:0:0:0:
448,192,126365,1,0,0:0:0:0:
320,192,126436,1,0,0:0:0:0:
64,192,126436,1,0,0:0:0:0:
448,192,126508,1,0,0:0:0:0:
192,192,126579,1,0,0:0:0:0:
320,192,126579,1,0,0:0:0:0:
64,192,126651,1,0,0:0:0:0:
448,192,126651,1,0,0:0:0:0:
320,192,126722,128,0,126865:0:0:0:0:
192,192,126722,1,0,0:0:0:0:
448,192,126794,1,0,0:0:0:0:
192,192,126865,1,0,0:0:0:0:
64,192,126865,1,0,0:0:0:0:
448,192,126936,1,0,0:0:0:0:
64,192,127008,128,0,127151:0:0:0:0:
320,192,127008,1,0,0:0:0:0:
192,192,127008,1,0,0:0:0:0:
448,192,127151,1,0,0:0:0:0:
320,192,127222,1,0,0:0:0:0:
64,192,127294,1,0,0:0:0:0:
192,192,127294,1,0,0:0:0:0:
320,192,127365,1,0,0:0:0:0:
192,192,127436,128,0,127579:0:0:0:0:
448,192,127436,1,0,0:0:0:0:
320,192,127579,1,0,0:0:0:0:
64,192,127579,1,0,0:0:0:0:
448,192,127651,1,0,0:0:0:0:
320,192,127722,1,0,0:0:0:0:
192,192,127722,1,0,0:0:0:0:
448,192,127794,1,0,0:0:0:0:
64,192,127865,128,0,128008:0:0:0:0:
192,192,127865,1,0,0:0:0:0:
448,192,128008,1,0,0:0:0:0:
320,192,128044,1,0,0:0:0:0:
64,192,128079,1,0,0:0:0:0:
192,192,128115,1,0,0:0:0:0:
320,192,128151,128,0,128294:0:0:0:0:
448,192,128151,1,0,0:0:0:0:
64,192,128294,1,0,0:0:0:0:
192,192,128294,1,0,0:0:0:0:
448,192,128365,1,0,0:0:0:0:
320,192,128436,1,0,0:0:0:0:
192,192,128436,1,0,0:0:0:0:
64,192,128508,1,0,0:0:0:0:
192,192,128579,128,0,128722:0:0:0:0:
448,192,128579,1,0,0:0:0:0:
448,192,128722,1,0,0:0:0:0:
64,192,128722,1,0,0:0:0:0:
320,192,128794,1,0,0:0:0:0:
448,192,128865,1,0,0:0:0:0:
64,192,128865,1,0,0:0:0:0:
192,192,128936,1,0,0:0:0:0:
64,192,129008,1,0,0:0:0:0:
320,192,129008,1,0,0:0:0:0:
448,192,129008,128,0,129151:0:0:0:0:
192,192,129151,1,0,0:0:0:0:
64,192,129186,1,0,0:0:0:0:
320,192,129222,1,0,0:0:0:0:
192,192,129258,1,0,0:0:0:0:
448,192,129294,1,0,0:0:0:0:
64,192,129294,128,0,129436:0:0:0:0:
320,192,129436,1,0,0:0:0:0:
448,192,129436,1,0,0:0:0:0:
192,192,129508,1,0,0:0:0:0:
320,192,129579,1,0,0:0:0:0:
64,192,129579,1,0,0:0:0:0:
448,192,129651,1,0,0:0:0:0:
320,192,129722,1,0,0:0:0:0:
192,192,129722,128,0,129865:0:0:0:0:
448,192,129865,1,0,0:0:0:0:
64,192,129865,1,0,0:0:0:0:
320,192,129936,1,0,0:0:0:0:
64,192,130008,1,0,0:0:0:0:
448,192,130008,1,0,0:0:0:0:
192,192,130079,1,0,0:0:0:0:
448,192,130151,128,0,130294:0:0:0:0:
320,192,130151,1,0,0:0:0:0:
64,192,130151,1,0,0:0:0:0:
64,192,130294,1,0,0:0:0:0:
192,192,130294,1,0,0:0:0:0:
320,192,130365,1,0,0:0:0:0:
64,192,130436,128,0,130579:0:0:0:0:
192,192,130436,1,0,0:0:0:0:
448,192,130436,1,0,0:0:0:0:
448,192,130579,1,0,0:0:0:0:
320,192,130579,1,0,0:0:0:0:
192,192,130651,1,0,0:0:0:0:
64,192,130722,1,0,0:0:0:0:
320,192,130722,1,0,0:0:0:0:
448,192,130794,1,0,0:0:0:0:
192,192,130865,128,0,131008:0:0:0:0:
320,192,130865,1,0,0:0:0:0:
64,192,131008,1,0,0:0:0:0:
448,192,131008,1,0,0:0:0:0:
320,192,131079,1,0,0:0:0:0:
192,192,131151,1,0,0:0:0:0:
64,192,131151,1,0,0:0:0:0:
320,192,131222,1,0,0:0:0:0:
448,192,131294,128,0,131436:0:0:0:0:
192,192,131294,1,0,0:0:0:0:
64,192,131294,1,0,0:0:0:0:
320,192,131436,1,0,0:0:0:0:
192,192,131436,1,0,0:0:0:0:
64,192,131508,1,0,0:0:0:0:
448,192,131579,128,0,131722:0:0:0:0:
320,192,131579,1,0,0:0:0:0:
192,192,131579,1,0,0:0:0:0:
320,192,131722,1,0,0:0:0:0:
192,192,131758,1,0,0:0:0:0:
448,192,131794,1,0,0:0:0:0:
320,192,131829,1,0,0:0:0:0:
64,192,131865,1,0,0:0:0:0:
192,192,131865,1,0,0:0:0:0:
64,192,132008,128,0,132151:0:0:0:0:
448,192,132008,1,0,0:0:0:0:
192,192,132008,1,0,0:0:0:0:
320,192,132151,1,0,0:0:0:0:
448,192,132186,1,0,0:0:0:0:
192,192,132222,1,0,0:0:0:0:
320,192,132258,1,0,0:0:0:0:
64,192,132294,1,0,0:0:0:0:
448,192,132294,1,0,0:0:0:0:
192,192,132436,1,0,0:0:0:0:
64,192,132472,1,0,0:0:0:0:
320,192,132508,1,0,0:0:0:0:
192,192,132544,1,0,0:0:0:0:
448,192,132579,1,0,0:0:0:0:
320,192,132615,1,0,0:0:0:0:
64,192,132651,1,0,0:0:0:0:
192,192,132686,1,0,0:0:0:0:
448,192,132722,128,0,132865:0:0:0:0:
320,192,132722,1,0,0:0:0:0:
64,192,132865,1,0,0:0:0:0:
192,192,132865,1,0,0:0:0:0:
320,192,133008,1,0,0:0:0:0:
64,192,133151,128,0,133579:0:0:0:0:
320,192,133151,1,0,0:0:0:0:
192,192,133151,1,0,0:0:0:0:
448,192,133151,1,0,0:0:0:0:
192,192,133294,1,0,0:0:0:0:
448,192,133436,1,0,0:0:0:0:
320,192,133579,128,0,133865:0:0:0:0:
448,192,133579,1,0,0:0:0:0:
192,192,133579,1,0,0:0:0:0:
64,192,133651,1,0,0:0:0:0:
192,192,133722,1,0,0:0:0:0:
448,192,133722,1,0,0:0:0:0:
64,192,133794,1,0,0:0:0:0:
192,192,133865,1,0,0:0:0:0:
448,192,133865,128,0,135865:0:0:0:0:
320,192,134151,1,0,0:0:0:0:
64,192,134436,1,0,0:0:0:0:
320,192,134722,1,0,0:0:0:0:
64,192,135008,1,0,0:0:0:0:
320,192,135294,1,0,0:0:0:0:
64,192,135579,1,0,0:0:0:0:
320,192,135865,1,0,0:0:0:0:
448,192,136151,1,0,0:0:0:0:
64,192,136436,1,0,0:0:0:0:
448,192,136722,1,0,0:0:0:0:
192,192,137008,128,0,137294:0:0:0:0:
