osu file format v14

[General]
AudioFilename: audio.mp3
AudioLeadIn: 0
PreviewTime: 32687
Countdown: 0
SampleSet: Normal
StackLeniency: 0.7
Mode: 1
LetterboxInBreaks: 0
WidescreenStoryboard: 0

[Editor]
DistanceSpacing: 1
BeatDivisor: 2
GridSize: 4
TimelineZoom: 1.8

[Metadata]
Title:saQrifice
TitleUnicode:saQrifice
Artist:Team Grimoire
ArtistUnicode:Team Grimoire
Creator:roufou
Version:Futsuu
Source:pop'n music うさぎと猫と少年の夢
Tags:phantom dubstep electronic instrumental bemani konami ナビくんと旅をしよう! usagi to neko to shounen no yume agu Trapmaniac femboy_mapper Mikaruge tama11
BeatmapID:1794647
BeatmapSetID:856352

[Difficulty]
HPDrainRate:4
CircleSize:5
OverallDifficulty:3
ApproachRate:5
SliderMultiplier:1.4
SliderTickRate:1

[Events]
//Background and Video events
0,0,"51780984_p0.jpg",0,0
//Break Periods
//Storyboard Layer 0 (Background)
//Storyboard Layer 1 (Fail)
//Storyboard Layer 2 (Pass)
//Storyboard Layer 3 (Foreground)
//Storyboard Layer 4 (Overlay)
//Storyboard Sound Samples

[TimingPoints]
2606,324.324324324324,4,1,0,90,1,0
32768,-66.6666666666667,4,1,0,90,0,0
33741,-100,4,1,0,90,0,0
54497,-100,4,1,0,90,0,1
62281,-83.3333333333333,4,1,0,90,0,0
64876,-100,4,1,0,90,0,1
72660,-100,4,1,0,90,0,0
75254,-100,4,1,0,90,0,1
96011,-100,4,1,0,90,0,0

[HitObjects]
203,282,2606,5,0,0:0:0:0:
182,281,2930,1,0,0:0:0:0:
203,282,3254,1,8,0:0:0:0:
217,297,3903,1,0,0:0:0:0:
273,275,4146,1,0,0:0:0:0:
232,296,4389,1,0,0:0:0:0:
217,288,4551,1,8,0:0:0:0:
225,339,5200,1,0,0:0:0:0:
225,339,5524,1,0,0:0:0:0:
224,331,5849,1,8,0:0:0:0:
223,328,6497,1,0,0:0:0:0:
224,331,6741,1,0,0:0:0:0:
227,268,6984,1,0,0:0:0:0:
221,307,7146,1,8,0:0:0:0:
221,312,7795,1,0,0:0:0:0:
221,312,8119,1,0,0:0:0:0:
225,309,8443,1,8,0:0:0:0:
228,318,9092,1,0,0:0:0:0:
228,318,9335,1,0,0:0:0:0:
228,318,9578,1,0,0:0:0:0:
228,318,9741,1,8,0:0:0:0:
228,318,10389,1,0,0:0:0:0:
219,301,10714,1,0,0:0:0:0:
228,318,11038,1,8,0:0:0:0:
228,318,11687,1,0,0:0:0:0:
228,318,11930,1,0,0:0:0:0:
246,282,12173,1,0,0:0:0:0:
236,309,12335,1,8,0:0:0:0:
234,313,12984,1,0,0:0:0:0:
234,317,13308,1,0,0:0:0:0:
234,313,13633,1,8,0:0:0:0:
228,306,13957,1,8,0:0:0:0:
230,311,14281,1,0,0:0:0:0:
234,313,14524,1,0,0:0:0:0:
234,313,14768,1,0,0:0:0:0:
234,313,14930,1,8,0:0:0:0:
228,306,15578,1,0,0:0:0:0:
226,295,15903,1,0,0:0:0:0:
226,295,16227,1,8,0:0:0:0:
226,295,16551,1,8,0:0:0:0:
226,295,16876,1,0,0:0:0:0:
226,295,17119,1,0,0:0:0:0:
226,295,17362,1,0,0:0:0:0:
226,295,17524,1,8,0:0:0:0:
226,295,18173,1,0,0:0:0:0:
224,299,18497,1,0,0:0:0:0:
224,299,18822,1,8,0:0:0:0:
219,314,19146,1,8,0:0:0:0:
219,311,19470,1,0,0:0:0:0:
219,311,19714,1,0,0:0:0:0:
219,314,19957,1,0,0:0:0:0:
219,314,20119,1,8,0:0:0:0:
219,311,20768,1,0,0:0:0:0:
219,311,21416,1,8,0:0:0:0:
219,311,22065,1,0,0:0:0:0:
219,311,22714,1,8,0:0:0:0:
219,311,23362,1,4,0:0:0:0:
228,302,23687,1,8,0:0:0:0:
228,302,24011,1,0,0:0:0:0:
228,302,24335,1,8,0:0:0:0:
228,302,24660,1,4,0:0:0:0:
228,302,24984,1,8,0:0:0:0:
206,303,25308,1,0,0:0:0:0:
228,302,25633,1,8,0:0:0:0:
214,307,25957,1,4,0:0:0:0:
221,312,26281,1,8,0:0:0:0:
221,312,26605,1,0,0:0:0:0:
221,312,26930,1,8,0:0:0:0:
221,312,27254,1,4,0:0:0:0:
225,318,27578,1,8,0:0:0:0:
225,318,27903,1,0,0:0:0:0:
225,318,28227,1,8,0:0:0:0:
211,315,28551,1,4,0:0:0:0:
215,326,28876,1,8,0:0:0:0:
211,315,29200,1,4,0:0:0:0:
215,326,29524,1,8,0:0:0:0:
211,315,29849,1,4,0:0:0:0:
215,323,30173,1,8,0:0:0:0:
211,315,30497,1,4,0:0:0:0:
213,322,30822,1,8,0:0:0:0:
211,315,31146,1,4,0:0:0:0:
211,315,31470,1,4,0:0:0:0:
192,316,31795,1,6,0:0:0:0:
192,316,32119,1,6,0:0:0:0:
211,315,32443,1,4,0:0:0:0:
256,192,32768,12,0,33416,0:0:0:0:
222,291,33741,5,0,0:0:0:0:
213,295,34065,1,0,0:0:0:0:
255,292,34227,1,0,0:0:0:0:
226,299,34389,1,8,0:0:0:0:
234,318,35038,1,0,0:0:0:0:
234,318,35281,1,0,0:0:0:0:
234,318,35524,1,0,0:0:0:0:
234,318,35687,1,8,0:0:0:0:
234,318,36011,1,4,0:0:0:0:
234,318,36335,1,4,0:0:0:0:
234,318,36660,1,0,0:0:0:0:
234,318,36822,1,0,0:0:0:0:
234,318,36984,1,8,0:0:0:0:
234,318,37470,1,0,0:0:0:0:
236,322,37633,1,0,0:0:0:0:
239,307,37876,1,0,0:0:0:0:
235,302,38119,1,0,0:0:0:0:
235,302,38281,1,8,0:0:0:0:
239,309,38605,1,4,0:0:0:0:
239,307,38930,1,4,0:0:0:0:
232,310,39254,1,0,0:0:0:0:
232,310,39416,1,0,0:0:0:0:
239,309,39578,1,8,0:0:0:0:
226,308,40227,1,0,0:0:0:0:
239,309,40470,1,0,0:0:0:0:
239,306,40714,1,0,0:0:0:0:
239,306,40876,1,8,0:0:0:0:
245,302,41200,1,4,0:0:0:0:
245,302,41524,1,4,0:0:0:0:
245,302,41849,1,0,0:0:0:0:
245,302,42011,1,0,0:0:0:0:
245,302,42173,1,8,0:0:0:0:
240,306,42660,1,0,0:0:0:0:
245,302,42822,1,0,0:0:0:0:
245,302,43065,1,0,0:0:0:0:
232,313,43308,1,0,0:0:0:0:
248,306,43470,1,8,0:0:0:0:
230,312,43795,1,4,0:0:0:0:
230,312,44119,1,4,0:0:0:0:
225,324,44443,1,0,0:0:0:0:
225,328,44605,1,0,0:0:0:0:
226,322,44768,1,6,0:0:0:0:
225,324,45254,1,0,0:0:0:0:
225,324,45416,1,8,0:0:0:0:
235,320,45660,1,0,0:0:0:0:
234,322,45903,1,0,0:0:0:0:
234,322,46065,1,8,0:0:0:0:
225,324,46389,1,4,0:0:0:0:
228,321,46714,1,4,0:0:0:0:
223,319,47038,1,0,0:0:0:0:
225,324,47200,1,0,0:0:0:0:
225,324,47362,1,8,0:0:0:0:
221,324,47687,1,8,0:0:0:0:
252,293,47849,1,0,0:0:0:0:
223,319,48011,1,0,0:0:0:0:
212,332,48254,1,0,0:0:0:0:
226,325,48497,1,0,0:0:0:0:
230,326,48660,1,6,0:0:0:0:
230,326,48984,1,4,0:0:0:0:
226,322,49308,1,8,0:0:0:0:
226,325,49470,1,8,0:0:0:0:
230,326,49795,1,8,0:0:0:0:
222,308,49957,1,4,0:0:0:0:
221,312,50281,1,0,0:0:0:0:
221,312,50443,1,0,0:0:0:0:
221,312,50605,1,8,0:0:0:0:
222,308,50849,1,0,0:0:0:0:
221,312,51092,1,0,0:0:0:0:
221,312,51254,1,8,0:0:0:0:
221,324,51578,1,4,0:0:0:0:
220,322,51903,1,4,0:0:0:0:
220,322,52227,1,0,0:0:0:0:
221,324,52389,1,0,0:0:0:0:
221,324,52551,1,8,0:0:0:0:
220,322,52876,1,8,0:0:0:0:
217,310,53200,1,0,0:0:0:0:
221,324,53524,1,6,0:0:0:0:
219,328,53849,1,6,0:0:0:0:
219,328,54173,1,6,0:0:0:0:
221,324,54497,1,4,0:0:0:0:
219,328,54822,1,8,0:0:0:0:
228,366,54984,1,0,0:0:0:0:
224,341,55308,1,0,0:0:0:0:
224,341,55470,1,8,0:0:0:0:
224,341,55795,1,0,0:0:0:0:
224,341,56119,1,8,0:0:0:0:
224,341,56443,1,0,0:0:0:0:
224,341,56605,1,0,0:0:0:0:
224,341,56768,1,8,0:0:0:0:
224,341,57092,1,0,0:0:0:0:
224,341,57416,1,8,0:0:0:0:
224,341,57578,1,0,0:0:0:0:
224,341,57903,1,0,0:0:0:0:
224,341,58065,1,8,0:0:0:0:
232,333,58389,1,0,0:0:0:0:
233,341,58714,1,8,0:0:0:0:
232,338,59038,1,0,0:0:0:0:
232,338,59200,1,0,0:0:0:0:
232,338,59362,1,8,0:0:0:0:
233,341,59687,1,0,0:0:0:0:
232,338,60011,1,8,0:0:0:0:
232,338,60173,1,0,0:0:0:0:
233,341,60497,1,0,0:0:0:0:
233,341,60660,1,8,0:0:0:0:
232,338,60984,1,0,0:0:0:0:
233,341,61308,1,8,0:0:0:0:
233,341,61633,1,0,0:0:0:0:
232,338,61957,1,8,0:0:0:0:
233,341,62281,1,0,0:0:0:0:
242,335,62443,1,0,0:0:0:0:
242,335,62605,1,8,0:0:0:0:
242,335,62930,1,0,0:0:0:0:
242,335,63092,1,0,0:0:0:0:
242,335,63254,1,8,0:0:0:0:
242,335,63578,1,0,0:0:0:0:
242,335,63903,1,8,0:0:0:0:
242,335,64227,1,0,0:0:0:0:
242,335,64551,1,8,0:0:0:0:
242,335,64876,1,0,0:0:0:0:
225,338,65200,1,8,0:0:0:0:
235,331,65524,1,8,0:0:0:0:
235,331,65849,1,8,0:0:0:0:
235,331,66173,1,0,0:0:0:0:
235,331,66497,1,8,0:0:0:0:
235,331,66822,1,0,0:0:0:0:
235,331,67146,1,8,0:0:0:0:
235,331,67470,1,0,0:0:0:0:
234,322,67795,1,8,0:0:0:0:
234,322,68119,1,0,0:0:0:0:
234,322,68443,1,8,0:0:0:0:
234,322,68768,1,0,0:0:0:0:
234,322,69092,1,8,0:0:0:0:
234,322,69416,1,0,0:0:0:0:
234,322,69741,1,8,0:0:0:0:
234,322,70065,1,0,0:0:0:0:
234,322,70389,1,8,0:0:0:0:
234,322,70714,1,0,0:0:0:0:
234,322,71038,1,8,0:0:0:0:
234,313,71362,1,0,0:0:0:0:
234,313,71687,1,8,0:0:0:0:
234,313,72011,1,0,0:0:0:0:
215,328,72227,1,0,0:0:0:0:
234,313,72335,1,8,0:0:0:0:
234,313,72660,1,0,0:0:0:0:
248,319,72984,1,8,0:0:0:0:
248,319,73308,1,0,0:0:0:0:
237,319,73633,1,8,0:0:0:0:
237,319,73957,1,0,0:0:0:0:
248,308,74119,1,0,0:0:0:0:
248,308,74281,1,8,0:0:0:0:
248,308,74605,1,0,0:0:0:0:
248,308,74768,1,0,0:0:0:0:
248,308,74930,1,8,0:0:0:0:
248,308,75254,1,0,0:0:0:0:
255,296,75578,1,8,0:0:0:0:
252,293,75741,1,0,0:0:0:0:
252,294,76065,1,0,0:0:0:0:
252,294,76227,1,8,0:0:0:0:
255,296,76551,1,0,0:0:0:0:
252,294,76876,1,8,0:0:0:0:
252,294,77038,1,0,0:0:0:0:
255,296,77362,1,0,0:0:0:0:
255,296,77524,1,8,0:0:0:0:
252,294,77849,1,0,0:0:0:0:
252,294,78173,1,8,0:0:0:0:
255,296,78497,1,0,0:0:0:0:
252,294,78822,1,8,0:0:0:0:
252,294,78984,1,8,0:0:0:0:
252,294,79146,1,0,0:0:0:0:
255,296,79470,1,8,0:0:0:0:
252,294,79795,1,0,0:0:0:0:
252,294,79957,1,0,0:0:0:0:
252,294,80119,1,8,0:0:0:0:
255,296,80443,1,8,0:0:0:0:
252,294,80768,1,8,0:0:0:0:
252,294,80930,1,8,0:0:0:0:
252,294,81092,1,0,0:0:0:0:
255,296,81416,1,8,0:0:0:0:
252,294,81741,1,0,0:0:0:0:
252,294,82065,1,8,0:0:0:0:
255,296,82389,1,0,0:0:0:0:
252,294,82551,1,0,0:0:0:0:
252,294,82714,1,8,0:0:0:0:
249,300,83038,1,0,0:0:0:0:
249,300,83362,1,8,0:0:0:0:
249,300,83524,1,8,0:0:0:0:
249,300,83687,1,0,0:0:0:0:
249,300,84011,1,8,0:0:0:0:
249,300,84335,1,0,0:0:0:0:
249,300,84660,1,8,0:0:0:0:
249,300,84984,1,0,0:0:0:0:
249,300,85308,1,8,0:0:0:0:
249,300,85633,1,0,0:0:0:0:
249,300,85957,1,8,0:0:0:0:
249,300,86281,1,0,0:0:0:0:
249,300,86443,1,0,0:0:0:0:
249,300,86768,1,0,0:0:0:0:
249,300,86930,1,0,0:0:0:0:
244,298,87254,1,8,0:0:0:0:
244,298,87578,1,0,0:0:0:0:
244,298,87741,1,0,0:0:0:0:
244,298,87903,1,8,0:0:0:0:
244,298,88227,1,0,0:0:0:0:
244,298,88551,1,8,0:0:0:0:
244,298,88714,1,8,0:0:0:0:
244,298,88876,1,0,0:0:0:0:
244,298,89200,1,8,0:0:0:0:
244,298,89524,1,0,0:0:0:0:
244,298,89849,1,8,0:0:0:0:
244,298,90173,1,0,0:0:0:0:
244,298,90335,1,8,0:0:0:0:
244,298,90497,1,0,0:0:0:0:
244,298,90822,1,0,0:0:0:0:
242,302,90984,1,0,0:0:0:0:
244,298,91146,1,8,0:0:0:0:
244,298,91470,1,0,0:0:0:0:
244,298,91795,1,8,0:0:0:0:
244,298,92119,1,0,0:0:0:0:
228,294,92281,1,0,0:0:0:0:
244,298,92443,1,8,0:0:0:0:
228,294,92768,1,0,0:0:0:0:
228,292,93092,1,8,0:0:0:0:
235,284,93416,1,0,0:0:0:0:
235,284,93578,1,0,0:0:0:0:
235,284,93741,1,8,0:0:0:0:
235,284,94065,1,0,0:0:0:0:
201,271,94227,1,0,0:0:0:0:
234,278,94389,1,8,0:0:0:0:
232,304,94714,1,0,0:0:0:0:
230,288,95038,1,8,0:0:0:0:
230,288,95362,1,0,0:0:0:0:
230,288,95687,1,8,0:0:0:0:
230,288,96011,1,0,0:0:0:0:
223,293,96497,1,0,0:0:0:0:
232,280,96660,1,8,0:0:0:0:
210,293,97308,1,0,0:0:0:0:
210,293,97551,1,0,0:0:0:0:
210,293,97795,1,0,0:0:0:0:
210,293,97957,1,8,0:0:0:0:
290,291,98281,1,8,0:0:0:0:
269,298,98605,1,0,0:0:0:0:
266,302,99092,1,0,0:0:0:0:
266,302,99254,1,8,0:0:0:0:
266,302,99903,1,0,0:0:0:0:
266,302,100146,1,0,0:0:0:0:
266,302,100389,1,0,0:0:0:0:
266,302,100551,1,8,0:0:0:0:
266,302,100876,1,8,0:0:0:0:
266,302,101200,1,0,0:0:0:0:
248,244,101687,1,0,0:0:0:0:
285,296,101849,1,8,0:0:0:0:
265,302,102497,1,0,0:0:0:0:
268,306,102741,1,0,0:0:0:0:
268,306,102984,1,0,0:0:0:0:
268,306,103146,1,8,0:0:0:0:
265,302,103470,1,8,0:0:0:0:
268,306,103795,1,0,0:0:0:0:
265,302,104281,1,0,0:0:0:0:
265,302,104443,1,8,0:0:0:0:
268,306,104768,1,8,0:0:0:0:
265,302,105092,1,0,0:0:0:0:
263,306,105335,1,0,0:0:0:0:
268,306,105578,1,0,0:0:0:0:
268,306,105741,1,8,0:0:0:0:
265,302,106065,1,8,0:0:0:0:
263,306,106389,1,0,0:0:0:0:
261,302,106714,1,8,0:0:0:0:
265,302,106876,1,8,0:0:0:0:
265,302,107038,1,0,0:0:0:0:
263,306,107362,1,8,0:0:0:0:
261,302,107687,1,0,0:0:0:0:
259,306,108011,1,8,0:0:0:0:
263,306,108173,1,8,0:0:0:0:
263,306,108335,1,0,0:0:0:0:
261,302,108660,1,8,0:0:0:0:
259,306,108984,1,0,0:0:0:0:
263,306,109146,1,0,0:0:0:0:
263,306,109308,1,8,0:0:0:0:
261,302,109633,1,0,0:0:0:0:
259,306,109957,1,8,0:0:0:0:
263,306,110281,1,0,0:0:0:0:
261,302,110443,1,0,0:0:0:0:
261,302,110605,1,8,0:0:0:0:
259,306,110930,1,0,0:0:0:0:
263,306,111254,1,8,0:0:0:0:
261,302,111416,1,0,0:0:0:0:
261,302,111578,1,8,0:0:0:0:
259,306,111741,1,0,0:0:0:0:
259,306,111903,1,8,0:0:0:0:
263,306,112227,1,0,0:0:0:0:
261,302,112551,1,8,0:0:0:0:
259,306,112714,1,0,0:0:0:0:
259,306,112876,1,8,0:0:0:0:
263,306,113038,1,0,0:0:0:0:
263,306,113200,1,8,0:0:0:0:
261,302,113524,1,0,0:0:0:0:
259,306,113849,1,8,0:0:0:0:
255,303,114011,1,0,0:0:0:0:
255,303,114173,1,8,0:0:0:0:
267,335,114335,1,8,0:0:0:0:
267,335,114497,1,0,0:0:0:0:
267,335,114822,1,8,0:0:0:0:
267,335,115146,1,0,0:0:0:0:
267,335,115470,1,8,0:0:0:0:
267,335,115795,1,0,0:0:0:0:
267,335,116119,1,8,0:0:0:0:
267,335,116443,1,4,0:0:0:0:
