osu file format v14

[General]
AudioFilename: audio.mp3
AudioLeadIn: 0
PreviewTime: -1
Countdown: 0
SampleSet: None
StackLeniency: 0.7
Mode: 0
LetterboxInBreaks: 0
WidescreenStoryboard: 1

[Editor]
DistanceSpacing: 1.3
BeatDivisor: 4
GridSize: 16
TimelineZoom: 3.399999

[Metadata]
Title:kaitul
TitleUnicode:kaitul
Artist:Team Grimoire
ArtistUnicode:Team Grimoire
Creator:kirbob
Version:Hellbreak
Source:
Tags:
BeatmapID:1475486
BeatmapSetID:696592

[Difficulty]
HPDrainRate:6
CircleSize:2.5
OverallDifficulty:4
ApproachRate:9.4
SliderMultiplier:1.6
SliderTickRate:1

[Events]
//Background and Video events
0,0,"backdrop5.jpg",0,0
//Break Periods
//Storyboard Layer 0 (Background)
//Storyboard Layer 1 (Fail)
//Storyboard Layer 2 (Pass)
//Storyboard Layer 3 (Foreground)
//Storyboard Sound Samples

[TimingPoints]
21864,324.324324324324,4,2,0,100,1,0
30945,-400,4,2,0,100,0,0
32242,-200,4,2,0,100,0,0
36134,-133.333333333333,4,2,0,100,0,0
42620,-100,4,2,0,100,0,0
47161,-133.333333333333,4,2,0,100,0,0
50404,-100,4,2,0,100,0,0
89323,-83.3333333333333,4,2,0,100,0,0
133431,-66.6666666666667,4,2,0,100,0,0
199593,-133.333333333333,4,2,0,100,0,0

[HitObjects]
194,64,21864,5,0,0:0:0:0:
194,64,21945,1,0,0:0:0:0:
194,64,22026,1,0,0:0:0:0:
194,64,22107,1,0,0:0:0:0:
194,64,22188,1,0,0:0:0:0:
194,64,22269,1,0,0:0:0:0:
194,64,22350,1,0,0:0:0:0:
194,64,22431,1,0,0:0:0:0:
212,72,22512,5,0,0:0:0:0:
228,83,22593,1,0,0:0:0:0:
237,100,22674,1,0,0:0:0:0:
239,119,22755,1,0,0:0:0:0:
237,138,22836,1,0,0:0:0:0:
230,157,22918,1,0,0:0:0:0:
218,173,22999,1,0,0:0:0:0:
212,224,23080,1,0,0:0:0:0:
212,224,23161,5,0,0:0:0:0:
212,224,23242,1,0,0:0:0:0:
212,224,23323,1,0,0:0:0:0:
212,224,23404,1,0,0:0:0:0:
212,224,23485,1,0,0:0:0:0:
211,223,23566,1,0,0:0:0:0:
211,223,23647,1,0,0:0:0:0:
212,224,23728,1,0,0:0:0:0:
247,243,23810,5,0,0:0:0:0:
286,250,23891,1,0,0:0:0:0:
325,241,23973,1,0,0:0:0:0:
352,212,24054,1,0,0:0:0:0:
361,173,24135,1,0,0:0:0:0:
346,135,24216,1,0,0:0:0:0:
319,105,24297,1,0,0:0:0:0:
279,102,24378,1,0,0:0:0:0:
237,154,24458,5,0,0:0:0:0:
237,154,24539,1,0,0:0:0:0:
237,154,24620,1,0,0:0:0:0:
237,154,24701,1,0,0:0:0:0:
237,154,24782,1,0,0:0:0:0:
237,154,24864,1,0,0:0:0:0:
237,154,24945,1,0,0:0:0:0:
237,154,25026,1,0,0:0:0:0:
255,161,25107,5,0,0:0:0:0:
274,159,25188,1,0,0:0:0:0:
292,151,25269,1,0,0:0:0:0:
310,142,25350,1,0,0:0:0:0:
329,136,25431,1,0,0:0:0:0:
348,136,25512,1,0,0:0:0:0:
367,139,25593,1,0,0:0:0:0:
385,147,25674,1,0,0:0:0:0:
420,204,25755,5,0,0:0:0:0:
420,204,25836,1,0,0:0:0:0:
420,204,25918,1,0,0:0:0:0:
420,204,25999,1,0,0:0:0:0:
420,204,26080,1,0,0:0:0:0:
420,204,26161,1,0,0:0:0:0:
420,204,26242,1,0,0:0:0:0:
420,204,26323,1,0,0:0:0:0:
398,246,26404,5,0,0:0:0:0:
362,278,26485,1,0,0:0:0:0:
316,292,26566,1,0,0:0:0:0:
268,288,26647,1,0,0:0:0:0:
227,262,26728,1,0,0:0:0:0:
203,220,26809,1,0,0:0:0:0:
203,171,26891,1,0,0:0:0:0:
221,126,26972,1,0,0:0:0:0:
285,85,27053,5,0,0:0:0:0:
285,85,27134,1,0,0:0:0:0:
285,85,27215,1,0,0:0:0:0:
285,85,27296,1,0,0:0:0:0:
285,85,27377,1,0,0:0:0:0:
285,85,27458,1,0,0:0:0:0:
285,85,27539,1,0,0:0:0:0:
285,85,27620,1,0,0:0:0:0:
295,110,27701,5,0,0:0:0:0:
294,137,27782,1,0,0:0:0:0:
278,160,27864,1,0,0:0:0:0:
256,177,27945,1,0,0:0:0:0:
242,201,28026,1,0,0:0:0:0:
237,228,28107,1,0,0:0:0:0:
238,255,28188,1,0,0:0:0:0:
248,281,28269,1,0,0:0:0:0:
307,315,28350,5,0,0:0:0:0:
307,315,28431,1,0,0:0:0:0:
307,315,28512,1,0,0:0:0:0:
307,315,28593,1,0,0:0:0:0:
307,315,28674,1,0,0:0:0:0:
307,315,28755,1,0,0:0:0:0:
307,315,28836,1,0,0:0:0:0:
307,315,28918,1,0,0:0:0:0:
351,296,28999,5,0,0:0:0:0:
373,253,29080,1,0,0:0:0:0:
370,205,29161,1,0,0:0:0:0:
344,164,29242,1,0,0:0:0:0:
303,137,29323,1,0,0:0:0:0:
255,133,29404,1,0,0:0:0:0:
209,148,29485,1,0,0:0:0:0:
168,174,29566,1,0,0:0:0:0:
68,214,29647,6,0,L|122:227,1,40
262,259,29809,2,0,L|208:246,1,40
63,282,29972,2,0,L|117:295,1,40
257,327,30134,2,0,L|203:314,1,40
88,346,30296,5,0,0:0:0:0:
81,274,30377,1,0,0:0:0:0:
105,206,30458,1,0,0:0:0:0:
155,155,30539,1,0,0:0:0:0:
225,140,30620,1,0,0:0:0:0:
293,161,30701,1,0,0:0:0:0:
343,211,30782,1,0,0:0:0:0:
362,281,30864,1,0,0:0:0:0:
361,352,30945,2,0,L|238:352,1,120
123,307,32242,6,0,P|137:266|152:250,1,60
251,159,32566,2,0,L|257:210,1,40
255,330,32891,6,0,P|219:305|207:287,1,60
165,128,33215,2,0,L|208:111,1,40
344,66,33539,6,0,P|367:102|370:124,1,60
375,281,33864,2,0,L|355:239,1,40
272,79,34188,5,0,0:0:0:0:
210,263,34350,1,0,0:0:0:0:
170,36,34512,1,0,0:0:0:0:
232,220,34674,1,0,0:0:0:0:
211,66,34836,6,0,P|178:86|164:101,1,60
73,248,35161,2,0,L|115:269,1,40
294,340,35485,6,0,P|293:301|288:281,1,60
186,118,35810,2,0,L|184:162,1,40
165,332,36134,6,0,P|134:308|107:262,1,90.0000034332277
52,112,36459,2,0,L|111:86,1,60.0000022888184
335,60,36782,6,0,P|304:83|252:97,1,90.0000034332277
93,112,37107,2,0,L|128:164,1,60.0000022888184
253,331,37431,6,0,P|289:318|330:283,1,90.0000034332277
431,159,37756,2,0,L|360:129,1,60.0000022888184
227,69,38080,6,0,P|188:67|137:86,1,90.0000034332277
0,169,38405,2,0,L|63:160,1,60.0000022888184
334,121,38728,6,0,P|318:156|278:193,1,90.0000034332277
144,281,39053,2,0,L|218:291,1,60.0000022888184
481,348,39377,6,0,P|465:312|425:275,1,90.0000034332277
291,188,39702,2,0,L|224:173,1,60.0000022888184
61,149,40026,5,0,0:0:0:0:
61,149,40107,1,0,0:0:0:0:
61,149,40188,1,0,0:0:0:0:
61,149,40269,1,0,0:0:0:0:
70,160,40350,1,0,0:0:0:0:
79,171,40431,1,0,0:0:0:0:
90,180,40512,1,0,0:0:0:0:
103,186,40593,1,0,0:0:0:0:
123,187,40674,5,0,0:0:0:0:
141,177,40755,1,0,0:0:0:0:
158,165,40836,1,0,0:0:0:0:
179,163,40918,1,0,0:0:0:0:
199,168,40999,1,0,0:0:0:0:
217,178,41080,1,0,0:0:0:0:
234,189,41161,1,0,0:0:0:0:
254,194,41242,1,0,0:0:0:0:
283,187,41323,5,0,0:0:0:0:
302,163,41404,1,0,0:0:0:0:
295,133,41485,1,0,0:0:0:0:
271,113,41566,1,0,0:0:0:0:
241,110,41647,1,0,0:0:0:0:
219,130,41728,1,0,0:0:0:0:
210,158,41809,1,0,0:0:0:0:
219,186,41891,1,0,0:0:0:0:
259,219,41972,6,0,L|243:240,1,15.0000005722046
313,227,42053,2,0,L|311:246,1,15.0000005722046
362,205,42134,2,0,L|373:222,1,15.0000005722046
389,158,42215,2,0,L|406:162,1,15.0000005722046
386,104,42296,2,0,L|406:100,1,15.0000005722046
354,60,42377,2,0,L|366:49,1,15.0000005722046
301,47,42458,2,0,L|302:31,1,15.0000005722046
249,62,42539,2,0,L|241:47,1,15.0000005722046
209,92,42620,6,0,P|162:149|154:188,1,80
160,344,42864,2,0,P|133:298|123:266,1,80
95,108,43107,2,0,P|116:140|126:176,1,40
206,277,43269,6,0,P|274:249|300:219,1,80
337,53,43513,2,0,P|338:106|331:139,1,80
294,334,43756,2,0,P|306:298|299:259,1,40
267,73,43918,6,0,P|198:100|172:130,1,80
88,297,44162,2,0,P|101:249|93:210,1,80
58,55,44405,2,0,P|46:91|52:129,1,40
41,239,44566,5,0,0:0:0:0:
74,260,44647,1,0,0:0:0:0:
112,270,44728,1,0,0:0:0:0:
151,264,44809,1,0,0:0:0:0:
187,245,44891,1,0,0:0:0:0:
211,213,44972,1,0,0:0:0:0:
238,184,45053,1,0,0:0:0:0:
274,167,45134,1,0,0:0:0:0:
313,167,45215,6,0,P|266:109|229:94,1,80
32,75,45459,2,0,P|82:57|115:53,1,80
372,51,45702,2,0,P|348:66|327:97,1,40
232,206,45864,6,0,P|299:235|339:232,1,80
483,140,46108,2,0,P|446:178|426:224,1,80
394,359,46351,2,0,P|394:327|381:295,1,40
312,71,46512,6,0,P|243:96|216:126,1,80
177,302,46756,2,0,P|199:253|230:235,1,80
337,176,46999,2,0,P|314:159|293:154,1,40
86,125,47161,6,0,P|106:166|139:193,1,60.0000022888184
292,282,47405,2,0,P|248:262|228:235,1,60.0000022888184
192,85,47648,2,0,P|180:106|179:132,1,30.0000011444092
166,247,47809,6,0,P|211:246|250:227,1,60.0000022888184
345,144,48053,2,0,P|308:175|297:209,1,60.0000022888184
323,307,48296,2,0,P|338:285|341:261,1,30.0000011444092
345,189,48458,6,0,P|315:190|286:183,1,60.0000022888184
165,86,48702,2,0,P|189:102|206:127,1,60.0000022888184
188,248,48945,2,0,P|178:236|172:223,1,30.0000011444092
120,131,49107,6,0,P|148:120|177:118,1,60.0000022888184
331,128,49351,2,0,P|308:155|303:182,1,60.0000022888184
321,287,49594,2,0,P|334:293|350:288,1,30.0000011444092
446,193,49755,6,0,P|417:203|388:205,1,60.0000022888184
234,196,49999,2,0,P|245:221|237:257,1,60.0000022888184
151,320,50242,2,0,P|139:328|112:327,1,30.0000011444092
39,201,50404,6,0,P|85:143|122:128,1,80
277,68,50648,2,0,P|238:96|206:129,1,80
160,242,50891,2,0,P|161:214|177:197,1,40
164,46,51053,6,0,P|237:43|273:61,1,80
419,137,51297,2,0,P|376:142|334:168,1,80
256,265,51540,2,0,P|277:247|284:221,1,40
286,148,51701,5,0,0:0:0:0:
269,120,51782,1,0,0:0:0:0:
242,101,51864,1,0,0:0:0:0:
210,97,51945,1,0,0:0:0:0:
172,111,52026,1,0,0:0:0:0:
147,142,52107,1,0,0:0:0:0:
136,180,52188,1,0,0:0:0:0:
140,219,52269,1,0,0:0:0:0:
175,267,52350,6,0,L|189:240,1,20
234,275,52431,2,0,L|230:246,1,20
287,248,52512,2,0,L|272:233,1,20
312,193,52593,2,0,L|284:190,1,20
298,138,52674,2,0,L|274:148,1,20
251,107,52755,2,0,L|243:130,1,20
188,108,52836,2,0,L|192:128,1,20
140,141,52918,2,0,L|155:155,1,20
105,196,52999,5,0,0:0:0:0:
108,227,53080,1,0,0:0:0:0:
120,256,53161,1,0,0:0:0:0:
137,282,53242,1,0,0:0:0:0:
163,299,53323,1,0,0:0:0:0:
194,304,53404,1,0,0:0:0:0:
225,311,53485,5,0,0:0:0:0:
225,311,53566,1,0,0:0:0:0:
225,311,53647,1,0,0:0:0:0:
225,311,53728,1,0,0:0:0:0:
224,310,53809,1,0,0:0:0:0:
224,310,53891,1,0,0:0:0:0:
224,310,53972,1,0,0:0:0:0:
224,310,54053,1,0,0:0:0:0:
255,316,54134,5,0,0:0:0:0:
284,303,54215,1,0,0:0:0:0:
293,272,54296,1,0,0:0:0:0:
289,240,54377,1,0,0:0:0:0:
269,214,54458,1,0,0:0:0:0:
242,195,54539,1,0,0:0:0:0:
224,168,54620,1,0,0:0:0:0:
228,136,54701,1,0,0:0:0:0:
244,108,54782,5,0,0:0:0:0:
244,108,54863,1,0,0:0:0:0:
244,108,54945,1,0,0:0:0:0:
244,108,55026,1,0,0:0:0:0:
244,108,55107,1,0,0:0:0:0:
244,108,55188,1,0,0:0:0:0:
244,108,55269,1,0,0:0:0:0:
244,108,55350,1,0,0:0:0:0:
274,118,55431,5,0,0:0:0:0:
299,136,55512,1,0,0:0:0:0:
312,165,55593,1,0,0:0:0:0:
313,196,55674,1,0,0:0:0:0:
305,227,55755,1,0,0:0:0:0:
308,258,55836,1,0,0:0:0:0:
331,280,55918,1,0,0:0:0:0:
362,284,55999,1,0,0:0:0:0:
392,274,56080,5,0,0:0:0:0:
392,274,56161,1,0,0:0:0:0:
392,274,56242,1,0,0:0:0:0:
392,274,56323,1,0,0:0:0:0:
392,274,56404,1,0,0:0:0:0:
392,274,56485,1,0,0:0:0:0:
392,274,56566,1,0,0:0:0:0:
392,274,56647,1,0,0:0:0:0:
415,251,56728,5,0,0:0:0:0:
421,219,56809,1,0,0:0:0:0:
410,188,56891,1,0,0:0:0:0:
387,165,56972,1,0,0:0:0:0:
356,155,57053,1,0,0:0:0:0:
324,159,57134,1,0,0:0:0:0:
294,170,57215,1,0,0:0:0:0:
262,175,57296,1,0,0:0:0:0:
230,169,57377,5,0,0:0:0:0:
230,169,57458,1,0,0:0:0:0:
230,169,57539,1,0,0:0:0:0:
230,169,57620,1,0,0:0:0:0:
230,169,57701,1,0,0:0:0:0:
230,169,57782,1,0,0:0:0:0:
230,169,57863,1,0,0:0:0:0:
230,169,57945,1,0,0:0:0:0:
201,153,58026,5,0,0:0:0:0:
193,121,58107,1,0,0:0:0:0:
209,93,58188,1,0,0:0:0:0:
237,77,58269,1,0,0:0:0:0:
268,74,58350,1,0,0:0:0:0:
298,84,58431,1,0,0:0:0:0:
324,101,58512,1,0,0:0:0:0:
339,128,58593,1,0,0:0:0:0:
344,159,58674,5,0,0:0:0:0:
344,159,58755,1,0,0:0:0:0:
344,159,58836,1,0,0:0:0:0:
344,159,58918,1,0,0:0:0:0:
344,159,58999,1,0,0:0:0:0:
344,159,59080,1,0,0:0:0:0:
344,159,59161,1,0,0:0:0:0:
344,159,59242,1,0,0:0:0:0:
347,190,59323,5,0,0:0:0:0:
331,217,59404,1,0,0:0:0:0:
304,235,59485,1,0,0:0:0:0:
272,242,59566,1,0,0:0:0:0:
241,250,59647,1,0,0:0:0:0:
214,267,59728,1,0,0:0:0:0:
190,288,59809,1,0,0:0:0:0:
171,314,59891,1,0,0:0:0:0:
160,344,59972,5,0,0:0:0:0:
160,344,60053,1,0,0:0:0:0:
160,344,60134,1,0,0:0:0:0:
160,344,60215,1,0,0:0:0:0:
160,344,60296,1,0,0:0:0:0:
160,344,60377,1,0,0:0:0:0:
160,344,60458,1,0,0:0:0:0:
160,344,60539,1,0,0:0:0:0:
191,345,60620,5,0,0:0:0:0:
222,337,60701,1,0,0:0:0:0:
245,315,60782,1,0,0:0:0:0:
250,283,60863,1,0,0:0:0:0:
239,252,60945,1,0,0:0:0:0:
219,226,61026,1,0,0:0:0:0:
203,198,61107,1,0,0:0:0:0:
201,166,61188,1,0,0:0:0:0:
208,134,61269,5,0,0:0:0:0:
208,134,61350,1,0,0:0:0:0:
208,134,61431,1,0,0:0:0:0:
208,134,61512,1,0,0:0:0:0:
208,134,61593,1,0,0:0:0:0:
208,134,61674,1,0,0:0:0:0:
208,134,61755,1,0,0:0:0:0:
208,134,61836,1,0,0:0:0:0:
222,162,61918,5,0,0:0:0:0:
241,187,61999,1,0,0:0:0:0:
244,218,62080,1,0,0:0:0:0:
229,246,62161,1,0,0:0:0:0:
230,277,62242,1,0,0:0:0:0:
247,303,62323,1,0,0:0:0:0:
276,315,62404,1,0,0:0:0:0:
307,309,62485,1,0,0:0:0:0:
331,287,62566,1,0,0:0:0:0:
342,256,62647,1,0,0:0:0:0:
338,196,62728,6,0,L|322:164,6,20
269,89,63053,5,0,0:0:0:0:
114,166,63215,1,0,0:0:0:0:
191,321,63377,5,0,0:0:0:0:
230,325,63458,1,0,0:0:0:0:
269,319,63539,1,0,0:0:0:0:
300,294,63620,1,0,0:0:0:0:
316,257,63701,1,0,0:0:0:0:
313,217,63782,1,0,0:0:0:0:
286,187,63863,1,0,0:0:0:0:
246,177,63945,1,0,0:0:0:0:
209,192,64026,5,0,0:0:0:0:
171,204,64107,1,0,0:0:0:0:
134,187,64188,1,0,0:0:0:0:
110,154,64269,1,0,0:0:0:0:
117,114,64350,1,0,0:0:0:0:
145,85,64431,1,0,0:0:0:0:
183,76,64512,1,0,0:0:0:0:
222,76,64593,1,0,0:0:0:0:
259,89,64674,5,0,0:0:0:0:
278,102,64755,1,0,0:0:0:0:
290,122,64836,1,0,0:0:0:0:
297,145,64918,1,0,0:0:0:0:
295,168,64999,1,0,0:0:0:0:
285,189,65080,1,0,0:0:0:0:
273,210,65161,1,0,0:0:0:0:
264,232,65242,1,0,0:0:0:0:
264,255,65323,5,0,0:0:0:0:
273,277,65404,1,0,0:0:0:0:
290,293,65485,1,0,0:0:0:0:
312,301,65566,1,0,0:0:0:0:
335,298,65647,1,0,0:0:0:0:
350,279,65728,1,0,0:0:0:0:
354,255,65809,1,0,0:0:0:0:
347,231,65891,1,0,0:0:0:0:
335,214,65972,5,0,0:0:0:0:
309,183,66053,1,0,0:0:0:0:
269,180,66134,1,0,0:0:0:0:
231,192,66215,1,0,0:0:0:0:
196,212,66296,1,0,0:0:0:0:
156,212,66377,1,0,0:0:0:0:
119,195,66458,1,0,0:0:0:0:
98,160,66539,1,0,0:0:0:0:
99,120,66620,5,0,0:0:0:0:
118,85,66701,1,0,0:0:0:0:
154,67,66782,1,0,0:0:0:0:
193,67,66863,1,0,0:0:0:0:
232,77,66945,1,0,0:0:0:0:
268,94,67026,1,0,0:0:0:0:
306,105,67107,1,0,0:0:0:0:
345,107,67188,1,0,0:0:0:0:
384,100,67269,5,0,0:0:0:0:
383,119,67350,1,0,0:0:0:0:
378,138,67431,1,0,0:0:0:0:
370,156,67512,1,0,0:0:0:0:
360,173,67593,1,0,0:0:0:0:
350,190,67674,1,0,0:0:0:0:
344,209,67755,1,0,0:0:0:0:
342,228,67836,1,0,0:0:0:0:
342,248,67918,5,0,0:0:0:0:
322,246,67999,1,0,0:0:0:0:
302,250,68080,1,0,0:0:0:0:
285,260,68161,1,0,0:0:0:0:
268,271,68242,1,0,0:0:0:0:
248,274,68323,1,0,0:0:0:0:
229,266,68404,1,0,0:0:0:0:
213,253,68485,1,0,0:0:0:0:
196,216,68566,5,0,0:0:0:0:
204,176,68647,1,0,0:0:0:0:
229,145,68728,1,0,0:0:0:0:
267,135,68809,1,0,0:0:0:0:
300,157,68891,1,0,0:0:0:0:
320,191,68972,1,0,0:0:0:0:
316,230,69053,1,0,0:0:0:0:
290,261,69134,1,0,0:0:0:0:
255,280,69215,5,0,0:0:0:0:
217,293,69296,1,0,0:0:0:0:
177,287,69377,1,0,0:0:0:0:
150,256,69458,1,0,0:0:0:0:
129,221,69539,1,0,0:0:0:0:
124,181,69620,1,0,0:0:0:0:
111,143,69701,1,0,0:0:0:0:
82,115,69782,1,0,0:0:0:0:
43,103,69863,5,0,0:0:0:0:
44,123,69945,1,0,0:0:0:0:
44,142,70026,1,0,0:0:0:0:
39,161,70107,1,0,0:0:0:0:
36,180,70188,1,0,0:0:0:0:
40,199,70269,1,0,0:0:0:0:
51,215,70350,1,0,0:0:0:0:
66,227,70431,1,0,0:0:0:0:
85,232,70512,5,0,0:0:0:0:
104,227,70593,1,0,0:0:0:0:
119,213,70674,1,0,0:0:0:0:
129,195,70755,1,0,0:0:0:0:
142,180,70836,1,0,0:0:0:0:
158,168,70918,1,0,0:0:0:0:
176,159,70999,1,0,0:0:0:0:
195,155,71080,1,0,0:0:0:0:
233,165,71161,5,0,0:0:0:0:
259,194,71242,1,0,0:0:0:0:
288,220,71323,1,0,0:0:0:0:
326,231,71404,1,0,0:0:0:0:
365,224,71485,1,0,0:0:0:0:
396,199,71566,1,0,0:0:0:0:
413,163,71647,1,0,0:0:0:0:
411,123,71728,1,0,0:0:0:0:
395,86,71809,5,0,0:0:0:0:
362,62,71891,1,0,0:0:0:0:
323,50,71972,1,0,0:0:0:0:
283,50,72053,1,0,0:0:0:0:
246,65,72134,1,0,0:0:0:0:
215,91,72215,1,0,0:0:0:0:
192,124,72296,1,0,0:0:0:0:
178,161,72377,1,0,0:0:0:0:
179,180,72458,5,0,0:0:0:0:
184,199,72539,1,0,0:0:0:0:
197,214,72620,1,0,0:0:0:0:
214,223,72701,1,0,0:0:0:0:
233,223,72782,1,0,0:0:0:0:
249,212,72863,1,0,0:0:0:0:
252,192,72945,1,0,0:0:0:0:
258,173,73026,1,0,0:0:0:0:
273,144,73107,5,0,0:0:0:0:
300,127,73188,1,0,0:0:0:0:
359,127,73269,1,0,0:0:0:0:
398,171,73350,1,0,0:0:0:0:
394,230,73431,1,0,0:0:0:0:
351,272,73512,1,0,0:0:0:0:
291,276,73593,1,0,0:0:0:0:
235,252,73674,1,0,0:0:0:0:
206,223,73755,5,0,0:0:0:0:
189,186,73836,1,0,0:0:0:0:
191,145,73918,1,0,0:0:0:0:
205,107,73999,1,0,0:0:0:0:
236,82,74080,1,0,0:0:0:0:
275,75,74161,1,0,0:0:0:0:
313,84,74242,1,0,0:0:0:0:
340,112,74323,1,0,0:0:0:0:
353,149,74404,5,0,0:0:0:0:
352,188,74485,1,0,0:0:0:0:
330,221,74566,1,0,0:0:0:0:
305,252,74647,1,0,0:0:0:0:
301,291,74728,1,0,0:0:0:0:
319,326,74809,1,0,0:0:0:0:
354,345,74891,1,0,0:0:0:0:
393,346,74972,1,0,0:0:0:0:
412,340,75053,5,0,0:0:0:0:
407,320,75134,1,0,0:0:0:0:
404,300,75215,1,0,0:0:0:0:
408,280,75296,1,0,0:0:0:0:
419,263,75377,1,0,0:0:0:0:
427,244,75458,1,0,0:0:0:0:
425,224,75539,1,0,0:0:0:0:
415,206,75620,1,0,0:0:0:0:
402,190,75701,5,0,0:0:0:0:
388,175,75782,1,0,0:0:0:0:
376,158,75863,1,0,0:0:0:0:
366,140,75945,1,0,0:0:0:0:
349,82,76026,5,0,0:0:0:0:
298,49,76107,1,0,0:0:0:0:
238,43,76188,1,0,0:0:0:0:
188,77,76269,1,0,0:0:0:0:
148,80,76350,5,0,0:0:0:0:
146,119,76431,1,0,0:0:0:0:
153,158,76512,1,0,0:0:0:0:
172,193,76593,1,0,0:0:0:0:
202,219,76674,1,0,0:0:0:0:
239,235,76755,1,0,0:0:0:0:
279,238,76836,1,0,0:0:0:0:
320,237,76918,1,0,0:0:0:0:
358,250,76999,5,0,0:0:0:0:
394,268,77080,1,0,0:0:0:0:
430,285,77161,1,0,0:0:0:0:
470,280,77242,1,0,0:0:0:0:
497,250,77323,1,0,0:0:0:0:
509,211,77404,1,0,0:0:0:0:
499,172,77485,1,0,0:0:0:0:
475,140,77566,1,0,0:0:0:0:
460,126,77647,5,0,0:0:0:0:
441,119,77728,1,0,0:0:0:0:
421,118,77809,1,0,0:0:0:0:
401,123,77891,1,0,0:0:0:0:
384,133,77972,1,0,0:0:0:0:
366,143,78053,1,0,0:0:0:0:
346,145,78134,1,0,0:0:0:0:
326,142,78215,1,0,0:0:0:0:
308,132,78296,5,0,0:0:0:0:
291,120,78377,1,0,0:0:0:0:
272,112,78458,1,0,0:0:0:0:
252,108,78539,1,0,0:0:0:0:
232,113,78620,1,0,0:0:0:0:
216,125,78701,1,0,0:0:0:0:
204,141,78782,1,0,0:0:0:0:
200,160,78863,1,0,0:0:0:0:
200,200,78945,5,0,0:0:0:0:
215,236,79026,1,0,0:0:0:0:
242,264,79107,1,0,0:0:0:0:
276,283,79188,1,0,0:0:0:0:
315,280,79269,1,0,0:0:0:0:
344,252,79350,1,0,0:0:0:0:
347,212,79431,1,0,0:0:0:0:
321,181,79512,1,0,0:0:0:0:
281,178,79593,5,0,0:0:0:0:
242,190,79674,1,0,0:0:0:0:
208,211,79755,1,0,0:0:0:0:
170,224,79836,1,0,0:0:0:0:
129,220,79918,1,0,0:0:0:0:
94,199,79999,1,0,0:0:0:0:
72,165,80080,1,0,0:0:0:0:
71,125,80161,1,0,0:0:0:0:
84,110,80242,5,0,0:0:0:0:
103,105,80323,1,0,0:0:0:0:
122,107,80404,1,0,0:0:0:0:
140,113,80485,1,0,0:0:0:0:
158,120,80566,1,0,0:0:0:0:
177,126,80647,1,0,0:0:0:0:
196,129,80728,1,0,0:0:0:0:
215,129,80809,1,0,0:0:0:0:
234,125,80891,5,0,0:0:0:0:
224,151,80972,1,0,0:0:0:0:
219,178,81053,1,0,0:0:0:0:
221,205,81134,1,0,0:0:0:0:
227,232,81215,1,0,0:0:0:0:
238,257,81296,1,0,0:0:0:0:
254,279,81377,1,0,0:0:0:0:
274,298,81458,1,0,0:0:0:0:
310,315,81539,5,0,0:0:0:0:
349,311,81620,1,0,0:0:0:0:
376,281,81701,1,0,0:0:0:0:
376,241,81782,1,0,0:0:0:0:
349,210,81863,1,0,0:0:0:0:
314,189,81945,1,0,0:0:0:0:
284,162,82026,1,0,0:0:0:0:
270,124,82107,1,0,0:0:0:0:
276,84,82188,5,0,0:0:0:0:
307,58,82269,1,0,0:0:0:0:
346,52,82350,1,0,0:0:0:0:
382,69,82431,1,0,0:0:0:0:
396,106,82512,1,0,0:0:0:0:
378,142,82593,1,0,0:0:0:0:
347,167,82674,1,0,0:0:0:0:
307,173,82755,1,0,0:0:0:0:
256,161,82836,5,0,0:0:0:0:
217,125,82918,1,0,0:0:0:0:
169,104,82999,1,0,0:0:0:0:
117,103,83080,1,0,0:0:0:0:
70,125,83161,1,0,0:0:0:0:
43,169,83242,1,0,0:0:0:0:
45,220,83323,1,0,0:0:0:0:
72,263,83404,1,0,0:0:0:0:
144,296,83485,5,0,0:0:0:0:
223,299,83566,1,0,0:0:0:0:
294,262,83647,1,0,0:0:0:0:
330,190,83728,1,0,0:0:0:0:
333,110,83809,5,0,0:0:0:0:
333,110,83891,1,0,0:0:0:0:
333,110,83972,1,0,0:0:0:0:
163,66,84134,6,0,L|194:149,1,80
277,241,84458,2,0,B|167:286|194:272,1,80
88,95,84782,2,0,L|119:178,1,80
202,270,85106,2,0,B|92:315|119:301,1,80
63,208,85431,5,0,0:0:0:0:
152,77,85593,1,0,0:0:0:0:
84,128,85755,1,0,0:0:0:0:
236,84,85917,1,0,0:0:0:0:
152,77,86080,5,0,0:0:0:0:
296,141,86242,1,0,0:0:0:0:
234,83,86404,1,0,0:0:0:0:
304,225,86566,1,0,0:0:0:0:
361,88,86728,6,0,L|390:195,1,80
257,151,87053,2,0,L|166:214,1,80
381,165,87377,2,0,L|410:272,1,80
277,228,87702,2,0,L|186:291,1,80
401,241,88026,5,0,0:0:0:0:
181,143,88188,1,0,0:0:0:0:
157,219,88269,1,0,0:0:0:0:
174,297,88350,1,0,0:0:0:0:
245,333,88431,1,0,0:0:0:0:
324,321,88512,1,0,0:0:0:0:
383,267,88593,1,0,0:0:0:0:
385,187,88674,1,0,0:0:0:0:
291,64,88836,5,0,0:0:0:0:
272,220,88999,1,0,0:0:0:0:
291,64,89161,1,0,0:0:0:0:
272,220,89323,6,0,B|226:240|226:240|165:232,1,95.9999970703126
67,147,89647,2,0,B|113:127|113:127|173:134,1,95.9999970703126
214,282,89972,6,0,B|260:302|260:302|320:294,1,95.9999970703126
373,74,90296,2,0,B|327:54|327:54|266:61,1,95.9999970703126
334,340,90620,6,0,B|288:360|288:360|227:352,1,95.9999970703126
68,36,90944,2,0,B|114:16|114:16|174:23,1,95.9999970703126
444,353,91269,5,0,0:0:0:0:
444,353,91350,1,0,0:0:0:0:
444,353,91431,1,0,0:0:0:0:
444,353,91512,1,0,0:0:0:0:
444,353,91593,1,0,0:0:0:0:
255,106,91755,5,0,0:0:0:0:
133,282,91918,1,0,0:0:0:0:
257,106,92080,1,0,0:0:0:0:
379,282,92243,1,0,0:0:0:0:
255,106,92404,1,0,0:0:0:0:
133,282,92567,1,0,0:0:0:0:
255,106,92728,1,0,0:0:0:0:
379,282,92891,6,0,P|323:294|266:289,1,95.9999970703126
106,103,93215,2,0,L|106:148,6,23.9999992675781
146,242,93539,1,0,0:0:0:0:
213,137,93701,5,0,0:0:0:0:
275,102,93782,1,0,0:0:0:0:
346,99,93863,1,0,0:0:0:0:
408,137,93945,1,0,0:0:0:0:
443,199,94026,1,0,0:0:0:0:
427,269,94107,1,0,0:0:0:0:
379,323,94188,1,0,0:0:0:0:
309,340,94269,1,0,0:0:0:0:
238,328,94350,1,0,0:0:0:0:
181,283,94431,1,0,0:0:0:0:
169,246,94512,5,0,0:0:0:0:
172,207,94593,1,0,0:0:0:0:
192,174,94674,1,0,0:0:0:0:
222,150,94755,1,0,0:0:0:0:
260,145,94836,1,0,0:0:0:0:
298,137,94918,1,0,0:0:0:0:
331,117,94999,1,0,0:0:0:0:
347,82,95080,1,0,0:0:0:0:
342,58,95161,5,0,0:0:0:0:
320,69,95242,1,0,0:0:0:0:
296,74,95323,1,0,0:0:0:0:
272,74,95404,1,0,0:0:0:0:
248,69,95485,1,0,0:0:0:0:
225,61,95566,1,0,0:0:0:0:
203,50,95647,1,0,0:0:0:0:
180,40,95728,1,0,0:0:0:0:
189,111,95809,5,0,0:0:0:0:
192,183,95891,1,0,0:0:0:0:
181,254,95972,1,0,0:0:0:0:
151,319,96053,1,0,0:0:0:0:
217,292,96134,1,0,0:0:0:0:
287,277,96215,1,0,0:0:0:0:
339,228,96296,1,0,0:0:0:0:
345,156,96377,1,0,0:0:0:0:
307,94,96458,5,0,0:0:0:0:
240,67,96539,1,0,0:0:0:0:
169,82,96620,1,0,0:0:0:0:
122,136,96701,1,0,0:0:0:0:
125,207,96782,1,0,0:0:0:0:
169,263,96863,1,0,0:0:0:0:
239,282,96945,1,0,0:0:0:0:
308,265,97026,1,0,0:0:0:0:
299,232,97107,5,0,0:0:0:0:
292,199,97188,1,0,0:0:0:0:
296,165,97269,1,0,0:0:0:0:
308,133,97350,1,0,0:0:0:0:
325,104,97431,1,0,0:0:0:0:
347,79,97512,1,0,0:0:0:0:
373,58,97593,1,0,0:0:0:0:
404,46,97674,1,0,0:0:0:0:
408,79,97755,5,0,0:0:0:0:
402,112,97836,1,0,0:0:0:0:
380,138,97918,1,0,0:0:0:0:
352,157,97999,1,0,0:0:0:0:
319,164,98080,1,0,0:0:0:0:
285,162,98161,1,0,0:0:0:0:
252,155,98242,1,0,0:0:0:0:
220,143,98323,1,0,0:0:0:0:
186,108,98404,5,0,0:0:0:0:
180,155,98485,1,0,0:0:0:0:
170,202,98566,1,0,0:0:0:0:
150,245,98647,1,0,0:0:0:0:
151,292,98728,1,0,0:0:0:0:
184,326,98809,1,0,0:0:0:0:
230,340,98891,1,0,0:0:0:0:
277,332,98972,1,0,0:0:0:0:
312,299,99053,5,0,0:0:0:0:
321,252,99134,1,0,0:0:0:0:
310,205,99215,1,0,0:0:0:0:
285,163,99296,1,0,0:0:0:0:
207,106,99377,5,0,0:0:0:0:
226,199,99458,1,0,0:0:0:0:
302,256,99539,1,0,0:0:0:0:
397,249,99620,1,0,0:0:0:0:
419,240,99701,5,0,0:0:0:0:
405,219,99782,1,0,0:0:0:0:
397,196,99863,1,0,0:0:0:0:
393,172,99945,1,0,0:0:0:0:
394,148,100026,1,0,0:0:0:0:
402,125,100107,1,0,0:0:0:0:
412,103,100188,1,0,0:0:0:0:
410,79,100269,1,0,0:0:0:0:
394,43,100350,5,0,0:0:0:0:
358,27,100431,1,0,0:0:0:0:
320,36,100512,1,0,0:0:0:0:
289,59,100593,1,0,0:0:0:0:
283,96,100674,1,0,0:0:0:0:
295,132,100755,1,0,0:0:0:0:
307,168,100836,1,0,0:0:0:0:
309,206,100918,1,0,0:0:0:0:
309,268,100999,5,0,0:0:0:0:
246,262,101080,1,0,0:0:0:0:
185,245,101161,1,0,0:0:0:0:
143,198,101242,1,0,0:0:0:0:
134,136,101323,1,0,0:0:0:0:
173,87,101404,1,0,0:0:0:0:
234,79,101485,1,0,0:0:0:0:
283,116,101566,1,0,0:0:0:0:
293,177,101647,5,0,0:0:0:0:
271,235,101728,1,0,0:0:0:0:
220,271,101809,1,0,0:0:0:0:
158,285,101891,1,0,0:0:0:0:
96,275,101972,1,0,0:0:0:0:
53,229,102053,1,0,0:0:0:0:
36,168,102134,1,0,0:0:0:0:
39,105,102215,1,0,0:0:0:0:
43,91,102296,5,0,0:0:0:0:
55,97,102377,1,0,0:0:0:0:
67,103,102458,1,0,0:0:0:0:
80,107,102539,1,0,0:0:0:0:
94,109,102620,1,0,0:0:0:0:
108,109,102701,1,0,0:0:0:0:
122,107,102782,1,0,0:0:0:0:
135,102,102863,1,0,0:0:0:0:
146,93,102945,5,0,0:0:0:0:
145,107,103026,1,0,0:0:0:0:
147,121,103107,1,0,0:0:0:0:
151,134,103188,1,0,0:0:0:0:
157,146,103269,1,0,0:0:0:0:
165,157,103350,1,0,0:0:0:0:
174,168,103431,1,0,0:0:0:0:
184,178,103512,1,0,0:0:0:0:
208,120,103593,5,0,0:0:0:0:
258,83,103674,1,0,0:0:0:0:
320,81,103755,1,0,0:0:0:0:
372,114,103836,1,0,0:0:0:0:
400,170,103918,1,0,0:0:0:0:
401,232,103999,1,0,0:0:0:0:
371,286,104080,1,0,0:0:0:0:
314,312,104161,1,0,0:0:0:0:
251,313,104242,5,0,0:0:0:0:
198,279,104323,1,0,0:0:0:0:
175,221,104404,1,0,0:0:0:0:
176,158,104485,1,0,0:0:0:0:
206,103,104566,1,0,0:0:0:0:
262,75,104647,1,0,0:0:0:0:
324,74,104728,1,0,0:0:0:0:
381,98,104809,1,0,0:0:0:0:
449,182,104891,6,0,L|338:208,1,95.9999970703126
261,224,105215,2,0,L|150:250,1,95.9999970703126
98,348,105539,2,0,L|72:237,1,95.9999970703126
56,160,105863,2,0,L|30:49,1,95.9999970703126
26,272,106188,6,0,L|137:246,1,95.9999970703126
214,230,106512,2,0,L|325:204,1,95.9999970703126
400,186,106836,2,0,L|511:160,1,95.9999970703126
306,167,107161,5,0,0:0:0:0:
328,260,107323,1,0,0:0:0:0:
63,182,107485,6,0,L|174:208,1,95.9999970703126
251,224,107809,2,0,L|362:250,1,95.9999970703126
414,348,108133,2,0,L|440:237,1,95.9999970703126
456,160,108457,2,0,L|482:49,1,95.9999970703126
486,272,108782,6,0,L|375:246,1,95.9999970703126
298,230,109106,2,0,L|187:204,1,95.9999970703126
112,186,109430,2,0,L|1:160,1,95.9999970703126
206,167,109755,5,0,0:0:0:0:
184,260,109917,1,0,0:0:0:0:
285,106,110080,5,0,0:0:0:0:
292,118,110161,1,0,0:0:0:0:
297,131,110242,1,0,0:0:0:0:
299,145,110323,1,0,0:0:0:0:
300,159,110404,1,0,0:0:0:0:
297,173,110485,1,0,0:0:0:0:
295,187,110566,1,0,0:0:0:0:
297,201,110647,1,0,0:0:0:0:
302,214,110728,5,0,0:0:0:0:
310,225,110809,1,0,0:0:0:0:
320,235,110891,1,0,0:0:0:0:
331,243,110972,1,0,0:0:0:0:
343,249,111053,1,0,0:0:0:0:
356,253,111134,1,0,0:0:0:0:
370,254,111215,1,0,0:0:0:0:
384,253,111296,1,0,0:0:0:0:
407,246,111377,5,0,0:0:0:0:
396,224,111458,1,0,0:0:0:0:
388,201,111539,1,0,0:0:0:0:
386,177,111620,1,0,0:0:0:0:
394,154,111701,1,0,0:0:0:0:
403,131,111782,1,0,0:0:0:0:
403,107,111863,1,0,0:0:0:0:
392,85,111945,1,0,0:0:0:0:
379,64,112026,5,0,0:0:0:0:
357,52,112107,1,0,0:0:0:0:
333,54,112188,1,0,0:0:0:0:
316,71,112269,1,0,0:0:0:0:
320,94,112350,1,0,0:0:0:0:
329,116,112431,1,0,0:0:0:0:
335,139,112512,1,0,0:0:0:0:
335,162,112593,1,0,0:0:0:0:
334,195,112674,5,0,0:0:0:0:
304,178,112755,1,0,0:0:0:0:
272,167,112836,1,0,0:0:0:0:
238,161,112918,1,0,0:0:0:0:
204,161,112999,1,0,0:0:0:0:
170,166,113080,1,0,0:0:0:0:
141,183,113161,1,0,0:0:0:0:
115,205,113242,1,0,0:0:0:0:
96,232,113323,5,0,0:0:0:0:
94,265,113404,1,0,0:0:0:0:
103,297,113485,1,0,0:0:0:0:
125,321,113566,1,0,0:0:0:0:
154,336,113647,1,0,0:0:0:0:
186,345,113728,1,0,0:0:0:0:
219,346,113809,1,0,0:0:0:0:
252,339,113891,1,0,0:0:0:0:
321,318,113972,5,0,0:0:0:0:
262,275,114053,1,0,0:0:0:0:
230,210,114134,1,0,0:0:0:0:
235,138,114215,1,0,0:0:0:0:
277,80,114296,1,0,0:0:0:0:
346,60,114377,1,0,0:0:0:0:
415,79,114458,1,0,0:0:0:0:
464,130,114539,1,0,0:0:0:0:
472,201,114620,5,0,0:0:0:0:
441,266,114701,1,0,0:0:0:0:
370,279,114782,1,0,0:0:0:0:
299,263,114863,1,0,0:0:0:0:
240,219,114945,1,0,0:0:0:0:
183,174,115026,1,0,0:0:0:0:
115,147,115107,1,0,0:0:0:0:
43,141,115188,1,0,0:0:0:0:
59,210,115269,6,0,P|134:309|223:320,1,191.999994140625
369,315,115755,1,0,0:0:0:0:
369,315,115836,1,0,0:0:0:0:
369,315,115918,2,0,B|383:263|383:263|365:216,1,95.9999970703126
286,58,116242,5,0,0:0:0:0:
259,70,116323,1,0,0:0:0:0:
238,90,116404,1,0,0:0:0:0:
226,116,116485,1,0,0:0:0:0:
227,144,116566,6,0,L|275:271,1,95.9999970703126
377,334,116891,2,0,L|327:317,1,47.9999985351563
193,270,117053,2,0,L|239:286,1,47.9999985351563
357,247,117215,5,0,0:0:0:0:
380,211,117296,1,0,0:0:0:0:
387,168,117377,1,0,0:0:0:0:
375,126,117458,1,0,0:0:0:0:
344,71,117539,5,0,0:0:0:0:
294,108,117620,1,0,0:0:0:0:
234,125,117701,1,0,0:0:0:0:
171,124,117782,1,0,0:0:0:0:
113,100,117863,6,0,P|93:181|101:222,1,95.9999970703126
125,307,118188,1,0,0:0:0:0:
125,307,118269,1,0,0:0:0:0:
125,307,118350,2,0,P|199:301|232:293,1,95.9999970703126
396,236,118674,1,0,0:0:0:0:
396,236,118755,1,0,0:0:0:0:
395,236,118836,2,0,P|347:233|299:225,1,95.9999970703126
133,98,119161,5,0,0:0:0:0:
108,155,119242,1,0,0:0:0:0:
104,217,119323,1,0,0:0:0:0:
130,273,119404,1,0,0:0:0:0:
181,308,119485,1,0,0:0:0:0:
240,327,119566,1,0,0:0:0:0:
302,332,119647,1,0,0:0:0:0:
363,322,119728,1,0,0:0:0:0:
413,286,119809,6,0,P|452:208|393:90,1,191.999994140625
237,36,120458,6,0,L|260:144,1,95.9999970703126
290,292,120782,1,0,0:0:0:0:
290,292,120863,1,0,0:0:0:0:
290,292,120945,1,0,0:0:0:0:
290,292,121026,1,0,0:0:0:0:
290,292,121107,6,0,L|223:278,1,47.9999985351563
55,242,121269,2,0,L|101:251,1,47.9999985351563
273,201,121431,2,0,L|215:239,1,47.9999985351563
71,332,121593,2,0,L|111:306,1,47.9999985351563
180,163,121755,5,0,0:0:0:0:
180,163,121836,1,0,0:0:0:0:
180,163,121918,1,0,0:0:0:0:
180,163,121999,1,0,0:0:0:0:
180,163,122080,6,0,L|247:150,1,47.9999985351563
416,120,122242,2,0,L|368:128,1,47.9999985351563
229,240,122404,2,0,L|268:183,1,47.9999985351563
367,43,122566,2,0,L|339:82,1,47.9999985351563
307,282,122728,5,0,0:0:0:0:
307,282,122809,1,0,0:0:0:0:
307,282,122891,1,0,0:0:0:0:
307,282,122972,1,0,0:0:0:0:
354,290,123053,5,0,0:0:0:0:
400,279,123134,1,0,0:0:0:0:
431,242,123215,1,0,0:0:0:0:
441,195,123296,1,0,0:0:0:0:
428,148,123377,1,0,0:0:0:0:
394,113,123458,1,0,0:0:0:0:
350,93,123539,1,0,0:0:0:0:
302,93,123620,1,0,0:0:0:0:
302,102,123701,5,0,0:0:0:0:
302,111,123782,1,0,0:0:0:0:
301,120,123863,1,0,0:0:0:0:
299,129,123945,1,0,0:0:0:0:
296,138,124026,1,0,0:0:0:0:
292,146,124107,1,0,0:0:0:0:
287,154,124188,1,0,0:0:0:0:
282,162,124269,1,0,0:0:0:0:
263,92,124350,5,0,0:0:0:0:
209,43,124431,1,0,0:0:0:0:
137,43,124512,1,0,0:0:0:0:
84,92,124593,1,0,0:0:0:0:
72,162,124674,1,0,0:0:0:0:
100,228,124755,1,0,0:0:0:0:
156,271,124836,1,0,0:0:0:0:
228,277,124918,1,0,0:0:0:0:
294,250,124999,5,0,0:0:0:0:
327,186,125080,1,0,0:0:0:0:
318,114,125161,1,0,0:0:0:0:
269,60,125242,1,0,0:0:0:0:
200,39,125323,1,0,0:0:0:0:
129,53,125404,1,0,0:0:0:0:
82,107,125485,1,0,0:0:0:0:
79,178,125566,1,0,0:0:0:0:
55,265,125647,6,0,L|179:251,1,95.9999970703126
382,249,125891,2,0,L|308:171,1,95.9999970703126
160,32,126134,2,0,L|168:103,1,47.9999985351563
186,342,126296,6,0,L|290:266,1,95.9999970703126
473,153,126540,2,0,L|365:155,1,95.9999970703126
123,165,126783,2,0,L|173:136,1,47.9999985351563
409,26,126945,6,0,L|383:138,1,95.9999970703126
286,346,127189,2,0,L|210:269,1,95.9999970703126
90,45,127432,2,0,L|146:53,1,47.9999985351563
460,84,127593,6,0,L|332:104,1,95.9999970703126
86,138,127837,2,0,L|156:203,1,95.9999970703126
311,337,128080,2,0,L|334:288,1,47.9999985351563
462,77,128242,6,0,L|363:159,1,95.9999970703126
145,324,128486,2,0,L|141:228,1,95.9999970703126
173,23,128729,2,0,L|192:69,1,47.9999985351563
331,362,128891,6,0,L|240:271,1,95.9999970703126
23,51,129135,2,0,L|118:45,1,95.9999970703126
413,45,129378,2,0,L|367:64,1,47.9999985351563
17,209,129539,6,0,L|145:198,1,95.9999970703126
470,180,129783,2,0,L|350:160,1,95.9999970703126
90,83,130026,2,0,L|121:130,1,47.9999985351563
222,347,130188,6,0,L|315:260,1,95.9999970703126
478,24,130432,2,0,L|447:138,1,95.9999970703126
398,325,130675,2,0,L|390:271,1,47.9999985351563
356,58,130836,5,0,0:0:0:0:
317,56,130918,1,0,0:0:0:0:
278,58,130999,1,0,0:0:0:0:
242,72,131080,1,0,0:0:0:0:
209,91,131161,1,0,0:0:0:0:
184,120,131242,1,0,0:0:0:0:
168,155,131323,1,0,0:0:0:0:
159,192,131404,1,0,0:0:0:0:
160,230,131485,5,0,0:0:0:0:
175,264,131566,1,0,0:0:0:0:
202,290,131647,1,0,0:0:0:0:
236,307,131728,1,0,0:0:0:0:
273,314,131809,1,0,0:0:0:0:
311,308,131891,1,0,0:0:0:0:
343,288,131972,1,0,0:0:0:0:
361,254,132053,1,0,0:0:0:0:
363,191,132134,5,0,0:0:0:0:
340,132,132215,1,0,0:0:0:0:
291,92,132296,1,0,0:0:0:0:
228,89,132377,1,0,0:0:0:0:
170,112,132458,1,0,0:0:0:0:
136,164,132539,1,0,0:0:0:0:
137,226,132620,1,0,0:0:0:0:
164,281,132701,1,0,0:0:0:0:
249,311,132782,5,0,0:0:0:0:
335,282,132863,1,0,0:0:0:0:
358,192,132945,1,0,0:0:0:0:
310,114,133026,1,0,0:0:0:0:
219,101,133107,1,0,0:0:0:0:
145,154,133188,1,0,0:0:0:0:
153,244,133269,1,0,0:0:0:0:
223,302,133350,1,0,0:0:0:0:
357,285,133431,6,0,P|321:279|290:253,1,60.0000022888184
147,66,133593,2,0,P|150:95|164:131,1,60.0000022888184
399,260,133755,2,0,P|363:266|325:252,1,60.0000022888184
126,126,133917,2,0,P|139:152|164:181,1,60.0000022888184
432,230,134080,6,0,P|400:248|360:248,1,60.0000022888184
130,197,134242,2,0,P|151:217|184:235,1,60.0000022888184
448,183,134404,2,0,P|424:211|386:225,1,60.0000022888184
152,256,134566,2,0,P|179:267|216:273,1,60.0000022888184
448,128,134728,5,0,0:0:0:0:
388,60,134809,1,0,0:0:0:0:
300,35,134891,1,0,0:0:0:0:
210,37,134972,1,0,0:0:0:0:
138,90,135053,1,0,0:0:0:0:
100,171,135134,1,0,0:0:0:0:
92,260,135215,1,0,0:0:0:0:
118,345,135296,1,0,0:0:0:0:
202,314,135377,6,0,L|246:300,1,30.0000011444092
174,228,135458,2,0,L|219:228,1,30.0000011444092
189,139,135539,2,0,L|217:157,1,30.0000011444092
263,88,135620,2,0,L|279:117,1,30.0000011444092
352,90,135701,2,0,L|345:123,1,30.0000011444092
421,147,135782,2,0,L|395:168,1,30.0000011444092
449,232,135863,2,0,L|414:235,1,30.0000011444092
422,319,135945,2,0,L|394:306,1,30.0000011444092
256,192,136026,12,0,137242,0:0:0:0:
254,66,137323,6,0,L|254:138,1,60.0000022888184
215,225,137485,5,0,0:0:0:0:
256,233,137566,1,0,0:0:0:0:
297,230,137647,1,0,0:0:0:0:
337,218,137728,1,0,0:0:0:0:
372,195,137809,1,0,0:0:0:0:
398,161,137891,1,0,0:0:0:0:
411,121,137972,1,0,0:0:0:0:
409,79,138053,1,0,0:0:0:0:
388,35,138134,6,0,L|321:46,1,60.0000022888184
219,145,138296,2,0,L|286:134,1,60.0000022888184
337,228,138458,2,0,L|270:239,1,60.0000022888184
186,233,138620,5,0,0:0:0:0:
170,194,138701,1,0,0:0:0:0:
169,152,138782,1,0,0:0:0:0:
188,114,138863,1,0,0:0:0:0:
242,140,138945,5,0,0:0:0:0:
301,148,139026,1,0,0:0:0:0:
360,142,139107,1,0,0:0:0:0:
412,112,139188,1,0,0:0:0:0:
438,79,139269,5,0,0:0:0:0:
443,120,139350,1,0,0:0:0:0:
439,161,139431,1,0,0:0:0:0:
425,200,139512,1,0,0:0:0:0:
442,244,139593,5,0,0:0:0:0:
436,291,139674,1,0,0:0:0:0:
405,327,139755,1,0,0:0:0:0:
358,337,139836,1,0,0:0:0:0:
309,331,139918,6,0,P|222:300|184:255,1,120.000004577637
172,133,140242,1,0,0:0:0:0:
172,133,140323,1,0,0:0:0:0:
172,133,140404,1,0,0:0:0:0:
172,133,140485,1,0,0:0:0:0:
172,133,140566,1,0,0:0:0:0:
280,250,140728,6,0,L|270:186,1,60.0000022888184
319,57,140891,2,0,L|329:121,1,60.0000022888184
380,296,141053,2,0,L|370:236,1,60.0000022888184
353,133,141215,5,0,0:0:0:0:
320,168,141296,1,0,0:0:0:0:
279,193,141377,1,0,0:0:0:0:
233,208,141458,1,0,0:0:0:0:
185,214,141539,1,0,0:0:0:0:
137,209,141620,1,0,0:0:0:0:
51,155,141701,5,0,0:0:0:0:
294,52,141863,2,0,B|320:119|320:119|320:195,1,120.000004577637
211,329,142188,2,0,B|185:262|185:262|185:186,1,120.000004577637
210,38,142512,5,0,0:0:0:0:
256,76,142593,1,0,0:0:0:0:
288,126,142674,1,0,0:0:0:0:
291,185,142755,1,0,0:0:0:0:
268,240,142836,1,0,0:0:0:0:
228,285,142918,1,0,0:0:0:0:
173,310,142999,1,0,0:0:0:0:
113,314,143080,1,0,0:0:0:0:
54,303,143161,2,0,P|58:228|97:179,1,120.000004577637
181,120,143485,5,0,0:0:0:0:
324,259,143647,1,0,0:0:0:0:
302,38,143809,5,0,0:0:0:0:
256,76,143890,1,0,0:0:0:0:
224,126,143971,1,0,0:0:0:0:
221,185,144052,1,0,0:0:0:0:
244,240,144133,1,0,0:0:0:0:
284,285,144215,1,0,0:0:0:0:
339,310,144296,1,0,0:0:0:0:
399,314,144377,1,0,0:0:0:0:
458,303,144458,2,0,P|454:228|415:179,1,120.000004577637
331,120,144782,5,0,0:0:0:0:
188,259,144944,1,0,0:0:0:0:
152,49,145107,5,0,0:0:0:0:
136,67,145188,1,0,0:0:0:0:
129,90,145269,1,0,0:0:0:0:
127,113,145350,1,0,0:0:0:0:
132,136,145431,1,0,0:0:0:0:
143,156,145512,1,0,0:0:0:0:
159,173,145593,1,0,0:0:0:0:
178,186,145674,1,0,0:0:0:0:
201,191,145755,5,0,0:0:0:0:
222,202,145836,1,0,0:0:0:0:
237,220,145918,1,0,0:0:0:0:
247,241,145999,1,0,0:0:0:0:
253,263,146080,1,0,0:0:0:0:
253,286,146161,1,0,0:0:0:0:
249,309,146242,1,0,0:0:0:0:
240,331,146323,1,0,0:0:0:0:
275,329,146404,5,0,0:0:0:0:
310,322,146485,1,0,0:0:0:0:
343,307,146566,1,0,0:0:0:0:
368,281,146647,1,0,0:0:0:0:
376,245,146728,1,0,0:0:0:0:
369,209,146809,1,0,0:0:0:0:
350,177,146891,1,0,0:0:0:0:
326,150,146972,1,0,0:0:0:0:
260,211,147053,5,0,0:0:0:0:
170,208,147134,1,0,0:0:0:0:
111,139,147215,1,0,0:0:0:0:
132,51,147296,1,0,0:0:0:0:
218,27,147377,1,0,0:0:0:0:
299,64,147458,1,0,0:0:0:0:
326,150,147539,1,0,0:0:0:0:
260,211,147620,1,0,0:0:0:0:
170,208,147701,6,0,P|182:281|341:304,1,240.000009155274
414,217,148188,1,0,0:0:0:0:
414,217,148269,1,0,0:0:0:0:
414,217,148350,1,0,0:0:0:0:
270,102,148512,6,0,L|365:141,1,60.0000022888184
151,127,148674,2,0,L|56:88,1,60.0000022888184
286,225,148836,2,0,L|381:264,1,60.0000022888184
110,211,148999,5,0,0:0:0:0:
129,267,149080,1,0,0:0:0:0:
176,303,149161,1,0,0:0:0:0:
232,323,149242,1,0,0:0:0:0:
227,287,149323,5,0,0:0:0:0:
223,251,149404,1,0,0:0:0:0:
229,215,149485,1,0,0:0:0:0:
242,181,149566,1,0,0:0:0:0:
194,155,149647,5,0,0:0:0:0:
165,108,149728,1,0,0:0:0:0:
175,55,149809,1,0,0:0:0:0:
224,31,149891,1,0,0:0:0:0:
225,60,149972,5,0,0:0:0:0:
238,86,150053,1,0,0:0:0:0:
259,106,150134,1,0,0:0:0:0:
284,122,150215,1,0,0:0:0:0:
345,58,150296,5,0,0:0:0:0:
361,83,150377,1,0,0:0:0:0:
373,110,150458,1,0,0:0:0:0:
378,139,150539,1,0,0:0:0:0:
378,168,150620,1,0,0:0:0:0:
372,197,150701,1,0,0:0:0:0:
363,225,150782,1,0,0:0:0:0:
350,252,150863,1,0,0:0:0:0:
227,317,151107,6,0,L|188:236,1,60.0000022888184
213,88,151269,2,0,L|252:169,1,60.0000022888184
336,350,151431,2,0,L|297:269,1,60.0000022888184
265,197,151593,5,0,0:0:0:0:
282,172,151674,1,0,0:0:0:0:
307,156,151755,1,0,0:0:0:0:
335,147,151836,1,0,0:0:0:0:
365,146,151918,1,0,0:0:0:0:
394,152,151999,1,0,0:0:0:0:
421,163,152080,1,0,0:0:0:0:
446,178,152161,1,0,0:0:0:0:
409,225,152242,5,0,0:0:0:0:
349,231,152323,1,0,0:0:0:0:
295,204,152404,1,0,0:0:0:0:
251,162,152485,1,0,0:0:0:0:
208,120,152566,1,0,0:0:0:0:
155,90,152647,1,0,0:0:0:0:
95,79,152728,1,0,0:0:0:0:
35,82,152809,1,0,0:0:0:0:
40,99,152891,5,0,0:0:0:0:
48,114,152972,1,0,0:0:0:0:
57,129,153053,1,0,0:0:0:0:
67,143,153134,1,0,0:0:0:0:
78,156,153215,1,0,0:0:0:0:
87,171,153296,1,0,0:0:0:0:
94,187,153377,1,0,0:0:0:0:
98,204,153458,1,0,0:0:0:0:
98,221,153539,1,0,0:0:0:0:
96,238,153620,5,0,0:0:0:0:
92,255,153701,1,0,0:0:0:0:
87,272,153782,1,0,0:0:0:0:
81,289,153863,1,0,0:0:0:0:
77,306,153945,1,0,0:0:0:0:
76,323,154026,1,0,0:0:0:0:
79,340,154107,1,0,0:0:0:0:
89,354,154188,1,0,0:0:0:0:
117,332,154269,5,0,0:0:0:0:
148,314,154350,1,0,0:0:0:0:
183,306,154431,1,0,0:0:0:0:
218,306,154512,1,0,0:0:0:0:
253,312,154593,1,0,0:0:0:0:
288,314,154674,1,0,0:0:0:0:
323,306,154755,1,0,0:0:0:0:
353,286,154836,1,0,0:0:0:0:
371,254,154918,5,0,0:0:0:0:
375,218,154999,1,0,0:0:0:0:
360,184,155080,1,0,0:0:0:0:
333,159,155161,1,0,0:0:0:0:
305,135,155242,1,0,0:0:0:0:
281,107,155323,1,0,0:0:0:0:
274,71,155404,1,0,0:0:0:0:
286,37,155485,1,0,0:0:0:0:
241,77,155566,5,0,0:0:0:0:
189,107,155647,1,0,0:0:0:0:
133,128,155728,1,0,0:0:0:0:
73,131,155809,1,0,0:0:0:0:
374,89,156134,5,0,0:0:0:0:
359,171,156215,1,0,0:0:0:0:
327,248,156296,1,0,0:0:0:0:
267,307,156377,1,0,0:0:0:0:
266,283,156458,1,0,0:0:0:0:
261,259,156539,1,0,0:0:0:0:
252,236,156620,1,0,0:0:0:0:
239,215,156701,1,0,0:0:0:0:
203,210,156782,5,0,0:0:0:0:
169,198,156863,1,0,0:0:0:0:
140,175,156945,1,0,0:0:0:0:
122,143,157026,1,0,0:0:0:0:
115,107,157107,1,0,0:0:0:0:
123,71,157188,1,0,0:0:0:0:
146,43,157269,1,0,0:0:0:0:
178,27,157350,1,0,0:0:0:0:
213,24,157431,5,0,0:0:0:0:
248,31,157512,1,0,0:0:0:0:
281,44,157593,1,0,0:0:0:0:
308,67,157674,1,0,0:0:0:0:
331,93,157755,1,0,0:0:0:0:
345,126,157836,1,0,0:0:0:0:
359,159,157918,1,0,0:0:0:0:
379,188,157999,1,0,0:0:0:0:
448,171,158080,6,0,P|441:250|279:274,1,240.000009155274
246,124,158566,1,0,0:0:0:0:
246,124,158647,1,0,0:0:0:0:
246,124,158728,1,0,0:0:0:0:
442,74,158891,6,0,L|432:142,1,60.0000022888184
332,286,159053,2,0,L|342:218,1,60.0000022888184
297,47,159215,2,0,L|287:115,1,60.0000022888184
226,302,159377,5,0,0:0:0:0:
190,297,159458,1,0,0:0:0:0:
159,278,159539,1,0,0:0:0:0:
135,250,159620,1,0,0:0:0:0:
144,242,159701,1,0,0:0:0:0:
153,234,159782,1,0,0:0:0:0:
160,224,159863,1,0,0:0:0:0:
165,213,159945,1,0,0:0:0:0:
116,177,160026,5,0,0:0:0:0:
103,118,160107,1,0,0:0:0:0:
130,64,160188,1,0,0:0:0:0:
186,43,160269,1,0,0:0:0:0:
193,65,160350,5,0,0:0:0:0:
205,85,160431,1,0,0:0:0:0:
220,103,160512,1,0,0:0:0:0:
237,119,160593,1,0,0:0:0:0:
296,90,160674,5,0,0:0:0:0:
361,95,160755,1,0,0:0:0:0:
403,145,160836,1,0,0:0:0:0:
410,211,160918,1,0,0:0:0:0:
381,270,160999,1,0,0:0:0:0:
318,291,161080,1,0,0:0:0:0:
252,286,161161,1,0,0:0:0:0:
196,250,161242,1,0,0:0:0:0:
190,184,161323,1,0,0:0:0:0:
270,47,161485,6,0,L|324:103,1,60.0000022888184
330,243,161647,2,0,L|276:187,1,60.0000022888184
94,66,161809,2,0,L|148:122,1,60.0000022888184
252,313,161972,5,0,0:0:0:0:
281,314,162053,1,0,0:0:0:0:
310,308,162134,1,0,0:0:0:0:
335,292,162215,1,0,0:0:0:0:
353,268,162296,1,0,0:0:0:0:
361,239,162377,1,0,0:0:0:0:
362,209,162458,1,0,0:0:0:0:
356,179,162539,1,0,0:0:0:0:
312,210,162620,5,0,0:0:0:0:
261,229,162701,1,0,0:0:0:0:
207,233,162782,1,0,0:0:0:0:
153,225,162863,1,0,0:0:0:0:
109,192,162945,1,0,0:0:0:0:
91,140,163026,1,0,0:0:0:0:
101,87,163107,1,0,0:0:0:0:
128,40,163188,1,0,0:0:0:0:
179,24,163269,6,0,L|166:115,1,60.0000022888184
333,24,163431,2,0,L|346:115,1,60.0000022888184
168,104,163593,2,0,L|153:207,1,60.0000022888184
343,104,163755,2,0,L|358:207,1,60.0000022888184
252,270,163918,5,0,0:0:0:0:
245,253,163999,1,0,0:0:0:0:
243,235,164080,1,0,0:0:0:0:
245,217,164161,1,0,0:0:0:0:
249,199,164242,1,0,0:0:0:0:
253,181,164323,1,0,0:0:0:0:
256,163,164404,1,0,0:0:0:0:
257,145,164485,1,0,0:0:0:0:
179,360,164566,6,0,L|166:269,1,60.0000022888184
333,360,164728,2,0,L|346:269,1,60.0000022888184
168,280,164890,2,0,L|153:176,1,60.0000022888184
343,280,165052,2,0,L|358:176,1,60.0000022888184
257,84,165215,5,0,0:0:0:0:
282,109,165296,1,0,0:0:0:0:
291,143,165377,1,0,0:0:0:0:
289,178,165458,1,0,0:0:0:0:
279,212,165539,1,0,0:0:0:0:
263,244,165620,1,0,0:0:0:0:
260,279,165701,1,0,0:0:0:0:
266,314,165782,1,0,0:0:0:0:
283,311,165863,5,0,0:0:0:0:
300,307,165945,1,0,0:0:0:0:
316,298,166026,1,0,0:0:0:0:
328,285,166107,1,0,0:0:0:0:
341,273,166188,1,0,0:0:0:0:
357,264,166269,1,0,0:0:0:0:
374,258,166350,1,0,0:0:0:0:
391,254,166431,1,0,0:0:0:0:
408,252,166512,5,0,0:0:0:0:
425,246,166593,1,0,0:0:0:0:
439,235,166674,1,0,0:0:0:0:
449,220,166755,1,0,0:0:0:0:
453,202,166836,1,0,0:0:0:0:
453,183,166918,1,0,0:0:0:0:
448,165,166999,1,0,0:0:0:0:
438,149,167080,1,0,0:0:0:0:
399,177,167161,5,0,0:0:0:0:
359,203,167242,1,0,0:0:0:0:
316,225,167323,1,0,0:0:0:0:
271,242,167404,1,0,0:0:0:0:
223,249,167485,1,0,0:0:0:0:
175,246,167566,1,0,0:0:0:0:
128,233,167647,1,0,0:0:0:0:
84,212,167728,1,0,0:0:0:0:
124,186,167809,5,0,0:0:0:0:
171,174,167891,1,0,0:0:0:0:
218,178,167972,1,0,0:0:0:0:
262,195,168053,1,0,0:0:0:0:
303,219,168134,1,0,0:0:0:0:
343,244,168215,1,0,0:0:0:0:
386,263,168296,1,0,0:0:0:0:
433,270,168377,1,0,0:0:0:0:
446,193,168458,6,0,P|441:126|393:80,1,120.000004577637
211,69,168782,1,0,0:0:0:0:
211,69,168863,1,0,0:0:0:0:
211,69,168945,2,0,L|243:124,1,60.0000022888184
291,307,169269,6,0,L|302:243,1,60.0000022888184
222,130,169431,2,0,L|211:194,1,60.0000022888184
100,349,169593,2,0,L|111:285,1,60.0000022888184
135,48,169755,5,0,0:0:0:0:
149,93,169836,1,0,0:0:0:0:
181,129,169918,1,0,0:0:0:0:
220,156,169999,1,0,0:0:0:0:
232,143,170080,1,0,0:0:0:0:
246,133,170161,1,0,0:0:0:0:
262,126,170242,1,0,0:0:0:0:
279,122,170323,1,0,0:0:0:0:
356,128,170404,5,0,0:0:0:0:
400,192,170485,1,0,0:0:0:0:
401,269,170566,1,0,0:0:0:0:
349,327,170647,1,0,0:0:0:0:
337,326,170728,5,0,0:0:0:0:
325,323,170809,1,0,0:0:0:0:
314,317,170891,1,0,0:0:0:0:
304,309,170972,1,0,0:0:0:0:
334,237,171053,5,0,0:0:0:0:
332,159,171134,1,0,0:0:0:0:
284,97,171215,1,0,0:0:0:0:
208,78,171296,1,0,0:0:0:0:
133,99,171377,1,0,0:0:0:0:
92,165,171458,1,0,0:0:0:0:
96,242,171539,1,0,0:0:0:0:
146,301,171620,1,0,0:0:0:0:
168,280,171701,5,0,0:0:0:0:
192,262,171782,1,0,0:0:0:0:
215,243,171863,1,0,0:0:0:0:
229,216,171945,1,0,0:0:0:0:
230,186,172026,2,0,L|325:160,1,60.0000022888184
432,225,172188,2,0,L|337:251,1,60.0000022888184
213,290,172350,5,0,0:0:0:0:
140,247,172431,1,0,0:0:0:0:
110,168,172512,1,0,0:0:0:0:
132,87,172593,1,0,0:0:0:0:
196,33,172674,1,0,0:0:0:0:
279,22,172755,1,0,0:0:0:0:
358,47,172836,1,0,0:0:0:0:
405,117,172918,1,0,0:0:0:0:
389,126,172999,5,0,0:0:0:0:
375,138,173080,1,0,0:0:0:0:
365,153,173161,1,0,0:0:0:0:
358,169,173242,1,0,0:0:0:0:
353,186,173323,1,0,0:0:0:0:
352,203,173404,1,0,0:0:0:0:
354,220,173485,1,0,0:0:0:0:
358,237,173566,1,0,0:0:0:0:
383,289,173647,5,0,0:0:0:0:
146,261,173809,1,0,0:0:0:0:
366,261,173972,1,0,0:0:0:0:
129,289,174134,1,0,0:0:0:0:
417,293,174296,1,0,0:0:0:0:
111,256,174458,1,0,0:0:0:0:
434,223,174620,5,0,0:0:0:0:
427,206,174701,1,0,0:0:0:0:
417,190,174782,1,0,0:0:0:0:
405,176,174863,1,0,0:0:0:0:
365,140,174945,5,0,0:0:0:0:
147,140,175107,1,0,0:0:0:0:
407,100,175269,1,0,0:0:0:0:
104,100,175431,1,0,0:0:0:0:
407,180,175593,1,0,0:0:0:0:
104,180,175755,1,0,0:0:0:0:
325,97,175918,5,0,0:0:0:0:
333,113,175999,1,0,0:0:0:0:
339,129,176080,1,0,0:0:0:0:
344,146,176161,1,0,0:0:0:0:
348,163,176242,1,0,0:0:0:0:
350,180,176323,1,0,0:0:0:0:
350,197,176404,1,0,0:0:0:0:
347,214,176485,1,0,0:0:0:0:
341,231,176566,5,0,0:0:0:0:
333,247,176647,1,0,0:0:0:0:
322,261,176728,1,0,0:0:0:0:
307,272,176809,1,0,0:0:0:0:
291,281,176891,1,0,0:0:0:0:
274,287,176972,1,0,0:0:0:0:
256,291,177053,1,0,0:0:0:0:
238,292,177134,1,0,0:0:0:0:
220,289,177215,5,0,0:0:0:0:
204,280,177296,1,0,0:0:0:0:
190,268,177377,1,0,0:0:0:0:
179,253,177458,1,0,0:0:0:0:
166,186,177539,5,0,0:0:0:0:
208,207,177620,1,0,0:0:0:0:
254,219,177701,1,0,0:0:0:0:
301,221,177782,1,0,0:0:0:0:
348,215,177863,1,0,0:0:0:0:
392,195,177945,1,0,0:0:0:0:
422,158,178026,1,0,0:0:0:0:
437,112,178107,1,0,0:0:0:0:
351,83,178188,5,0,0:0:0:0:
368,171,178269,1,0,0:0:0:0:
404,253,178350,1,0,0:0:0:0:
453,327,178431,1,0,0:0:0:0:
367,300,178512,1,0,0:0:0:0:
279,279,178593,1,0,0:0:0:0:
189,277,178674,1,0,0:0:0:0:
100,294,178755,1,0,0:0:0:0:
74,193,178836,6,0,P|166:212|158:92,1,240.000009155274
331,73,179485,5,0,0:0:0:0:
344,131,179566,1,0,0:0:0:0:
363,187,179647,1,0,0:0:0:0:
376,245,179728,1,0,0:0:0:0:
363,303,179809,1,0,0:0:0:0:
313,337,179891,1,0,0:0:0:0:
253,338,179972,1,0,0:0:0:0:
209,296,180053,1,0,0:0:0:0:
222,284,180134,5,0,0:0:0:0:
235,272,180215,1,0,0:0:0:0:
243,256,180296,1,0,0:0:0:0:
247,238,180377,1,0,0:0:0:0:
240,202,180458,1,0,0:0:0:0:
232,166,180539,1,0,0:0:0:0:
239,130,180620,1,0,0:0:0:0:
260,100,180701,1,0,0:0:0:0:
310,81,180782,5,0,0:0:0:0:
363,87,180863,1,0,0:0:0:0:
408,116,180945,1,0,0:0:0:0:
428,165,181026,1,0,0:0:0:0:
412,235,181107,1,0,0:0:0:0:
362,287,181188,1,0,0:0:0:0:
290,297,181269,1,0,0:0:0:0:
222,273,181350,1,0,0:0:0:0:
183,212,181431,6,0,P|183:131|141:76,1,120.000004577637
79,207,181755,1,0,0:0:0:0:
79,207,181836,1,0,0:0:0:0:
79,207,181918,1,0,0:0:0:0:
79,207,181999,1,0,0:0:0:0:
102,225,182080,5,0,0:0:0:0:
126,241,182161,1,0,0:0:0:0:
153,252,182242,1,0,0:0:0:0:
182,256,182323,1,0,0:0:0:0:
211,255,182404,1,0,0:0:0:0:
240,248,182485,1,0,0:0:0:0:
267,237,182566,1,0,0:0:0:0:
292,220,182647,1,0,0:0:0:0:
258,194,182728,5,0,0:0:0:0:
234,159,182809,1,0,0:0:0:0:
232,116,182891,1,0,0:0:0:0:
249,77,182972,1,0,0:0:0:0:
270,113,183053,1,0,0:0:0:0:
263,154,183134,1,0,0:0:0:0:
244,191,183215,1,0,0:0:0:0:
217,223,183296,1,0,0:0:0:0:
175,225,183377,6,0,B|127:265|127:265|97:210,1,120.000004577637
337,225,183701,2,0,B|385:265|385:265|415:210,1,120.000004577637
355,73,184026,5,0,0:0:0:0:
359,84,184107,1,0,0:0:0:0:
362,95,184188,1,0,0:0:0:0:
364,106,184269,1,0,0:0:0:0:
365,117,184350,1,0,0:0:0:0:
364,128,184431,1,0,0:0:0:0:
362,139,184512,1,0,0:0:0:0:
360,150,184593,1,0,0:0:0:0:
359,161,184674,5,0,0:0:0:0:
353,171,184755,1,0,0:0:0:0:
349,182,184836,1,0,0:0:0:0:
348,194,184918,1,0,0:0:0:0:
348,205,184999,1,0,0:0:0:0:
350,216,185080,1,0,0:0:0:0:
352,227,185161,1,0,0:0:0:0:
354,238,185242,1,0,0:0:0:0:
358,261,185323,5,0,0:0:0:0:
353,284,185404,1,0,0:0:0:0:
339,303,185485,1,0,0:0:0:0:
317,314,185566,1,0,0:0:0:0:
293,315,185647,1,0,0:0:0:0:
270,305,185728,1,0,0:0:0:0:
253,287,185809,1,0,0:0:0:0:
252,262,185891,1,0,0:0:0:0:
264,241,185972,5,0,0:0:0:0:
274,219,186053,1,0,0:0:0:0:
279,195,186134,1,0,0:0:0:0:
278,171,186215,1,0,0:0:0:0:
270,148,186296,1,0,0:0:0:0:
258,126,186377,1,0,0:0:0:0:
249,103,186458,1,0,0:0:0:0:
245,79,186539,1,0,0:0:0:0:
286,76,186620,5,0,0:0:0:0:
324,91,186701,1,0,0:0:0:0:
352,121,186782,1,0,0:0:0:0:
361,161,186863,1,0,0:0:0:0:
346,201,186945,1,0,0:0:0:0:
313,227,187026,1,0,0:0:0:0:
272,238,187107,1,0,0:0:0:0:
230,236,187188,1,0,0:0:0:0:
193,214,187269,5,0,0:0:0:0:
180,173,187350,1,0,0:0:0:0:
187,131,187431,1,0,0:0:0:0:
210,96,187512,1,0,0:0:0:0:
246,76,187593,1,0,0:0:0:0:
287,74,187674,1,0,0:0:0:0:
327,86,187755,1,0,0:0:0:0:
359,112,187836,1,0,0:0:0:0:
382,147,187918,6,0,L|338:230,1,60.0000022888184
130,237,188080,2,0,L|174:154,1,60.0000022888184
414,135,188242,2,0,L|359:239,1,60.0000022888184
97,248,188404,2,0,L|152:144,1,60.0000022888184
382,237,188566,6,0,L|338:154,1,60.0000022888184
130,147,188728,2,0,L|174:230,1,60.0000022888184
414,248,188890,2,0,L|359:144,1,60.0000022888184
97,135,189052,2,0,L|152:239,1,60.0000022888184
356,89,189215,5,0,0:0:0:0:
365,129,189296,1,0,0:0:0:0:
363,170,189377,1,0,0:0:0:0:
353,210,189458,1,0,0:0:0:0:
332,246,189539,1,0,0:0:0:0:
302,276,189620,1,0,0:0:0:0:
265,297,189701,1,0,0:0:0:0:
224,307,189782,1,0,0:0:0:0:
182,302,189863,5,0,0:0:0:0:
141,289,189945,1,0,0:0:0:0:
108,262,190026,1,0,0:0:0:0:
83,227,190107,1,0,0:0:0:0:
72,186,190188,1,0,0:0:0:0:
70,144,190269,1,0,0:0:0:0:
76,102,190350,1,0,0:0:0:0:
91,63,190431,1,0,0:0:0:0:
180,55,190512,5,0,0:0:0:0:
269,67,190593,1,0,0:0:0:0:
351,102,190674,1,0,0:0:0:0:
427,149,190755,1,0,0:0:0:0:
408,193,190836,1,0,0:0:0:0:
376,230,190918,1,0,0:0:0:0:
338,260,190999,1,0,0:0:0:0:
296,283,191080,1,0,0:0:0:0:
235,257,191161,5,0,0:0:0:0:
219,192,191242,1,0,0:0:0:0:
244,131,191323,1,0,0:0:0:0:
299,96,191404,1,0,0:0:0:0:
296,119,191485,1,0,0:0:0:0:
287,141,191566,1,0,0:0:0:0:
274,161,191647,1,0,0:0:0:0:
257,178,191728,1,0,0:0:0:0:
236,148,191809,5,0,0:0:0:0:
204,129,191891,1,0,0:0:0:0:
169,117,191972,1,0,0:0:0:0:
133,115,192053,1,0,0:0:0:0:
97,121,192134,1,0,0:0:0:0:
63,134,192215,1,0,0:0:0:0:
37,159,192296,1,0,0:0:0:0:
20,191,192377,1,0,0:0:0:0:
42,233,192458,5,0,0:0:0:0:
80,261,192539,1,0,0:0:0:0:
124,279,192620,1,0,0:0:0:0:
171,284,192701,1,0,0:0:0:0:
218,278,192782,1,0,0:0:0:0:
262,259,192863,1,0,0:0:0:0:
302,231,192945,1,0,0:0:0:0:
332,193,193026,1,0,0:0:0:0:
342,146,193107,6,0,P|281:84|215:79,1,120.000004577637
170,238,193431,2,0,P|231:300|297:305,1,120.000004577637
296,89,193755,2,0,P|199:80|138:124,1,120.000004577637
215,294,194079,2,0,P|312:303|373:259,1,120.000004577637
199,122,194404,5,0,0:0:0:0:
190,144,194485,1,0,0:0:0:0:
184,167,194566,1,0,0:0:0:0:
182,190,194647,1,0,0:0:0:0:
183,213,194728,1,0,0:0:0:0:
187,236,194809,1,0,0:0:0:0:
193,259,194891,1,0,0:0:0:0:
200,281,194972,1,0,0:0:0:0:
228,273,195053,5,0,0:0:0:0:
257,266,195134,1,0,0:0:0:0:
286,263,195215,1,0,0:0:0:0:
315,263,195296,1,0,0:0:0:0:
343,271,195377,2,0,L|365:202,1,60.0000022888184
309,69,195539,2,0,L|287:138,1,60.0000022888184
243,253,195701,5,0,0:0:0:0:
217,212,195782,1,0,0:0:0:0:
208,164,195863,1,0,0:0:0:0:
215,115,195945,1,0,0:0:0:0:
241,74,196026,1,0,0:0:0:0:
283,50,196107,1,0,0:0:0:0:
330,46,196188,1,0,0:0:0:0:
377,51,196269,1,0,0:0:0:0:
372,68,196350,5,0,0:0:0:0:
365,84,196431,1,0,0:0:0:0:
356,99,196512,1,0,0:0:0:0:
346,114,196593,1,0,0:0:0:0:
337,130,196674,1,0,0:0:0:0:
330,146,196755,1,0,0:0:0:0:
325,163,196836,1,0,0:0:0:0:
322,180,196918,1,0,0:0:0:0:
324,221,196999,5,0,0:0:0:0:
353,250,197080,1,0,0:0:0:0:
394,246,197161,1,0,0:0:0:0:
426,220,197242,1,0,0:0:0:0:
437,179,197323,1,0,0:0:0:0:
424,138,197404,1,0,0:0:0:0:
397,105,197485,1,0,0:0:0:0:
355,101,197566,1,0,0:0:0:0:
315,116,197647,5,0,0:0:0:0:
278,137,197728,1,0,0:0:0:0:
239,154,197809,1,0,0:0:0:0:
197,164,197891,1,0,0:0:0:0:
155,165,197972,1,0,0:0:0:0:
115,151,198053,1,0,0:0:0:0:
81,125,198134,1,0,0:0:0:0:
59,88,198215,1,0,0:0:0:0:
59,165,198296,5,0,0:0:0:0:
100,230,198377,1,0,0:0:0:0:
167,268,198458,1,0,0:0:0:0:
244,272,198539,1,0,0:0:0:0:
320,256,198620,1,0,0:0:0:0:
382,209,198701,1,0,0:0:0:0:
412,137,198782,1,0,0:0:0:0:
419,59,198863,1,0,0:0:0:0:
329,45,198945,5,0,0:0:0:0:
241,65,199026,1,0,0:0:0:0:
172,122,199107,1,0,0:0:0:0:
130,201,199188,1,0,0:0:0:0:
227,248,199269,1,0,0:0:0:0:
332,226,199350,1,0,0:0:0:0:
387,133,199431,1,0,0:0:0:0:
349,31,199512,1,0,0:0:0:0:
245,35,199593,6,0,L|238:72,8,30.0000011444092
267,44,200323,1,0,0:0:0:0:
279,64,200404,1,0,0:0:0:0:
287,86,200485,1,0,0:0:0:0:
290,109,200566,1,0,0:0:0:0:
285,132,200647,1,0,0:0:0:0:
279,155,200728,1,0,0:0:0:0:
271,177,200809,1,0,0:0:0:0:
259,198,200891,6,0,L|271:247,8,30.0000011444092
238,211,201620,1,0,0:0:0:0:
223,230,201701,1,0,0:0:0:0:
214,252,201782,1,0,0:0:0:0:
211,275,201863,1,0,0:0:0:0:
216,298,201945,1,0,0:0:0:0:
229,317,202026,1,0,0:0:0:0:
246,333,202107,1,0,0:0:0:0:
269,334,202188,6,0,L|316:333,8,30.0000011444092
256,312,202918,1,0,0:0:0:0:
249,288,202999,1,0,0:0:0:0:
248,264,203080,1,0,0:0:0:0:
253,240,203161,1,0,0:0:0:0:
260,217,203242,1,0,0:0:0:0:
264,193,203323,1,0,0:0:0:0:
259,169,203404,1,0,0:0:0:0:
244,149,203485,6,0,L|227:116,8,30.0000011444092
229,160,204215,1,0,0:0:0:0:
217,173,204296,1,0,0:0:0:0:
208,188,204377,1,0,0:0:0:0:
202,204,204458,1,0,0:0:0:0:
197,221,204539,1,0,0:0:0:0:
194,238,204620,1,0,0:0:0:0:
191,255,204701,1,0,0:0:0:0:
190,272,204782,6,0,L|191:324,8,30.0000011444092
217,270,205512,1,0,0:0:0:0:
243,263,205593,1,0,0:0:0:0:
267,252,205674,1,0,0:0:0:0:
289,236,205755,1,0,0:0:0:0:
307,215,205836,1,0,0:0:0:0:
321,191,205918,1,0,0:0:0:0:
327,164,205999,1,0,0:0:0:0:
326,137,206080,6,0,L|291:98,8,30.0000011444092
331,163,206809,1,0,0:0:0:0:
329,190,206891,1,0,0:0:0:0:
335,216,206972,1,0,0:0:0:0:
346,240,207053,1,0,0:0:0:0:
360,262,207134,1,0,0:0:0:0:
380,279,207215,1,0,0:0:0:0:
394,301,207296,1,0,0:0:0:0:
398,327,207377,6,0,L|443:346,8,30.0000011444092
367,313,208107,1,0,0:0:0:0:
335,303,208188,1,0,0:0:0:0:
302,297,208269,1,0,0:0:0:0:
269,295,208350,1,0,0:0:0:0:
236,298,208431,1,0,0:0:0:0:
203,304,208512,1,0,0:0:0:0:
171,312,208593,1,0,0:0:0:0:
139,322,208674,6,0,L|120:361,8,30.0000011444092
147,299,209404,1,0,0:0:0:0:
151,275,209485,1,0,0:0:0:0:
150,251,209566,1,0,0:0:0:0:
145,227,209647,1,0,0:0:0:0:
144,203,209728,1,0,0:0:0:0:
152,180,209809,1,0,0:0:0:0:
165,159,209891,1,0,0:0:0:0:
183,143,209972,6,0,L|218:162,8,30.0000011444092
162,120,210701,1,0,0:0:0:0:
150,92,210782,1,0,0:0:0:0:
146,62,210863,1,0,0:0:0:0:
158,34,210945,1,0,0:0:0:0:
182,16,211026,1,0,0:0:0:0:
211,12,211107,1,0,0:0:0:0:
240,17,211188,1,0,0:0:0:0:
266,30,211269,6,0,L|303:14,8,30.0000011444092
252,46,211999,1,0,0:0:0:0:
241,64,212080,1,0,0:0:0:0:
235,84,212161,1,0,0:0:0:0:
235,104,212242,1,0,0:0:0:0:
239,124,212323,1,0,0:0:0:0:
245,144,212404,1,0,0:0:0:0:
248,164,212485,1,0,0:0:0:0:
247,184,212566,6,0,L|286:200,8,30.0000011444092
220,176,213296,1,0,0:0:0:0:
193,174,213377,1,0,0:0:0:0:
166,175,213458,1,0,0:0:0:0:
139,181,213539,1,0,0:0:0:0:
114,193,213620,1,0,0:0:0:0:
91,207,213701,1,0,0:0:0:0:
66,217,213782,1,0,0:0:0:0:
39,219,213863,6,0,L|23:267,8,30.0000011444092
43,185,214593,1,0,0:0:0:0:
48,152,214674,1,0,0:0:0:0:
59,120,214755,1,0,0:0:0:0:
78,93,214836,1,0,0:0:0:0:
104,72,214918,1,0,0:0:0:0:
135,61,214999,1,0,0:0:0:0:
167,56,215080,1,0,0:0:0:0:
199,58,215161,6,0,L|244:64,8,30.0000011444092
171,85,215891,1,0,0:0:0:0:
156,121,215972,1,0,0:0:0:0:
148,159,216053,1,0,0:0:0:0:
156,196,216134,1,0,0:0:0:0:
166,233,216215,1,0,0:0:0:0:
168,271,216296,1,0,0:0:0:0:
159,308,216377,1,0,0:0:0:0:
140,342,216458,6,0,L|100:357,8,30.0000011444092
164,340,217188,1,0,0:0:0:0:
187,339,217269,1,0,0:0:0:0:
210,335,217350,1,0,0:0:0:0:
232,326,217431,1,0,0:0:0:0:
250,310,217512,1,0,0:0:0:0:
270,297,217593,1,0,0:0:0:0:
293,291,217674,1,0,0:0:0:0:
316,292,217755,6,0,L|334:329,8,30.0000011444092
309,262,218485,1,0,0:0:0:0:
316,232,218566,1,0,0:0:0:0:
333,207,218647,1,0,0:0:0:0:
347,180,218728,1,0,0:0:0:0:
350,150,218809,1,0,0:0:0:0:
345,120,218891,1,0,0:0:0:0:
331,93,218972,1,0,0:0:0:0:
311,70,219053,6,0,L|356:44,8,30.0000011444092
286,100,219782,1,0,0:0:0:0:
267,134,219863,1,0,0:0:0:0:
249,169,219945,1,0,0:0:0:0:
226,200,220026,1,0,0:0:0:0:
196,225,220107,1,0,0:0:0:0:
160,240,220188,1,0,0:0:0:0:
122,248,220269,1,0,0:0:0:0:
83,245,220350,1,0,0:0:0:0:
