osu file format v14

[General]
AudioFilename: audio.mp3
AudioLeadIn: 0
PreviewTime: 63804
Countdown: 0
SampleSet: Soft
StackLeniency: 0.7
Mode: 3
LetterboxInBreaks: 0
SpecialStyle: 0
WidescreenStoryboard: 0

[Editor]
DistanceSpacing: 0.8
BeatDivisor: 4
GridSize: 8
TimelineZoom: 0.8999999

[Metadata]
Title:Sheriruth
TitleUnicode:Sheriruth
Artist:Team Grimoire
ArtistUnicode:Team Grimoire
Creator:DoNotMess
Version:Past
Source:Arcaea
Tags:lowiro Grimoire of Darkness Eternal Core Conflict(対立) Tairitsu M3-2016 TG-005. Tofu1222 ajeemaniz Arzenvald ExUsagi Virtue-
BeatmapID:1249737
BeatmapSetID:590341

[Difficulty]
HPDrainRate:7.2
CircleSize:4
OverallDifficulty:7.2
ApproachRate:5
SliderMultiplier:1.4
SliderTickRate:1

[Events]
//Background and Video events
0,0,"Es Serut lagi anjeg.jpg",0,0
//Break Periods
//Storyboard Layer 0 (Background)
//Storyboard Layer 1 (Fail)
//Storyboard Layer 2 (Pass)
//Storyboard Layer 3 (Foreground)
//Storyboard Sound Samples

[TimingPoints]
2832,324.324324324324,4,2,1,50,1,0
65102,-100,4,2,1,50,0,1
78075,-100,4,2,1,50,0,0
79210,-100,4,2,1,50,0,1
85859,-100,4,2,1,50,0,0
116994,-100,4,2,1,50,0,1
129967,-100,4,2,1,50,0,0
131102,-100,4,2,1,50,0,1
137750,-100,4,2,1,50,0,0

[HitObjects]
64,192,2832,5,4,0:0:0:0:
192,192,2832,1,2,0:0:0:0:
64,192,3318,1,2,0:0:0:0:
320,192,3318,1,0,0:0:0:0:
448,192,3804,1,2,0:0:0:0:
192,192,3804,1,0,0:0:0:0:
320,192,4291,1,2,0:0:0:0:
448,192,4291,1,0,0:0:0:0:
192,192,4777,1,2,0:0:0:0:
448,192,4777,1,0,0:0:0:0:
320,192,5102,1,2,0:0:0:0:
64,192,5102,1,0,0:0:0:0:
64,192,5426,1,2,0:0:0:0:
192,192,5426,1,0,0:0:0:0:
320,192,5913,1,2,0:0:0:0:
192,192,5913,1,0,0:0:0:0:
64,192,6399,1,2,0:0:0:0:
448,192,6399,1,0,0:0:0:0:
320,192,6886,1,2,0:0:0:0:
448,192,6886,1,0,0:0:0:0:
64,192,7372,1,2,0:0:0:0:
448,192,7372,1,0,0:0:0:0:
192,192,7696,1,2,0:0:0:0:
448,192,7696,1,0,0:0:0:0:
320,192,8021,1,2,0:0:0:0:
448,192,8021,1,4,0:0:0:0:
64,192,8507,1,2,0:0:0:0:
320,192,8507,1,0,0:0:0:0:
192,192,8994,1,2,0:0:0:0:
448,192,8994,1,0,0:0:0:0:
64,192,9480,1,2,0:0:0:0:
192,192,9480,1,0,0:0:0:0:
448,192,9967,1,2,0:0:0:0:
64,192,9967,1,0,0:0:0:0:
320,192,10291,1,2,0:0:0:0:
64,192,10291,1,0,0:0:0:0:
192,192,10615,1,4,0:0:0:0:
64,192,10615,1,2,0:0:0:0:
448,192,11102,1,2,0:0:0:0:
192,192,11102,1,0,0:0:0:0:
64,192,11588,1,2,0:0:0:0:
320,192,11588,1,0,0:0:0:0:
64,192,12075,1,2,0:0:0:0:
192,192,12075,1,0,0:0:0:0:
320,192,12561,1,2,0:0:0:0:
448,192,12561,1,0,0:0:0:0:
64,192,12886,1,2,0:0:0:0:
192,192,12886,1,0,0:0:0:0:
448,192,13210,1,6,0:0:0:0:
320,192,13210,1,0,0:0:0:0:
192,192,13372,1,2,0:0:0:0:
64,192,13534,1,2,0:0:0:0:
320,192,13696,1,2,0:0:0:0:
192,192,13859,1,2,0:0:0:0:
64,192,14021,1,2,0:0:0:0:
448,192,14183,1,2,0:0:0:0:
320,192,14345,1,2,0:0:0:0:
192,192,14507,1,2,0:0:0:0:
448,192,14669,1,2,0:0:0:0:
320,192,14831,1,2,0:0:0:0:
192,192,14994,1,2,0:0:0:0:
320,192,15156,1,2,0:0:0:0:
448,192,15318,1,2,0:0:0:0:
192,192,15480,1,2,0:0:0:0:
320,192,15642,1,2,0:0:0:0:
64,192,15804,1,2,0:0:0:0:
448,192,15804,1,0,0:0:0:0:
192,192,15967,1,2,0:0:0:0:
320,192,16129,1,2,0:0:0:0:
64,192,16291,1,2,0:0:0:0:
192,192,16453,1,2,0:0:0:0:
320,192,16615,1,2,0:0:0:0:
192,192,16777,1,2,0:0:0:0:
320,192,16940,1,2,0:0:0:0:
448,192,17102,1,2,0:0:0:0:
192,192,17264,1,2,0:0:0:0:
320,192,17426,1,2,0:0:0:0:
448,192,17588,1,2,0:0:0:0:
192,192,17750,1,2,0:0:0:0:
64,192,17913,1,2,0:0:0:0:
320,192,18075,1,2,0:0:0:0:
192,192,18237,1,2,0:0:0:0:
448,192,18399,1,2,0:0:0:0:
64,192,18399,1,4,0:0:0:0:
320,192,18561,1,2,0:0:0:0:
192,192,18723,1,2,0:0:0:0:
448,192,18886,1,2,0:0:0:0:
320,192,19048,1,2,0:0:0:0:
192,192,19210,1,2,0:0:0:0:
320,192,19372,1,2,0:0:0:0:
192,192,19534,1,2,0:0:0:0:
64,192,19696,1,2,0:0:0:0:
320,192,19859,1,2,0:0:0:0:
192,192,20021,1,2,0:0:0:0:
64,192,20183,1,2,0:0:0:0:
320,192,20345,1,2,0:0:0:0:
192,192,20507,1,2,0:0:0:0:
448,192,20669,1,2,0:0:0:0:
320,192,20831,1,2,0:0:0:0:
64,192,20994,1,8,0:0:0:0:
192,192,20994,128,0,21480:0:0:0:0:
320,192,21480,128,0,21967:0:0:0:0:
448,192,21480,1,8,0:0:0:0:
448,192,21967,128,0,22453:0:0:0:0:
64,192,21967,1,8,0:0:0:0:
64,192,22453,128,8,23588:0:0:0:0:
192,192,22615,128,0,22940:0:0:0:0:
320,192,22940,128,2,23264:0:0:0:0:
448,192,23264,128,2,23588:0:0:0:0:
320,192,23588,1,6,0:0:0:0:
192,192,23588,1,0,0:0:0:0:
192,192,23913,1,8,0:0:0:0:
64,192,24075,1,0,0:0:0:0:
448,192,24075,1,0,0:0:0:0:
64,192,24399,1,0,0:0:0:0:
320,192,24399,1,0,0:0:0:0:
64,192,24723,1,0,0:0:0:0:
192,192,24723,1,0,0:0:0:0:
320,192,24886,1,2,0:0:0:0:
192,192,25210,1,8,0:0:0:0:
64,192,25372,1,0,0:0:0:0:
448,192,25372,1,0,0:0:0:0:
192,192,25696,1,4,0:0:0:0:
448,192,25696,1,0,0:0:0:0:
320,192,26021,1,0,0:0:0:0:
448,192,26021,1,0,0:0:0:0:
64,192,26183,1,4,0:0:0:0:
192,192,26183,1,2,0:0:0:0:
448,192,26507,1,8,0:0:0:0:
64,192,26669,1,0,0:0:0:0:
320,192,26669,1,0,0:0:0:0:
192,192,26994,1,0,0:0:0:0:
320,192,26994,1,0,0:0:0:0:
192,192,27318,1,0,0:0:0:0:
448,192,27318,1,0,0:0:0:0:
64,192,27480,1,2,0:0:0:0:
320,192,27804,1,8,0:0:0:0:
64,192,27967,1,0,0:0:0:0:
448,192,27967,1,0,0:0:0:0:
192,192,28291,1,0,0:0:0:0:
320,192,28291,1,0,0:0:0:0:
320,192,28615,1,2,0:0:0:0:
192,192,28615,1,0,0:0:0:0:
64,192,28777,1,2,0:0:0:0:
448,192,28777,1,4,0:0:0:0:
320,192,29102,1,8,0:0:0:0:
64,192,29264,1,0,0:0:0:0:
192,192,29264,1,0,0:0:0:0:
192,192,29588,1,0,0:0:0:0:
320,192,29588,1,0,0:0:0:0:
320,192,29913,1,0,0:0:0:0:
448,192,29913,1,0,0:0:0:0:
192,192,30075,1,2,0:0:0:0:
320,192,30399,1,8,0:0:0:0:
64,192,30561,1,0,0:0:0:0:
448,192,30561,1,0,0:0:0:0:
320,192,30886,1,4,0:0:0:0:
192,192,30886,1,0,0:0:0:0:
64,192,31210,1,0,0:0:0:0:
192,192,31210,1,0,0:0:0:0:
320,192,31372,1,4,0:0:0:0:
448,192,31372,1,2,0:0:0:0:
64,192,31696,1,8,0:0:0:0:
448,192,31859,1,0,0:0:0:0:
320,192,31859,1,0,0:0:0:0:
192,192,32183,1,0,0:0:0:0:
320,192,32183,1,0,0:0:0:0:
64,192,32507,1,0,0:0:0:0:
192,192,32507,1,0,0:0:0:0:
448,192,32669,1,2,0:0:0:0:
320,192,32994,1,8,0:0:0:0:
64,192,33156,1,0,0:0:0:0:
448,192,33156,1,0,0:0:0:0:
192,192,33480,1,2,0:0:0:0:
320,192,33480,1,0,0:0:0:0:
192,192,33804,1,2,0:0:0:0:
320,192,33804,1,0,0:0:0:0:
64,192,33967,1,2,0:0:0:0:
448,192,33967,1,4,0:0:0:0:
320,192,34291,1,8,0:0:0:0:
64,192,34453,1,0,0:0:0:0:
192,192,34453,1,0,0:0:0:0:
192,192,34777,1,0,0:0:0:0:
320,192,34777,1,0,0:0:0:0:
320,192,35102,1,0,0:0:0:0:
448,192,35102,1,0,0:0:0:0:
192,192,35264,1,2,0:0:0:0:
448,192,35588,1,8,0:0:0:0:
64,192,35750,1,0,0:0:0:0:
320,192,35750,1,0,0:0:0:0:
192,192,36075,1,4,0:0:0:0:
320,192,36075,1,0,0:0:0:0:
192,192,36399,1,0,0:0:0:0:
448,192,36399,1,0,0:0:0:0:
64,192,36561,1,2,0:0:0:0:
320,192,36561,1,4,0:0:0:0:
192,192,36886,1,8,0:0:0:0:
320,192,37048,1,0,0:0:0:0:
448,192,37048,1,0,0:0:0:0:
192,192,37372,1,0,0:0:0:0:
320,192,37372,1,0,0:0:0:0:
64,192,37696,1,0,0:0:0:0:
192,192,37696,1,0,0:0:0:0:
320,192,37859,1,2,0:0:0:0:
192,192,38183,1,8,0:0:0:0:
64,192,38345,1,0,0:0:0:0:
448,192,38345,1,0,0:0:0:0:
320,192,38669,1,0,0:0:0:0:
192,192,38669,1,0,0:0:0:0:
192,192,38994,1,2,0:0:0:0:
320,192,38994,1,0,0:0:0:0:
64,192,39156,1,4,0:0:0:0:
448,192,39156,1,2,0:0:0:0:
320,192,39480,1,8,0:0:0:0:
64,192,39642,1,0,0:0:0:0:
192,192,39642,1,0,0:0:0:0:
192,192,39967,1,0,0:0:0:0:
320,192,39967,1,0,0:0:0:0:
320,192,40291,1,0,0:0:0:0:
448,192,40291,1,0,0:0:0:0:
192,192,40453,1,2,0:0:0:0:
320,192,40777,1,8,0:0:0:0:
448,192,40940,1,0,0:0:0:0:
64,192,40940,1,0,0:0:0:0:
192,192,41264,1,4,0:0:0:0:
320,192,41264,1,0,0:0:0:0:
192,192,41588,1,0,0:0:0:0:
320,192,41588,1,0,0:0:0:0:
64,192,41750,1,2,0:0:0:0:
448,192,41750,1,4,0:0:0:0:
320,192,41913,1,2,0:0:0:0:
192,192,42075,1,8,0:0:0:0:
448,192,42237,1,2,0:0:0:0:
64,192,42399,1,2,0:0:0:0:
192,192,42561,1,2,0:0:0:0:
320,192,42723,1,8,0:0:0:0:
64,192,42886,1,2,0:0:0:0:
448,192,43048,1,2,0:0:0:0:
192,192,43210,1,2,0:0:0:0:
320,192,43372,1,2,0:0:0:0:
64,192,43534,1,2,0:0:0:0:
448,192,43696,1,2,0:0:0:0:
192,192,43859,1,2,0:0:0:0:
320,192,44021,1,2,0:0:0:0:
64,192,44183,1,2,0:0:0:0:
320,192,44345,1,2,0:0:0:0:
448,192,44345,1,4,0:0:0:0:
192,192,44669,1,8,0:0:0:0:
64,192,44831,1,0,0:0:0:0:
448,192,44831,1,0,0:0:0:0:
320,192,44994,1,2,0:0:0:0:
192,192,45318,1,8,0:0:0:0:
64,192,45642,1,2,0:0:0:0:
448,192,45804,1,0,0:0:0:0:
320,192,45967,1,8,0:0:0:0:
192,192,46129,1,0,0:0:0:0:
448,192,46291,1,2,0:0:0:0:
64,192,46453,1,0,0:0:0:0:
320,192,46615,1,8,0:0:0:0:
192,192,46777,1,0,0:0:0:0:
320,192,46940,1,2,0:0:0:0:
448,192,46940,1,0,0:0:0:0:
192,192,47264,1,8,0:0:0:0:
64,192,47426,1,0,0:0:0:0:
448,192,47426,1,0,0:0:0:0:
320,192,47588,1,2,0:0:0:0:
192,192,47913,1,8,0:0:0:0:
64,192,47913,1,0,0:0:0:0:
320,192,48237,1,2,0:0:0:0:
448,192,48561,1,8,0:0:0:0:
64,192,48886,1,2,0:0:0:0:
192,192,48886,1,0,0:0:0:0:
64,192,49210,1,8,0:0:0:0:
448,192,49210,1,0,0:0:0:0:
192,192,49372,1,2,0:0:0:0:
320,192,49534,1,2,0:0:0:0:
448,192,49534,1,0,0:0:0:0:
64,192,49859,1,8,0:0:0:0:
192,192,50021,1,0,0:0:0:0:
448,192,50183,1,2,0:0:0:0:
320,192,50507,1,8,0:0:0:0:
192,192,50669,1,0,0:0:0:0:
64,192,50831,1,2,0:0:0:0:
448,192,50831,1,0,0:0:0:0:
320,192,51156,1,8,0:0:0:0:
320,192,51318,1,0,0:0:0:0:
64,192,51480,1,2,0:0:0:0:
448,192,51642,1,0,0:0:0:0:
320,192,51804,1,8,0:0:0:0:
192,192,51967,1,0,0:0:0:0:
448,192,52129,1,2,0:0:0:0:
320,192,52129,1,0,0:0:0:0:
64,192,52453,1,8,0:0:0:0:
192,192,52777,1,2,0:0:0:0:
448,192,52940,1,0,0:0:0:0:
64,192,53102,1,8,0:0:0:0:
320,192,53264,1,0,0:0:0:0:
448,192,53426,1,2,0:0:0:0:
192,192,53426,1,0,0:0:0:0:
320,192,53750,1,8,0:0:0:0:
64,192,54075,1,2,0:0:0:0:
192,192,54237,1,0,0:0:0:0:
320,192,54399,1,8,0:0:0:0:
448,192,54561,1,2,0:0:0:0:
64,192,54723,1,2,0:0:0:0:
192,192,54723,1,4,0:0:0:0:
320,192,55048,1,8,0:0:0:0:
448,192,55210,1,0,0:0:0:0:
64,192,55210,1,0,0:0:0:0:
192,192,55372,1,2,0:0:0:0:
320,192,55696,1,8,0:0:0:0:
448,192,56021,1,2,0:0:0:0:
64,192,56183,1,0,0:0:0:0:
192,192,56345,1,8,0:0:0:0:
320,192,56507,1,0,0:0:0:0:
64,192,56669,1,2,0:0:0:0:
448,192,56831,1,0,0:0:0:0:
192,192,56994,1,8,0:0:0:0:
320,192,57156,1,0,0:0:0:0:
64,192,57318,1,2,0:0:0:0:
192,192,57318,1,0,0:0:0:0:
320,192,57642,1,8,0:0:0:0:
448,192,57804,1,0,0:0:0:0:
64,192,57804,1,0,0:0:0:0:
192,192,57967,1,2,0:0:0:0:
320,192,58291,1,8,0:0:0:0:
448,192,58291,1,0,0:0:0:0:
192,192,58615,1,2,0:0:0:0:
320,192,58940,1,8,0:0:0:0:
448,192,58940,1,0,0:0:0:0:
64,192,59264,1,2,0:0:0:0:
320,192,59588,1,8,0:0:0:0:
192,192,59750,1,2,0:0:0:0:
320,192,59913,1,2,0:0:0:0:
448,192,59913,1,0,0:0:0:0:
64,192,60075,1,2,0:0:0:0:
192,192,60237,1,8,0:0:0:0:
64,192,60399,1,2,0:0:0:0:
448,192,60399,1,0,0:0:0:0:
320,192,60561,1,2,0:0:0:0:
448,192,60723,1,2,0:0:0:0:
64,192,60886,1,8,0:0:0:0:
192,192,60886,1,0,0:0:0:0:
320,192,61048,1,2,0:0:0:0:
64,192,61210,1,2,0:0:0:0:
448,192,61210,1,0,0:0:0:0:
320,192,61453,1,0,0:0:0:0:
192,192,61534,1,8,0:0:0:0:
64,192,61696,1,2,0:0:0:0:
448,192,61859,1,2,0:0:0:0:
192,192,62102,1,0,0:0:0:0:
320,192,62183,1,8,0:0:0:0:
192,192,62345,1,2,0:0:0:0:
448,192,62507,1,2,0:0:0:0:
64,192,62507,1,0,0:0:0:0:
192,192,62669,1,2,0:0:0:0:
320,192,62831,1,8,0:0:0:0:
64,192,62994,1,2,0:0:0:0:
448,192,63156,1,2,0:0:0:0:
320,192,63318,1,2,0:0:0:0:
192,192,63480,1,8,0:0:0:0:
448,192,63642,1,2,0:0:0:0:
320,192,63804,1,2,0:0:0:0:
192,192,63967,1,2,0:0:0:0:
448,192,64129,1,2,0:0:0:0:
64,192,64291,1,2,0:0:0:0:
320,192,64453,1,2,0:0:0:0:
192,192,64615,1,2,0:0:0:0:
448,192,64777,1,2,0:0:0:0:
64,192,64940,1,2,0:0:0:0:
320,192,65102,1,2,0:0:0:0:
448,192,65102,1,4,0:0:0:0:
64,192,65264,1,0,0:0:0:0:
192,192,65426,1,8,0:0:0:0:
320,192,65588,1,0,0:0:0:0:
448,192,65750,1,2,0:0:0:0:
320,192,65913,1,0,0:0:0:0:
192,192,66075,1,8,0:0:0:0:
64,192,66237,1,0,0:0:0:0:
192,192,66399,1,2,0:0:0:0:
448,192,66399,1,0,0:0:0:0:
320,192,66642,1,0,0:0:0:0:
192,192,66886,1,0,0:0:0:0:
64,192,67048,1,2,0:0:0:0:
448,192,67048,1,0,0:0:0:0:
320,192,67291,1,0,0:0:0:0:
192,192,67534,1,0,0:0:0:0:
64,192,67696,1,2,0:0:0:0:
320,192,67696,1,0,0:0:0:0:
448,192,67940,1,0,0:0:0:0:
192,192,68183,1,0,0:0:0:0:
64,192,68507,1,0,0:0:0:0:
320,192,68669,1,8,0:0:0:0:
192,192,68831,1,0,0:0:0:0:
64,192,68994,1,2,0:0:0:0:
448,192,68994,1,0,0:0:0:0:
320,192,69156,1,0,0:0:0:0:
448,192,69318,1,8,0:0:0:0:
192,192,69480,1,0,0:0:0:0:
64,192,69642,1,2,0:0:0:0:
320,192,69804,1,0,0:0:0:0:
192,192,69967,1,8,0:0:0:0:
448,192,70129,1,2,0:0:0:0:
192,192,70291,1,2,0:0:0:0:
64,192,70291,1,0,0:0:0:0:
320,192,70615,1,8,0:0:0:0:
64,192,70777,1,0,0:0:0:0:
192,192,70940,1,2,0:0:0:0:
320,192,71264,1,8,0:0:0:0:
448,192,71264,1,0,0:0:0:0:
448,192,71588,1,2,0:0:0:0:
64,192,71588,1,0,0:0:0:0:
192,192,71913,1,8,0:0:0:0:
448,192,72075,1,0,0:0:0:0:
320,192,72237,1,2,0:0:0:0:
192,192,72561,1,8,0:0:0:0:
64,192,72561,1,0,0:0:0:0:
64,192,72886,1,2,0:0:0:0:
448,192,72886,1,0,0:0:0:0:
320,192,73129,1,0,0:0:0:0:
192,192,73372,1,0,0:0:0:0:
64,192,73615,1,0,0:0:0:0:
192,192,73859,1,8,0:0:0:0:
320,192,74021,1,0,0:0:0:0:
64,192,74183,1,2,0:0:0:0:
448,192,74183,1,0,0:0:0:0:
64,192,74426,1,0,0:0:0:0:
64,192,74669,1,0,0:0:0:0:
320,192,74831,1,2,0:0:0:0:
192,192,74994,1,2,0:0:0:0:
320,192,75156,1,8,0:0:0:0:
192,192,75318,1,2,0:0:0:0:
64,192,75480,1,4,0:0:0:0:
448,192,75480,1,2,0:0:0:0:
320,192,75642,1,0,0:0:0:0:
192,192,75804,1,8,0:0:0:0:
448,192,75967,1,0,0:0:0:0:
64,192,76129,1,2,0:0:0:0:
320,192,76291,1,0,0:0:0:0:
192,192,76453,1,8,0:0:0:0:
448,192,76615,1,0,0:0:0:0:
320,192,76777,1,2,0:0:0:0:
64,192,76777,1,0,0:0:0:0:
192,192,77021,1,0,0:0:0:0:
320,192,77264,1,0,0:0:0:0:
64,192,77426,1,2,0:0:0:0:
448,192,77426,1,0,0:0:0:0:
320,192,77669,1,0,0:0:0:0:
192,192,77913,1,0,0:0:0:0:
64,192,78075,1,8,0:0:0:0:
448,192,78075,1,2,0:0:0:0:
64,192,78399,1,2,0:0:0:0:
448,192,78399,1,8,0:0:0:0:
320,192,78723,1,2,0:0:0:0:
448,192,78723,1,8,0:0:0:0:
64,192,78886,1,8,0:0:0:0:
192,192,78886,1,2,0:0:0:0:
448,192,79210,1,2,0:0:0:0:
64,192,79210,1,4,0:0:0:0:
192,192,79372,1,2,0:0:0:0:
320,192,79696,1,8,0:0:0:0:
64,192,80021,1,2,0:0:0:0:
320,192,80183,1,0,0:0:0:0:
192,192,80345,1,8,0:0:0:0:
448,192,80507,1,0,0:0:0:0:
320,192,80669,1,2,0:0:0:0:
64,192,80669,1,4,0:0:0:0:
192,192,80831,1,2,0:0:0:0:
448,192,80994,1,8,0:0:0:0:
192,192,81156,1,2,0:0:0:0:
320,192,81318,1,2,0:0:0:0:
192,192,81480,1,2,0:0:0:0:
448,192,81642,1,8,0:0:0:0:
192,192,81804,1,2,0:0:0:0:
64,192,81967,1,4,0:0:0:0:
448,192,81967,1,2,0:0:0:0:
320,192,82129,1,2,0:0:0:0:
192,192,82291,1,8,0:0:0:0:
320,192,82453,1,2,0:0:0:0:
64,192,82615,1,2,0:0:0:0:
320,192,82777,1,2,0:0:0:0:
192,192,82940,1,8,0:0:0:0:
320,192,83102,1,2,0:0:0:0:
448,192,83264,1,2,0:0:0:0:
64,192,83264,128,4,85859:0:0:0:0:
192,192,83426,1,2,0:0:0:0:
320,192,83588,1,8,0:0:0:0:
192,192,83831,1,2,0:0:0:0:
320,192,84075,1,2,0:0:0:0:
448,192,84237,1,8,0:0:0:0:
320,192,84399,1,2,0:0:0:0:
192,192,84561,1,2,0:0:0:0:
448,192,84886,1,2,0:0:0:0:
320,192,85129,1,2,0:0:0:0:
192,192,85372,1,2,0:0:0:0:
320,192,85534,1,2,0:0:0:0:
448,192,85696,1,2,0:0:0:0:
192,192,85859,1,4,0:0:0:0:
320,192,85859,1,2,0:0:0:0:
320,192,86183,1,8,0:0:0:0:
448,192,86183,1,0,0:0:0:0:
64,192,86345,1,0,0:0:0:0:
192,192,86345,1,0,0:0:0:0:
64,192,86831,1,8,0:0:0:0:
448,192,86831,1,0,0:0:0:0:
192,192,87156,1,2,0:0:0:0:
320,192,87156,1,0,0:0:0:0:
64,192,87804,1,2,0:0:0:0:
192,192,87967,1,0,0:0:0:0:
320,192,88129,1,8,0:0:0:0:
448,192,88291,1,0,0:0:0:0:
64,192,88453,1,2,0:0:0:0:
192,192,88453,1,0,0:0:0:0:
320,192,88777,1,8,0:0:0:0:
448,192,88777,1,0,0:0:0:0:
64,192,88940,1,0,0:0:0:0:
192,192,88940,1,0,0:0:0:0:
192,192,89264,1,0,0:0:0:0:
320,192,89264,1,0,0:0:0:0:
64,192,89588,1,0,0:0:0:0:
448,192,89588,1,0,0:0:0:0:
448,192,90399,1,2,0:0:0:0:
192,192,90561,1,0,0:0:0:0:
320,192,90723,1,8,0:0:0:0:
64,192,90886,1,2,0:0:0:0:
320,192,91048,1,4,0:0:0:0:
448,192,91048,1,2,0:0:0:0:
64,192,91372,1,8,0:0:0:0:
192,192,91372,1,0,0:0:0:0:
320,192,91534,1,0,0:0:0:0:
448,192,91534,1,0,0:0:0:0:
64,192,91859,1,0,0:0:0:0:
192,192,91859,1,0,0:0:0:0:
320,192,92183,1,0,0:0:0:0:
320,192,92345,1,8,0:0:0:0:
448,192,92345,1,2,0:0:0:0:
192,192,92831,1,2,0:0:0:0:
320,192,92831,1,8,0:0:0:0:
64,192,93318,1,2,0:0:0:0:
192,192,93318,1,8,0:0:0:0:
320,192,93642,1,4,0:0:0:0:
448,192,93642,1,2,0:0:0:0:
64,192,93967,1,8,0:0:0:0:
448,192,93967,1,0,0:0:0:0:
64,192,94291,1,2,0:0:0:0:
192,192,94291,1,0,0:0:0:0:
320,192,94453,1,0,0:0:0:0:
448,192,94453,1,0,0:0:0:0:
192,192,94940,1,2,0:0:0:0:
64,192,94940,1,0,0:0:0:0:
448,192,95102,1,2,0:0:0:0:
192,192,95264,1,8,0:0:0:0:
448,192,95426,1,2,0:0:0:0:
64,192,95588,1,2,0:0:0:0:
320,192,95750,128,2,95913:0:0:0:0:
448,192,95913,1,8,0:0:0:0:
192,192,96075,128,2,96237:0:0:0:0:
448,192,96237,1,4,0:0:0:0:
64,192,96237,1,2,0:0:0:0:
320,192,96561,1,8,0:0:0:0:
448,192,96561,1,0,0:0:0:0:
64,192,96723,1,0,0:0:0:0:
192,192,96723,1,0,0:0:0:0:
64,192,97210,1,8,0:0:0:0:
448,192,97210,1,0,0:0:0:0:
192,192,97534,1,2,0:0:0:0:
320,192,97534,1,0,0:0:0:0:
64,192,98183,1,2,0:0:0:0:
192,192,98345,1,0,0:0:0:0:
320,192,98507,1,8,0:0:0:0:
448,192,98669,1,2,0:0:0:0:
64,192,98831,1,8,0:0:0:0:
192,192,98831,1,2,0:0:0:0:
320,192,99156,1,2,0:0:0:0:
448,192,99156,1,8,0:0:0:0:
192,192,99480,1,2,0:0:0:0:
320,192,99480,1,8,0:0:0:0:
64,192,99642,1,2,0:0:0:0:
448,192,99642,1,8,0:0:0:0:
320,192,99967,1,4,0:0:0:0:
448,192,99967,1,2,0:0:0:0:
192,192,100453,1,8,0:0:0:0:
448,192,100777,1,2,0:0:0:0:
320,192,100777,1,0,0:0:0:0:
64,192,100940,1,2,0:0:0:0:
320,192,101102,1,8,0:0:0:0:
192,192,101264,1,2,0:0:0:0:
64,192,101426,1,2,0:0:0:0:
448,192,101426,1,4,0:0:0:0:
320,192,101750,1,8,0:0:0:0:
448,192,101750,1,0,0:0:0:0:
64,192,101913,1,0,0:0:0:0:
192,192,101913,1,0,0:0:0:0:
320,192,102237,1,0,0:0:0:0:
448,192,102237,1,0,0:0:0:0:
64,192,102723,1,2,0:0:0:0:
448,192,102723,1,4,0:0:0:0:
64,192,103048,1,8,0:0:0:0:
192,192,103048,1,0,0:0:0:0:
320,192,103210,1,0,0:0:0:0:
448,192,103210,1,0,0:0:0:0:
64,192,103534,1,0,0:0:0:0:
192,192,103534,1,0,0:0:0:0:
64,192,104021,1,4,0:0:0:0:
448,192,104021,1,2,0:0:0:0:
192,192,104264,1,0,0:0:0:0:
320,192,104507,1,2,0:0:0:0:
64,192,104669,1,4,0:0:0:0:
192,192,104669,1,2,0:0:0:0:
448,192,104831,1,2,0:0:0:0:
320,192,104994,1,2,0:0:0:0:
192,192,105156,1,2,0:0:0:0:
64,192,105318,1,4,0:0:0:0:
448,192,105318,1,2,0:0:0:0:
320,192,105480,1,2,0:0:0:0:
192,192,105642,1,4,0:0:0:0:
64,192,105642,1,2,0:0:0:0:
320,192,105804,1,2,0:0:0:0:
64,192,105967,1,2,0:0:0:0:
448,192,105967,1,4,0:0:0:0:
192,192,106129,1,2,0:0:0:0:
320,192,106291,1,2,0:0:0:0:
448,192,106291,1,4,0:0:0:0:
192,192,106453,1,2,0:0:0:0:
64,192,106615,1,2,0:0:0:0:
448,192,106615,1,4,0:0:0:0:
320,192,106777,1,0,0:0:0:0:
192,192,106940,1,8,0:0:0:0:
448,192,107102,1,0,0:0:0:0:
64,192,107264,1,2,0:0:0:0:
320,192,107426,1,0,0:0:0:0:
192,192,107588,1,8,0:0:0:0:
64,192,107750,1,0,0:0:0:0:
320,192,107913,1,2,0:0:0:0:
320,192,108237,1,8,0:0:0:0:
320,192,108399,1,0,0:0:0:0:
64,192,108723,1,0,0:0:0:0:
448,192,108886,1,8,0:0:0:0:
192,192,109048,1,2,0:0:0:0:
320,192,109210,1,2,0:0:0:0:
64,192,109372,1,0,0:0:0:0:
192,192,109534,1,8,0:0:0:0:
448,192,109696,1,0,0:0:0:0:
64,192,109859,1,2,0:0:0:0:
320,192,110021,1,0,0:0:0:0:
192,192,110183,1,8,0:0:0:0:
448,192,110345,1,0,0:0:0:0:
320,192,110507,1,2,0:0:0:0:
64,192,110669,1,0,0:0:0:0:
448,192,110831,1,8,0:0:0:0:
192,192,110994,1,0,0:0:0:0:
320,192,111156,1,2,0:0:0:0:
64,192,111318,1,2,0:0:0:0:
192,192,111480,1,8,0:0:0:0:
320,192,111642,1,2,0:0:0:0:
64,192,111804,1,2,0:0:0:0:
448,192,111804,1,4,0:0:0:0:
192,192,111967,1,2,0:0:0:0:
64,192,112129,1,8,0:0:0:0:
192,192,112291,1,2,0:0:0:0:
448,192,112453,1,2,0:0:0:0:
320,192,112615,1,2,0:0:0:0:
448,192,112777,1,8,0:0:0:0:
320,192,112940,1,2,0:0:0:0:
64,192,113102,1,4,0:0:0:0:
192,192,113102,1,2,0:0:0:0:
448,192,113264,1,2,0:0:0:0:
64,192,113426,1,8,0:0:0:0:
448,192,113588,1,2,0:0:0:0:
192,192,113750,1,2,0:0:0:0:
320,192,113913,1,2,0:0:0:0:
192,192,114075,1,2,0:0:0:0:
320,192,114237,1,2,0:0:0:0:
64,192,114399,1,6,0:0:0:0:
192,192,114399,1,0,0:0:0:0:
320,192,114642,1,0,0:0:0:0:
448,192,114642,1,0,0:0:0:0:
64,192,114886,1,2,0:0:0:0:
192,192,114886,1,0,0:0:0:0:
64,192,115048,1,4,0:0:0:0:
448,192,115048,1,2,0:0:0:0:
320,192,115291,1,0,0:0:0:0:
192,192,115291,1,0,0:0:0:0:
64,192,115534,1,2,0:0:0:0:
448,192,115534,1,0,0:0:0:0:
448,192,115696,1,6,0:0:0:0:
320,192,115696,1,0,0:0:0:0:
192,192,115859,1,2,0:0:0:0:
64,192,116021,1,2,0:0:0:0:
320,192,116183,1,2,0:0:0:0:
192,192,116345,1,6,0:0:0:0:
64,192,116345,1,0,0:0:0:0:
448,192,116507,1,2,0:0:0:0:
320,192,116669,1,2,0:0:0:0:
192,192,116831,1,2,0:0:0:0:
448,192,116994,1,2,0:0:0:0:
64,192,116994,128,4,118291:0:0:0:0:
192,192,117318,1,8,0:0:0:0:
320,192,117642,1,2,0:0:0:0:
448,192,117967,1,8,0:0:0:0:
192,192,118291,128,2,118940:0:0:0:0:
320,192,118291,1,0,0:0:0:0:
64,192,118615,1,8,0:0:0:0:
448,192,118940,128,2,119588:0:0:0:0:
320,192,118940,1,0,0:0:0:0:
192,192,119264,1,8,0:0:0:0:
320,192,119588,128,2,120237:0:0:0:0:
64,192,119588,1,0,0:0:0:0:
192,192,119913,1,8,0:0:0:0:
64,192,120237,128,2,120886:0:0:0:0:
448,192,120237,1,0,0:0:0:0:
320,192,120561,1,8,0:0:0:0:
192,192,120886,128,2,121534:0:0:0:0:
448,192,120886,1,0,0:0:0:0:
64,192,121210,1,8,0:0:0:0:
320,192,121534,128,2,122183:0:0:0:0:
448,192,121534,1,0,0:0:0:0:
64,192,121859,1,8,0:0:0:0:
192,192,122021,1,2,0:0:0:0:
448,192,122183,128,2,122831:0:0:0:0:
64,192,122183,1,0,0:0:0:0:
192,192,122507,1,8,0:0:0:0:
64,192,122831,128,2,123480:0:0:0:0:
320,192,122831,1,0,0:0:0:0:
448,192,123156,1,8,0:0:0:0:
192,192,123480,128,2,124129:0:0:0:0:
320,192,123480,1,0,0:0:0:0:
64,192,123804,1,8,0:0:0:0:
448,192,124129,128,2,124777:0:0:0:0:
320,192,124129,1,0,0:0:0:0:
192,192,124453,1,8,0:0:0:0:
320,192,124777,128,2,125426:0:0:0:0:
64,192,124777,1,0,0:0:0:0:
448,192,125102,1,8,0:0:0:0:
64,192,125426,128,2,126075:0:0:0:0:
192,192,125426,1,0,0:0:0:0:
320,192,125750,1,8,0:0:0:0:
192,192,126075,128,2,127372:0:0:0:0:
448,192,126075,1,0,0:0:0:0:
64,192,126399,1,8,0:0:0:0:
448,192,126723,1,2,0:0:0:0:
320,192,126886,1,2,0:0:0:0:
448,192,127048,1,8,0:0:0:0:
320,192,127210,1,2,0:0:0:0:
448,192,127372,128,6,128669:0:0:0:0:
64,192,127372,1,0,0:0:0:0:
320,192,127696,1,8,0:0:0:0:
64,192,128021,1,2,0:0:0:0:
192,192,128345,1,8,0:0:0:0:
64,192,128669,128,2,129318:0:0:0:0:
320,192,128669,1,0,0:0:0:0:
448,192,128994,1,8,0:0:0:0:
192,192,129318,128,2,129967:0:0:0:0:
320,192,129318,1,0,0:0:0:0:
64,192,129642,1,8,0:0:0:0:
320,192,129967,1,2,0:0:0:0:
448,192,129967,1,8,0:0:0:0:
64,192,130291,1,8,0:0:0:0:
192,192,130291,1,2,0:0:0:0:
320,192,130615,1,2,0:0:0:0:
448,192,130615,1,8,0:0:0:0:
64,192,130777,1,2,0:0:0:0:
192,192,130777,1,8,0:0:0:0:
320,192,131102,128,2,131913:0:0:0:0:
448,192,131102,1,4,0:0:0:0:
64,192,131264,1,2,0:0:0:0:
192,192,131588,1,8,0:0:0:0:
192,192,131913,128,2,132561:0:0:0:0:
448,192,131913,1,0,0:0:0:0:
320,192,132237,1,8,0:0:0:0:
64,192,132561,1,2,0:0:0:0:
448,192,132561,1,4,0:0:0:0:
320,192,132723,1,2,0:0:0:0:
192,192,132886,1,8,0:0:0:0:
448,192,133048,1,2,0:0:0:0:
64,192,133210,1,2,0:0:0:0:
320,192,133372,1,2,0:0:0:0:
192,192,133534,1,8,0:0:0:0:
448,192,133696,1,2,0:0:0:0:
64,192,133859,1,2,0:0:0:0:
192,192,133859,1,4,0:0:0:0:
320,192,134021,1,2,0:0:0:0:
448,192,134183,1,8,0:0:0:0:
192,192,134345,1,2,0:0:0:0:
320,192,134507,1,2,0:0:0:0:
64,192,134669,128,2,134831:0:0:0:0:
192,192,134831,1,8,0:0:0:0:
448,192,134994,128,2,135156:0:0:0:0:
320,192,135156,1,2,0:0:0:0:
64,192,135156,1,4,0:0:0:0:
192,192,135318,1,2,0:0:0:0:
320,192,135480,1,8,0:0:0:0:
64,192,135642,1,2,0:0:0:0:
192,192,135804,1,4,0:0:0:0:
448,192,135804,1,2,0:0:0:0:
320,192,135967,1,2,0:0:0:0:
192,192,136129,1,8,0:0:0:0:
320,192,136291,1,2,0:0:0:0:
64,192,136453,1,4,0:0:0:0:
448,192,136453,1,2,0:0:0:0:
320,192,136777,1,6,0:0:0:0:
192,192,136777,1,0,0:0:0:0:
192,192,137102,128,2,137750:0:0:0:0:
64,192,137102,1,4,0:0:0:0:
320,192,137426,128,2,137750:0:0:0:0:
448,192,137426,1,4,0:0:0:0:
64,192,137750,1,4,0:0:0:0:
448,192,137750,1,2,0:0:0:0:
64,192,138237,1,0,0:0:0:0:
192,192,138237,1,0,0:0:0:0:
192,192,138561,1,0,0:0:0:0:
320,192,138561,1,0,0:0:0:0:
448,192,138886,1,0,0:0:0:0:
320,192,138886,1,0,0:0:0:0:
64,192,139048,1,2,0:0:0:0:
192,192,139210,1,0,0:0:0:0:
320,192,139372,1,8,0:0:0:0:
64,192,139534,1,0,0:0:0:0:
448,192,139534,1,0,0:0:0:0:
192,192,139859,1,4,0:0:0:0:
448,192,139859,1,0,0:0:0:0:
448,192,140183,1,0,0:0:0:0:
320,192,140183,1,0,0:0:0:0:
64,192,140345,1,2,0:0:0:0:
192,192,140507,1,0,0:0:0:0:
320,192,140669,1,8,0:0:0:0:
64,192,140831,1,0,0:0:0:0:
448,192,140831,1,0,0:0:0:0:
64,192,141156,1,0,0:0:0:0:
320,192,141156,1,0,0:0:0:0:
64,192,141480,1,0,0:0:0:0:
192,192,141480,1,0,0:0:0:0:
448,192,141642,1,2,0:0:0:0:
320,192,141804,1,0,0:0:0:0:
192,192,141967,1,8,0:0:0:0:
64,192,142129,1,0,0:0:0:0:
448,192,142129,1,0,0:0:0:0:
192,192,142453,1,0,0:0:0:0:
320,192,142453,1,0,0:0:0:0:
192,192,142777,1,0,0:0:0:0:
320,192,142777,1,0,0:0:0:0:
64,192,142940,1,2,0:0:0:0:
448,192,142940,1,4,0:0:0:0:
320,192,143102,1,0,0:0:0:0:
192,192,143264,1,8,0:0:0:0:
320,192,143426,1,0,0:0:0:0:
448,192,143426,1,0,0:0:0:0:
192,192,143750,1,0,0:0:0:0:
320,192,143750,1,0,0:0:0:0:
64,192,144075,1,0,0:0:0:0:
448,192,144075,1,0,0:0:0:0:
320,192,144237,1,2,0:0:0:0:
192,192,144399,1,0,0:0:0:0:
64,192,144561,1,8,0:0:0:0:
320,192,144723,1,0,0:0:0:0:
448,192,144723,1,0,0:0:0:0:
192,192,145048,1,4,0:0:0:0:
448,192,145048,1,0,0:0:0:0:
64,192,145372,1,0,0:0:0:0:
448,192,145372,1,0,0:0:0:0:
192,192,145534,1,2,0:0:0:0:
320,192,145696,1,0,0:0:0:0:
448,192,145859,1,8,0:0:0:0:
64,192,146021,1,0,0:0:0:0:
192,192,146021,1,0,0:0:0:0:
64,192,146345,1,0,0:0:0:0:
320,192,146345,1,0,0:0:0:0:
64,192,146669,1,0,0:0:0:0:
448,192,146669,1,0,0:0:0:0:
192,192,146831,1,2,0:0:0:0:
320,192,146994,1,0,0:0:0:0:
192,192,147156,1,8,0:0:0:0:
64,192,147318,1,0,0:0:0:0:
448,192,147318,1,0,0:0:0:0:
192,192,147642,1,0,0:0:0:0:
320,192,147642,1,0,0:0:0:0:
192,192,147967,1,0,0:0:0:0:
320,192,147967,1,0,0:0:0:0:
64,192,148129,1,4,0:0:0:0:
448,192,148129,1,2,0:0:0:0:
192,192,148291,1,0,0:0:0:0:
320,192,148453,1,8,0:0:0:0:
64,192,148615,1,0,0:0:0:0:
192,192,148615,1,0,0:0:0:0:
64,192,148940,1,0,0:0:0:0:
320,192,148940,1,0,0:0:0:0:
448,192,149264,1,0,0:0:0:0:
64,192,149264,1,0,0:0:0:0:
192,192,149426,1,2,0:0:0:0:
320,192,149588,1,0,0:0:0:0:
64,192,149750,1,8,0:0:0:0:
320,192,149913,1,0,0:0:0:0:
448,192,149913,1,0,0:0:0:0:
192,192,150237,1,4,0:0:0:0:
448,192,150237,1,0,0:0:0:0:
64,192,150561,1,0,0:0:0:0:
448,192,150561,1,0,0:0:0:0:
320,192,150723,1,2,0:0:0:0:
64,192,150886,1,0,0:0:0:0:
192,192,151048,1,8,0:0:0:0:
320,192,151210,1,0,0:0:0:0:
448,192,151210,1,0,0:0:0:0:
192,192,151534,1,0,0:0:0:0:
320,192,151534,1,0,0:0:0:0:
64,192,151859,1,0,0:0:0:0:
192,192,151859,1,0,0:0:0:0:
448,192,152021,1,2,0:0:0:0:
320,192,152183,1,0,0:0:0:0:
192,192,152345,1,8,0:0:0:0:
64,192,152507,1,0,0:0:0:0:
448,192,152507,1,0,0:0:0:0:
192,192,152831,1,0,0:0:0:0:
320,192,152831,1,0,0:0:0:0:
192,192,153156,1,0,0:0:0:0:
320,192,153156,1,0,0:0:0:0:
64,192,153318,1,2,0:0:0:0:
448,192,153318,1,4,0:0:0:0:
192,192,153480,1,2,0:0:0:0:
320,192,153642,1,8,0:0:0:0:
64,192,153804,1,2,0:0:0:0:
448,192,153967,1,2,0:0:0:0:
192,192,154129,1,2,0:0:0:0:
64,192,154291,1,8,0:0:0:0:
320,192,154453,1,2,0:0:0:0:
64,192,154615,1,2,0:0:0:0:
448,192,154615,1,4,0:0:0:0:
192,192,154777,1,2,0:0:0:0:
320,192,154940,1,8,0:0:0:0:
64,192,155102,1,2,0:0:0:0:
192,192,155264,1,2,0:0:0:0:
448,192,155426,1,2,0:0:0:0:
320,192,155588,1,8,0:0:0:0:
192,192,155750,1,2,0:0:0:0:
448,192,155913,1,2,0:0:0:0:
64,192,155913,1,4,0:0:0:0:
320,192,156075,1,2,0:0:0:0:
192,192,156237,1,8,0:0:0:0:
320,192,156399,1,2,0:0:0:0:
64,192,156561,1,2,0:0:0:0:
448,192,156561,1,4,0:0:0:0:
192,192,156723,1,2,0:0:0:0:
320,192,156886,1,8,0:0:0:0:
192,192,157048,1,2,0:0:0:0:
64,192,157210,1,4,0:0:0:0:
448,192,157210,1,2,0:0:0:0:
320,192,157372,1,2,0:0:0:0:
64,192,157534,1,4,0:0:0:0:
192,192,157534,1,2,0:0:0:0:
320,192,157696,1,2,0:0:0:0:
448,192,157859,1,2,0:0:0:0:
64,192,157859,1,4,0:0:0:0:
192,192,158021,1,2,0:0:0:0:
320,192,158183,1,4,0:0:0:0:
448,192,158183,1,2,0:0:0:0:
192,192,158345,1,2,0:0:0:0:
64,192,158507,1,2,0:0:0:0:
448,192,158507,1,4,0:0:0:0:
