osu file format v14

[General]
AudioFilename: audio.mp3
AudioLeadIn: 0
PreviewTime: 63804
Countdown: 0
SampleSet: Soft
StackLeniency: 0.7
Mode: 3
LetterboxInBreaks: 0
SpecialStyle: 0
WidescreenStoryboard: 0

[Editor]
DistanceSpacing: 0.8
BeatDivisor: 8
GridSize: 8
TimelineZoom: 1.999999

[Metadata]
Title:Sheriruth
TitleUnicode:Sheriruth
Artist:Team Grimoire
ArtistUnicode:Team Grimoire
Creator:DoNotMess
Version:Future
Source:Arcaea
Tags:lowiro Grimoire of Darkness Eternal Core Conflict(対立) Tairitsu M3-2016 TG-005. Tofu1222 ajeemaniz Arzenvald ExUsagi Virtue-
BeatmapID:1295745
BeatmapSetID:590341

[Difficulty]
HPDrainRate:8
CircleSize:4
OverallDifficulty:8
ApproachRate:5
SliderMultiplier:1.4
SliderTickRate:1

[Events]
//Background and Video events
0,0,"Es Serut lagi anjeg.jpg",0,0
//Break Periods
//Storyboard Layer 0 (Background)
//Storyboard Layer 1 (Fail)
//Storyboard Layer 2 (Pass)
//Storyboard Layer 3 (Foreground)
//Storyboard Sound Samples
Sample,66723,0,"soft-hitclap.wav",50
Sample,67372,0,"soft-hitclap.wav",50
Sample,68021,0,"soft-hitclap.wav",50
Sample,73210,0,"soft-hitclap.wav",50
Sample,77102,0,"soft-hitclap.wav",50
Sample,77750,0,"soft-hitclap.wav",50

[TimingPoints]
2832,324.324324324324,4,2,1,20,1,0
13210,-100,4,2,1,30,0,0
15804,-100,4,2,1,40,0,0
18399,-100,4,2,1,50,0,0
65102,-100,4,2,1,50,0,1
78075,-200.000000000001,4,2,1,50,0,0
78318,-55.5555555555556,4,2,1,50,0,0
78399,-200.000000000001,4,2,1,50,0,0
78642,-55.5555555555556,4,2,1,50,0,0
78723,-166.666666666667,4,2,1,50,0,0
78804,-71.4285714285714,4,2,1,50,0,0
78886,-200,4,2,1,50,0,0
79129,-55.5555555555556,4,2,1,50,0,0
79210,-100,4,2,1,50,0,1
85859,-100,4,2,1,50,0,0
92345,-55.5555555555556,4,2,1,50,0,0
92669,-250,4,2,1,50,0,0
92831,-55.5555555555556,4,2,1,50,0,0
93156,-250,4,2,1,50,0,0
93318,-71.4285714285714,4,2,1,50,0,0
93480,-250,4,2,1,50,0,0
93642,-100,4,2,1,50,0,0
98831,-200,4,2,1,50,0,0
99075,-55.5555555555556,4,2,1,50,0,0
99156,-200,4,2,1,50,0,0
99399,-55.5555555555556,4,2,1,50,0,0
99480,-166.666666666667,4,2,1,50,0,0
99561,-71.4285714285714,4,2,1,50,0,0
99642,-200,4,2,1,50,0,0
99886,-55.5555555555556,4,2,1,50,0,0
99967,-100,4,2,1,50,0,0
116994,-100,4,2,1,50,0,1
129967,-200,4,2,1,50,0,0
130210,-55.5555555555556,4,2,1,50,0,0
130291,-200,4,2,1,50,0,0
130534,-55.5555555555556,4,2,1,50,0,0
130615,-166.666666666667,4,2,1,50,0,0
130696,-71.4285714285714,4,2,1,50,0,0
130777,-200,4,2,1,50,0,0
131021,-55.5555555555556,4,2,1,50,0,0
131102,-100,4,2,1,50,0,1
137750,-100,4,2,1,50,0,0

[HitObjects]
64,192,2832,5,4,0:0:0:0:
320,192,2832,1,2,0:0:0:0:
448,192,2832,1,0,0:0:0:0:
192,192,2994,1,0,0:0:0:0:
192,192,3156,1,0,0:0:0:0:
64,192,3318,1,2,0:0:0:0:
448,192,3318,1,0,0:0:0:0:
320,192,3480,1,0,0:0:0:0:
320,192,3642,1,0,0:0:0:0:
64,192,3804,1,2,0:0:0:0:
192,192,3804,1,0,0:0:0:0:
448,192,3967,1,0,0:0:0:0:
448,192,4129,1,0,0:0:0:0:
192,192,4291,1,2,0:0:0:0:
320,192,4291,1,0,0:0:0:0:
64,192,4453,1,0,0:0:0:0:
64,192,4615,1,0,0:0:0:0:
320,192,4777,1,2,0:0:0:0:
448,192,4777,1,0,0:0:0:0:
192,192,4940,1,0,0:0:0:0:
64,192,5102,1,2,0:0:0:0:
448,192,5102,1,0,0:0:0:0:
320,192,5264,1,0,0:0:0:0:
64,192,5426,1,2,0:0:0:0:
192,192,5426,1,0,0:0:0:0:
448,192,5588,1,0,0:0:0:0:
448,192,5750,1,0,0:0:0:0:
64,192,5913,1,2,0:0:0:0:
192,192,5913,1,0,0:0:0:0:
320,192,6075,1,0,0:0:0:0:
320,192,6237,1,0,0:0:0:0:
64,192,6399,1,2,0:0:0:0:
448,192,6399,1,0,0:0:0:0:
192,192,6561,1,0,0:0:0:0:
192,192,6723,1,0,0:0:0:0:
320,192,6886,1,2,0:0:0:0:
448,192,6886,1,0,0:0:0:0:
64,192,7048,1,0,0:0:0:0:
64,192,7210,1,0,0:0:0:0:
192,192,7372,1,2,0:0:0:0:
320,192,7372,1,0,0:0:0:0:
448,192,7534,1,0,0:0:0:0:
64,192,7696,1,2,0:0:0:0:
192,192,7696,1,0,0:0:0:0:
320,192,7859,1,0,0:0:0:0:
64,192,8021,1,2,0:0:0:0:
192,192,8021,1,4,0:0:0:0:
448,192,8021,1,0,0:0:0:0:
320,192,8183,1,0,0:0:0:0:
320,192,8345,1,0,0:0:0:0:
64,192,8507,1,2,0:0:0:0:
192,192,8507,1,0,0:0:0:0:
448,192,8669,1,0,0:0:0:0:
448,192,8831,1,0,0:0:0:0:
192,192,8994,1,2,0:0:0:0:
320,192,8994,1,0,0:0:0:0:
64,192,9156,1,0,0:0:0:0:
64,192,9318,1,0,0:0:0:0:
320,192,9480,1,2,0:0:0:0:
448,192,9480,1,0,0:0:0:0:
192,192,9642,1,0,0:0:0:0:
192,192,9804,1,0,0:0:0:0:
64,192,9967,1,2,0:0:0:0:
448,192,9967,1,0,0:0:0:0:
320,192,10129,1,0,0:0:0:0:
64,192,10291,1,2,0:0:0:0:
192,192,10291,1,0,0:0:0:0:
448,192,10453,1,0,0:0:0:0:
64,192,10615,1,4,0:0:0:0:
192,192,10615,1,2,0:0:0:0:
320,192,10615,1,0,0:0:0:0:
448,192,10777,1,0,0:0:0:0:
448,192,10940,1,0,0:0:0:0:
192,192,11102,1,2,0:0:0:0:
320,192,11102,1,0,0:0:0:0:
64,192,11264,1,0,0:0:0:0:
64,192,11426,1,0,0:0:0:0:
320,192,11588,1,2,0:0:0:0:
448,192,11588,1,0,0:0:0:0:
192,192,11750,1,0,0:0:0:0:
192,192,11913,1,0,0:0:0:0:
64,192,12075,1,2,0:0:0:0:
448,192,12075,1,0,0:0:0:0:
320,192,12237,1,0,0:0:0:0:
320,192,12399,1,0,0:0:0:0:
64,192,12561,1,2,0:0:0:0:
192,192,12561,1,0,0:0:0:0:
320,192,12723,1,0,0:0:0:0:
64,192,12886,1,2,0:0:0:0:
448,192,12886,1,0,0:0:0:0:
192,192,13048,1,0,0:0:0:0:
64,192,13210,1,2,0:0:0:0:
320,192,13210,1,0,0:0:0:0:
448,192,13210,1,0,0:0:0:0:
192,192,13372,1,2,0:0:0:0:
448,192,13534,1,2,0:0:0:0:
64,192,13696,1,2,0:0:0:0:
320,192,13696,1,0,0:0:0:0:
192,192,13859,1,2,0:0:0:0:
64,192,14021,1,2,0:0:0:0:
448,192,14183,1,2,0:0:0:0:
320,192,14183,1,0,0:0:0:0:
64,192,14345,1,2,0:0:0:0:
320,192,14507,1,2,0:0:0:0:
448,192,14669,1,2,0:0:0:0:
192,192,14669,1,0,0:0:0:0:
64,192,14831,1,2,0:0:0:0:
320,192,14994,1,2,0:0:0:0:
64,192,15156,1,2,0:0:0:0:
448,192,15156,1,0,0:0:0:0:
192,192,15318,1,2,0:0:0:0:
64,192,15480,1,2,0:0:0:0:
448,192,15480,1,0,0:0:0:0:
320,192,15642,1,2,0:0:0:0:
64,192,15804,1,2,0:0:0:0:
192,192,15804,1,0,0:0:0:0:
448,192,15804,1,0,0:0:0:0:
320,192,15967,1,2,0:0:0:0:
64,192,16129,1,2,0:0:0:0:
448,192,16291,1,2,0:0:0:0:
192,192,16291,1,0,0:0:0:0:
320,192,16453,1,2,0:0:0:0:
448,192,16615,1,2,0:0:0:0:
192,192,16777,1,2,0:0:0:0:
64,192,16777,1,0,0:0:0:0:
448,192,16940,1,2,0:0:0:0:
192,192,17102,1,2,0:0:0:0:
64,192,17264,1,2,0:0:0:0:
320,192,17264,1,0,0:0:0:0:
448,192,17426,1,2,0:0:0:0:
192,192,17588,1,2,0:0:0:0:
448,192,17750,1,2,0:0:0:0:
64,192,17750,1,0,0:0:0:0:
320,192,17913,1,2,0:0:0:0:
448,192,18075,1,2,0:0:0:0:
64,192,18075,1,0,0:0:0:0:
192,192,18237,1,2,0:0:0:0:
448,192,18399,1,2,0:0:0:0:
320,192,18399,1,0,0:0:0:0:
64,192,18399,1,0,0:0:0:0:
192,192,18561,1,2,0:0:0:0:
320,192,18561,1,0,0:0:0:0:
192,192,18723,1,2,0:0:0:0:
320,192,18723,1,0,0:0:0:0:
64,192,18886,1,2,0:0:0:0:
448,192,18886,1,0,0:0:0:0:
320,192,19048,1,2,0:0:0:0:
64,192,19048,1,0,0:0:0:0:
320,192,19210,1,2,0:0:0:0:
64,192,19210,1,0,0:0:0:0:
448,192,19372,1,2,0:0:0:0:
192,192,19372,1,0,0:0:0:0:
448,192,19534,1,2,0:0:0:0:
320,192,19534,1,0,0:0:0:0:
448,192,19696,1,2,0:0:0:0:
320,192,19696,1,0,0:0:0:0:
64,192,19859,1,2,0:0:0:0:
448,192,19859,1,0,0:0:0:0:
192,192,20021,1,2,0:0:0:0:
320,192,20021,1,0,0:0:0:0:
192,192,20183,1,2,0:0:0:0:
320,192,20183,1,0,0:0:0:0:
320,192,20345,1,2,0:0:0:0:
448,192,20345,1,0,0:0:0:0:
64,192,20507,1,2,0:0:0:0:
192,192,20507,1,0,0:0:0:0:
320,192,20669,1,2,0:0:0:0:
448,192,20669,1,0,0:0:0:0:
64,192,20831,1,2,0:0:0:0:
192,192,20831,1,0,0:0:0:0:
64,192,20994,1,8,0:0:0:0:
448,192,20994,1,0,0:0:0:0:
320,192,21075,1,0,0:0:0:0:
192,192,21156,1,0,0:0:0:0:
64,192,21237,1,0,0:0:0:0:
448,192,21318,1,0,0:0:0:0:
320,192,21399,1,0,0:0:0:0:
64,192,21480,1,8,0:0:0:0:
192,192,21480,1,0,0:0:0:0:
320,192,21561,1,0,0:0:0:0:
448,192,21642,1,0,0:0:0:0:
64,192,21723,1,0,0:0:0:0:
192,192,21804,1,0,0:0:0:0:
320,192,21886,1,0,0:0:0:0:
64,192,21967,1,8,0:0:0:0:
192,192,21967,1,0,0:0:0:0:
448,192,22048,1,0,0:0:0:0:
320,192,22129,1,0,0:0:0:0:
64,192,22210,1,0,0:0:0:0:
192,192,22291,1,0,0:0:0:0:
320,192,22372,1,0,0:0:0:0:
64,192,22453,1,8,0:0:0:0:
448,192,22453,1,0,0:0:0:0:
192,192,22534,1,0,0:0:0:0:
320,192,22615,128,0,22696:0:0:0:0:
448,192,22696,128,0,22777:0:0:0:0:
320,192,22777,128,0,22859:0:0:0:0:
192,192,22859,128,0,22940:0:0:0:0:
64,192,22940,128,2,23021:0:0:0:0:
448,192,22940,128,0,23021:0:0:0:0:
320,192,23021,128,2,23102:0:0:0:0:
192,192,23102,128,2,23183:0:0:0:0:
320,192,23183,128,2,23264:0:0:0:0:
64,192,23264,128,2,23345:0:0:0:0:
448,192,23264,128,0,23345:0:0:0:0:
192,192,23345,128,2,23426:0:0:0:0:
320,192,23426,128,2,23507:0:0:0:0:
448,192,23507,128,2,23588:0:0:0:0:
192,192,23588,1,4,0:0:0:0:
64,192,23588,128,2,23669:0:0:0:0:
320,192,23750,1,0,0:0:0:0:
448,192,23913,1,8,0:0:0:0:
64,192,24075,1,0,0:0:0:0:
192,192,24075,1,0,0:0:0:0:
320,192,24237,1,2,0:0:0:0:
64,192,24399,1,0,0:0:0:0:
448,192,24399,1,0,0:0:0:0:
192,192,24561,1,8,0:0:0:0:
320,192,24723,1,0,0:0:0:0:
448,192,24723,1,0,0:0:0:0:
64,192,24886,1,2,0:0:0:0:
192,192,25048,1,0,0:0:0:0:
320,192,25210,1,8,0:0:0:0:
64,192,25372,1,0,0:0:0:0:
448,192,25372,1,0,0:0:0:0:
192,192,25534,1,2,0:0:0:0:
320,192,25696,1,4,0:0:0:0:
448,192,25696,1,0,0:0:0:0:
64,192,25859,1,8,0:0:0:0:
192,192,26021,1,0,0:0:0:0:
320,192,26021,1,0,0:0:0:0:
64,192,26183,1,4,0:0:0:0:
448,192,26183,1,2,0:0:0:0:
320,192,26345,1,0,0:0:0:0:
192,192,26507,1,8,0:0:0:0:
320,192,26669,1,0,0:0:0:0:
448,192,26669,1,0,0:0:0:0:
64,192,26831,1,2,0:0:0:0:
192,192,26994,1,0,0:0:0:0:
320,192,26994,1,0,0:0:0:0:
448,192,27156,1,8,0:0:0:0:
64,192,27318,1,0,0:0:0:0:
192,192,27318,1,0,0:0:0:0:
448,192,27480,1,2,0:0:0:0:
320,192,27642,1,0,0:0:0:0:
192,192,27804,1,8,0:0:0:0:
64,192,27967,1,0,0:0:0:0:
448,192,27967,1,0,0:0:0:0:
320,192,28129,1,2,0:0:0:0:
64,192,28291,1,0,0:0:0:0:
192,192,28291,1,0,0:0:0:0:
448,192,28453,1,8,0:0:0:0:
192,192,28615,1,2,0:0:0:0:
320,192,28615,1,0,0:0:0:0:
64,192,28777,1,2,0:0:0:0:
448,192,28777,1,4,0:0:0:0:
192,192,28940,1,0,0:0:0:0:
64,192,29102,1,8,0:0:0:0:
448,192,29264,1,0,0:0:0:0:
320,192,29264,1,0,0:0:0:0:
192,192,29426,1,2,0:0:0:0:
448,192,29588,1,0,0:0:0:0:
64,192,29588,1,0,0:0:0:0:
320,192,29750,1,8,0:0:0:0:
192,192,29913,1,0,0:0:0:0:
64,192,29913,1,0,0:0:0:0:
448,192,30075,1,2,0:0:0:0:
320,192,30237,1,0,0:0:0:0:
192,192,30399,1,8,0:0:0:0:
448,192,30561,1,0,0:0:0:0:
64,192,30561,1,0,0:0:0:0:
320,192,30723,1,2,0:0:0:0:
192,192,30886,1,4,0:0:0:0:
64,192,30886,1,0,0:0:0:0:
448,192,31048,1,8,0:0:0:0:
320,192,31210,1,0,0:0:0:0:
192,192,31210,1,0,0:0:0:0:
448,192,31372,1,4,0:0:0:0:
64,192,31372,1,2,0:0:0:0:
192,192,31534,1,0,0:0:0:0:
320,192,31696,1,8,0:0:0:0:
192,192,31859,1,0,0:0:0:0:
64,192,31859,1,0,0:0:0:0:
448,192,32021,1,2,0:0:0:0:
320,192,32183,1,0,0:0:0:0:
192,192,32183,1,0,0:0:0:0:
64,192,32345,1,8,0:0:0:0:
448,192,32507,1,0,0:0:0:0:
320,192,32507,1,0,0:0:0:0:
64,192,32669,1,2,0:0:0:0:
192,192,32831,1,0,0:0:0:0:
320,192,32994,1,8,0:0:0:0:
448,192,33156,1,0,0:0:0:0:
64,192,33156,1,0,0:0:0:0:
192,192,33318,1,2,0:0:0:0:
448,192,33480,1,2,0:0:0:0:
320,192,33521,1,2,0:0:0:0:
192,192,33561,1,2,0:0:0:0:
64,192,33602,1,2,0:0:0:0:
320,192,33642,1,8,0:0:0:0:
192,192,33804,1,2,0:0:0:0:
320,192,33845,1,2,0:0:0:0:
448,192,33967,1,2,0:0:0:0:
64,192,33967,1,4,0:0:0:0:
192,192,33967,1,0,0:0:0:0:
320,192,34129,1,0,0:0:0:0:
448,192,34291,1,8,0:0:0:0:
192,192,34453,1,0,0:0:0:0:
64,192,34453,1,0,0:0:0:0:
320,192,34615,1,2,0:0:0:0:
448,192,34777,1,0,0:0:0:0:
64,192,34777,1,0,0:0:0:0:
192,192,34940,1,8,0:0:0:0:
448,192,35102,1,0,0:0:0:0:
320,192,35102,1,0,0:0:0:0:
64,192,35264,1,2,0:0:0:0:
192,192,35426,1,0,0:0:0:0:
320,192,35588,1,8,0:0:0:0:
448,192,35750,1,0,0:0:0:0:
64,192,35750,1,0,0:0:0:0:
192,192,35913,1,2,0:0:0:0:
448,192,36075,1,4,0:0:0:0:
320,192,36075,1,0,0:0:0:0:
64,192,36237,1,8,0:0:0:0:
320,192,36399,1,0,0:0:0:0:
192,192,36399,1,0,0:0:0:0:
448,192,36561,1,2,0:0:0:0:
64,192,36561,1,4,0:0:0:0:
320,192,36723,1,0,0:0:0:0:
192,192,36886,1,8,0:0:0:0:
448,192,37048,1,0,0:0:0:0:
320,192,37048,1,0,0:0:0:0:
64,192,37210,1,2,0:0:0:0:
320,192,37372,1,0,0:0:0:0:
192,192,37372,1,0,0:0:0:0:
448,192,37534,1,8,0:0:0:0:
192,192,37696,1,0,0:0:0:0:
64,192,37696,1,0,0:0:0:0:
448,192,37859,1,2,0:0:0:0:
320,192,38021,1,0,0:0:0:0:
192,192,38183,1,8,0:0:0:0:
448,192,38345,1,0,0:0:0:0:
64,192,38345,1,0,0:0:0:0:
320,192,38507,1,2,0:0:0:0:
192,192,38669,1,0,0:0:0:0:
64,192,38669,1,0,0:0:0:0:
448,192,38831,1,8,0:0:0:0:
320,192,38994,1,2,0:0:0:0:
192,192,38994,1,0,0:0:0:0:
448,192,39156,1,4,0:0:0:0:
64,192,39156,1,2,0:0:0:0:
320,192,39237,1,0,0:0:0:0:
192,192,39318,1,0,0:0:0:0:
64,192,39399,1,0,0:0:0:0:
320,192,39480,1,8,0:0:0:0:
448,192,39561,1,0,0:0:0:0:
64,192,39642,1,0,0:0:0:0:
192,192,39642,1,0,0:0:0:0:
320,192,39723,1,0,0:0:0:0:
448,192,39804,1,2,0:0:0:0:
64,192,39886,1,0,0:0:0:0:
192,192,39967,1,0,0:0:0:0:
320,192,39967,1,0,0:0:0:0:
448,192,40048,1,0,0:0:0:0:
64,192,40129,1,8,0:0:0:0:
192,192,40210,1,0,0:0:0:0:
320,192,40291,1,0,0:0:0:0:
448,192,40291,1,0,0:0:0:0:
64,192,40372,1,0,0:0:0:0:
192,192,40453,1,2,0:0:0:0:
448,192,40534,1,0,0:0:0:0:
320,192,40615,1,0,0:0:0:0:
192,192,40696,1,0,0:0:0:0:
64,192,40777,1,8,0:0:0:0:
448,192,40859,1,0,0:0:0:0:
320,192,40940,1,0,0:0:0:0:
192,192,40940,1,0,0:0:0:0:
64,192,41021,1,0,0:0:0:0:
320,192,41102,1,2,0:0:0:0:
192,192,41183,1,0,0:0:0:0:
64,192,41264,1,4,0:0:0:0:
448,192,41264,1,0,0:0:0:0:
320,192,41345,1,0,0:0:0:0:
192,192,41426,1,8,0:0:0:0:
64,192,41507,1,0,0:0:0:0:
320,192,41588,1,0,0:0:0:0:
448,192,41588,1,0,0:0:0:0:
192,192,41669,1,0,0:0:0:0:
64,192,41750,1,2,0:0:0:0:
448,192,41750,1,4,0:0:0:0:
320,192,41913,1,2,0:0:0:0:
192,192,41913,1,0,0:0:0:0:
320,192,42075,1,8,0:0:0:0:
448,192,42075,1,0,0:0:0:0:
192,192,42237,1,2,0:0:0:0:
64,192,42237,1,0,0:0:0:0:
448,192,42399,1,2,0:0:0:0:
64,192,42399,1,0,0:0:0:0:
320,192,42561,1,2,0:0:0:0:
192,192,42561,1,0,0:0:0:0:
192,192,42723,1,8,0:0:0:0:
64,192,42723,1,0,0:0:0:0:
320,192,42886,1,2,0:0:0:0:
448,192,42886,1,0,0:0:0:0:
64,192,43048,1,2,0:0:0:0:
192,192,43048,1,0,0:0:0:0:
320,192,43129,1,2,0:0:0:0:
64,192,43210,1,2,0:0:0:0:
448,192,43210,1,0,0:0:0:0:
192,192,43291,1,2,0:0:0:0:
320,192,43372,1,2,0:0:0:0:
448,192,43372,1,0,0:0:0:0:
64,192,43453,1,2,0:0:0:0:
192,192,43534,1,2,0:0:0:0:
320,192,43534,1,0,0:0:0:0:
448,192,43615,1,2,0:0:0:0:
64,192,43696,1,2,0:0:0:0:
192,192,43696,1,0,0:0:0:0:
448,192,43777,1,2,0:0:0:0:
192,192,43859,1,2,0:0:0:0:
320,192,43859,1,0,0:0:0:0:
64,192,43940,1,2,0:0:0:0:
320,192,44021,1,2,0:0:0:0:
448,192,44021,1,0,0:0:0:0:
192,192,44102,1,2,0:0:0:0:
64,192,44183,1,2,0:0:0:0:
448,192,44183,1,0,0:0:0:0:
320,192,44264,1,2,0:0:0:0:
192,192,44345,1,2,0:0:0:0:
64,192,44345,128,4,44669:0:0:0:0:
448,192,44345,1,0,0:0:0:0:
320,192,44507,1,0,0:0:0:0:
320,192,44669,1,8,0:0:0:0:
192,192,44669,1,0,0:0:0:0:
448,192,44831,128,0,45642:0:0:0:0:
64,192,44994,1,2,0:0:0:0:
192,192,44994,1,0,0:0:0:0:
320,192,45156,1,0,0:0:0:0:
320,192,45318,1,8,0:0:0:0:
64,192,45318,1,0,0:0:0:0:
192,192,45480,1,0,0:0:0:0:
64,192,45642,1,2,0:0:0:0:
192,192,45642,1,0,0:0:0:0:
448,192,45804,128,0,46129:0:0:0:0:
320,192,45967,128,8,46129:0:0:0:0:
192,192,45967,128,0,46291:0:0:0:0:
64,192,46129,128,0,46291:0:0:0:0:
320,192,46291,1,2,0:0:0:0:
448,192,46291,1,0,0:0:0:0:
192,192,46453,128,0,46940:0:0:0:0:
320,192,46615,1,8,0:0:0:0:
64,192,46615,1,0,0:0:0:0:
448,192,46777,128,0,46940:0:0:0:0:
320,192,46940,128,2,47264:0:0:0:0:
64,192,46940,1,0,0:0:0:0:
448,192,47102,1,0,0:0:0:0:
192,192,47264,1,8,0:0:0:0:
64,192,47264,1,0,0:0:0:0:
448,192,47426,128,0,47750:0:0:0:0:
192,192,47588,1,2,0:0:0:0:
320,192,47588,1,0,0:0:0:0:
64,192,47750,1,0,0:0:0:0:
192,192,47913,128,8,48561:0:0:0:0:
448,192,47913,1,0,0:0:0:0:
64,192,48075,1,0,0:0:0:0:
320,192,48237,1,2,0:0:0:0:
448,192,48237,1,0,0:0:0:0:
64,192,48399,1,0,0:0:0:0:
64,192,48561,1,8,0:0:0:0:
448,192,48561,1,0,0:0:0:0:
320,192,48723,1,0,0:0:0:0:
192,192,48886,1,2,0:0:0:0:
64,192,48886,128,0,49210:0:0:0:0:
448,192,49048,1,0,0:0:0:0:
320,192,49210,1,8,0:0:0:0:
192,192,49210,128,0,49534:0:0:0:0:
64,192,49372,1,2,0:0:0:0:
448,192,49372,1,0,0:0:0:0:
320,192,49534,128,2,49859:0:0:0:0:
64,192,49534,1,0,0:0:0:0:
192,192,49696,1,0,0:0:0:0:
448,192,49859,1,8,0:0:0:0:
64,192,49859,1,0,0:0:0:0:
320,192,50021,1,0,0:0:0:0:
192,192,50183,1,2,0:0:0:0:
64,192,50183,1,0,0:0:0:0:
320,192,50345,1,0,0:0:0:0:
64,192,50507,1,8,0:0:0:0:
448,192,50507,128,0,50831:0:0:0:0:
320,192,50669,128,0,50831:0:0:0:0:
192,192,50831,1,2,0:0:0:0:
64,192,50831,128,0,51156:0:0:0:0:
448,192,50994,1,0,0:0:0:0:
192,192,51156,1,8,0:0:0:0:
320,192,51156,128,0,51642:0:0:0:0:
448,192,51318,128,0,51642:0:0:0:0:
64,192,51480,1,2,0:0:0:0:
192,192,51480,1,0,0:0:0:0:
192,192,51642,128,0,52129:0:0:0:0:
320,192,51804,1,8,0:0:0:0:
448,192,51804,1,0,0:0:0:0:
64,192,51967,128,0,52129:0:0:0:0:
448,192,52129,128,2,52777:0:0:0:0:
320,192,52129,1,0,0:0:0:0:
64,192,52291,1,0,0:0:0:0:
320,192,52453,1,8,0:0:0:0:
192,192,52453,1,0,0:0:0:0:
192,192,52615,1,0,0:0:0:0:
64,192,52777,1,2,0:0:0:0:
320,192,52777,1,0,0:0:0:0:
192,192,52940,128,0,53426:0:0:0:0:
64,192,53102,1,8,0:0:0:0:
448,192,53102,1,0,0:0:0:0:
320,192,53264,128,0,53426:0:0:0:0:
64,192,53426,128,2,54075:0:0:0:0:
448,192,53426,1,0,0:0:0:0:
320,192,53588,1,0,0:0:0:0:
192,192,53750,1,8,0:0:0:0:
448,192,53750,1,0,0:0:0:0:
192,192,53913,1,0,0:0:0:0:
320,192,54075,128,2,54399:0:0:0:0:
448,192,54075,1,0,0:0:0:0:
192,192,54237,128,0,54399:0:0:0:0:
448,192,54399,128,8,54723:0:0:0:0:
64,192,54399,128,0,54561:0:0:0:0:
320,192,54561,128,2,54723:0:0:0:0:
192,192,54561,1,0,0:0:0:0:
192,192,54723,1,2,0:0:0:0:
64,192,54723,128,4,55048:0:0:0:0:
448,192,54886,1,0,0:0:0:0:
192,192,55048,1,8,0:0:0:0:
320,192,55048,1,0,0:0:0:0:
448,192,55210,128,0,55859:0:0:0:0:
64,192,55372,1,2,0:0:0:0:
192,192,55372,1,0,0:0:0:0:
192,192,55534,1,0,0:0:0:0:
64,192,55696,1,8,0:0:0:0:
320,192,55696,1,0,0:0:0:0:
192,192,55859,1,0,0:0:0:0:
320,192,56021,1,2,0:0:0:0:
448,192,56021,1,0,0:0:0:0:
64,192,56183,128,0,56507:0:0:0:0:
192,192,56345,128,8,56507:0:0:0:0:
320,192,56345,128,0,56669:0:0:0:0:
448,192,56507,128,0,56669:0:0:0:0:
64,192,56669,1,2,0:0:0:0:
192,192,56669,1,0,0:0:0:0:
320,192,56831,128,0,57318:0:0:0:0:
64,192,56994,1,8,0:0:0:0:
448,192,56994,1,0,0:0:0:0:
192,192,57156,128,0,57318:0:0:0:0:
64,192,57318,128,2,57642:0:0:0:0:
448,192,57318,1,0,0:0:0:0:
320,192,57480,1,0,0:0:0:0:
192,192,57642,1,8,0:0:0:0:
448,192,57642,1,0,0:0:0:0:
320,192,57804,128,0,58129:0:0:0:0:
64,192,57967,1,2,0:0:0:0:
192,192,57967,1,0,0:0:0:0:
448,192,58129,1,0,0:0:0:0:
192,192,58291,128,8,58615:0:0:0:0:
64,192,58291,1,0,0:0:0:0:
320,192,58453,1,0,0:0:0:0:
64,192,58615,1,2,0:0:0:0:
448,192,58615,1,0,0:0:0:0:
320,192,58777,1,0,0:0:0:0:
192,192,58940,128,8,59264:0:0:0:0:
64,192,58940,1,0,0:0:0:0:
448,192,59102,1,0,0:0:0:0:
64,192,59264,1,2,0:0:0:0:
320,192,59264,1,0,0:0:0:0:
192,192,59426,1,0,0:0:0:0:
64,192,59588,1,8,0:0:0:0:
448,192,59588,1,0,0:0:0:0:
320,192,59750,1,2,0:0:0:0:
192,192,59750,1,0,0:0:0:0:
448,192,59913,128,2,60237:0:0:0:0:
320,192,59913,1,0,0:0:0:0:
192,192,60075,1,2,0:0:0:0:
64,192,60075,1,0,0:0:0:0:
192,192,60237,1,8,0:0:0:0:
320,192,60237,1,0,0:0:0:0:
64,192,60399,128,2,60723:0:0:0:0:
448,192,60399,1,0,0:0:0:0:
192,192,60561,1,2,0:0:0:0:
448,192,60561,1,0,0:0:0:0:
192,192,60723,1,2,0:0:0:0:
320,192,60723,1,0,0:0:0:0:
64,192,60886,128,8,61048:0:0:0:0:
448,192,60886,1,0,0:0:0:0:
192,192,61048,128,2,61210:0:0:0:0:
320,192,61048,1,0,0:0:0:0:
320,192,61210,128,2,61372:0:0:0:0:
448,192,61210,1,0,0:0:0:0:
64,192,61372,1,2,0:0:0:0:
192,192,61453,128,0,61615:0:0:0:0:
448,192,61534,1,8,0:0:0:0:
320,192,61534,1,0,0:0:0:0:
448,192,61696,1,2,0:0:0:0:
64,192,61696,128,0,61859:0:0:0:0:
320,192,61859,1,2,0:0:0:0:
192,192,61859,128,0,62021:0:0:0:0:
448,192,62021,1,2,0:0:0:0:
320,192,62102,128,0,62264:0:0:0:0:
64,192,62183,1,8,0:0:0:0:
192,192,62183,1,0,0:0:0:0:
64,192,62345,1,2,0:0:0:0:
448,192,62345,128,0,62507:0:0:0:0:
320,192,62507,1,2,0:0:0:0:
192,192,62507,1,0,0:0:0:0:
192,192,62669,1,2,0:0:0:0:
64,192,62669,1,0,0:0:0:0:
448,192,62831,1,8,0:0:0:0:
64,192,62831,1,0,0:0:0:0:
448,192,62994,1,2,0:0:0:0:
320,192,62994,1,0,0:0:0:0:
192,192,63156,1,2,0:0:0:0:
64,192,63156,1,0,0:0:0:0:
192,192,63318,1,2,0:0:0:0:
320,192,63318,1,0,0:0:0:0:
64,192,63480,1,8,0:0:0:0:
448,192,63480,1,0,0:0:0:0:
192,192,63642,1,2,0:0:0:0:
320,192,63642,1,0,0:0:0:0:
320,192,63804,1,2,0:0:0:0:
448,192,63804,1,0,0:0:0:0:
64,192,63886,1,2,0:0:0:0:
192,192,63967,1,2,0:0:0:0:
320,192,63967,1,0,0:0:0:0:
448,192,64048,1,2,0:0:0:0:
64,192,64129,1,2,0:0:0:0:
192,192,64129,1,0,0:0:0:0:
320,192,64210,1,2,0:0:0:0:
64,192,64291,1,2,0:0:0:0:
448,192,64291,1,0,0:0:0:0:
192,192,64372,1,2,0:0:0:0:
320,192,64453,1,2,0:0:0:0:
448,192,64453,1,0,0:0:0:0:
192,192,64534,1,2,0:0:0:0:
64,192,64615,1,2,0:0:0:0:
448,192,64615,1,0,0:0:0:0:
320,192,64696,1,2,0:0:0:0:
64,192,64777,1,2,0:0:0:0:
192,192,64777,1,0,0:0:0:0:
448,192,64859,1,2,0:0:0:0:
192,192,64940,1,2,0:0:0:0:
320,192,64940,1,0,0:0:0:0:
64,192,65021,1,2,0:0:0:0:
320,192,65102,1,2,0:0:0:0:
448,192,65102,1,4,0:0:0:0:
192,192,65102,1,0,0:0:0:0:
64,192,65264,1,0,0:0:0:0:
320,192,65426,1,8,0:0:0:0:
448,192,65426,1,0,0:0:0:0:
192,192,65507,1,0,0:0:0:0:
320,192,65588,1,0,0:0:0:0:
192,192,65750,1,2,0:0:0:0:
64,192,65750,1,0,0:0:0:0:
448,192,65831,128,0,65994:0:0:0:0:
320,192,65913,128,0,66075:0:0:0:0:
192,192,65994,128,0,66156:0:0:0:0:
448,192,66075,1,8,0:0:0:0:
64,192,66075,128,0,66237:0:0:0:0:
320,192,66156,1,0,0:0:0:0:
192,192,66237,1,0,0:0:0:0:
64,192,66318,1,0,0:0:0:0:
448,192,66399,128,2,66642:0:0:0:0:
320,192,66399,1,0,0:0:0:0:
192,192,66561,128,0,66642:0:0:0:0:
320,192,66642,128,0,66886:0:0:0:0:
64,192,66804,128,0,66886:0:0:0:0:
192,192,66886,128,0,67048:0:0:0:0:
64,192,67048,128,2,67291:0:0:0:0:
448,192,67048,1,0,0:0:0:0:
320,192,67210,128,0,67291:0:0:0:0:
192,192,67291,128,0,67534:0:0:0:0:
448,192,67453,128,0,67534:0:0:0:0:
320,192,67534,128,0,67696:0:0:0:0:
448,192,67696,128,2,67940:0:0:0:0:
64,192,67696,1,0,0:0:0:0:
192,192,67859,128,0,67940:0:0:0:0:
64,192,67940,128,0,68183:0:0:0:0:
320,192,68102,128,0,68183:0:0:0:0:
448,192,68183,128,0,68507:0:0:0:0:
64,192,68345,1,2,0:0:0:0:
320,192,68426,128,0,68507:0:0:0:0:
192,192,68507,128,0,68588:0:0:0:0:
64,192,68588,128,0,68669:0:0:0:0:
320,192,68669,128,8,68750:0:0:0:0:
192,192,68750,128,0,68831:0:0:0:0:
448,192,68831,128,0,68913:0:0:0:0:
320,192,68913,128,0,68994:0:0:0:0:
64,192,68994,128,2,69156:0:0:0:0:
192,192,68994,1,0,0:0:0:0:
320,192,69156,128,0,69237:0:0:0:0:
448,192,69237,128,0,69318:0:0:0:0:
192,192,69318,128,8,69399:0:0:0:0:
320,192,69399,128,0,69480:0:0:0:0:
64,192,69480,128,0,69561:0:0:0:0:
192,192,69561,128,0,69642:0:0:0:0:
448,192,69642,128,2,69723:0:0:0:0:
320,192,69642,1,0,0:0:0:0:
64,192,69723,128,0,69804:0:0:0:0:
320,192,69804,128,0,69886:0:0:0:0:
192,192,69886,128,0,69967:0:0:0:0:
448,192,69967,128,8,70048:0:0:0:0:
64,192,70048,128,0,70129:0:0:0:0:
320,192,70129,128,2,70210:0:0:0:0:
192,192,70210,128,0,70291:0:0:0:0:
64,192,70291,128,2,70615:0:0:0:0:
448,192,70291,1,0,0:0:0:0:
320,192,70453,1,0,0:0:0:0:
192,192,70615,1,8,0:0:0:0:
448,192,70615,1,0,0:0:0:0:
320,192,70777,128,0,71588:0:0:0:0:
192,192,70940,1,2,0:0:0:0:
64,192,70940,1,0,0:0:0:0:
448,192,71102,1,0,0:0:0:0:
448,192,71264,128,8,71588:0:0:0:0:
64,192,71264,1,0,0:0:0:0:
192,192,71426,1,0,0:0:0:0:
192,192,71588,128,2,72075:0:0:0:0:
64,192,71588,1,0,0:0:0:0:
320,192,71750,1,0,0:0:0:0:
64,192,71913,128,8,72075:0:0:0:0:
448,192,71913,1,0,0:0:0:0:
320,192,72075,128,0,72399:0:0:0:0:
64,192,72237,1,2,0:0:0:0:
448,192,72237,1,0,0:0:0:0:
192,192,72399,1,0,0:0:0:0:
320,192,72561,128,8,72886:0:0:0:0:
64,192,72561,1,0,0:0:0:0:
448,192,72723,1,0,0:0:0:0:
64,192,72886,1,2,0:0:0:0:
192,192,72886,128,0,73129:0:0:0:0:
448,192,73048,128,0,73129:0:0:0:0:
64,192,73129,128,0,73372:0:0:0:0:
320,192,73291,128,0,73372:0:0:0:0:
448,192,73372,128,0,73615:0:0:0:0:
192,192,73534,128,2,73615:0:0:0:0:
64,192,73534,1,0,0:0:0:0:
320,192,73615,128,0,73859:0:0:0:0:
64,192,73777,128,0,73859:0:0:0:0:
192,192,73859,128,8,74021:0:0:0:0:
448,192,73940,128,0,74021:0:0:0:0:
64,192,74021,128,0,74183:0:0:0:0:
320,192,74102,128,0,74183:0:0:0:0:
192,192,74183,128,2,74345:0:0:0:0:
448,192,74183,1,0,0:0:0:0:
64,192,74426,128,0,74588:0:0:0:0:
320,192,74507,1,8,0:0:0:0:
448,192,74507,1,0,0:0:0:0:
192,192,74669,128,0,74831:0:0:0:0:
448,192,74831,128,2,74994:0:0:0:0:
64,192,74831,1,0,0:0:0:0:
192,192,74994,1,2,0:0:0:0:
320,192,75075,128,2,75237:0:0:0:0:
64,192,75156,1,8,0:0:0:0:
448,192,75318,128,2,75480:0:0:0:0:
192,192,75318,1,0,0:0:0:0:
64,192,75480,1,4,0:0:0:0:
320,192,75480,1,2,0:0:0:0:
192,192,75480,1,0,0:0:0:0:
320,192,75642,1,0,0:0:0:0:
448,192,75804,1,8,0:0:0:0:
64,192,75804,1,0,0:0:0:0:
192,192,75886,1,0,0:0:0:0:
320,192,75967,1,0,0:0:0:0:
192,192,76129,1,2,0:0:0:0:
64,192,76129,1,0,0:0:0:0:
448,192,76210,128,0,76372:0:0:0:0:
320,192,76291,128,0,76453:0:0:0:0:
192,192,76372,128,0,76534:0:0:0:0:
448,192,76453,1,8,0:0:0:0:
64,192,76453,128,0,76615:0:0:0:0:
320,192,76534,1,0,0:0:0:0:
192,192,76615,1,0,0:0:0:0:
64,192,76696,1,0,0:0:0:0:
448,192,76777,128,2,77021:0:0:0:0:
320,192,76777,1,0,0:0:0:0:
192,192,76940,128,0,77021:0:0:0:0:
320,192,77021,128,0,77264:0:0:0:0:
64,192,77183,128,0,77264:0:0:0:0:
192,192,77264,128,0,77426:0:0:0:0:
64,192,77426,128,2,77669:0:0:0:0:
448,192,77426,1,0,0:0:0:0:
320,192,77588,128,0,77669:0:0:0:0:
192,192,77669,128,0,77913:0:0:0:0:
448,192,77831,128,0,77913:0:0:0:0:
320,192,77913,128,0,78075:0:0:0:0:
192,192,78075,1,8,0:0:0:0:
64,192,78075,1,2,0:0:0:0:
448,192,78075,1,0,0:0:0:0:
64,192,78399,1,2,0:0:0:0:
192,192,78399,1,8,0:0:0:0:
448,192,78399,1,0,0:0:0:0:
320,192,78723,1,2,0:0:0:0:
192,192,78723,1,8,0:0:0:0:
448,192,78723,1,0,0:0:0:0:
64,192,78886,1,8,0:0:0:0:
320,192,78886,1,2,0:0:0:0:
448,192,78886,1,0,0:0:0:0:
64,192,79210,1,2,0:0:0:0:
320,192,79210,128,4,79696:0:0:0:0:
192,192,79210,128,0,79696:0:0:0:0:
448,192,79372,1,2,0:0:0:0:
64,192,79696,1,8,0:0:0:0:
448,192,79696,1,0,0:0:0:0:
192,192,79859,1,0,0:0:0:0:
320,192,80021,128,2,80102:0:0:0:0:
448,192,80021,1,0,0:0:0:0:
64,192,80102,128,0,80183:0:0:0:0:
448,192,80183,128,0,80264:0:0:0:0:
192,192,80264,128,0,80345:0:0:0:0:
320,192,80345,128,8,80426:0:0:0:0:
448,192,80345,1,0,0:0:0:0:
64,192,80426,128,0,80507:0:0:0:0:
448,192,80507,128,0,80588:0:0:0:0:
192,192,80588,128,0,80669:0:0:0:0:
320,192,80669,1,2,0:0:0:0:
448,192,80669,128,4,81642:0:0:0:0:
64,192,80831,1,2,0:0:0:0:
192,192,80994,1,8,0:0:0:0:
320,192,80994,1,0,0:0:0:0:
64,192,81156,1,2,0:0:0:0:
320,192,81318,1,2,0:0:0:0:
64,192,81480,1,2,0:0:0:0:
192,192,81642,1,8,0:0:0:0:
320,192,81642,1,0,0:0:0:0:
448,192,81804,1,2,0:0:0:0:
64,192,81804,1,0,0:0:0:0:
192,192,81967,1,2,0:0:0:0:
320,192,81967,1,4,0:0:0:0:
64,192,81967,128,0,82615:0:0:0:0:
448,192,82129,1,2,0:0:0:0:
192,192,82291,1,8,0:0:0:0:
320,192,82291,1,0,0:0:0:0:
448,192,82453,1,2,0:0:0:0:
192,192,82615,1,2,0:0:0:0:
320,192,82615,128,0,83102:0:0:0:0:
448,192,82777,1,2,0:0:0:0:
64,192,82940,1,8,0:0:0:0:
192,192,82940,1,0,0:0:0:0:
448,192,83102,1,2,0:0:0:0:
64,192,83264,1,2,0:0:0:0:
192,192,83264,1,4,0:0:0:0:
320,192,83264,1,0,0:0:0:0:
320,192,83426,1,2,0:0:0:0:
448,192,83426,1,0,0:0:0:0:
64,192,83588,1,8,0:0:0:0:
192,192,83588,1,0,0:0:0:0:
320,192,83750,1,2,0:0:0:0:
192,192,83831,1,2,0:0:0:0:
64,192,83913,1,4,0:0:0:0:
448,192,83913,1,0,0:0:0:0:
320,192,83994,1,2,0:0:0:0:
192,192,84075,1,2,0:0:0:0:
320,192,84237,1,8,0:0:0:0:
448,192,84237,1,0,0:0:0:0:
192,192,84399,1,2,0:0:0:0:
64,192,84399,1,0,0:0:0:0:
64,192,84561,1,2,0:0:0:0:
448,192,84561,1,4,0:0:0:0:
320,192,84561,1,0,0:0:0:0:
320,192,84723,1,2,0:0:0:0:
192,192,84723,1,0,0:0:0:0:
64,192,84886,1,2,0:0:0:0:
448,192,84886,1,0,0:0:0:0:
320,192,84967,1,2,0:0:0:0:
192,192,85048,1,2,0:0:0:0:
64,192,85129,1,2,0:0:0:0:
448,192,85129,1,0,0:0:0:0:
192,192,85291,1,2,0:0:0:0:
320,192,85372,1,2,0:0:0:0:
448,192,85372,1,0,0:0:0:0:
64,192,85453,1,2,0:0:0:0:
192,192,85534,1,2,0:0:0:0:
320,192,85534,1,0,0:0:0:0:
448,192,85615,1,2,0:0:0:0:
64,192,85696,1,2,0:0:0:0:
192,192,85696,1,0,0:0:0:0:
320,192,85777,1,2,0:0:0:0:
192,192,85859,1,2,0:0:0:0:
448,192,85859,1,4,0:0:0:0:
64,192,85859,128,0,86183:0:0:0:0:
320,192,86021,1,0,0:0:0:0:
448,192,86183,128,8,86507:0:0:0:0:
192,192,86183,1,0,0:0:0:0:
320,192,86345,128,0,86507:0:0:0:0:
64,192,86507,1,2,0:0:0:0:
192,192,86507,1,0,0:0:0:0:
320,192,86669,1,0,0:0:0:0:
192,192,86831,128,8,87156:0:0:0:0:
64,192,86831,1,0,0:0:0:0:
320,192,86994,1,0,0:0:0:0:
64,192,87156,128,2,87480:0:0:0:0:
448,192,87156,1,0,0:0:0:0:
320,192,87318,1,0,0:0:0:0:
448,192,87480,1,8,0:0:0:0:
192,192,87480,1,0,0:0:0:0:
448,192,87642,1,0,0:0:0:0:
192,192,87804,128,2,88129:0:0:0:0:
64,192,87804,1,0,0:0:0:0:
320,192,87967,128,0,88291:0:0:0:0:
64,192,88129,128,8,88453:0:0:0:0:
448,192,88129,128,0,88291:0:0:0:0:
192,192,88291,128,0,88453:0:0:0:0:
320,192,88453,1,2,0:0:0:0:
448,192,88453,128,0,88777:0:0:0:0:
192,192,88615,1,0,0:0:0:0:
64,192,88777,128,8,89102:0:0:0:0:
320,192,88777,1,0,0:0:0:0:
192,192,88940,128,0,89102:0:0:0:0:
320,192,89102,1,2,0:0:0:0:
448,192,89102,1,0,0:0:0:0:
448,192,89264,128,0,89588:0:0:0:0:
64,192,89426,1,8,0:0:0:0:
192,192,89426,1,0,0:0:0:0:
320,192,89588,128,0,90399:0:0:0:0:
64,192,89750,1,2,0:0:0:0:
448,192,89750,1,0,0:0:0:0:
64,192,89913,1,0,0:0:0:0:
192,192,90075,1,8,0:0:0:0:
448,192,90075,1,0,0:0:0:0:
448,192,90237,1,0,0:0:0:0:
64,192,90399,1,2,0:0:0:0:
192,192,90399,128,0,90480:0:0:0:0:
320,192,90480,128,0,90561:0:0:0:0:
448,192,90561,128,0,90642:0:0:0:0:
192,192,90642,128,0,90723:0:0:0:0:
320,192,90723,128,8,90804:0:0:0:0:
448,192,90723,1,0,0:0:0:0:
64,192,90804,128,0,90886:0:0:0:0:
192,192,90886,128,2,90967:0:0:0:0:
448,192,90886,1,0,0:0:0:0:
320,192,90967,128,0,91048:0:0:0:0:
448,192,91048,128,4,91534:0:0:0:0:
64,192,91048,1,2,0:0:0:0:
192,192,91048,1,0,0:0:0:0:
64,192,91210,1,0,0:0:0:0:
320,192,91372,128,8,91534:0:0:0:0:
192,192,91372,1,0,0:0:0:0:
64,192,91534,128,0,91859:0:0:0:0:
192,192,91696,1,2,0:0:0:0:
448,192,91696,1,0,0:0:0:0:
320,192,91859,128,0,92264:0:0:0:0:
64,192,92021,1,8,0:0:0:0:
448,192,92021,1,0,0:0:0:0:
192,192,92183,128,0,92264:0:0:0:0:
448,192,92345,1,8,0:0:0:0:
64,192,92345,1,2,0:0:0:0:
192,192,92345,1,0,0:0:0:0:
64,192,92831,1,2,0:0:0:0:
192,192,92831,1,8,0:0:0:0:
320,192,92831,1,0,0:0:0:0:
192,192,93318,1,2,0:0:0:0:
320,192,93318,1,8,0:0:0:0:
448,192,93318,1,0,0:0:0:0:
448,192,93642,1,4,0:0:0:0:
64,192,93642,128,2,93967:0:0:0:0:
192,192,93642,1,0,0:0:0:0:
192,192,93804,1,0,0:0:0:0:
448,192,93967,128,8,94291:0:0:0:0:
320,192,93967,1,0,0:0:0:0:
192,192,94129,1,0,0:0:0:0:
64,192,94291,128,2,94615:0:0:0:0:
320,192,94291,1,0,0:0:0:0:
192,192,94453,128,0,94615:0:0:0:0:
320,192,94615,1,8,0:0:0:0:
448,192,94615,1,0,0:0:0:0:
192,192,94777,1,0,0:0:0:0:
448,192,94940,1,2,0:0:0:0:
320,192,94940,128,0,95588:0:0:0:0:
64,192,95102,1,2,0:0:0:0:
192,192,95264,1,8,0:0:0:0:
448,192,95264,1,0,0:0:0:0:
64,192,95426,1,2,0:0:0:0:
64,192,95588,1,2,0:0:0:0:
192,192,95588,1,0,0:0:0:0:
448,192,95750,1,2,0:0:0:0:
320,192,95791,1,2,0:0:0:0:
192,192,95831,1,2,0:0:0:0:
64,192,95872,1,2,0:0:0:0:
448,192,95913,1,8,0:0:0:0:
64,192,96075,1,2,0:0:0:0:
192,192,96115,1,2,0:0:0:0:
320,192,96156,1,2,0:0:0:0:
448,192,96196,1,2,0:0:0:0:
64,192,96237,1,4,0:0:0:0:
192,192,96237,1,2,0:0:0:0:
320,192,96399,1,0,0:0:0:0:
448,192,96561,128,8,96886:0:0:0:0:
64,192,96561,1,0,0:0:0:0:
320,192,96723,128,0,96886:0:0:0:0:
64,192,96886,1,2,0:0:0:0:
192,192,96886,1,0,0:0:0:0:
320,192,97048,1,0,0:0:0:0:
192,192,97210,128,8,97534:0:0:0:0:
64,192,97210,1,0,0:0:0:0:
320,192,97372,1,0,0:0:0:0:
64,192,97534,128,2,97859:0:0:0:0:
448,192,97534,1,0,0:0:0:0:
320,192,97696,1,0,0:0:0:0:
448,192,97859,1,8,0:0:0:0:
192,192,97859,1,0,0:0:0:0:
320,192,98021,1,0,0:0:0:0:
64,192,98183,128,2,98345:0:0:0:0:
320,192,98183,128,0,98507:0:0:0:0:
192,192,98345,128,0,98507:0:0:0:0:
448,192,98507,128,8,98750:0:0:0:0:
64,192,98507,1,0,0:0:0:0:
320,192,98669,128,2,98750:0:0:0:0:
192,192,98669,1,0,0:0:0:0:
320,192,98831,1,8,0:0:0:0:
448,192,98831,1,2,0:0:0:0:
64,192,98831,1,0,0:0:0:0:
64,192,99156,1,2,0:0:0:0:
192,192,99156,1,8,0:0:0:0:
320,192,99156,1,0,0:0:0:0:
64,192,99480,1,2,0:0:0:0:
192,192,99480,1,8,0:0:0:0:
448,192,99480,1,0,0:0:0:0:
320,192,99642,1,2,0:0:0:0:
64,192,99642,1,8,0:0:0:0:
448,192,99642,1,0,0:0:0:0:
192,192,99967,1,4,0:0:0:0:
448,192,99967,128,2,100291:0:0:0:0:
64,192,99967,128,0,100291:0:0:0:0:
320,192,100291,1,0,0:0:0:0:
448,192,100453,1,8,0:0:0:0:
64,192,100453,1,0,0:0:0:0:
192,192,100615,1,0,0:0:0:0:
448,192,100777,128,2,100859:0:0:0:0:
64,192,100777,128,0,100859:0:0:0:0:
320,192,100859,128,0,100940:0:0:0:0:
64,192,100940,128,2,101021:0:0:0:0:
192,192,100940,128,0,101021:0:0:0:0:
448,192,101021,128,0,101102:0:0:0:0:
192,192,101102,128,8,101183:0:0:0:0:
320,192,101102,128,0,101183:0:0:0:0:
64,192,101183,128,0,101264:0:0:0:0:
448,192,101264,1,2,0:0:0:0:
320,192,101304,1,2,0:0:0:0:
192,192,101345,1,2,0:0:0:0:
64,192,101386,1,2,0:0:0:0:
320,192,101426,1,2,0:0:0:0:
448,192,101426,128,4,101913:0:0:0:0:
192,192,101588,1,0,0:0:0:0:
64,192,101750,128,8,101913:0:0:0:0:
320,192,101750,1,0,0:0:0:0:
192,192,101913,128,0,102237:0:0:0:0:
64,192,102075,1,2,0:0:0:0:
448,192,102075,1,0,0:0:0:0:
320,192,102237,128,0,102561:0:0:0:0:
64,192,102399,1,8,0:0:0:0:
192,192,102399,1,0,0:0:0:0:
448,192,102561,1,0,0:0:0:0:
192,192,102723,1,2,0:0:0:0:
320,192,102723,1,4,0:0:0:0:
64,192,102723,128,0,103210:0:0:0:0:
320,192,102886,1,0,0:0:0:0:
448,192,103048,128,8,103210:0:0:0:0:
192,192,103048,1,0,0:0:0:0:
320,192,103210,128,0,103534:0:0:0:0:
64,192,103372,1,2,0:0:0:0:
448,192,103372,1,0,0:0:0:0:
192,192,103534,128,0,103859:0:0:0:0:
320,192,103696,1,8,0:0:0:0:
448,192,103696,1,0,0:0:0:0:
64,192,103859,1,2,0:0:0:0:
448,192,103859,1,0,0:0:0:0:
64,192,104021,1,4,0:0:0:0:
192,192,104021,1,2,0:0:0:0:
320,192,104021,1,0,0:0:0:0:
320,192,104183,1,2,0:0:0:0:
448,192,104183,1,0,0:0:0:0:
192,192,104345,1,2,0:0:0:0:
320,192,104345,1,0,0:0:0:0:
64,192,104507,1,2,0:0:0:0:
192,192,104507,1,0,0:0:0:0:
192,192,104669,1,4,0:0:0:0:
320,192,104669,1,2,0:0:0:0:
448,192,104669,1,0,0:0:0:0:
64,192,104831,1,2,0:0:0:0:
320,192,104831,1,0,0:0:0:0:
64,192,104994,1,2,0:0:0:0:
448,192,104994,1,0,0:0:0:0:
192,192,105156,1,2,0:0:0:0:
448,192,105156,1,0,0:0:0:0:
64,192,105318,1,4,0:0:0:0:
320,192,105318,1,2,0:0:0:0:
192,192,105318,1,0,0:0:0:0:
448,192,105399,1,2,0:0:0:0:
320,192,105480,1,2,0:0:0:0:
64,192,105561,1,2,0:0:0:0:
448,192,105642,1,4,0:0:0:0:
192,192,105642,1,2,0:0:0:0:
320,192,105642,1,0,0:0:0:0:
64,192,105723,1,2,0:0:0:0:
320,192,105804,1,2,0:0:0:0:
448,192,105886,1,2,0:0:0:0:
64,192,105967,1,2,0:0:0:0:
320,192,105967,1,4,0:0:0:0:
192,192,105967,1,0,0:0:0:0:
448,192,106048,1,2,0:0:0:0:
192,192,106129,1,2,0:0:0:0:
64,192,106210,1,2,0:0:0:0:
448,192,106291,1,2,0:0:0:0:
192,192,106291,1,4,0:0:0:0:
320,192,106291,1,0,0:0:0:0:
64,192,106372,1,2,0:0:0:0:
320,192,106453,1,2,0:0:0:0:
448,192,106534,1,2,0:0:0:0:
320,192,106615,1,2,0:0:0:0:
192,192,106615,1,4,0:0:0:0:
64,192,106615,1,0,0:0:0:0:
64,192,106777,1,0,0:0:0:0:
192,192,106859,1,0,0:0:0:0:
320,192,106940,1,8,0:0:0:0:
448,192,106940,1,0,0:0:0:0:
64,192,107021,1,0,0:0:0:0:
320,192,107102,1,0,0:0:0:0:
192,192,107183,1,0,0:0:0:0:
64,192,107264,1,2,0:0:0:0:
448,192,107264,1,0,0:0:0:0:
320,192,107345,1,0,0:0:0:0:
192,192,107426,1,0,0:0:0:0:
64,192,107507,1,0,0:0:0:0:
320,192,107588,1,8,0:0:0:0:
448,192,107588,1,0,0:0:0:0:
192,192,107669,1,0,0:0:0:0:
448,192,107750,1,0,0:0:0:0:
64,192,107831,1,0,0:0:0:0:
192,192,107913,1,2,0:0:0:0:
320,192,107913,1,0,0:0:0:0:
448,192,107994,1,0,0:0:0:0:
64,192,108075,1,0,0:0:0:0:
192,192,108156,1,0,0:0:0:0:
320,192,108237,1,8,0:0:0:0:
448,192,108237,1,0,0:0:0:0:
64,192,108318,1,0,0:0:0:0:
320,192,108399,1,0,0:0:0:0:
192,192,108480,1,0,0:0:0:0:
448,192,108561,1,2,0:0:0:0:
64,192,108561,1,0,0:0:0:0:
320,192,108642,1,0,0:0:0:0:
64,192,108723,1,0,0:0:0:0:
192,192,108804,1,0,0:0:0:0:
320,192,108886,1,8,0:0:0:0:
448,192,108886,1,0,0:0:0:0:
64,192,108967,1,0,0:0:0:0:
320,192,109048,1,2,0:0:0:0:
448,192,109088,1,2,0:0:0:0:
64,192,109129,1,2,0:0:0:0:
192,192,109169,1,2,0:0:0:0:
320,192,109210,1,2,0:0:0:0:
448,192,109291,1,0,0:0:0:0:
192,192,109372,1,0,0:0:0:0:
320,192,109453,1,0,0:0:0:0:
64,192,109534,1,8,0:0:0:0:
448,192,109534,1,0,0:0:0:0:
192,192,109615,1,0,0:0:0:0:
320,192,109696,1,0,0:0:0:0:
64,192,109777,1,0,0:0:0:0:
320,192,109859,1,2,0:0:0:0:
448,192,109859,1,0,0:0:0:0:
192,192,109940,1,0,0:0:0:0:
64,192,110021,1,0,0:0:0:0:
320,192,110102,1,0,0:0:0:0:
64,192,110183,1,8,0:0:0:0:
192,192,110183,1,0,0:0:0:0:
448,192,110264,1,0,0:0:0:0:
320,192,110345,1,0,0:0:0:0:
192,192,110426,1,0,0:0:0:0:
64,192,110507,1,2,0:0:0:0:
448,192,110507,1,0,0:0:0:0:
320,192,110588,1,0,0:0:0:0:
192,192,110669,1,0,0:0:0:0:
320,192,110750,1,0,0:0:0:0:
64,192,110831,1,8,0:0:0:0:
448,192,110831,1,0,0:0:0:0:
192,192,110913,1,0,0:0:0:0:
320,192,110994,1,0,0:0:0:0:
448,192,111075,1,0,0:0:0:0:
192,192,111156,1,2,0:0:0:0:
320,192,111156,1,0,0:0:0:0:
64,192,111237,1,0,0:0:0:0:
448,192,111318,1,2,0:0:0:0:
320,192,111359,1,2,0:0:0:0:
192,192,111399,1,2,0:0:0:0:
64,192,111440,1,2,0:0:0:0:
448,192,111480,1,8,0:0:0:0:
64,192,111642,1,2,0:0:0:0:
192,192,111683,1,2,0:0:0:0:
320,192,111723,1,2,0:0:0:0:
448,192,111764,1,2,0:0:0:0:
192,192,111804,1,2,0:0:0:0:
64,192,111804,1,4,0:0:0:0:
320,192,111886,1,0,0:0:0:0:
448,192,111967,1,2,0:0:0:0:
64,192,112048,1,0,0:0:0:0:
192,192,112048,1,0,0:0:0:0:
320,192,112129,1,8,0:0:0:0:
448,192,112210,1,0,0:0:0:0:
64,192,112291,1,2,0:0:0:0:
192,192,112291,1,0,0:0:0:0:
448,192,112372,1,0,0:0:0:0:
320,192,112453,1,2,0:0:0:0:
192,192,112534,1,0,0:0:0:0:
64,192,112615,1,2,0:0:0:0:
448,192,112656,1,2,0:0:0:0:
320,192,112696,1,2,0:0:0:0:
192,192,112737,1,2,0:0:0:0:
64,192,112777,1,8,0:0:0:0:
448,192,112940,1,2,0:0:0:0:
320,192,112980,1,2,0:0:0:0:
192,192,113021,1,2,0:0:0:0:
64,192,113061,1,2,0:0:0:0:
320,192,113102,1,4,0:0:0:0:
448,192,113102,1,2,0:0:0:0:
192,192,113183,1,0,0:0:0:0:
64,192,113264,1,2,0:0:0:0:
320,192,113345,1,0,0:0:0:0:
448,192,113345,1,0,0:0:0:0:
192,192,113426,1,8,0:0:0:0:
64,192,113507,1,0,0:0:0:0:
320,192,113588,1,2,0:0:0:0:
448,192,113588,1,0,0:0:0:0:
64,192,113669,1,0,0:0:0:0:
192,192,113750,1,2,0:0:0:0:
320,192,113831,1,2,0:0:0:0:
448,192,113913,1,2,0:0:0:0:
64,192,113953,1,2,0:0:0:0:
192,192,113994,1,2,0:0:0:0:
320,192,114034,1,2,0:0:0:0:
448,192,114075,1,2,0:0:0:0:
64,192,114156,1,2,0:0:0:0:
448,192,114237,1,2,0:0:0:0:
320,192,114277,1,2,0:0:0:0:
192,192,114318,1,2,0:0:0:0:
64,192,114359,1,2,0:0:0:0:
320,192,114399,1,6,0:0:0:0:
448,192,114399,1,0,0:0:0:0:
192,192,114561,1,2,0:0:0:0:
64,192,114561,1,0,0:0:0:0:
320,192,114642,1,0,0:0:0:0:
448,192,114723,1,2,0:0:0:0:
64,192,114723,1,0,0:0:0:0:
320,192,114886,1,2,0:0:0:0:
192,192,114886,1,0,0:0:0:0:
64,192,115048,1,4,0:0:0:0:
448,192,115048,1,2,0:0:0:0:
192,192,115048,1,0,0:0:0:0:
448,192,115210,1,2,0:0:0:0:
320,192,115210,1,0,0:0:0:0:
192,192,115291,1,0,0:0:0:0:
448,192,115372,1,2,0:0:0:0:
64,192,115372,1,0,0:0:0:0:
320,192,115534,1,2,0:0:0:0:
192,192,115534,1,0,0:0:0:0:
64,192,115696,1,6,0:0:0:0:
192,192,115696,1,0,0:0:0:0:
448,192,115696,1,0,0:0:0:0:
320,192,115777,1,2,0:0:0:0:
192,192,115859,1,2,0:0:0:0:
64,192,115859,1,0,0:0:0:0:
448,192,115940,1,2,0:0:0:0:
320,192,116021,1,2,0:0:0:0:
192,192,116021,1,0,0:0:0:0:
64,192,116102,1,2,0:0:0:0:
320,192,116183,1,2,0:0:0:0:
448,192,116183,1,0,0:0:0:0:
192,192,116264,1,2,0:0:0:0:
320,192,116345,1,6,0:0:0:0:
448,192,116345,1,0,0:0:0:0:
64,192,116345,1,0,0:0:0:0:
192,192,116426,1,2,0:0:0:0:
64,192,116507,1,2,0:0:0:0:
448,192,116507,1,0,0:0:0:0:
320,192,116588,1,2,0:0:0:0:
192,192,116669,1,2,0:0:0:0:
64,192,116669,1,0,0:0:0:0:
320,192,116750,1,2,0:0:0:0:
64,192,116831,1,2,0:0:0:0:
448,192,116831,1,0,0:0:0:0:
192,192,116913,1,2,0:0:0:0:
64,192,116994,1,2,0:0:0:0:
320,192,116994,1,4,0:0:0:0:
448,192,116994,128,0,118291:0:0:0:0:
192,192,117156,1,0,0:0:0:0:
320,192,117318,1,8,0:0:0:0:
192,192,117399,1,0,0:0:0:0:
64,192,117480,1,0,0:0:0:0:
320,192,117561,1,0,0:0:0:0:
64,192,117642,1,2,0:0:0:0:
192,192,117723,1,0,0:0:0:0:
320,192,117804,1,0,0:0:0:0:
64,192,117967,1,8,0:0:0:0:
192,192,117967,1,0,0:0:0:0:
320,192,118129,1,0,0:0:0:0:
192,192,118291,128,2,118940:0:0:0:0:
64,192,118291,1,0,0:0:0:0:
320,192,118453,1,0,0:0:0:0:
448,192,118615,1,8,0:0:0:0:
320,192,118615,1,0,0:0:0:0:
64,192,118777,1,0,0:0:0:0:
320,192,118859,1,0,0:0:0:0:
64,192,118940,128,2,119588:0:0:0:0:
448,192,118940,1,0,0:0:0:0:
320,192,119021,1,0,0:0:0:0:
192,192,119102,1,0,0:0:0:0:
320,192,119264,1,8,0:0:0:0:
448,192,119264,1,0,0:0:0:0:
192,192,119426,1,0,0:0:0:0:
320,192,119588,128,2,120237:0:0:0:0:
448,192,119588,1,0,0:0:0:0:
64,192,119750,1,0,0:0:0:0:
448,192,119913,1,8,0:0:0:0:
64,192,119994,1,0,0:0:0:0:
192,192,120075,1,0,0:0:0:0:
448,192,120156,1,0,0:0:0:0:
64,192,120237,128,2,120561:0:0:0:0:
192,192,120237,1,0,0:0:0:0:
448,192,120399,1,0,0:0:0:0:
192,192,120561,128,8,120886:0:0:0:0:
320,192,120561,1,0,0:0:0:0:
64,192,120723,1,0,0:0:0:0:
320,192,120804,1,0,0:0:0:0:
448,192,120886,128,2,121534:0:0:0:0:
64,192,120886,1,0,0:0:0:0:
192,192,120967,1,0,0:0:0:0:
320,192,121048,1,0,0:0:0:0:
192,192,121129,1,0,0:0:0:0:
64,192,121210,1,8,0:0:0:0:
320,192,121291,1,0,0:0:0:0:
192,192,121372,1,0,0:0:0:0:
64,192,121453,1,0,0:0:0:0:
320,192,121534,128,2,122183:0:0:0:0:
192,192,121534,1,0,0:0:0:0:
448,192,121696,1,0,0:0:0:0:
64,192,121859,1,8,0:0:0:0:
192,192,121859,1,0,0:0:0:0:
448,192,122021,1,2,0:0:0:0:
192,192,122021,1,0,0:0:0:0:
64,192,122183,128,2,122831:0:0:0:0:
448,192,122183,1,0,0:0:0:0:
320,192,122345,1,0,0:0:0:0:
192,192,122507,1,8,0:0:0:0:
448,192,122507,1,0,0:0:0:0:
320,192,122669,1,0,0:0:0:0:
192,192,122750,1,0,0:0:0:0:
320,192,122831,128,2,123156:0:0:0:0:
448,192,122831,1,0,0:0:0:0:
192,192,122913,1,0,0:0:0:0:
64,192,122994,1,0,0:0:0:0:
192,192,123156,128,8,123480:0:0:0:0:
448,192,123156,1,0,0:0:0:0:
320,192,123318,1,0,0:0:0:0:
448,192,123480,128,2,124129:0:0:0:0:
64,192,123480,1,0,0:0:0:0:
320,192,123642,1,0,0:0:0:0:
192,192,123804,1,8,0:0:0:0:
64,192,123804,1,0,0:0:0:0:
320,192,123967,1,0,0:0:0:0:
64,192,124129,128,2,124777:0:0:0:0:
192,192,124129,1,0,0:0:0:0:
448,192,124210,1,0,0:0:0:0:
320,192,124291,1,0,0:0:0:0:
192,192,124372,1,0,0:0:0:0:
448,192,124453,1,8,0:0:0:0:
320,192,124453,1,0,0:0:0:0:
192,192,124615,1,0,0:0:0:0:
320,192,124777,128,2,125426:0:0:0:0:
448,192,124777,1,0,0:0:0:0:
192,192,124940,1,0,0:0:0:0:
64,192,125102,1,8,0:0:0:0:
448,192,125102,1,0,0:0:0:0:
192,192,125264,1,0,0:0:0:0:
64,192,125345,1,0,0:0:0:0:
192,192,125426,128,2,125750:0:0:0:0:
448,192,125426,1,0,0:0:0:0:
320,192,125507,1,0,0:0:0:0:
64,192,125588,1,0,0:0:0:0:
64,192,125750,128,8,126075:0:0:0:0:
448,192,125750,1,0,0:0:0:0:
320,192,125913,1,0,0:0:0:0:
448,192,126075,128,2,127372:0:0:0:0:
192,192,126075,1,0,0:0:0:0:
320,192,126237,1,0,0:0:0:0:
64,192,126399,1,8,0:0:0:0:
192,192,126399,1,0,0:0:0:0:
320,192,126561,1,0,0:0:0:0:
64,192,126723,1,2,0:0:0:0:
64,192,126886,1,2,0:0:0:0:
192,192,127048,1,8,0:0:0:0:
320,192,127048,1,0,0:0:0:0:
64,192,127210,1,2,0:0:0:0:
64,192,127372,128,6,128669:0:0:0:0:
192,192,127372,1,0,0:0:0:0:
320,192,127372,1,0,0:0:0:0:
448,192,127534,1,0,0:0:0:0:
192,192,127696,1,8,0:0:0:0:
320,192,127777,1,0,0:0:0:0:
448,192,127859,1,0,0:0:0:0:
192,192,127940,1,0,0:0:0:0:
448,192,128021,1,2,0:0:0:0:
320,192,128102,1,0,0:0:0:0:
192,192,128183,1,0,0:0:0:0:
448,192,128345,1,8,0:0:0:0:
320,192,128345,1,0,0:0:0:0:
448,192,128507,1,0,0:0:0:0:
192,192,128669,128,2,129318:0:0:0:0:
320,192,128669,1,0,0:0:0:0:
64,192,128831,1,0,0:0:0:0:
320,192,128994,1,8,0:0:0:0:
448,192,128994,1,0,0:0:0:0:
64,192,129156,1,0,0:0:0:0:
320,192,129318,128,2,129967:0:0:0:0:
448,192,129318,1,0,0:0:0:0:
64,192,129399,1,0,0:0:0:0:
192,192,129480,1,0,0:0:0:0:
448,192,129561,1,0,0:0:0:0:
64,192,129642,1,8,0:0:0:0:
192,192,129642,1,0,0:0:0:0:
448,192,129804,1,0,0:0:0:0:
64,192,129967,1,2,0:0:0:0:
192,192,129967,1,8,0:0:0:0:
448,192,129967,1,0,0:0:0:0:
64,192,130291,1,8,0:0:0:0:
320,192,130291,1,2,0:0:0:0:
448,192,130291,1,0,0:0:0:0:
192,192,130615,1,2,0:0:0:0:
320,192,130615,1,8,0:0:0:0:
448,192,130615,1,0,0:0:0:0:
64,192,130777,1,2,0:0:0:0:
192,192,130777,1,8,0:0:0:0:
320,192,130777,1,0,0:0:0:0:
448,192,131102,128,2,131913:0:0:0:0:
64,192,131102,1,4,0:0:0:0:
320,192,131102,1,0,0:0:0:0:
192,192,131264,1,2,0:0:0:0:
320,192,131345,1,0,0:0:0:0:
64,192,131426,1,0,0:0:0:0:
192,192,131507,1,0,0:0:0:0:
320,192,131588,1,8,0:0:0:0:
192,192,131669,1,0,0:0:0:0:
64,192,131750,1,0,0:0:0:0:
320,192,131831,1,0,0:0:0:0:
64,192,131913,128,2,132561:0:0:0:0:
192,192,131913,1,0,0:0:0:0:
320,192,132075,1,0,0:0:0:0:
192,192,132237,1,8,0:0:0:0:
448,192,132237,1,0,0:0:0:0:
320,192,132399,1,0,0:0:0:0:
192,192,132561,1,2,0:0:0:0:
320,192,132561,1,4,0:0:0:0:
448,192,132561,1,0,0:0:0:0:
64,192,132723,1,2,0:0:0:0:
192,192,132723,1,0,0:0:0:0:
64,192,132886,1,8,0:0:0:0:
448,192,132886,1,0,0:0:0:0:
192,192,133048,1,2,0:0:0:0:
320,192,133048,1,0,0:0:0:0:
320,192,133210,1,2,0:0:0:0:
448,192,133210,1,0,0:0:0:0:
64,192,133372,1,2,0:0:0:0:
192,192,133372,1,0,0:0:0:0:
64,192,133534,1,8,0:0:0:0:
448,192,133534,1,0,0:0:0:0:
192,192,133696,1,2,0:0:0:0:
320,192,133696,1,0,0:0:0:0:
64,192,133859,1,2,0:0:0:0:
192,192,133859,1,4,0:0:0:0:
448,192,133859,1,0,0:0:0:0:
320,192,134021,1,2,0:0:0:0:
192,192,134021,1,0,0:0:0:0:
64,192,134183,1,8,0:0:0:0:
448,192,134183,1,0,0:0:0:0:
192,192,134345,1,2,0:0:0:0:
320,192,134345,1,0,0:0:0:0:
64,192,134507,1,2,0:0:0:0:
192,192,134507,1,0,0:0:0:0:
448,192,134669,1,2,0:0:0:0:
320,192,134710,1,2,0:0:0:0:
192,192,134750,1,2,0:0:0:0:
64,192,134791,1,2,0:0:0:0:
448,192,134831,1,8,0:0:0:0:
64,192,134994,1,2,0:0:0:0:
192,192,135034,1,2,0:0:0:0:
320,192,135075,1,2,0:0:0:0:
448,192,135115,1,2,0:0:0:0:
64,192,135156,1,2,0:0:0:0:
192,192,135156,1,4,0:0:0:0:
320,192,135318,1,2,0:0:0:0:
448,192,135318,1,0,0:0:0:0:
64,192,135480,1,8,0:0:0:0:
448,192,135480,1,0,0:0:0:0:
64,192,135642,1,2,0:0:0:0:
192,192,135642,1,0,0:0:0:0:
192,192,135804,1,4,0:0:0:0:
320,192,135804,1,2,0:0:0:0:
448,192,135804,1,0,0:0:0:0:
64,192,135967,1,2,0:0:0:0:
192,192,136007,1,2,0:0:0:0:
320,192,136048,1,2,0:0:0:0:
448,192,136088,1,2,0:0:0:0:
64,192,136129,1,8,0:0:0:0:
448,192,136291,1,2,0:0:0:0:
320,192,136331,1,2,0:0:0:0:
192,192,136372,1,2,0:0:0:0:
64,192,136413,1,2,0:0:0:0:
320,192,136453,1,4,0:0:0:0:
448,192,136453,1,2,0:0:0:0:
192,192,136534,1,2,0:0:0:0:
64,192,136615,1,2,0:0:0:0:
448,192,136696,1,2,0:0:0:0:
64,192,136777,1,6,0:0:0:0:
320,192,136777,1,0,0:0:0:0:
192,192,136777,1,0,0:0:0:0:
448,192,136859,1,2,0:0:0:0:
320,192,136940,1,2,0:0:0:0:
64,192,137021,1,2,0:0:0:0:
320,192,137102,1,2,0:0:0:0:
192,192,137102,1,4,0:0:0:0:
448,192,137102,1,0,0:0:0:0:
64,192,137183,1,2,0:0:0:0:
192,192,137264,1,2,0:0:0:0:
320,192,137345,1,2,0:0:0:0:
64,192,137426,1,2,0:0:0:0:
192,192,137467,1,0,0:0:0:0:
448,192,137507,1,2,0:0:0:0:
320,192,137548,1,0,0:0:0:0:
64,192,137588,1,2,0:0:0:0:
192,192,137629,1,0,0:0:0:0:
448,192,137669,1,2,0:0:0:0:
320,192,137710,1,0,0:0:0:0:
192,192,137750,1,4,0:0:0:0:
64,192,137750,1,2,0:0:0:0:
320,192,137913,1,0,0:0:0:0:
448,192,138075,1,8,0:0:0:0:
64,192,138237,1,0,0:0:0:0:
192,192,138237,1,0,0:0:0:0:
320,192,138399,1,2,0:0:0:0:
64,192,138561,1,0,0:0:0:0:
448,192,138561,1,0,0:0:0:0:
192,192,138723,1,8,0:0:0:0:
320,192,138886,1,0,0:0:0:0:
448,192,138886,1,0,0:0:0:0:
64,192,139048,1,2,0:0:0:0:
192,192,139210,1,0,0:0:0:0:
320,192,139372,1,8,0:0:0:0:
64,192,139534,1,0,0:0:0:0:
448,192,139534,1,0,0:0:0:0:
192,192,139696,1,2,0:0:0:0:
320,192,139859,1,4,0:0:0:0:
448,192,139859,1,0,0:0:0:0:
64,192,140021,1,8,0:0:0:0:
192,192,140183,1,0,0:0:0:0:
320,192,140183,1,0,0:0:0:0:
64,192,140345,1,2,0:0:0:0:
448,192,140345,1,4,0:0:0:0:
320,192,140507,1,0,0:0:0:0:
192,192,140669,1,8,0:0:0:0:
320,192,140831,1,0,0:0:0:0:
448,192,140831,1,0,0:0:0:0:
64,192,140994,1,2,0:0:0:0:
192,192,141156,1,0,0:0:0:0:
320,192,141156,1,0,0:0:0:0:
448,192,141318,1,8,0:0:0:0:
64,192,141480,1,0,0:0:0:0:
192,192,141480,1,0,0:0:0:0:
448,192,141642,1,2,0:0:0:0:
320,192,141804,1,0,0:0:0:0:
192,192,141967,1,8,0:0:0:0:
64,192,142129,1,0,0:0:0:0:
448,192,142129,1,0,0:0:0:0:
320,192,142291,1,2,0:0:0:0:
64,192,142453,1,0,0:0:0:0:
192,192,142453,1,0,0:0:0:0:
448,192,142615,1,8,0:0:0:0:
192,192,142777,1,0,0:0:0:0:
320,192,142777,1,0,0:0:0:0:
64,192,142940,1,2,0:0:0:0:
448,192,142940,1,4,0:0:0:0:
192,192,143102,1,0,0:0:0:0:
64,192,143264,1,8,0:0:0:0:
448,192,143426,1,0,0:0:0:0:
320,192,143426,1,0,0:0:0:0:
192,192,143588,1,2,0:0:0:0:
448,192,143750,1,0,0:0:0:0:
64,192,143750,1,0,0:0:0:0:
320,192,143913,1,8,0:0:0:0:
192,192,144075,1,0,0:0:0:0:
64,192,144075,1,0,0:0:0:0:
448,192,144237,1,2,0:0:0:0:
320,192,144399,1,0,0:0:0:0:
192,192,144561,1,8,0:0:0:0:
448,192,144723,1,0,0:0:0:0:
64,192,144723,1,0,0:0:0:0:
320,192,144886,1,2,0:0:0:0:
192,192,145048,1,4,0:0:0:0:
64,192,145048,1,0,0:0:0:0:
448,192,145210,1,8,0:0:0:0:
320,192,145372,1,0,0:0:0:0:
192,192,145372,1,0,0:0:0:0:
448,192,145534,1,2,0:0:0:0:
64,192,145534,1,4,0:0:0:0:
192,192,145696,1,0,0:0:0:0:
320,192,145859,1,8,0:0:0:0:
192,192,146021,1,0,0:0:0:0:
64,192,146021,1,0,0:0:0:0:
448,192,146183,1,2,0:0:0:0:
320,192,146345,1,0,0:0:0:0:
192,192,146345,1,0,0:0:0:0:
64,192,146507,1,8,0:0:0:0:
448,192,146669,1,0,0:0:0:0:
320,192,146669,1,0,0:0:0:0:
64,192,146831,1,2,0:0:0:0:
192,192,146994,1,0,0:0:0:0:
320,192,147156,1,8,0:0:0:0:
448,192,147318,1,0,0:0:0:0:
64,192,147318,1,0,0:0:0:0:
192,192,147480,1,2,0:0:0:0:
448,192,147642,1,0,0:0:0:0:
320,192,147642,1,0,0:0:0:0:
64,192,147804,1,8,0:0:0:0:
192,192,147967,1,0,0:0:0:0:
320,192,147967,1,0,0:0:0:0:
448,192,148129,1,4,0:0:0:0:
64,192,148129,1,2,0:0:0:0:
192,192,148129,1,0,0:0:0:0:
320,192,148291,1,0,0:0:0:0:
448,192,148453,1,8,0:0:0:0:
192,192,148615,1,0,0:0:0:0:
64,192,148615,1,0,0:0:0:0:
320,192,148777,1,2,0:0:0:0:
448,192,148940,1,0,0:0:0:0:
64,192,148940,1,0,0:0:0:0:
192,192,149102,1,8,0:0:0:0:
448,192,149264,1,0,0:0:0:0:
320,192,149264,1,0,0:0:0:0:
64,192,149426,1,2,0:0:0:0:
192,192,149588,1,0,0:0:0:0:
320,192,149750,1,8,0:0:0:0:
448,192,149913,1,0,0:0:0:0:
64,192,149913,1,0,0:0:0:0:
192,192,150075,1,2,0:0:0:0:
448,192,150237,1,4,0:0:0:0:
320,192,150237,1,0,0:0:0:0:
64,192,150399,1,8,0:0:0:0:
320,192,150561,1,0,0:0:0:0:
192,192,150561,1,0,0:0:0:0:
448,192,150723,1,2,0:0:0:0:
64,192,150723,1,4,0:0:0:0:
320,192,150886,1,0,0:0:0:0:
192,192,151048,1,8,0:0:0:0:
448,192,151210,1,0,0:0:0:0:
320,192,151210,1,0,0:0:0:0:
64,192,151372,1,2,0:0:0:0:
320,192,151534,1,0,0:0:0:0:
192,192,151534,1,0,0:0:0:0:
448,192,151696,1,8,0:0:0:0:
192,192,151859,1,0,0:0:0:0:
64,192,151859,1,0,0:0:0:0:
448,192,152021,1,2,0:0:0:0:
320,192,152183,1,0,0:0:0:0:
192,192,152345,1,8,0:0:0:0:
448,192,152507,1,0,0:0:0:0:
64,192,152507,1,0,0:0:0:0:
320,192,152669,1,2,0:0:0:0:
192,192,152831,1,0,0:0:0:0:
64,192,152831,1,0,0:0:0:0:
448,192,152994,1,8,0:0:0:0:
320,192,153156,1,0,0:0:0:0:
192,192,153156,1,0,0:0:0:0:
448,192,153318,1,2,0:0:0:0:
64,192,153318,1,4,0:0:0:0:
192,192,153318,1,0,0:0:0:0:
448,192,153480,1,2,0:0:0:0:
320,192,153480,1,0,0:0:0:0:
64,192,153642,1,8,0:0:0:0:
192,192,153642,1,0,0:0:0:0:
320,192,153804,1,2,0:0:0:0:
192,192,153804,1,0,0:0:0:0:
64,192,153967,1,2,0:0:0:0:
448,192,153967,1,0,0:0:0:0:
192,192,154129,1,2,0:0:0:0:
320,192,154129,1,0,0:0:0:0:
320,192,154291,1,8,0:0:0:0:
448,192,154291,1,0,0:0:0:0:
192,192,154453,1,2,0:0:0:0:
320,192,154453,1,0,0:0:0:0:
64,192,154615,1,2,0:0:0:0:
192,192,154615,1,4,0:0:0:0:
448,192,154615,1,0,0:0:0:0:
320,192,154777,1,2,0:0:0:0:
448,192,154777,1,0,0:0:0:0:
64,192,154940,1,8,0:0:0:0:
192,192,154940,1,0,0:0:0:0:
448,192,155102,1,2,0:0:0:0:
64,192,155102,1,0,0:0:0:0:
320,192,155264,1,2,0:0:0:0:
192,192,155264,1,0,0:0:0:0:
448,192,155426,1,2,0:0:0:0:
320,192,155426,1,0,0:0:0:0:
64,192,155588,1,8,0:0:0:0:
192,192,155588,1,0,0:0:0:0:
320,192,155750,1,2,0:0:0:0:
192,192,155750,1,0,0:0:0:0:
64,192,155913,1,2,0:0:0:0:
320,192,155913,1,4,0:0:0:0:
448,192,155913,1,0,0:0:0:0:
192,192,156075,1,2,0:0:0:0:
320,192,156075,1,0,0:0:0:0:
64,192,156237,1,8,0:0:0:0:
448,192,156237,1,0,0:0:0:0:
192,192,156399,1,2,0:0:0:0:
320,192,156399,1,0,0:0:0:0:
64,192,156561,1,2,0:0:0:0:
192,192,156561,1,4,0:0:0:0:
448,192,156561,1,0,0:0:0:0:
192,192,156723,1,2,0:0:0:0:
320,192,156723,1,0,0:0:0:0:
64,192,156886,1,8,0:0:0:0:
448,192,156886,1,0,0:0:0:0:
192,192,157048,1,2,0:0:0:0:
320,192,157048,1,0,0:0:0:0:
64,192,157210,1,4,0:0:0:0:
192,192,157210,1,2,0:0:0:0:
448,192,157210,1,0,0:0:0:0:
320,192,157291,1,2,0:0:0:0:
64,192,157372,1,2,0:0:0:0:
192,192,157453,1,2,0:0:0:0:
64,192,157534,1,4,0:0:0:0:
320,192,157534,1,2,0:0:0:0:
448,192,157534,1,0,0:0:0:0:
192,192,157615,1,2,0:0:0:0:
448,192,157696,1,2,0:0:0:0:
320,192,157777,1,2,0:0:0:0:
64,192,157859,1,2,0:0:0:0:
192,192,157859,1,4,0:0:0:0:
448,192,157859,1,0,0:0:0:0:
320,192,157940,1,2,0:0:0:0:
64,192,158021,1,2,0:0:0:0:
192,192,158102,1,2,0:0:0:0:
64,192,158183,1,4,0:0:0:0:
320,192,158183,1,2,0:0:0:0:
448,192,158183,1,0,0:0:0:0:
192,192,158264,1,2,0:0:0:0:
448,192,158345,1,2,0:0:0:0:
320,192,158426,1,2,0:0:0:0:
64,192,158507,1,2,0:0:0:0:
192,192,158507,1,4,0:0:0:0:
448,192,158507,1,0,0:0:0:0:
