osu file format v14

[General]
AudioFilename: audio.mp3
AudioLeadIn: 0
PreviewTime: 149116
Countdown: 0
SampleSet: Soft
StackLeniency: 1
Mode: 2
LetterboxInBreaks: 0
WidescreenStoryboard: 1

[Editor]
Bookmarks: 127173,304430
DistanceSpacing: 2
BeatDivisor: 4
GridSize: 16
TimelineZoom: 2.1

[Metadata]
Title:RougokuSTRIP (Grimoire crossbreed rmx)
TitleUnicode:牢獄STRIP (Grimoire crossbreed rmx)
Artist:Team Grimoire
ArtistUnicode:Team Grimoire
Creator:Nelly
Version:Platter
Source:うみねこのなく頃に
Tags:
BeatmapID:1360733
BeatmapSetID:641757

[Difficulty]
HPDrainRate:6
CircleSize:3.7
OverallDifficulty:8
ApproachRate:8
SliderMultiplier:1.48
SliderTickRate:2

[Events]
//Background and Video events
Video,0,"Umineko.avi"
0,0,"umineko.jpg",0,0
//Break Periods
//Storyboard Layer 0 (Background)
//Storyboard Layer 1 (Fail)
//Storyboard Layer 2 (Pass)
//Storyboard Layer 3 (Foreground)
//Storyboard Sound Samples

[TimingPoints]
1002,342.857142857143,4,2,1,40,1,0
61344,-100,4,2,1,40,0,1
82944,-100,4,2,1,40,0,0
127173,-133.333333333333,4,2,1,40,0,0
149116,-100,4,2,1,40,0,1
158716,-100,4,2,1,40,0,0
160087,-100,4,2,1,40,0,1
182030,-100,4,2,1,40,0,0
225916,-100,4,2,1,40,0,1
269802,-100,4,2,1,40,0,0
304430,-100,4,2,1,15,0,0

[HitObjects]
256,192,44887,12,0,50030,0:0:0:0:
320,288,50373,5,0,0:0:0:0:
416,288,50544,2,0,P|485:224|416:144,1,222
320,144,51230,2,0,L|160:304,1,222
64,256,51916,2,0,P|80:176|200:128,1,222
320,128,52602,1,0,0:0:0:0:
160,48,52773,1,0,0:0:0:0:
400,16,53116,6,0,L|416:96,1,74
320,96,53459,2,0,P|268:136|320:176,1,148
416,176,53973,1,0,0:0:0:0:
304,256,54144,2,0,L|224:256,1,74
320,304,54487,6,0,L|336:224,1,74
240,208,54830,1,0,0:0:0:0:
172,185,55001,1,0,0:0:0:0:
147,118,55172,1,0,0:0:0:0:
264,56,55344,1,0,0:0:0:0:
128,16,55515,1,0,0:0:0:0:
368,16,55859,6,0,L|384:96,1,74
288,112,56202,1,0,0:0:0:0:
278,147,56287,1,0,0:0:0:0:
288,182,56373,1,0,0:0:0:0:
320,208,56459,1,0,0:0:0:0:
368,208,56544,2,0,L|448:208,1,74
320,304,56887,1,0,0:0:0:0:
280,304,56972,1,0,0:0:0:0:
240,304,57058,1,0,0:0:0:0:
112,304,57230,6,0,L|32:304,2,74
208,304,57744,1,0,0:0:0:0:
80,304,57916,1,0,0:0:0:0:
76,267,58001,1,0,0:0:0:0:
72,230,58087,1,0,0:0:0:0:
256,112,58259,1,0,0:0:0:0:
64,48,58602,6,0,L|48:128,1,74
160,208,58944,1,0,0:0:0:0:
48,272,59116,1,0,0:0:0:0:
160,320,59287,2,0,L|240:320,1,74
352,320,59630,1,0,0:0:0:0:
355,283,59715,1,0,0:0:0:0:
359,246,59801,1,0,0:0:0:0:
240,224,59972,6,0,L|160:224,1,74
288,144,60316,1,0,0:0:0:0:
176,112,60487,1,0,0:0:0:0:
139,112,60572,1,0,0:0:0:0:
102,112,60658,1,0,0:0:0:0:
224,112,60830,1,0,0:0:0:0:
64,32,61002,2,0,L|56:112,1,74
384,288,61344,5,0,0:0:0:0:
387,251,61429,1,0,0:0:0:0:
391,214,61515,1,0,0:0:0:0:
272,192,61687,1,0,0:0:0:0:
160,208,61859,1,0,0:0:0:0:
272,256,62030,1,0,0:0:0:0:
324,245,62115,1,0,0:0:0:0:
349,198,62201,1,0,0:0:0:0:
328,149,62287,1,0,0:0:0:0:
272,144,62373,2,0,L|192:144,1,74
320,144,62716,5,0,0:0:0:0:
390,152,62887,1,0,0:0:0:0:
424,215,63058,1,0,0:0:0:0:
391,278,63230,1,0,0:0:0:0:
256,272,63402,1,0,0:0:0:0:
246,236,63487,1,0,0:0:0:0:
257,202,63573,1,0,0:0:0:0:
286,179,63659,1,0,0:0:0:0:
336,176,63744,2,0,L|416:176,1,74
272,16,64087,6,0,L|256:96,1,74
384,96,64430,1,0,0:0:0:0:
272,160,64602,1,0,0:0:0:0:
235,160,64687,1,0,0:0:0:0:
198,160,64773,1,0,0:0:0:0:
80,160,64944,2,0,L|0:160,2,74
224,160,65459,5,0,0:0:0:0:
112,160,65630,1,0,0:0:0:0:
224,160,65802,2,0,L|304:160,1,74
176,160,66144,1,0,0:0:0:0:
288,240,66316,1,0,0:0:0:0:
291,203,66401,1,0,0:0:0:0:
295,166,66487,1,0,0:0:0:0:
144,48,66659,1,0,0:0:0:0:
384,144,66830,5,0,0:0:0:0:
480,320,67002,1,0,0:0:0:0:
484,283,67087,1,0,0:0:0:0:
488,246,67173,1,0,0:0:0:0:
368,224,67344,1,0,0:0:0:0:
256,224,67516,2,0,L|176:224,1,74
64,128,67859,2,0,L|144:128,1,74
256,112,68202,5,0,0:0:0:0:
308,123,68287,1,0,0:0:0:0:
333,170,68373,1,0,0:0:0:0:
312,219,68459,1,0,0:0:0:0:
256,224,68544,1,0,0:0:0:0:
144,224,68716,1,0,0:0:0:0:
256,224,68887,2,0,L|336:224,1,74
192,304,69230,2,0,L|176:224,1,74
352,224,69573,6,0,L|432:224,2,74
240,224,70087,1,0,0:0:0:0:
236,187,70172,1,0,0:0:0:0:
232,150,70258,1,0,0:0:0:0:
352,128,70429,1,0,0:0:0:0:
240,48,70602,2,0,L|160:48,1,74
256,48,70944,5,0,0:0:0:0:
128,48,71116,1,0,0:0:0:0:
272,48,71287,2,0,L|352:48,1,74
192,128,71630,1,0,0:0:0:0:
182,164,71715,1,0,0:0:0:0:
193,198,71801,1,0,0:0:0:0:
221,221,71887,1,0,0:0:0:0:
272,224,71972,2,0,L|352:224,1,74
112,320,72316,6,0,L|32:320,2,74
224,320,72830,1,0,0:0:0:0:
261,320,72915,1,0,0:0:0:0:
298,320,73001,1,0,0:0:0:0:
128,336,73173,2,0,L|112:256,1,74
224,208,73516,1,0,0:0:0:0:
112,128,73687,6,0,L|32:128,1,74
160,128,74030,1,0,0:0:0:0:
32,48,74202,1,0,0:0:0:0:
176,48,74373,1,0,0:0:0:0:
186,84,74458,1,0,0:0:0:0:
175,118,74544,1,0,0:0:0:0:
147,141,74630,1,0,0:0:0:0:
96,144,74716,1,0,0:0:0:0:
224,208,74887,1,0,0:0:0:0:
80,304,75059,6,0,L|160:304,1,74
272,304,75402,1,0,0:0:0:0:
128,320,75573,1,0,0:0:0:0:
124,283,75658,1,0,0:0:0:0:
120,246,75744,1,0,0:0:0:0:
240,224,75915,1,0,0:0:0:0:
352,240,76087,2,0,L|432:240,1,74
272,176,76430,5,0,0:0:0:0:
262,140,76515,1,0,0:0:0:0:
273,106,76601,1,0,0:0:0:0:
301,83,76687,1,0,0:0:0:0:
352,80,76773,1,0,0:0:0:0:
240,32,76944,1,0,0:0:0:0:
128,64,77116,1,0,0:0:0:0:
240,224,77287,1,0,0:0:0:0:
277,224,77372,1,0,0:0:0:0:
314,224,77458,1,0,0:0:0:0:
432,160,77630,1,0,0:0:0:0:
176,304,77802,6,0,L|160:224,1,74
288,224,78144,2,0,L|304:144,1,74
176,112,78487,1,0,0:0:0:0:
124,123,78572,1,0,0:0:0:0:
99,169,78658,1,0,0:0:0:0:
120,219,78744,1,0,0:0:0:0:
176,224,78830,1,0,0:0:0:0:
288,224,79002,1,0,0:0:0:0:
144,304,79173,6,0,L|64:304,2,74
272,224,79687,1,0,0:0:0:0:
275,187,79772,1,0,0:0:0:0:
279,150,79858,1,0,0:0:0:0:
144,112,80030,1,0,0:0:0:0:
272,48,80202,2,0,L|352:48,1,74
192,48,80544,6,0,L|176:128,1,74
304,144,80887,1,0,0:0:0:0:
176,304,81059,1,0,0:0:0:0:
173,267,81144,1,0,0:0:0:0:
169,230,81230,1,0,0:0:0:0:
304,144,81402,1,0,0:0:0:0:
160,144,81573,1,0,0:0:0:0:
109,141,81659,1,0,0:0:0:0:
81,117,81745,1,0,0:0:0:0:
70,84,81831,1,0,0:0:0:0:
80,48,81916,6,0,L|160:48,1,74
288,48,82259,2,0,L|208:48,1,74
80,48,82602,1,0,0:0:0:0:
240,144,82773,1,0,0:0:0:0:
72,272,82944,1,0,0:0:0:0:
320,352,83287,6,0,L|240:352,1,74
352,352,83630,1,0,0:0:0:0:
240,192,83802,1,0,0:0:0:0:
236,228,83887,1,0,0:0:0:0:
232,265,83973,1,0,0:0:0:0:
352,272,84144,1,0,0:0:0:0:
240,272,84316,2,0,L|160:272,1,74
288,272,84659,6,0,L|304:192,1,74
192,192,85002,1,0,0:0:0:0:
304,112,85173,1,0,0:0:0:0:
144,96,85344,1,0,0:0:0:0:
115,118,85429,1,0,0:0:0:0:
95,150,85515,1,0,0:0:0:0:
88,186,85601,1,0,0:0:0:0:
93,222,85686,1,0,0:0:0:0:
110,255,85772,1,0,0:0:0:0:
137,280,85858,1,0,0:0:0:0:
171,294,85944,1,0,0:0:0:0:
208,300,86030,6,0,L|288:300,1,74
160,176,86373,1,0,0:0:0:0:
288,208,86544,1,0,0:0:0:0:
144,240,86716,1,0,0:0:0:0:
288,288,86887,1,0,0:0:0:0:
325,288,86972,1,0,0:0:0:0:
362,288,87058,1,0,0:0:0:0:
240,112,87230,1,0,0:0:0:0:
352,112,87402,6,0,L|368:192,1,74
224,224,87744,2,0,L|304:224,1,74
144,128,88087,1,0,0:0:0:0:
128,96,88172,1,0,0:0:0:0:
256,80,88344,1,0,0:0:0:0:
272,48,88429,1,0,0:0:0:0:
112,64,88602,1,0,0:0:0:0:
272,176,88773,6,0,L|352:176,2,74
160,272,89287,1,0,0:0:0:0:
197,272,89372,1,0,0:0:0:0:
234,272,89458,1,0,0:0:0:0:
352,272,89630,1,0,0:0:0:0:
240,192,89802,2,0,L|144:192,1,74
48,192,90144,6,0,L|128:192,2,74
176,272,90659,1,0,0:0:0:0:
48,336,90830,1,0,0:0:0:0:
34,301,90915,1,0,0:0:0:0:
30,264,91001,1,0,0:0:0:0:
36,228,91087,1,0,0:0:0:0:
51,194,91172,1,0,0:0:0:0:
74,166,91258,1,0,0:0:0:0:
104,144,91344,1,0,0:0:0:0:
139,131,91430,1,0,0:0:0:0:
176,128,91516,6,0,L|256:128,1,74
384,128,91859,2,0,L|304:128,1,74
272,160,92116,1,0,0:0:0:0:
240,208,92202,1,0,0:0:0:0:
384,320,92373,1,0,0:0:0:0:
387,283,92458,1,0,0:0:0:0:
391,246,92544,1,0,0:0:0:0:
240,208,92716,1,0,0:0:0:0:
96,272,92887,6,0,L|16:272,1,74
144,272,93230,2,0,L|224:272,1,74
80,160,93573,2,0,L|48:112,1,37
208,96,93830,2,0,L|240:48,1,37
48,32,94087,1,0,0:0:0:0:
296,160,94259,6,0,L|376:160,1,74
248,240,94602,1,0,0:0:0:0:
400,320,94773,1,0,0:0:0:0:
403,283,94858,1,0,0:0:0:0:
407,246,94944,1,0,0:0:0:0:
288,240,95116,1,0,0:0:0:0:
176,240,95287,2,0,L|256:240,1,74
120,240,95630,5,0,0:0:0:0:
72,228,95715,1,0,0:0:0:0:
47,180,95801,1,0,0:0:0:0:
68,131,95887,1,0,0:0:0:0:
120,112,95973,2,0,L|200:112,1,74
352,112,96316,5,0,0:0:0:0:
387,119,96401,1,0,0:0:0:0:
412,145,96487,1,0,0:0:0:0:
418,181,96573,1,0,0:0:0:0:
411,216,96658,1,0,0:0:0:0:
385,241,96744,1,0,0:0:0:0:
349,247,96830,1,0,0:0:0:0:
308,247,96916,1,0,0:0:0:0:
263,247,97002,6,0,L|183:247,2,74
384,336,97516,1,0,0:0:0:0:
347,336,97601,1,0,0:0:0:0:
310,336,97687,1,0,0:0:0:0:
432,272,97859,1,0,0:0:0:0:
304,240,98030,2,0,L|224:240,1,74
112,240,98373,6,0,L|32:240,2,74
240,240,98887,1,0,0:0:0:0:
243,203,98972,1,0,0:0:0:0:
247,166,99058,1,0,0:0:0:0:
112,128,99230,1,0,0:0:0:0:
272,128,99402,1,0,0:0:0:0:
282,164,99487,1,0,0:0:0:0:
271,198,99573,1,0,0:0:0:0:
243,221,99659,1,0,0:0:0:0:
192,224,99744,5,0,0:0:0:0:
80,128,99916,1,0,0:0:0:0:
117,128,100001,1,0,0:0:0:0:
154,128,100087,1,0,0:0:0:0:
24,128,100259,2,0,L|16:208,1,74
136,304,100602,2,0,L|216:304,1,74
88,304,100944,1,0,0:0:0:0:
216,208,101116,6,0,L|296:208,1,74
408,208,101459,2,0,L|328:208,1,74
200,208,101802,5,0,0:0:0:0:
156,197,101887,1,0,0:0:0:0:
134,154,101973,1,0,0:0:0:0:
153,110,102059,1,0,0:0:0:0:
200,92,102145,1,0,0:0:0:0:
246,110,102230,1,0,0:0:0:0:
265,154,102316,1,0,0:0:0:0:
243,197,102402,1,0,0:0:0:0:
200,208,102487,6,0,L|120:208,1,74
248,208,102830,2,0,L|256:288,1,74
136,304,103173,2,0,L|56:304,1,74
200,304,103516,1,0,0:0:0:0:
72,224,103687,1,0,0:0:0:0:
312,304,103859,5,0,0:0:0:0:
315,267,103944,1,0,0:0:0:0:
319,230,104030,1,0,0:0:0:0:
176,128,104202,1,0,0:0:0:0:
328,96,104373,1,0,0:0:0:0:
365,96,104458,1,0,0:0:0:0:
402,96,104544,1,0,0:0:0:0:
240,48,104716,1,0,0:0:0:0:
416,160,104887,2,0,L|424:240,1,74
160,304,105230,6,0,L|80:304,1,74
208,304,105573,1,0,0:0:0:0:
211,267,105658,1,0,0:0:0:0:
215,230,105744,1,0,0:0:0:0:
80,176,105916,2,0,L|160:176,1,74
288,176,106259,2,0,L|208:176,1,74
368,176,106602,6,0,P|420:216|368:256,1,148
256,256,107116,1,0,0:0:0:0:
384,336,107287,2,0,L|392:256,1,74
240,176,107630,1,0,0:0:0:0:
222,140,107715,1,0,0:0:0:0:
229,100,107801,1,0,0:0:0:0:
259,73,107887,1,0,0:0:0:0:
304,64,107973,6,0,L|384:64,1,74
496,64,108316,2,0,L|416:64,1,74
272,64,108659,2,0,L|384:176,1,148
496,176,109173,1,0,0:0:0:0:
352,240,109344,6,0,P|344:288|424:336,1,148
304,336,109859,1,0,0:0:0:0:
192,336,110030,2,0,L|112:336,1,74
256,336,110373,1,0,0:0:0:0:
274,300,110458,1,0,0:0:0:0:
267,260,110544,1,0,0:0:0:0:
237,233,110630,1,0,0:0:0:0:
192,224,110716,5,0,0:0:0:0:
64,224,110887,1,0,0:0:0:0:
192,224,111059,1,0,0:0:0:0:
64,224,111230,1,0,0:0:0:0:
208,320,111402,2,0,L|320:208,1,148
192,112,111916,1,0,0:0:0:0:
320,112,112087,6,0,L|400:112,2,74
192,112,112602,1,0,0:0:0:0:
336,112,112773,2,0,L|344:192,1,74
192,192,113116,1,0,0:0:0:0:
145,210,113202,1,0,0:0:0:0:
126,254,113288,1,0,0:0:0:0:
148,297,113374,1,0,0:0:0:0:
192,320,113459,6,0,L|352:320,1,148
208,128,113973,2,0,L|128:128,1,74
256,128,114316,2,0,L|264:48,1,74
144,31,114659,1,0,0:0:0:0:
272,32,114830,5,0,0:0:0:0:
144,192,115002,1,0,0:0:0:0:
140,155,115087,1,0,0:0:0:0:
136,118,115173,1,0,0:0:0:0:
272,112,115344,1,0,0:0:0:0:
144,112,115516,5,0,0:0:0:0:
111,128,115601,1,0,0:0:0:0:
95,161,115687,1,0,0:0:0:0:
103,196,115773,1,0,0:0:0:0:
176,272,115859,1,0,0:0:0:0:
208,255,115944,1,0,0:0:0:0:
224,222,116030,1,0,0:0:0:0:
216,187,116116,1,0,0:0:0:0:
144,112,116202,6,0,P|92:152|144:192,1,148
256,192,116716,1,0,0:0:0:0:
144,336,116887,2,0,L|136:256,1,74
256,240,117230,1,0,0:0:0:0:
112,160,117402,1,0,0:0:0:0:
256,64,117573,6,0,L|368:176,1,148
224,192,118087,1,0,0:0:0:0:
368,128,118259,1,0,0:0:0:0:
382,163,118344,1,0,0:0:0:0:
386,200,118430,1,0,0:0:0:0:
380,236,118516,1,0,0:0:0:0:
365,270,118601,1,0,0:0:0:0:
342,298,118687,1,0,0:0:0:0:
312,319,118773,1,0,0:0:0:0:
277,333,118859,1,0,0:0:0:0:
240,336,118945,6,0,L|160:336,1,74
304,336,119287,2,0,L|312:256,1,74
160,112,119630,2,0,P|108:152|160:192,1,148
272,192,120144,1,0,0:0:0:0:
384,192,120316,6,0,L|464:192,1,74
304,48,120659,1,0,0:0:0:0:
300,84,120744,1,0,0:0:0:0:
296,121,120830,1,0,0:0:0:0:
448,128,121002,5,0,0:0:0:0:
474,153,121087,1,0,0:0:0:0:
492,185,121173,1,0,0:0:0:0:
497,222,121259,1,0,0:0:0:0:
489,258,121344,1,0,0:0:0:0:
470,289,121430,1,0,0:0:0:0:
441,312,121516,1,0,0:0:0:0:
406,324,121602,1,0,0:0:0:0:
368,320,121687,6,0,L|288:320,1,74
176,240,122030,1,0,0:0:0:0:
213,240,122115,1,0,0:0:0:0:
250,240,122201,1,0,0:0:0:0:
112,144,122373,2,0,L|32:144,1,74
176,144,122716,2,0,L|256:144,1,74
112,144,123059,5,0,0:0:0:0:
256,64,123230,1,0,0:0:0:0:
96,32,123402,2,0,L|88:112,1,74
256,160,123744,5,0,0:0:0:0:
300,171,123829,1,0,0:0:0:0:
322,214,123915,1,0,0:0:0:0:
303,258,124001,1,0,0:0:0:0:
256,276,124087,1,0,0:0:0:0:
210,258,124172,1,0,0:0:0:0:
191,214,124258,1,0,0:0:0:0:
213,171,124344,1,0,0:0:0:0:
256,160,124429,6,0,L|336:159,1,74
464,160,124773,2,0,L|384:160,1,74
256,160,125116,1,0,0:0:0:0:
219,160,125201,1,0,0:0:0:0:
182,160,125287,1,0,0:0:0:0:
320,160,125459,1,0,0:0:0:0:
176,64,125630,1,0,0:0:0:0:
336,64,125802,6,0,L|416:64,1,74
240,32,126144,2,0,L|160:32,1,74
400,32,126487,1,0,0:0:0:0:
435,39,126572,1,0,0:0:0:0:
460,65,126658,1,0,0:0:0:0:
466,101,126744,1,0,0:0:0:0:
459,136,126829,1,0,0:0:0:0:
433,161,126915,1,0,0:0:0:0:
397,167,127001,1,0,0:0:0:0:
144,160,127173,6,0,P|92:216|144:268,1,166.500006351471
304,272,127859,1,0,0:0:0:0:
320,224,128459,1,0,0:0:0:0:
368,208,128544,6,0,P|420:152|368:99,1,166.500006351471
208,96,129230,1,0,0:0:0:0:
432,48,129573,2,0,L|448:112,1,55.5000021171571
336,112,129916,2,0,P|240:128|192:240,1,222.000008468628
352,240,130944,2,0,L|416:240,1,55.5000021171571
256,208,131287,6,0,L|160:208,2,83.2500031757356
384,208,131973,2,0,L|400:144,1,55.5000021171571
256,112,132316,2,0,L|240:48,1,55.5000021171571
400,32,132659,6,0,P|452:86|400:141,1,166.500006351471
272,144,133344,1,0,0:0:0:0:
232,144,133430,1,0,0:0:0:0:
192,144,133516,1,0,0:0:0:0:
152,144,133602,1,0,0:0:0:0:
112,144,133687,1,0,0:0:0:0:
256,48,133859,1,0,0:0:0:0:
112,48,134030,6,0,P|50:65|96:160,1,194.25000741005
144,160,134716,1,0,0:0:0:0:
368,160,135059,2,0,L|432:160,1,55.5000021171571
288,160,135402,6,0,P|226:177|288:272,1,222.000008468628
416,272,136259,1,0,0:0:0:0:
272,64,136430,1,0,0:0:0:0:
232,64,136516,1,0,0:0:0:0:
192,64,136602,1,0,0:0:0:0:
152,64,136688,1,0,0:0:0:0:
112,64,136773,6,0,L|96:128,1,55.5000021171571
208,144,137116,1,0,0:0:0:0:
80,192,137287,1,0,0:0:0:0:
120,192,137373,1,0,0:0:0:0:
160,192,137459,1,0,0:0:0:0:
288,192,137630,1,0,0:0:0:0:
160,272,137802,1,0,0:0:0:0:
32,320,137973,1,0,0:0:0:0:
368,160,138144,6,0,P|446:217|368:268,1,222.000008468628
192,224,139430,1,0,0:0:0:0:
144,208,139515,2,0,P|92:152|144:99,1,166.500006351471
304,96,140201,1,0,0:0:0:0:
80,48,140544,2,0,L|64:112,1,55.5000021171571
176,112,140887,6,0,P|272:128|320:240,1,222.000008468628
160,240,141915,2,0,L|96:240,1,55.5000021171571
272,208,142258,6,0,L|368:208,2,83.2500031757356
128,208,142944,2,0,L|112:144,1,55.5000021171571
256,112,143287,2,0,L|272:48,1,55.5000021171571
112,32,143630,6,0,P|60:86|112:141,1,166.500006351471
288,192,144315,1,0,0:0:0:0:
294,152,144401,1,0,0:0:0:0:
301,113,144487,1,0,0:0:0:0:
308,73,144573,1,0,0:0:0:0:
315,34,144658,1,0,0:0:0:0:
176,32,144830,1,0,0:0:0:0:
136,30,144916,1,0,0:0:0:0:
96,31,145002,6,0,P|32:48|96:140,1,222.000008468628
208,128,145859,1,0,0:0:0:0:
320,128,146030,1,0,0:0:0:0:
208,128,146202,1,0,0:0:0:0:
368,128,146373,6,0,P|430:145|368:240,1,222.000008468628
256,240,147230,1,0,0:0:0:0:
112,240,147401,1,0,0:0:0:0:
105,200,147487,1,0,0:0:0:0:
98,161,147573,1,0,0:0:0:0:
91,121,147659,1,0,0:0:0:0:
80,80,147744,6,0,L|144:80,1,55.5000021171571
240,80,148087,1,0,0:0:0:0:
96,16,148258,1,0,0:0:0:0:
272,224,148430,2,0,L|288:160,1,55.5000021171571
112,160,148773,2,0,L|48:160,1,55.5000021171571
336,288,149116,5,0,0:0:0:0:
