osu file format v14

[General]
AudioFilename: audio.mp3
AudioLeadIn: 0
PreviewTime: 149116
Countdown: 0
SampleSet: Soft
StackLeniency: 0.7
Mode: 3
LetterboxInBreaks: 0
SpecialStyle: 0
WidescreenStoryboard: 0

[Editor]
Bookmarks: 3744,110373,182030,203973,283516
DistanceSpacing: 1.1
BeatDivisor: 8
GridSize: 8
TimelineZoom: 1.999999

[Metadata]
Title:RougokuSTRIP (Grimoire crossbreed rmx)
TitleUnicode:牢獄STRIP (Grimoire crossbreed rmx)
Artist:Team Grimoire
ArtistUnicode:Team Grimoire
Creator:DrLou
Version:Golden Witch
Source:うみねこのなく頃に
Tags:MaliceCall hardcore gothic C87 -45 umineko when they cry no naku koro ni 07th expansion d'va;;;;;;;;5 japanese chiru remix electronic instrumental videogame
BeatmapID:2718667
BeatmapSetID:1311730

[Difficulty]
HPDrainRate:8.5
CircleSize:7
OverallDifficulty:8
ApproachRate:5
SliderMultiplier:1.4
SliderTickRate:1

[Events]
//Background and Video events
Video,-1750,"Umineko.avi"
0,0,"umineko.jpg",0,0
//Break Periods
//Storyboard Layer 0 (Background)
//Storyboard Layer 1 (Fail)
//Storyboard Layer 2 (Pass)
//Storyboard Layer 3 (Foreground)
//Storyboard Layer 4 (Overlay)
//Storyboard Sound Samples

[TimingPoints]
1002,342.857142857143,4,2,1,25,1,0
1002,-133.333333333333,4,2,1,25,0,0
22944,-117.647058823529,4,2,1,25,0,0
34087,-111.111111111111,4,2,1,25,0,0
46259,-117.647058823529,4,2,1,50,0,0
46344,-153.846153846154,4,2,1,50,0,0
46430,-192.307692307692,4,2,1,50,0,0
46516,-256.410256410256,4,2,1,50,0,0
46602,-322.58064516129,4,2,1,50,0,0
46687,-434.782608695652,4,2,1,50,0,0
46773,-588.235294117647,4,2,1,50,0,0
46859,-769.230769230769,4,2,1,50,0,0
46944,-1111.11111111111,4,2,1,50,0,0
47030,-2500,4,2,1,50,0,0
47116,-10000,4,2,1,50,0,0
49002,-5000,4,2,1,50,0,0
49087,-3333.33333333333,4,2,1,50,0,0
49173,-2500,4,2,1,50,0,0
49259,-2000,4,2,1,50,0,0
49344,-1666.66666666667,4,2,1,50,0,0
49430,-1428.57142857143,4,2,1,50,0,0
49516,-1000,4,2,1,50,0,0
49602,-714.285714285714,4,2,1,50,0,0
49687,-588.235294117647,4,2,1,50,0,0
49773,-434.782608695652,4,2,1,50,0,0
49859,-333.333333333333,4,2,1,50,0,0
49944,-243.90243902439,4,2,1,50,0,0
50030,-192.307692307692,4,2,1,50,0,0
50116,-149.253731343284,4,2,1,50,0,0
50159,-131.578947368421,4,2,1,50,0,0
50202,-116.279069767442,4,2,1,50,0,0
50244,-104.166666666667,4,2,1,50,0,0
50287,-100,4,2,1,50,0,0
61002,-250,4,2,1,50,0,0
61173,-83.3333333333333,4,2,1,50,0,0
61344,-100,4,2,1,50,0,1
82944,-250,4,2,1,50,0,0
83116,-83.3333333333333,4,2,1,50,0,0
83287,-100,4,2,1,50,0,0
116202,-100,4,2,1,50,0,1
127173,-100,4,2,1,50,0,0
149116,-100,4,2,1,50,0,1
158716,-100,4,2,1,50,0,0
160087,-100,4,2,1,50,0,1
171059,-100,4,2,1,50,0,0
182030,-100,4,2,1,20,0,0
225916,-100,4,2,1,50,0,1
246487,-100,4,2,1,50,0,0
247859,-100,4,2,1,50,0,1
257459,-100,4,2,1,50,0,0
258830,-100,4,2,1,50,0,1
269802,-117.647058823529,4,2,1,25,0,0
294487,-117.647058823529,4,2,1,20,0,0
305459,-117.647058823529,4,2,1,15,0,0

[HitObjects]
182,192,1001,5,0,0:0:0:0:
256,192,1001,128,0,3744:0:0:0:0:
329,192,1001,1,0,0:0:0:0:
36,192,1001,128,0,3744:0:0:0:0:
475,192,1001,128,0,3744:0:0:0:0:
329,192,3916,128,0,5287:0:0:0:0:
36,192,3916,128,0,6487:0:0:0:0:
475,192,3916,128,0,6487:0:0:0:0:
182,192,5287,128,0,6487:0:0:0:0:
109,192,6659,128,0,9230:0:0:0:0:
256,192,6659,128,0,9230:0:0:0:0:
402,192,6659,128,0,8716:0:0:0:0:
475,192,8716,128,0,9230:0:0:0:0:
36,192,9402,128,0,11973:0:0:0:0:
182,192,9402,128,0,10687:0:0:0:0:
402,192,9402,128,0,10687:0:0:0:0:
256,192,10687,128,0,11973:0:0:0:0:
475,192,10687,128,0,11973:0:0:0:0:
109,192,12144,128,0,14716:0:0:0:0:
329,192,12144,128,0,14716:0:0:0:0:
402,192,12144,128,0,14716:0:0:0:0:
36,192,14887,128,0,16259:0:0:0:0:
182,192,14887,128,0,17459:0:0:0:0:
402,192,14887,128,0,17459:0:0:0:0:
256,192,16259,128,0,17459:0:0:0:0:
36,192,17630,128,0,20202:0:0:0:0:
329,192,17630,128,0,19687:0:0:0:0:
475,192,17630,128,0,20202:0:0:0:0:
256,192,19687,128,0,20202:0:0:0:0:
109,192,20373,128,0,22773:0:0:0:0:
256,192,20373,128,0,22773:0:0:0:0:
475,192,20373,128,0,21744:0:0:0:0:
402,192,21744,128,0,22773:0:0:0:0:
36,192,22944,128,0,28430:0:0:0:0:
182,192,22944,1,0,0:0:0:0:
256,192,22944,128,0,25859:0:0:0:0:
329,192,22944,1,0,0:0:0:0:
475,192,22944,128,0,27230:0:0:0:0:
329,192,25859,128,0,28430:0:0:0:0:
182,192,27230,128,0,28430:0:0:0:0:
109,192,28602,128,0,31173:0:0:0:0:
256,192,28602,128,0,31173:0:0:0:0:
402,192,28602,128,0,30659:0:0:0:0:
475,192,30659,128,0,31173:0:0:0:0:
36,192,31344,128,0,33916:0:0:0:0:
182,192,31344,128,0,32630:0:0:0:0:
402,192,31344,128,0,32630:0:0:0:0:
329,192,32630,128,0,33916:0:0:0:0:
475,192,32630,128,0,33916:0:0:0:0:
256,192,33916,128,0,44887:0:0:0:0:
36,192,34087,128,0,36659:0:0:0:0:
109,192,34087,128,0,36659:0:0:0:0:
402,192,34087,128,0,36659:0:0:0:0:
36,192,36830,128,0,38202:0:0:0:0:
329,192,36830,128,0,39402:0:0:0:0:
475,192,36830,128,0,39402:0:0:0:0:
109,192,38202,128,0,39402:0:0:0:0:
36,192,39573,128,0,42144:0:0:0:0:
182,192,39573,128,0,42144:0:0:0:0:
402,192,39573,128,0,41630:0:0:0:0:
109,192,41630,128,0,42144:0:0:0:0:
109,192,42316,128,0,44716:0:0:0:0:
329,192,42316,128,0,44716:0:0:0:0:
402,192,42316,128,0,44716:0:0:0:0:
475,192,43687,128,0,44716:0:0:0:0:
36,192,44373,128,0,44716:0:0:0:0:
475,192,44887,128,0,50287:0:0:0:0:
402,192,44887,128,0,50287:0:0:0:0:
109,192,44887,128,0,50287:0:0:0:0:
36,192,44887,128,0,50287:0:0:0:0:
182,192,45230,128,0,50287:0:0:0:0:
329,192,45230,128,0,50287:0:0:0:0:
256,192,46259,128,0,50287:0:0:0:0:
36,192,50373,1,4,0:0:0:0:
109,192,50373,1,2,0:0:0:0:
256,192,50373,1,0,0:0:0:0:
402,192,50373,1,0,0:0:0:0:
475,192,50373,1,0,0:0:0:0:
36,192,50544,1,0,0:0:0:0:
329,192,50544,1,0,0:0:0:0:
256,192,50587,1,0,0:0:0:0:
182,192,50630,1,0,0:0:0:0:
109,192,50673,1,0,0:0:0:0:
36,192,50716,1,0,0:0:0:0:
402,192,50716,1,0,0:0:0:0:
329,192,50759,1,0,0:0:0:0:
256,192,50802,1,0,0:0:0:0:
182,192,50844,1,0,0:0:0:0:
109,192,50887,1,0,0:0:0:0:
475,192,50887,1,0,0:0:0:0:
402,192,50930,1,0,0:0:0:0:
329,192,50973,1,0,0:0:0:0:
256,192,51016,1,0,0:0:0:0:
36,192,51059,1,2,0:0:0:0:
109,192,51059,1,0,0:0:0:0:
182,192,51059,1,0,0:0:0:0:
182,192,51230,1,0,0:0:0:0:
475,192,51230,1,0,0:0:0:0:
256,192,51273,1,0,0:0:0:0:
329,192,51316,1,0,0:0:0:0:
402,192,51359,1,0,0:0:0:0:
109,192,51402,1,0,0:0:0:0:
475,192,51402,1,0,0:0:0:0:
182,192,51444,1,0,0:0:0:0:
256,192,51487,1,0,0:0:0:0:
329,192,51530,1,0,0:0:0:0:
36,192,51573,1,0,0:0:0:0:
402,192,51573,1,0,0:0:0:0:
109,192,51616,1,0,0:0:0:0:
182,192,51659,1,0,0:0:0:0:
256,192,51702,1,0,0:0:0:0:
329,192,51744,1,2,0:0:0:0:
402,192,51744,1,0,0:0:0:0:
475,192,51744,1,0,0:0:0:0:
475,192,51916,1,0,0:0:0:0:
256,192,51916,1,0,0:0:0:0:
182,192,51959,1,0,0:0:0:0:
109,192,52002,1,0,0:0:0:0:
36,192,52044,1,0,0:0:0:0:
475,192,52087,1,0,0:0:0:0:
402,192,52087,1,0,0:0:0:0:
329,192,52130,1,0,0:0:0:0:
256,192,52173,1,0,0:0:0:0:
182,192,52216,1,0,0:0:0:0:
475,192,52259,1,0,0:0:0:0:
109,192,52259,1,0,0:0:0:0:
402,192,52302,1,0,0:0:0:0:
329,192,52344,1,0,0:0:0:0:
256,192,52387,1,0,0:0:0:0:
182,192,52430,1,2,0:0:0:0:
109,192,52430,1,0,0:0:0:0:
36,192,52430,1,0,0:0:0:0:
36,192,52602,1,0,0:0:0:0:
182,192,52602,1,0,0:0:0:0:
256,192,52644,1,0,0:0:0:0:
329,192,52687,1,0,0:0:0:0:
402,192,52730,1,0,0:0:0:0:
36,192,52773,1,8,0:0:0:0:
109,192,52773,1,0,0:0:0:0:
182,192,52773,1,0,0:0:0:0:
475,192,52773,1,0,0:0:0:0:
256,192,52816,1,0,0:0:0:0:
329,192,52859,1,0,0:0:0:0:
402,192,52902,1,0,0:0:0:0:
109,192,52944,1,0,0:0:0:0:
475,192,52944,1,0,0:0:0:0:
182,192,52987,1,0,0:0:0:0:
256,192,53030,1,0,0:0:0:0:
329,192,53073,1,0,0:0:0:0:
36,192,53116,1,2,0:0:0:0:
109,192,53116,1,0,0:0:0:0:
402,192,53116,1,0,0:0:0:0:
36,192,53287,1,0,0:0:0:0:
329,192,53287,1,0,0:0:0:0:
256,192,53330,1,0,0:0:0:0:
182,192,53373,1,0,0:0:0:0:
109,192,53416,1,0,0:0:0:0:
36,192,53459,1,0,0:0:0:0:
402,192,53459,1,0,0:0:0:0:
329,192,53502,1,0,0:0:0:0:
256,192,53544,1,0,0:0:0:0:
182,192,53587,1,0,0:0:0:0:
109,192,53630,1,0,0:0:0:0:
475,192,53630,1,0,0:0:0:0:
402,192,53673,1,0,0:0:0:0:
329,192,53716,1,0,0:0:0:0:
256,192,53759,1,0,0:0:0:0:
36,192,53802,1,2,0:0:0:0:
109,192,53802,1,0,0:0:0:0:
182,192,53802,1,0,0:0:0:0:
182,192,53973,1,0,0:0:0:0:
475,192,53973,1,0,0:0:0:0:
256,192,54016,1,0,0:0:0:0:
329,192,54059,1,0,0:0:0:0:
402,192,54102,1,0,0:0:0:0:
109,192,54144,1,0,0:0:0:0:
475,192,54144,1,0,0:0:0:0:
182,192,54187,1,0,0:0:0:0:
256,192,54230,1,0,0:0:0:0:
329,192,54273,1,0,0:0:0:0:
36,192,54316,1,0,0:0:0:0:
402,192,54316,1,0,0:0:0:0:
109,192,54359,1,0,0:0:0:0:
182,192,54402,1,0,0:0:0:0:
256,192,54444,1,0,0:0:0:0:
329,192,54487,1,2,0:0:0:0:
402,192,54487,1,0,0:0:0:0:
475,192,54487,1,0,0:0:0:0:
402,192,54659,1,0,0:0:0:0:
256,192,54659,1,0,0:0:0:0:
182,192,54702,1,0,0:0:0:0:
109,192,54744,1,0,0:0:0:0:
36,192,54787,1,0,0:0:0:0:
475,192,54830,1,0,0:0:0:0:
402,192,54830,1,0,0:0:0:0:
329,192,54873,1,0,0:0:0:0:
256,192,54916,1,0,0:0:0:0:
182,192,54959,1,0,0:0:0:0:
475,192,55002,1,0,0:0:0:0:
109,192,55002,1,0,0:0:0:0:
402,192,55044,1,0,0:0:0:0:
329,192,55087,1,0,0:0:0:0:
256,192,55130,1,0,0:0:0:0:
182,192,55173,1,2,0:0:0:0:
109,192,55173,1,0,0:0:0:0:
36,192,55173,1,0,0:0:0:0:
182,192,55344,1,0,0:0:0:0:
475,192,55344,1,0,0:0:0:0:
256,192,55387,1,0,0:0:0:0:
329,192,55430,1,0,0:0:0:0:
402,192,55473,1,0,0:0:0:0:
36,192,55516,1,8,0:0:0:0:
109,192,55516,1,0,0:0:0:0:
182,192,55516,1,0,0:0:0:0:
475,192,55516,1,0,0:0:0:0:
256,192,55559,1,0,0:0:0:0:
329,192,55602,1,0,0:0:0:0:
402,192,55644,1,0,0:0:0:0:
109,192,55687,1,0,0:0:0:0:
475,192,55687,1,0,0:0:0:0:
182,192,55730,1,0,0:0:0:0:
256,192,55773,1,0,0:0:0:0:
329,192,55816,1,0,0:0:0:0:
109,192,55859,1,2,0:0:0:0:
475,192,55859,1,0,0:0:0:0:
402,192,55859,1,0,0:0:0:0:
329,192,56030,1,0,0:0:0:0:
36,192,56030,1,0,0:0:0:0:
256,192,56073,1,0,0:0:0:0:
182,192,56116,1,0,0:0:0:0:
109,192,56159,1,0,0:0:0:0:
402,192,56202,1,0,0:0:0:0:
36,192,56202,1,0,0:0:0:0:
329,192,56244,1,0,0:0:0:0:
256,192,56287,1,0,0:0:0:0:
182,192,56330,1,0,0:0:0:0:
475,192,56373,1,0,0:0:0:0:
109,192,56373,1,0,0:0:0:0:
402,192,56416,1,0,0:0:0:0:
329,192,56459,1,0,0:0:0:0:
256,192,56502,1,0,0:0:0:0:
182,192,56544,1,2,0:0:0:0:
109,192,56544,1,0,0:0:0:0:
36,192,56544,1,0,0:0:0:0:
475,192,56716,1,0,0:0:0:0:
182,192,56716,1,0,0:0:0:0:
256,192,56759,1,0,0:0:0:0:
329,192,56802,1,0,0:0:0:0:
402,192,56844,1,0,0:0:0:0:
475,192,56887,1,0,0:0:0:0:
109,192,56887,1,0,0:0:0:0:
182,192,56930,1,0,0:0:0:0:
256,192,56973,1,0,0:0:0:0:
329,192,57016,1,0,0:0:0:0:
402,192,57059,1,0,0:0:0:0:
36,192,57059,1,0,0:0:0:0:
109,192,57102,1,0,0:0:0:0:
182,192,57144,1,0,0:0:0:0:
256,192,57187,1,0,0:0:0:0:
475,192,57230,1,2,0:0:0:0:
402,192,57230,1,0,0:0:0:0:
329,192,57230,1,0,0:0:0:0:
256,192,57402,1,0,0:0:0:0:
475,192,57402,1,0,0:0:0:0:
182,192,57444,1,0,0:0:0:0:
109,192,57487,1,0,0:0:0:0:
36,192,57530,1,0,0:0:0:0:
402,192,57573,1,0,0:0:0:0:
475,192,57573,1,0,0:0:0:0:
329,192,57616,1,0,0:0:0:0:
256,192,57659,1,0,0:0:0:0:
182,192,57702,1,0,0:0:0:0:
109,192,57744,1,0,0:0:0:0:
475,192,57744,1,0,0:0:0:0:
402,192,57787,1,0,0:0:0:0:
329,192,57830,1,0,0:0:0:0:
256,192,57873,1,0,0:0:0:0:
36,192,57916,1,2,0:0:0:0:
109,192,57916,1,0,0:0:0:0:
182,192,57916,1,0,0:0:0:0:
182,192,58087,1,0,0:0:0:0:
36,192,58087,1,0,0:0:0:0:
256,192,58130,1,0,0:0:0:0:
329,192,58173,1,0,0:0:0:0:
402,192,58216,1,0,0:0:0:0:
475,192,58259,1,8,0:0:0:0:
182,192,58259,1,0,0:0:0:0:
109,192,58259,1,0,0:0:0:0:
36,192,58259,1,0,0:0:0:0:
256,192,58302,1,0,0:0:0:0:
329,192,58344,1,0,0:0:0:0:
402,192,58387,1,0,0:0:0:0:
475,192,58430,1,0,0:0:0:0:
109,192,58430,1,0,0:0:0:0:
182,192,58473,1,0,0:0:0:0:
256,192,58516,1,0,0:0:0:0:
329,192,58559,1,0,0:0:0:0:
475,192,58602,1,2,0:0:0:0:
402,192,58602,1,0,0:0:0:0:
36,192,58602,1,0,0:0:0:0:
36,192,58773,1,0,0:0:0:0:
402,192,58773,1,0,0:0:0:0:
329,192,58816,1,0,0:0:0:0:
256,192,58859,1,0,0:0:0:0:
182,192,58902,1,0,0:0:0:0:
36,192,58944,1,8,0:0:0:0:
109,192,58944,1,0,0:0:0:0:
402,192,58944,1,0,0:0:0:0:
475,192,58944,1,0,0:0:0:0:
329,192,58987,1,0,0:0:0:0:
256,192,59030,1,0,0:0:0:0:
182,192,59073,1,0,0:0:0:0:
36,192,59116,1,2,0:0:0:0:
109,192,59116,1,0,0:0:0:0:
475,192,59116,1,0,0:0:0:0:
329,192,59287,1,2,0:0:0:0:
402,192,59287,1,0,0:0:0:0:
475,192,59287,1,0,0:0:0:0:
36,192,59459,1,0,0:0:0:0:
109,192,59459,1,0,0:0:0:0:
182,192,59502,1,0,0:0:0:0:
256,192,59544,1,0,0:0:0:0:
329,192,59587,1,0,0:0:0:0:
36,192,59630,1,8,0:0:0:0:
109,192,59630,1,0,0:0:0:0:
402,192,59630,1,0,0:0:0:0:
475,192,59630,1,0,0:0:0:0:
182,192,59673,1,0,0:0:0:0:
256,192,59716,1,0,0:0:0:0:
329,192,59759,1,0,0:0:0:0:
36,192,59802,1,2,0:0:0:0:
402,192,59802,1,0,0:0:0:0:
475,192,59802,1,0,0:0:0:0:
36,192,59973,1,2,0:0:0:0:
109,192,59973,1,0,0:0:0:0:
182,192,59973,1,0,0:0:0:0:
329,192,60144,1,0,0:0:0:0:
475,192,60144,1,0,0:0:0:0:
256,192,60187,1,0,0:0:0:0:
182,192,60230,1,0,0:0:0:0:
109,192,60273,1,0,0:0:0:0:
36,192,60316,1,8,0:0:0:0:
329,192,60316,1,0,0:0:0:0:
402,192,60316,1,0,0:0:0:0:
475,192,60316,1,0,0:0:0:0:
256,192,60359,1,0,0:0:0:0:
182,192,60402,1,0,0:0:0:0:
109,192,60444,1,0,0:0:0:0:
36,192,60487,1,2,0:0:0:0:
402,192,60487,1,0,0:0:0:0:
475,192,60487,1,0,0:0:0:0:
256,192,60573,1,2,0:0:0:0:
329,192,60573,1,0,0:0:0:0:
182,192,60573,1,0,0:0:0:0:
36,192,60659,1,2,0:0:0:0:
109,192,60659,1,0,0:0:0:0:
402,192,60659,1,0,0:0:0:0:
109,192,60830,1,0,0:0:0:0:
475,192,60830,1,0,0:0:0:0:
182,192,60873,1,0,0:0:0:0:
256,192,60916,1,0,0:0:0:0:
329,192,60959,1,0,0:0:0:0:
36,192,61002,1,0,0:0:0:70:hand_clap.wav
109,192,61002,1,0,0:0:0:0:
402,192,61002,1,0,0:0:0:0:
475,192,61002,1,0,0:0:0:0:
36,192,61344,1,4,0:0:0:0:
109,192,61344,1,2,0:0:0:0:
182,192,61344,1,0,0:0:0:0:
402,192,61344,1,0,0:0:0:0:
475,192,61344,1,0,0:0:0:0:
329,192,61430,1,0,0:0:0:0:
182,192,61516,1,0,0:0:0:0:
109,192,61516,1,0,0:0:0:0:
256,192,61559,1,0,0:0:0:0:
329,192,61602,1,0,0:0:0:0:
402,192,61644,1,0,0:0:0:0:
109,192,61687,1,8,0:0:0:0:
475,192,61687,1,0,0:0:0:0:
36,192,61687,1,0,0:0:0:0:
182,192,61687,1,2,0:0:0:0:
256,192,61730,1,0,0:0:0:0:
329,192,61773,1,0,0:0:0:0:
402,192,61816,1,0,0:0:0:0:
475,192,61859,1,0,0:0:0:0:
36,192,61859,1,0,0:0:0:0:
109,192,61902,1,0,0:0:0:0:
182,192,61944,1,0,0:0:0:0:
256,192,61987,1,0,0:0:0:0:
36,192,62030,1,2,0:0:0:0:
329,192,62030,1,0,0:0:0:0:
475,192,62030,1,0,0:0:0:0:
402,192,62116,1,0,0:0:0:0:
256,192,62202,1,0,0:0:0:0:
109,192,62202,1,0,0:0:0:0:
182,192,62287,1,0,0:0:0:0:
36,192,62287,1,0,0:0:0:0:
329,192,62373,1,8,0:0:0:0:
402,192,62373,1,0,0:0:0:0:
475,192,62373,1,0,0:0:0:0:
109,192,62373,1,2,0:0:0:0:
256,192,62459,1,0,0:0:0:0:
182,192,62544,1,0,0:0:0:0:
402,192,62544,1,0,0:0:0:0:
109,192,62630,1,0,0:0:0:0:
475,192,62630,1,0,0:0:0:0:
36,192,62716,1,2,0:0:0:0:
256,192,62716,1,0,0:0:0:0:
329,192,62716,1,0,0:0:0:0:
182,192,62802,1,0,0:0:0:0:
36,192,62887,1,0,0:0:0:0:
329,192,62887,1,0,0:0:0:0:
109,192,62973,1,0,0:0:0:0:
402,192,62973,1,0,0:0:0:0:
36,192,63059,1,2,0:0:0:0:
182,192,63059,1,8,0:0:0:0:
256,192,63059,1,0,0:0:0:0:
475,192,63059,1,0,0:0:0:0:
402,192,63144,1,0,0:0:0:0:
36,192,63230,1,2,0:0:0:0:
109,192,63230,1,0,0:0:0:0:
329,192,63230,1,0,0:0:0:0:
182,192,63316,1,0,0:0:0:0:
256,192,63402,1,2,0:0:0:0:
329,192,63402,1,0,0:0:0:0:
475,192,63402,1,0,0:0:0:0:
402,192,63487,1,0,0:0:0:0:
36,192,63573,1,0,0:0:0:0:
329,192,63573,1,0,0:0:0:0:
109,192,63659,1,0,0:0:0:0:
256,192,63659,1,0,0:0:0:0:
36,192,63744,1,2,0:0:0:0:
182,192,63744,1,8,0:0:0:0:
402,192,63744,1,0,0:0:0:0:
475,192,63744,1,0,0:0:0:0:
329,192,63830,1,0,0:0:0:0:
36,192,63916,1,0,0:0:0:0:
256,192,63916,1,0,0:0:0:0:
329,192,64002,1,0,0:0:0:0:
182,192,64002,1,0,0:0:0:0:
475,192,64087,1,2,0:0:0:0:
109,192,64087,1,0,0:0:0:0:
402,192,64087,1,0,0:0:0:0:
36,192,64173,1,0,0:0:0:0:
402,192,64259,1,0,0:0:0:0:
329,192,64259,1,0,0:0:0:0:
256,192,64302,1,0,0:0:0:0:
182,192,64344,1,0,0:0:0:0:
109,192,64387,1,0,0:0:0:0:
402,192,64430,1,0,0:0:0:0:
36,192,64430,1,8,0:0:0:0:
475,192,64430,1,0,0:0:0:0:
329,192,64430,1,0,0:0:0:0:
256,192,64473,1,0,0:0:0:0:
182,192,64516,1,0,0:0:0:0:
109,192,64559,1,0,0:0:0:0:
36,192,64602,1,0,0:0:0:0:
402,192,64602,1,0,0:0:0:0:
329,192,64644,1,0,0:0:0:0:
256,192,64687,1,0,0:0:0:0:
182,192,64730,1,0,0:0:0:0:
36,192,64773,1,2,0:0:0:0:
109,192,64773,1,0,0:0:0:0:
475,192,64773,1,0,0:0:0:0:
329,192,64859,1,0,0:0:0:0:
109,192,64944,1,2,0:0:0:0:
402,192,64944,1,0,0:0:0:0:
475,192,64944,1,0,0:0:0:0:
182,192,65030,1,0,0:0:0:0:
36,192,65116,1,2,0:0:0:0:
256,192,65116,1,8,0:0:0:0:
402,192,65116,1,0,0:0:0:0:
475,192,65116,1,0,0:0:0:0:
329,192,65202,1,0,0:0:0:0:
36,192,65287,1,2,0:0:0:0:
182,192,65287,1,0,0:0:0:0:
475,192,65287,1,0,0:0:0:0:
256,192,65373,1,0,0:0:0:0:
36,192,65459,1,2,0:0:0:0:
329,192,65459,1,0,0:0:0:0:
475,192,65459,1,0,0:0:0:0:
109,192,65544,1,0,0:0:0:0:
256,192,65630,1,0,0:0:0:0:
329,192,65630,1,0,0:0:0:0:
182,192,65716,1,0,0:0:0:0:
475,192,65716,1,0,0:0:0:0:
36,192,65802,1,2,0:0:0:0:
109,192,65802,1,8,0:0:0:0:
329,192,65802,1,0,0:0:0:0:
402,192,65802,1,0,0:0:0:0:
182,192,65887,1,0,0:0:0:0:
36,192,65973,1,2,0:0:0:0:
256,192,65973,1,0,0:0:0:0:
475,192,65973,1,0,0:0:0:0:
109,192,66059,1,0,0:0:0:0:
182,192,66144,1,2,0:0:0:0:
329,192,66144,1,0,0:0:0:0:
475,192,66144,1,0,0:0:0:0:
36,192,66230,1,0,0:0:0:0:
402,192,66316,1,0,0:0:0:0:
329,192,66316,1,0,0:0:0:0:
109,192,66402,1,2,0:0:0:0:
182,192,66402,1,0,0:0:0:0:
256,192,66402,1,0,0:0:0:0:
36,192,66487,1,2,0:0:0:0:
329,192,66487,1,8,0:0:0:0:
402,192,66487,1,0,0:0:0:0:
475,192,66487,1,0,0:0:0:0:
256,192,66573,1,0,0:0:0:0:
36,192,66659,1,2,0:0:0:0:
182,192,66659,1,0,0:0:0:0:
475,192,66659,1,0,0:0:0:0:
402,192,66744,1,0,0:0:0:0:
36,192,66830,1,2,0:0:0:0:
329,192,66830,1,0,0:0:0:0:
256,192,66830,1,0,0:0:0:0:
109,192,66916,1,0,0:0:0:0:
475,192,67002,1,0,0:0:0:0:
182,192,67002,1,0,0:0:0:0:
256,192,67044,1,0,0:0:0:0:
329,192,67087,1,0,0:0:0:0:
402,192,67130,1,0,0:0:0:0:
475,192,67173,1,0,0:0:0:0:
109,192,67173,1,8,0:0:0:0:
36,192,67173,1,0,0:0:0:0:
182,192,67173,1,0,0:0:0:0:
256,192,67216,1,0,0:0:0:0:
329,192,67259,1,0,0:0:0:0:
402,192,67302,1,0,0:0:0:0:
475,192,67344,1,0,0:0:0:0:
36,192,67344,1,0,0:0:0:0:
109,192,67387,1,0,0:0:0:0:
182,192,67430,1,0,0:0:0:0:
256,192,67473,1,0,0:0:0:0:
36,192,67516,1,2,0:0:0:0:
329,192,67516,1,0,0:0:0:0:
475,192,67516,1,0,0:0:0:0:
182,192,67602,1,0,0:0:0:0:
36,192,67687,1,0,0:0:0:0:
256,192,67687,1,0,0:0:0:0:
109,192,67773,1,0,0:0:0:0:
402,192,67773,1,0,0:0:0:0:
182,192,67859,1,2,0:0:0:0:
256,192,67859,1,8,0:0:0:0:
329,192,67859,1,0,0:0:0:0:
475,192,67859,1,0,0:0:0:0:
36,192,67944,1,0,0:0:0:0:
182,192,68030,1,0,0:0:0:0:
475,192,68030,1,0,0:0:0:0:
256,192,68116,1,0,0:0:0:0:
402,192,68116,1,0,0:0:0:0:
36,192,68202,1,2,0:0:0:0:
329,192,68202,1,0,0:0:0:0:
475,192,68202,1,0,0:0:0:0:
109,192,68287,1,0,0:0:0:0:
182,192,68373,1,0,0:0:0:0:
402,192,68373,1,0,0:0:0:0:
475,192,68459,1,0,0:0:0:0:
256,192,68459,1,0,0:0:0:0:
36,192,68544,1,2,0:0:0:0:
182,192,68544,1,8,0:0:0:0:
109,192,68544,1,0,0:0:0:0:
329,192,68544,1,0,0:0:0:0:
256,192,68630,1,0,0:0:0:0:
109,192,68716,1,2,0:0:0:0:
329,192,68716,1,0,0:0:0:0:
475,192,68716,1,0,0:0:0:0:
182,192,68802,1,0,0:0:0:0:
36,192,68887,1,2,0:0:0:0:
256,192,68887,1,0,0:0:0:0:
402,192,68887,1,0,0:0:0:0:
182,192,68973,1,0,0:0:0:0:
109,192,69059,1,0,0:0:0:0:
329,192,69059,1,0,0:0:0:0:
402,192,69144,1,0,0:0:0:0:
182,192,69144,1,0,0:0:0:0:
36,192,69230,1,8,0:0:0:0:
329,192,69230,1,2,0:0:0:0:
256,192,69230,1,0,0:0:0:0:
475,192,69230,1,0,0:0:0:0:
109,192,69316,1,0,0:0:0:0:
182,192,69402,1,0,0:0:0:0:
402,192,69402,1,0,0:0:0:0:
109,192,69487,1,0,0:0:0:0:
475,192,69487,1,0,0:0:0:0:
36,192,69573,1,2,0:0:0:0:
256,192,69573,1,0,0:0:0:0:
329,192,69573,1,0,0:0:0:0:
402,192,69659,1,0,0:0:0:0:
109,192,69744,1,0,0:0:0:0:
475,192,69744,1,0,0:0:0:0:
182,192,69787,1,0,0:0:0:0:
256,192,69830,1,0,0:0:0:0:
329,192,69873,1,0,0:0:0:0:
402,192,69916,1,0,0:0:0:0:
475,192,69916,1,0,0:0:0:0:
36,192,69916,1,8,0:0:0:0:
109,192,69916,1,0,0:0:0:0:
182,192,69959,1,0,0:0:0:0:
256,192,70002,1,0,0:0:0:0:
329,192,70044,1,0,0:0:0:0:
402,192,70087,1,0,0:0:0:0:
36,192,70087,1,0,0:0:0:0:
109,192,70130,1,0,0:0:0:0:
182,192,70173,1,0,0:0:0:0:
256,192,70216,1,0,0:0:0:0:
36,192,70259,1,2,0:0:0:0:
475,192,70259,1,0,0:0:0:0:
329,192,70259,1,0,0:0:0:0:
182,192,70344,1,0,0:0:0:0:
109,192,70430,1,2,0:0:0:0:
402,192,70430,1,0,0:0:0:0:
475,192,70430,1,0,0:0:0:0:
329,192,70516,1,0,0:0:0:0:
36,192,70602,1,2,0:0:0:0:
182,192,70602,1,8,0:0:0:0:
256,192,70602,1,0,0:0:0:0:
475,192,70602,1,0,0:0:0:0:
402,192,70687,1,0,0:0:0:0:
109,192,70773,1,2,0:0:0:0:
329,192,70773,1,0,0:0:0:0:
475,192,70773,1,0,0:0:0:0:
182,192,70859,1,0,0:0:0:0:
36,192,70944,1,2,0:0:0:0:
256,192,70944,1,0,0:0:0:0:
475,192,70944,1,0,0:0:0:0:
109,192,71030,1,0,0:0:0:0:
182,192,71116,1,0,0:0:0:0:
402,192,71116,1,0,0:0:0:0:
109,192,71202,1,0,0:0:0:0:
256,192,71202,1,0,0:0:0:0:
36,192,71287,1,2,0:0:0:0:
329,192,71287,1,8,0:0:0:0:
402,192,71287,1,0,0:0:0:0:
475,192,71287,1,0,0:0:0:0:
256,192,71373,1,0,0:0:0:0:
109,192,71459,1,2,0:0:0:0:
182,192,71459,1,0,0:0:0:0:
402,192,71459,1,0,0:0:0:0:
329,192,71544,1,0,0:0:0:0:
36,192,71630,1,2,0:0:0:0:
256,192,71630,1,0,0:0:0:0:
475,192,71630,1,0,0:0:0:0:
402,192,71716,1,0,0:0:0:0:
109,192,71802,1,0,0:0:0:0:
329,192,71802,1,0,0:0:0:0:
182,192,71887,1,2,0:0:0:0:
256,192,71887,1,0,0:0:0:0:
402,192,71887,1,0,0:0:0:0:
36,192,71973,1,8,0:0:0:0:
109,192,71973,1,2,0:0:0:0:
329,192,71973,1,0,0:0:0:0:
475,192,71973,1,0,0:0:0:0:
182,192,72059,1,0,0:0:0:0:
36,192,72144,1,2,0:0:0:0:
256,192,72144,1,0,0:0:0:0:
402,192,72144,1,0,0:0:0:0:
109,192,72230,1,0,0:0:0:0:
182,192,72316,1,2,0:0:0:0:
256,192,72316,1,4,0:0:0:0:
329,192,72316,1,0,0:0:0:0:
402,192,72316,1,0,0:0:0:0:
475,192,72316,1,0,0:0:0:0:
36,192,72402,1,0,0:0:0:0:
329,192,72487,1,0,0:0:0:0:
475,192,72487,1,0,0:0:0:0:
256,192,72530,1,0,0:0:0:0:
182,192,72573,1,0,0:0:0:0:
109,192,72616,1,0,0:0:0:0:
36,192,72659,1,8,0:0:0:0:
402,192,72659,1,0,0:0:0:0:
475,192,72659,1,0,0:0:0:0:
329,192,72659,1,0,0:0:0:0:
256,192,72702,1,0,0:0:0:0:
182,192,72744,1,0,0:0:0:0:
109,192,72787,1,0,0:0:0:0:
36,192,72830,1,0,0:0:0:0:
402,192,72830,1,0,0:0:0:0:
329,192,72873,1,0,0:0:0:0:
256,192,72916,1,0,0:0:0:0:
182,192,72959,1,0,0:0:0:0:
109,192,73002,1,2,0:0:0:0:
36,192,73002,1,0,0:0:0:0:
475,192,73002,1,0,0:0:0:0:
182,192,73087,1,0,0:0:0:0:
36,192,73173,1,0,0:0:0:0:
256,192,73173,1,0,0:0:0:0:
402,192,73173,1,0,0:0:0:0:
329,192,73259,1,0,0:0:0:0:
475,192,73259,1,0,0:0:0:0:
36,192,73344,1,8,0:0:0:0:
109,192,73344,1,2,0:0:0:0:
182,192,73344,1,0,0:0:0:0:
256,192,73344,1,0,0:0:0:0:
475,192,73430,1,0,0:0:0:0:
182,192,73516,1,0,0:0:0:0:
329,192,73516,1,0,0:0:0:0:
109,192,73602,1,0,0:0:0:0:
256,192,73602,1,0,0:0:0:0:
36,192,73687,1,2,0:0:0:0:
182,192,73687,1,0,0:0:0:0:
475,192,73687,1,0,0:0:0:0:
402,192,73773,1,0,0:0:0:0:
109,192,73859,1,0,0:0:0:0:
329,192,73859,1,0,0:0:0:0:
182,192,73944,1,0,0:0:0:0:
402,192,73944,1,0,0:0:0:0:
36,192,74030,1,2,0:0:0:0:
256,192,74030,1,8,0:0:0:0:
329,192,74030,1,0,0:0:0:0:
475,192,74030,1,0,0:0:0:0:
109,192,74116,1,0,0:0:0:0:
182,192,74202,1,2,0:0:0:0:
402,192,74202,1,0,0:0:0:0:
475,192,74202,1,0,0:0:0:0:
329,192,74287,1,0,0:0:0:0:
36,192,74373,1,2,0:0:0:0:
256,192,74373,1,0,0:0:0:0:
475,192,74373,1,0,0:0:0:0:
109,192,74459,1,0,0:0:0:0:
329,192,74544,1,0,0:0:0:0:
475,192,74544,1,0,0:0:0:0:
256,192,74630,1,0,0:0:0:0:
402,192,74630,1,0,0:0:0:0:
109,192,74716,1,2,0:0:0:0:
182,192,74716,1,8,0:0:0:0:
329,192,74716,1,0,0:0:0:0:
475,192,74716,1,0,0:0:0:0:
36,192,74802,1,0,0:0:0:0:
256,192,74887,1,0,0:0:0:0:
475,192,74887,1,0,0:0:0:0:
182,192,74973,1,0,0:0:0:0:
329,192,74973,1,0,0:0:0:0:
36,192,75059,1,2,0:0:0:0:
109,192,75059,1,0,0:0:0:0:
402,192,75059,1,0,0:0:0:0:
256,192,75144,1,0,0:0:0:0:
475,192,75230,1,0,0:0:0:0:
109,192,75230,1,0,0:0:0:0:
182,192,75273,1,0,0:0:0:0:
256,192,75316,1,0,0:0:0:0:
329,192,75359,1,0,0:0:0:0:
475,192,75402,1,0,0:0:0:0:
402,192,75402,1,0,0:0:0:0:
109,192,75402,1,0,0:0:0:0:
36,192,75402,1,8,0:0:0:0:
182,192,75444,1,0,0:0:0:0:
256,192,75487,1,0,0:0:0:0:
329,192,75530,1,0,0:0:0:0:
402,192,75573,1,0,0:0:0:0:
36,192,75573,1,0,0:0:0:0:
109,192,75616,1,0,0:0:0:0:
182,192,75659,1,0,0:0:0:0:
256,192,75702,1,0,0:0:0:0:
36,192,75744,1,2,0:0:0:0:
329,192,75744,1,0,0:0:0:0:
475,192,75744,1,0,0:0:0:0:
182,192,75830,1,0,0:0:0:0:
36,192,75916,1,2,0:0:0:0:
109,192,75916,1,0,0:0:0:0:
256,192,75916,1,0,0:0:0:0:
329,192,76002,1,0,0:0:0:0:
36,192,76087,1,2,0:0:0:0:
109,192,76087,1,8,0:0:0:0:
402,192,76087,1,0,0:0:0:0:
475,192,76087,1,0,0:0:0:0:
182,192,76173,1,0,0:0:0:0:
36,192,76259,1,2,0:0:0:0:
256,192,76259,1,0,0:0:0:0:
402,192,76259,1,0,0:0:0:0:
329,192,76344,1,0,0:0:0:0:
109,192,76430,1,2,0:0:0:0:
182,192,76430,1,0,0:0:0:0:
475,192,76430,1,0,0:0:0:0:
402,192,76516,1,0,0:0:0:0:
36,192,76602,1,0,0:0:0:0:
329,192,76602,1,0,0:0:0:0:
109,192,76687,1,0,0:0:0:0:
256,192,76687,1,0,0:0:0:0:
36,192,76773,1,8,0:0:0:0:
182,192,76773,1,2,0:0:0:0:
402,192,76773,1,0,0:0:0:0:
475,192,76773,1,0,0:0:0:0:
329,192,76859,1,0,0:0:0:0:
109,192,76944,1,2,0:0:0:0:
256,192,76944,1,0,0:0:0:0:
475,192,76944,1,0,0:0:0:0:
402,192,77030,1,0,0:0:0:0:
36,192,77116,1,2,0:0:0:0:
256,192,77116,1,0,0:0:0:0:
329,192,77116,1,0,0:0:0:0:
475,192,77202,1,0,0:0:0:0:
36,192,77287,1,0,0:0:0:0:
182,192,77287,1,0,0:0:0:0:
256,192,77373,1,2,0:0:0:0:
329,192,77373,1,0,0:0:0:0:
402,192,77373,1,0,0:0:0:0:
36,192,77459,1,2,0:0:0:0:
109,192,77459,1,8,0:0:0:0:
182,192,77459,1,0,0:0:0:0:
475,192,77459,1,0,0:0:0:0:
256,192,77544,1,0,0:0:0:0:
109,192,77630,1,2,0:0:0:0:
329,192,77630,1,0,0:0:0:0:
402,192,77630,1,0,0:0:0:0:
182,192,77716,1,0,0:0:0:0:
36,192,77802,1,2,0:0:0:0:
256,192,77802,1,0,0:0:0:0:
475,192,77802,1,0,0:0:0:0:
402,192,77887,1,0,0:0:0:0:
182,192,77973,1,0,0:0:0:0:
329,192,77973,1,0,0:0:0:0:
36,192,78059,1,0,0:0:0:0:
402,192,78059,1,0,0:0:0:0:
109,192,78144,1,2,0:0:0:0:
182,192,78144,1,8,0:0:0:0:
256,192,78144,1,0,0:0:0:0:
475,192,78144,1,0,0:0:0:0:
329,192,78230,1,0,0:0:0:0:
182,192,78316,1,0,0:0:0:0:
402,192,78316,1,0,0:0:0:0:
256,192,78402,1,0,0:0:0:0:
475,192,78402,1,0,0:0:0:0:
36,192,78487,1,2,0:0:0:0:
109,192,78487,1,0,0:0:0:0:
329,192,78487,1,0,0:0:0:0:
402,192,78573,1,0,0:0:0:0:
36,192,78659,1,0,0:0:0:0:
475,192,78659,1,0,0:0:0:0:
182,192,78744,1,0,0:0:0:0:
402,192,78744,1,0,0:0:0:0:
36,192,78830,1,2,0:0:0:0:
109,192,78830,1,8,0:0:0:0:
256,192,78830,1,0,0:0:0:0:
329,192,78830,1,0,0:0:0:0:
475,192,78916,1,0,0:0:0:0:
36,192,79002,1,0,0:0:0:0:
329,192,79002,1,0,0:0:0:0:
109,192,79087,1,0,0:0:0:0:
256,192,79087,1,0,0:0:0:0:
182,192,79173,1,2,0:0:0:0:
402,192,79173,1,0,0:0:0:0:
475,192,79173,1,0,0:0:0:0:
329,192,79259,1,0,0:0:0:0:
36,192,79344,1,0,0:0:0:0:
256,192,79344,1,0,0:0:0:0:
182,192,79430,1,0,0:0:0:0:
402,192,79430,1,0,0:0:0:0:
36,192,79516,1,2,0:0:0:0:
109,192,79516,1,8,0:0:0:0:
329,192,79516,1,0,0:0:0:0:
475,192,79516,1,0,0:0:0:0:
256,192,79602,1,0,0:0:0:0:
182,192,79687,1,0,0:0:0:0:
402,192,79687,1,0,0:0:0:0:
109,192,79773,1,0,0:0:0:0:
329,192,79773,1,0,0:0:0:0:
36,192,79859,1,2,0:0:0:0:
256,192,79859,1,0,0:0:0:0:
475,192,79859,1,0,0:0:0:0:
329,192,79944,1,0,0:0:0:0:
182,192,80030,1,0,0:0:0:0:
402,192,80030,1,0,0:0:0:0:
109,192,80116,1,0,0:0:0:0:
256,192,80116,1,0,0:0:0:0:
36,192,80202,1,2,0:0:0:0:
182,192,80202,1,8,0:0:0:0:
402,192,80202,1,0,0:0:0:0:
475,192,80202,1,0,0:0:0:0:
329,192,80287,1,0,0:0:0:0:
109,192,80373,1,2,0:0:0:0:
256,192,80373,1,0,0:0:0:0:
182,192,80373,1,0,0:0:0:0:
36,192,80459,1,0,0:0:0:0:
329,192,80459,1,0,0:0:0:0:
182,192,80544,1,2,0:0:0:0:
402,192,80544,1,0,0:0:0:0:
475,192,80544,1,0,0:0:0:0:
109,192,80630,1,0,0:0:0:0:
36,192,80716,1,0,0:0:0:0:
402,192,80716,1,0,0:0:0:0:
182,192,80802,1,0,0:0:0:0:
329,192,80802,1,0,0:0:0:0:
36,192,80887,1,2,0:0:0:0:
109,192,80887,1,8,0:0:0:0:
256,192,80887,1,0,0:0:0:0:
402,192,80887,1,0,0:0:0:0:
329,192,80973,1,0,0:0:0:0:
182,192,81059,1,0,0:0:0:0:
475,192,81059,1,0,0:0:0:0:
109,192,81144,1,0,0:0:0:0:
256,192,81144,1,0,0:0:0:0:
36,192,81230,1,2,0:0:0:0:
329,192,81230,1,0,0:0:0:0:
475,192,81230,1,0,0:0:0:0:
402,192,81316,1,0,0:0:0:0:
109,192,81402,1,0,0:0:0:0:
256,192,81402,1,0,0:0:0:0:
182,192,81487,1,0,0:0:0:0:
329,192,81487,1,0,0:0:0:0:
36,192,81573,1,2,0:0:0:0:
256,192,81573,1,8,0:0:0:0:
402,192,81573,1,0,0:0:0:0:
475,192,81573,1,0,0:0:0:0:
109,192,81659,1,0,0:0:0:0:
182,192,81744,1,2,0:0:0:0:
402,192,81744,1,0,0:0:0:0:
329,192,81744,1,0,0:0:0:0:
475,192,81830,1,0,0:0:0:0:
36,192,81916,1,4,0:0:0:0:
109,192,81916,1,2,0:0:0:0:
182,192,81916,1,0,0:0:0:0:
256,192,81916,1,0,0:0:0:0:
329,192,81916,1,0,0:0:0:0:
402,192,82002,1,0,0:0:0:0:
256,192,82087,1,0,0:0:0:0:
475,192,82087,1,0,0:0:0:0:
329,192,82173,1,0,0:0:0:0:
36,192,82259,1,2,0:0:0:0:
109,192,82259,1,4,0:0:0:0:
182,192,82259,1,8,0:0:0:0:
402,192,82259,1,0,0:0:0:0:
475,192,82259,1,0,0:0:0:0:
256,192,82344,1,0,0:0:0:0:
109,192,82430,1,0,0:0:0:0:
329,192,82430,1,0,0:0:0:0:
182,192,82516,1,0,0:0:0:0:
36,192,82602,1,2,0:0:0:0:
256,192,82602,1,4,0:0:0:0:
329,192,82602,1,0,0:0:0:0:
402,192,82602,1,0,0:0:0:0:
475,192,82602,1,0,0:0:0:0:
109,192,82687,1,0,0:0:0:0:
182,192,82773,1,0,0:0:0:0:
329,192,82773,1,0,0:0:0:0:
402,192,82859,1,0,0:0:0:0:
36,192,82944,1,2,0:0:0:0:
182,192,82944,1,0,0:0:0:70:hand_clap.wav
256,192,82944,1,0,0:0:0:0:
475,192,82944,1,0,0:0:0:0:
36,192,83287,1,2,0:0:0:0:
182,192,83287,1,4,0:0:0:0:
329,192,83287,1,0,0:0:0:0:
402,192,83287,1,0,0:0:0:0:
475,192,83287,1,0,0:0:0:0:
256,192,83373,1,0,0:0:0:0:
109,192,83459,1,2,0:0:0:0:
329,192,83459,1,0,0:0:0:0:
402,192,83459,1,0,0:0:0:0:
182,192,83544,1,0,0:0:0:0:
36,192,83630,1,2,0:0:0:0:
256,192,83630,1,8,0:0:0:0:
329,192,83630,1,0,0:0:0:0:
475,192,83630,1,0,0:0:0:0:
182,192,83716,1,0,0:0:0:0:
36,192,83802,1,2,0:0:0:0:
109,192,83802,1,0,0:0:0:0:
329,192,83802,1,0,0:0:0:0:
36,192,83887,1,2,0:0:0:0:
109,192,83887,1,0,0:0:0:0:
256,192,83887,1,0,0:0:0:0:
182,192,83973,1,2,0:0:0:0:
402,192,83973,1,0,0:0:0:0:
475,192,83973,1,0,0:0:0:0:
329,192,84059,1,0,0:0:0:0:
109,192,84144,1,2,0:0:0:0:
256,192,84144,1,0,0:0:0:0:
475,192,84144,1,0,0:0:0:0:
402,192,84230,1,0,0:0:0:0:
36,192,84316,1,0,0:0:0:0:
256,192,84316,1,8,0:0:0:0:
329,192,84316,1,0,0:0:0:0:
475,192,84316,1,0,0:0:0:0:
109,192,84402,1,0,0:0:0:0:
182,192,84487,1,2,0:0:0:0:
256,192,84487,1,0,0:0:0:0:
402,192,84487,1,0,0:0:0:0:
329,192,84573,1,0,0:0:0:0:
36,192,84659,1,2,0:0:0:0:
109,192,84659,1,0,0:0:0:0:
475,192,84659,1,0,0:0:0:0:
256,192,84744,1,0,0:0:0:0:
182,192,84830,1,2,0:0:0:0:
402,192,84830,1,0,0:0:0:0:
475,192,84830,1,0,0:0:0:0:
256,192,84916,1,0,0:0:0:0:
36,192,85002,1,8,0:0:0:0:
109,192,85002,1,0,0:0:0:0:
402,192,85002,1,0,0:0:0:0:
475,192,85002,1,0,0:0:0:0:
329,192,85087,1,0,0:0:0:0:
109,192,85173,1,2,0:0:0:0:
475,192,85173,1,0,0:0:0:0:
256,192,85173,1,0,0:0:0:0:
36,192,85259,1,0,0:0:0:0:
256,192,85344,1,0,0:0:0:0:
182,192,85344,1,0,0:0:0:0:
475,192,85430,1,2,0:0:0:0:
402,192,85430,1,0,0:0:0:0:
109,192,85430,1,0,0:0:0:0:
36,192,85516,1,2,0:0:0:0:
402,192,85516,1,0,0:0:0:0:
475,192,85516,1,0,0:0:0:0:
329,192,85602,1,0,0:0:0:0:
36,192,85687,1,8,0:0:0:0:
109,192,85687,1,0,0:0:0:0:
182,192,85687,1,0,0:0:0:0:
475,192,85687,1,0,0:0:0:0:
256,192,85773,1,0,0:0:0:0:
329,192,85859,1,2,0:0:0:0:
402,192,85859,1,0,0:0:0:0:
475,192,85859,1,0,0:0:0:0:
109,192,85944,1,0,0:0:0:0:
36,192,86030,1,2,0:0:0:0:
182,192,86030,1,0,0:0:0:0:
475,192,86030,1,0,0:0:0:0:
402,192,86116,1,0,0:0:0:0:
36,192,86202,1,2,0:0:0:0:
109,192,86202,1,0,0:0:0:0:
329,192,86202,1,0,0:0:0:0:
256,192,86287,1,0,0:0:0:0:
36,192,86373,1,8,0:0:0:0:
109,192,86373,1,0,0:0:0:0:
402,192,86373,1,0,0:0:0:0:
475,192,86373,1,0,0:0:0:0:
329,192,86416,1,0,0:0:0:0:
256,192,86459,1,0,0:0:0:0:
182,192,86502,1,0,0:0:0:0:
109,192,86544,1,0,0:0:0:0:
402,192,86544,1,0,0:0:0:0:
329,192,86587,1,0,0:0:0:0:
256,192,86630,1,0,0:0:0:0:
182,192,86673,1,0,0:0:0:0:
36,192,86716,1,2,0:0:0:0:
109,192,86716,1,0,0:0:0:0:
475,192,86716,1,0,0:0:0:0:
329,192,86802,1,0,0:0:0:0:
36,192,86887,1,2,0:0:0:0:
109,192,86887,1,0,0:0:0:0:
256,192,86887,1,0,0:0:0:0:
36,192,86973,1,2,0:0:0:0:
109,192,86973,1,0,0:0:0:0:
329,192,86973,1,0,0:0:0:0:
182,192,87059,1,8,0:0:0:0:
402,192,87059,1,0,0:0:0:0:
475,192,87059,1,0,0:0:0:0:
256,192,87059,1,0,0:0:0:0:
36,192,87144,1,0,0:0:0:0:
109,192,87230,1,2,0:0:0:0:
182,192,87230,1,0,0:0:0:0:
402,192,87230,1,0,0:0:0:0:
329,192,87316,1,0,0:0:0:0:
109,192,87402,1,2,0:0:0:0:
256,192,87402,1,0,0:0:0:0:
475,192,87402,1,0,0:0:0:0:
402,192,87487,1,0,0:0:0:0:
36,192,87573,1,2,0:0:0:0:
109,192,87573,1,0,0:0:0:0:
329,192,87573,1,0,0:0:0:0:
182,192,87659,1,0,0:0:0:0:
256,192,87744,1,8,0:0:0:0:
329,192,87744,1,0,0:0:0:0:
402,192,87744,1,0,0:0:0:0:
475,192,87744,1,0,0:0:0:0:
182,192,87787,1,0,0:0:0:0:
109,192,87830,1,0,0:0:0:0:
36,192,87873,1,0,0:0:0:0:
329,192,87916,1,0,0:0:0:0:
402,192,87916,1,0,0:0:0:0:
256,192,87959,1,0,0:0:0:0:
182,192,88002,1,0,0:0:0:0:
109,192,88044,1,0,0:0:0:0:
402,192,88087,1,0,0:0:0:0:
475,192,88087,1,0,0:0:0:0:
36,192,88087,1,2,0:0:0:0:
475,192,88173,1,2,0:0:0:0:
402,192,88173,1,0,0:0:0:0:
329,192,88173,1,0,0:0:0:0:
256,192,88259,1,0,0:0:0:0:
36,192,88344,1,2,0:0:0:0:
182,192,88344,1,0,0:0:0:0:
329,192,88344,1,0,0:0:0:0:
36,192,88430,1,8,0:0:0:0:
182,192,88430,1,0,0:0:0:0:
402,192,88430,1,0,0:0:0:0:
475,192,88430,1,0,0:0:0:0:
256,192,88516,1,0,0:0:0:0:
109,192,88602,1,2,0:0:0:0:
329,192,88602,1,0,0:0:0:0:
475,192,88602,1,0,0:0:0:0:
182,192,88687,1,0,0:0:0:0:
36,192,88773,1,2,0:0:0:0:
256,192,88773,1,0,0:0:0:0:
475,192,88773,1,0,0:0:0:0:
182,192,88859,1,0,0:0:0:0:
36,192,88944,1,2,0:0:0:0:
109,192,88944,1,0,0:0:0:0:
402,192,88944,1,0,0:0:0:0:
329,192,89030,1,0,0:0:0:0:
36,192,89116,1,8,0:0:0:0:
182,192,89116,1,0,0:0:0:0:
256,192,89116,1,0,0:0:0:0:
475,192,89116,1,0,0:0:0:0:
329,192,89202,1,0,0:0:0:0:
36,192,89287,1,2,0:0:0:0:
109,192,89287,1,0,0:0:0:0:
402,192,89287,1,0,0:0:0:0:
475,192,89373,1,2,0:0:0:0:
109,192,89373,1,0,0:0:0:0:
36,192,89373,1,0,0:0:0:0:
402,192,89459,1,2,0:0:0:0:
256,192,89459,1,0,0:0:0:0:
329,192,89459,1,0,0:0:0:0:
182,192,89544,1,0,0:0:0:0:
109,192,89630,1,2,0:0:0:0:
36,192,89630,1,0,0:0:0:0:
402,192,89630,1,0,0:0:0:0:
329,192,89716,1,0,0:0:0:0:
36,192,89802,1,8,0:0:0:0:
109,192,89802,1,0,0:0:0:0:
256,192,89802,1,0,0:0:0:0:
475,192,89802,1,0,0:0:0:0:
402,192,89887,1,0,0:0:0:0:
36,192,89973,1,2,0:0:0:0:
256,192,89973,1,0,0:0:0:0:
329,192,89973,1,0,0:0:0:0:
182,192,90059,1,0,0:0:0:0:
109,192,90144,1,2,0:0:0:0:
402,192,90144,1,0,0:0:0:0:
475,192,90144,1,0,0:0:0:0:
329,192,90230,1,0,0:0:0:0:
36,192,90316,1,2,0:0:0:0:
182,192,90316,1,0,0:0:0:0:
256,192,90316,1,0,0:0:0:0:
329,192,90402,1,0,0:0:0:0:
36,192,90487,1,8,0:0:0:0:
109,192,90487,1,0,0:0:0:0:
402,192,90487,1,0,0:0:0:0:
475,192,90487,1,0,0:0:0:0:
182,192,90573,1,0,0:0:0:0:
475,192,90659,1,2,0:0:0:0:
256,192,90659,1,0,0:0:0:0:
402,192,90659,1,0,0:0:0:0:
182,192,90744,1,0,0:0:0:0:
36,192,90830,1,0,0:0:0:0:
329,192,90916,1,2,0:0:0:0:
109,192,90916,1,0,0:0:0:0:
475,192,90916,1,0,0:0:0:0:
182,192,91002,1,2,0:0:0:0:
475,192,91002,1,0,0:0:0:0:
329,192,91002,1,0,0:0:0:0:
36,192,91087,1,0,0:0:0:0:
109,192,91173,1,8,0:0:0:0:
329,192,91173,1,0,0:0:0:0:
402,192,91173,1,0,0:0:0:0:
475,192,91173,1,0,0:0:0:0:
256,192,91259,1,0,0:0:0:0:
36,192,91344,1,2,0:0:0:0:
109,192,91344,1,0,0:0:0:0:
182,192,91344,1,0,0:0:0:0:
402,192,91430,1,0,0:0:0:0:
36,192,91516,1,2,0:0:0:0:
329,192,91516,1,0,0:0:0:0:
475,192,91516,1,0,0:0:0:0:
109,192,91602,1,0,0:0:0:0:
182,192,91687,1,2,0:0:0:0:
256,192,91687,1,0,0:0:0:0:
475,192,91687,1,0,0:0:0:0:
329,192,91773,1,0,0:0:0:0:
36,192,91859,1,8,0:0:0:0:
109,192,91859,1,0,0:0:0:0:
402,192,91859,1,0,0:0:0:0:
475,192,91859,1,0,0:0:0:0:
182,192,91902,1,0,0:0:0:0:
256,192,91944,1,0,0:0:0:0:
329,192,91987,1,0,0:0:0:0:
402,192,92030,1,0,0:0:0:0:
36,192,92030,1,0,0:0:0:0:
109,192,92073,1,0,0:0:0:0:
182,192,92116,1,0,0:0:0:0:
256,192,92159,1,0,0:0:0:0:
36,192,92202,1,2,0:0:0:0:
475,192,92202,1,0,0:0:0:0:
329,192,92202,1,0,0:0:0:0:
402,192,92287,1,0,0:0:0:0:
109,192,92373,1,2,0:0:0:0:
36,192,92373,1,0,0:0:0:0:
256,192,92373,1,0,0:0:0:0:
36,192,92459,1,2,0:0:0:0:
109,192,92459,1,0,0:0:0:0:
329,192,92459,1,0,0:0:0:0:
182,192,92544,1,8,0:0:0:0:
256,192,92544,1,0,0:0:0:0:
402,192,92544,1,0,0:0:0:0:
475,192,92544,1,0,0:0:0:0:
109,192,92630,1,0,0:0:0:0:
329,192,92716,1,2,0:0:0:0:
402,192,92716,1,0,0:0:0:0:
475,192,92716,1,0,0:0:0:0:
182,192,92802,1,0,0:0:0:0:
36,192,92887,1,2,0:0:0:0:
402,192,92887,1,0,0:0:0:0:
256,192,92887,1,0,0:0:0:0:
109,192,92973,1,0,0:0:0:0:
182,192,93059,1,2,0:0:0:0:
402,192,93059,1,0,0:0:0:0:
475,192,93059,1,0,0:0:0:0:
256,192,93144,1,0,0:0:0:0:
36,192,93230,1,8,0:0:0:0:
402,192,93230,1,0,0:0:0:0:
475,192,93230,1,0,0:0:0:0:
109,192,93230,1,0,0:0:0:0:
329,192,93273,1,0,0:0:0:0:
256,192,93316,1,0,0:0:0:0:
182,192,93359,1,0,0:0:0:0:
109,192,93402,1,0,0:0:0:0:
475,192,93402,1,0,0:0:0:0:
402,192,93444,1,0,0:0:0:0:
329,192,93487,1,0,0:0:0:0:
256,192,93530,1,0,0:0:0:0:
36,192,93573,1,2,0:0:0:0:
109,192,93573,1,0,0:0:0:0:
182,192,93573,1,0,0:0:0:0:
36,192,93659,1,2,0:0:0:0:
109,192,93659,1,0,0:0:0:0:
329,192,93659,1,0,0:0:0:0:
256,192,93744,1,0,0:0:0:0:
182,192,93830,1,2,0:0:0:0:
402,192,93830,1,0,0:0:0:0:
475,192,93830,1,0,0:0:0:0:
36,192,93916,1,8,0:0:0:0:
109,192,93916,1,0,0:0:0:0:
402,192,93916,1,0,0:0:0:0:
475,192,93916,1,0,0:0:0:0:
256,192,94002,1,0,0:0:0:0:
36,192,94087,1,2,0:0:0:0:
182,192,94087,1,0,0:0:0:0:
402,192,94087,1,0,0:0:0:0:
329,192,94173,1,0,0:0:0:0:
36,192,94259,1,2,0:0:0:0:
109,192,94259,1,4,0:0:0:0:
182,192,94259,1,0,0:0:0:0:
256,192,94259,1,0,0:0:0:0:
475,192,94259,1,0,0:0:0:0:
402,192,94344,1,0,0:0:0:0:
36,192,94430,1,0,0:0:0:0:
182,192,94430,1,0,0:0:0:0:
109,192,94516,1,0,0:0:0:0:
329,192,94516,1,0,0:0:0:0:
182,192,94602,1,2,0:0:0:0:
256,192,94602,1,8,0:0:0:0:
402,192,94602,1,0,0:0:0:0:
475,192,94602,1,0,0:0:0:0:
36,192,94687,1,0,0:0:0:0:
109,192,94773,1,0,0:0:0:0:
329,192,94773,1,0,0:0:0:0:
256,192,94859,1,0,0:0:0:0:
402,192,94859,1,0,0:0:0:0:
36,192,94944,1,2,0:0:0:0:
182,192,94944,1,0,0:0:0:0:
475,192,94944,1,0,0:0:0:0:
329,192,95030,1,0,0:0:0:0:
109,192,95116,1,0,0:0:0:0:
402,192,95116,1,0,0:0:0:0:
256,192,95202,1,0,0:0:0:0:
475,192,95202,1,0,0:0:0:0:
36,192,95287,1,2,0:0:0:0:
109,192,95287,1,8,0:0:0:0:
329,192,95287,1,0,0:0:0:0:
402,192,95287,1,0,0:0:0:0:
182,192,95373,1,0,0:0:0:0:
329,192,95459,1,0,0:0:0:0:
475,192,95459,1,0,0:0:0:0:
109,192,95544,1,0,0:0:0:0:
256,192,95544,1,0,0:0:0:0:
36,192,95630,1,2,0:0:0:0:
402,192,95630,1,0,0:0:0:0:
475,192,95630,1,0,0:0:0:0:
256,192,95716,1,0,0:0:0:0:
109,192,95802,1,0,0:0:0:0:
329,192,95802,1,0,0:0:0:0:
182,192,95887,1,0,0:0:0:0:
475,192,95887,1,0,0:0:0:0:
36,192,95973,1,2,0:0:0:0:
256,192,95973,1,8,0:0:0:0:
329,192,95973,1,0,0:0:0:0:
402,192,95973,1,0,0:0:0:0:
109,192,96059,1,0,0:0:0:0:
475,192,96144,1,0,0:0:0:0:
402,192,96144,1,0,0:0:0:0:
36,192,96230,1,0,0:0:0:0:
256,192,96230,1,0,0:0:0:0:
182,192,96316,1,2,0:0:0:0:
402,192,96316,1,0,0:0:0:0:
329,192,96316,1,0,0:0:0:0:
475,192,96402,1,0,0:0:0:0:
109,192,96487,1,0,0:0:0:0:
256,192,96487,1,0,0:0:0:0:
182,192,96573,1,0,0:0:0:0:
402,192,96573,1,0,0:0:0:0:
36,192,96659,1,2,0:0:0:0:
329,192,96659,1,8,0:0:0:0:
475,192,96659,1,0,0:0:0:0:
109,192,96659,1,0,0:0:0:0:
256,192,96744,1,0,0:0:0:0:
36,192,96830,1,2,0:0:0:0:
182,192,96830,1,0,0:0:0:0:
402,192,96830,1,0,0:0:0:0:
329,192,96916,1,0,0:0:0:0:
109,192,97002,1,2,0:0:0:0:
256,192,97002,1,0,0:0:0:0:
475,192,97002,1,0,0:0:0:0:
182,192,97087,1,0,0:0:0:0:
36,192,97173,1,0,0:0:0:0:
402,192,97173,1,0,0:0:0:0:
182,192,97259,1,0,0:0:0:0:
329,192,97259,1,0,0:0:0:0:
36,192,97344,1,2,0:0:0:0:
109,192,97344,1,8,0:0:0:0:
256,192,97344,1,0,0:0:0:0:
475,192,97344,1,0,0:0:0:0:
329,192,97430,1,0,0:0:0:0:
109,192,97516,1,0,0:0:0:0:
402,192,97516,1,0,0:0:0:0:
36,192,97602,1,0,0:0:0:0:
256,192,97602,1,0,0:0:0:0:
182,192,97687,1,2,0:0:0:0:
402,192,97687,1,0,0:0:0:0:
475,192,97687,1,0,0:0:0:0:
329,192,97773,1,0,0:0:0:0:
36,192,97859,1,0,0:0:0:0:
109,192,97859,1,0,0:0:0:0:
256,192,97944,1,0,0:0:0:0:
402,192,97944,1,0,0:0:0:0:
36,192,98030,1,2,0:0:0:0:
182,192,98030,1,8,0:0:0:0:
329,192,98030,1,0,0:0:0:0:
475,192,98030,1,0,0:0:0:0:
109,192,98116,1,0,0:0:0:0:
256,192,98202,1,2,0:0:0:0:
402,192,98202,1,0,0:0:0:0:
475,192,98202,1,0,0:0:0:0:
329,192,98287,1,0,0:0:0:0:
36,192,98373,1,2,0:0:0:0:
109,192,98373,1,0,0:0:0:0:
475,192,98373,1,0,0:0:0:0:
256,192,98459,1,0,0:0:0:0:
36,192,98544,1,0,0:0:0:0:
329,192,98544,1,0,0:0:0:0:
182,192,98630,1,0,0:0:0:0:
475,192,98630,1,0,0:0:0:0:
36,192,98716,1,2,0:0:0:0:
109,192,98716,1,8,0:0:0:0:
256,192,98716,1,0,0:0:0:0:
402,192,98716,1,0,0:0:0:0:
329,192,98802,1,0,0:0:0:0:
182,192,98887,1,0,0:0:0:0:
475,192,98887,1,0,0:0:0:0:
36,192,98973,1,0,0:0:0:0:
256,192,98973,1,0,0:0:0:0:
182,192,99059,1,2,0:0:0:0:
329,192,99059,1,0,0:0:0:0:
475,192,99059,1,0,0:0:0:0:
109,192,99144,1,0,0:0:0:0:
256,192,99230,1,0,0:0:0:0:
402,192,99230,1,0,0:0:0:0:
36,192,99316,1,2,0:0:0:0:
109,192,99316,1,0,0:0:0:0:
329,192,99316,1,0,0:0:0:0:
182,192,99402,1,2,0:0:0:0:
256,192,99402,1,8,0:0:0:0:
402,192,99402,1,0,0:0:0:0:
475,192,99402,1,0,0:0:0:0:
36,192,99487,1,0,0:0:0:0:
109,192,99573,1,2,0:0:0:0:
329,192,99573,1,0,0:0:0:0:
475,192,99573,1,0,0:0:0:0:
256,192,99659,1,0,0:0:0:0:
36,192,99744,1,2,0:0:0:0:
182,192,99744,1,0,0:0:0:0:
475,192,99744,1,0,0:0:0:0:
329,192,99830,1,0,0:0:0:0:
109,192,99916,1,0,0:0:0:0:
256,192,99916,1,0,0:0:0:0:
402,192,100002,1,0,0:0:0:0:
36,192,100087,1,2,0:0:0:0:
109,192,100087,1,8,0:0:0:0:
329,192,100087,1,0,0:0:0:0:
475,192,100087,1,0,0:0:0:0:
182,192,100173,1,0,0:0:0:0:
36,192,100259,1,0,0:0:0:0:
402,192,100259,1,0,0:0:0:0:
109,192,100344,1,0,0:0:0:0:
256,192,100344,1,0,0:0:0:0:
36,192,100430,1,2,0:0:0:0:
329,192,100430,1,0,0:0:0:0:
475,192,100430,1,0,0:0:0:0:
182,192,100516,1,0,0:0:0:0:
109,192,100602,1,0,0:0:0:0:
475,192,100602,1,0,0:0:0:0:
182,192,100687,1,0,0:0:0:0:
329,192,100687,1,0,0:0:0:0:
36,192,100773,1,2,0:0:0:0:
109,192,100773,1,8,0:0:0:0:
256,192,100773,1,0,0:0:0:0:
475,192,100773,1,0,0:0:0:0:
402,192,100859,1,0,0:0:0:0:
36,192,100944,1,0,0:0:0:0:
182,192,100944,1,0,0:0:0:0:
256,192,101030,1,0,0:0:0:0:
402,192,101030,1,0,0:0:0:0:
36,192,101116,1,2,0:0:0:0:
109,192,101116,1,0,0:0:0:0:
475,192,101116,1,0,0:0:0:0:
329,192,101202,1,0,0:0:0:0:
36,192,101287,1,0,0:0:0:0:
182,192,101287,1,0,0:0:0:0:
256,192,101373,1,0,0:0:0:0:
402,192,101373,1,0,0:0:0:0:
36,192,101459,1,2,0:0:0:0:
109,192,101459,1,8,0:0:0:0:
329,192,101459,1,0,0:0:0:0:
475,192,101459,1,0,0:0:0:0:
182,192,101544,1,0,0:0:0:0:
329,192,101630,1,0,0:0:0:0:
475,192,101630,1,0,0:0:0:0:
36,192,101716,1,0,0:0:0:0:
256,192,101716,1,0,0:0:0:0:
109,192,101802,1,2,0:0:0:0:
182,192,101802,1,0,0:0:0:0:
475,192,101802,1,0,0:0:0:0:
402,192,101887,1,0,0:0:0:0:
36,192,101973,1,0,0:0:0:0:
256,192,101973,1,0,0:0:0:0:
109,192,102059,1,0,0:0:0:0:
402,192,102059,1,0,0:0:0:0:
182,192,102144,1,2,0:0:0:0:
256,192,102144,1,8,0:0:0:0:
329,192,102144,1,0,0:0:0:0:
475,192,102144,1,0,0:0:0:0:
402,192,102230,1,0,0:0:0:0:
36,192,102316,1,2,0:0:0:0:
109,192,102316,1,0,0:0:0:0:
329,192,102316,1,0,0:0:0:0:
182,192,102402,1,0,0:0:0:0:
36,192,102487,1,2,0:0:0:0:
329,192,102487,1,0,0:0:0:0:
475,192,102487,1,0,0:0:0:0:
256,192,102573,1,0,0:0:0:0:
109,192,102659,1,0,0:0:0:0:
475,192,102659,1,0,0:0:0:0:
256,192,102744,1,0,0:0:0:0:
402,192,102744,1,0,0:0:0:0:
36,192,102830,1,2,0:0:0:0:
109,192,102830,1,8,0:0:0:0:
182,192,102830,1,0,0:0:0:0:
475,192,102830,1,0,0:0:0:0:
329,192,102916,1,0,0:0:0:0:
36,192,103002,1,0,0:0:0:0:
256,192,103002,1,0,0:0:0:0:
182,192,103087,1,0,0:0:0:0:
402,192,103087,1,0,0:0:0:0:
109,192,103173,1,2,0:0:0:0:
329,192,103173,1,0,0:0:0:0:
475,192,103173,1,0,0:0:0:0:
256,192,103259,1,0,0:0:0:0:
36,192,103344,1,0,0:0:0:0:
402,192,103344,1,0,0:0:0:0:
109,192,103430,1,0,0:0:0:0:
256,192,103430,1,0,0:0:0:0:
182,192,103516,1,2,0:0:0:0:
329,192,103516,1,8,0:0:0:0:
402,192,103516,1,0,0:0:0:0:
475,192,103516,1,0,0:0:0:0:
36,192,103602,1,0,0:0:0:0:
256,192,103687,1,0,0:0:0:0:
402,192,103687,1,0,0:0:0:0:
109,192,103773,1,0,0:0:0:0:
475,192,103773,1,0,0:0:0:0:
36,192,103859,1,4,0:0:0:0:
182,192,103859,1,0,0:0:0:0:
256,192,103859,1,0,0:0:0:0:
329,192,103859,1,0,0:0:0:0:
402,192,103944,1,0,0:0:0:0:
475,192,103944,1,0,0:0:0:0:
109,192,104030,1,0,0:0:0:0:
182,192,104030,1,0,0:0:0:0:
36,192,104202,128,0,104287:0:0:0:0:
475,192,104202,128,0,104287:0:0:0:0:
329,192,104202,128,8,104287:0:0:0:0:
402,192,104202,128,0,104287:0:0:0:0:
182,192,104373,1,0,0:0:0:0:
109,192,104459,1,0,0:0:0:0:
36,192,104459,1,0,0:0:0:0:
329,192,104544,1,0,0:0:0:0:
475,192,104544,1,0,0:0:0:0:
182,192,104630,1,0,0:0:0:0:
109,192,104630,1,0,0:0:0:0:
256,192,104716,1,0,0:0:0:0:
36,192,104716,1,0,0:0:0:0:
329,192,104887,128,8,104973:0:0:0:0:
402,192,104887,128,0,104973:0:0:0:0:
475,192,104887,128,0,104973:0:0:0:0:
109,192,104887,128,0,104973:0:0:0:0:
182,192,105059,1,0,0:0:0:0:
329,192,105144,1,0,0:0:0:0:
402,192,105144,1,0,0:0:0:0:
36,192,105230,128,4,105402:0:0:0:0:
109,192,105230,1,2,0:0:0:0:
182,192,105230,1,0,0:0:0:0:
256,192,105230,1,0,0:0:0:0:
475,192,105230,1,0,0:0:0:0:
329,192,105316,1,0,0:0:0:0:
109,192,105402,1,0,0:0:0:0:
402,192,105402,1,0,0:0:0:0:
256,192,105487,1,0,0:0:0:0:
36,192,105573,128,2,105744:0:0:0:0:
109,192,105573,1,8,0:0:0:0:
329,192,105573,1,0,0:0:0:0:
475,192,105573,1,0,0:0:0:0:
402,192,105659,1,0,0:0:0:0:
182,192,105744,128,0,105916:0:0:0:0:
256,192,105744,1,0,0:0:0:0:
109,192,105830,1,0,0:0:0:0:
36,192,105916,1,2,0:0:0:0:
329,192,105916,1,0,0:0:0:0:
475,192,105916,128,0,106087:0:0:0:0:
402,192,106002,1,0,0:0:0:0:
109,192,106087,1,0,0:0:0:0:
256,192,106087,1,0,0:0:0:0:
329,192,106173,1,0,0:0:0:0:
36,192,106259,1,2,0:0:0:0:
182,192,106259,128,8,106430:0:0:0:0:
402,192,106259,1,0,0:0:0:0:
475,192,106259,1,0,0:0:0:0:
256,192,106344,1,0,0:0:0:0:
329,192,106430,128,0,106602:0:0:0:0:
402,192,106430,1,0,0:0:0:0:
109,192,106516,1,0,0:0:0:0:
36,192,106602,1,2,0:0:0:0:
256,192,106602,1,0,0:0:0:0:
475,192,106602,128,0,106773:0:0:0:0:
182,192,106687,1,0,0:0:0:0:
36,192,106773,1,0,0:0:0:0:
402,192,106773,1,0,0:0:0:0:
256,192,106859,1,0,0:0:0:0:
36,192,106944,1,2,0:0:0:0:
109,192,106944,128,8,107116:0:0:0:0:
402,192,106944,1,0,0:0:0:0:
475,192,106944,1,0,0:0:0:0:
329,192,107030,1,0,0:0:0:0:
256,192,107116,128,0,107287:0:0:0:0:
475,192,107116,1,0,0:0:0:0:
402,192,107202,1,0,0:0:0:0:
36,192,107287,1,2,0:0:0:0:
109,192,107287,1,0,0:0:0:0:
475,192,107287,128,0,107459:0:0:0:0:
182,192,107373,1,0,0:0:0:0:
256,192,107459,1,0,0:0:0:0:
402,192,107459,128,0,107630:0:0:0:0:
109,192,107544,1,0,0:0:0:0:
36,192,107630,1,2,0:0:0:0:
256,192,107630,1,8,0:0:0:0:
329,192,107630,128,0,107802:0:0:0:0:
475,192,107630,1,0,0:0:0:0:
182,192,107716,1,0,0:0:0:0:
109,192,107802,1,2,0:0:0:0:
256,192,107802,128,0,107973:0:0:0:0:
475,192,107802,1,0,0:0:0:0:
402,192,107887,1,0,0:0:0:0:
36,192,107973,128,2,108144:0:0:0:0:
182,192,107973,1,0,0:0:0:0:
329,192,107973,1,0,0:0:0:0:
402,192,108059,1,0,0:0:0:0:
256,192,108144,1,0,0:0:0:0:
475,192,108144,1,0,0:0:0:0:
109,192,108230,1,0,0:0:0:0:
36,192,108316,1,2,0:0:0:0:
256,192,108316,128,8,108487:0:0:0:0:
329,192,108316,1,0,0:0:0:0:
402,192,108316,1,0,0:0:0:0:
475,192,108402,1,0,0:0:0:0:
109,192,108487,1,0,0:0:0:0:
402,192,108487,128,0,108659:0:0:0:0:
182,192,108573,1,0,0:0:0:0:
36,192,108659,128,2,108830:0:0:0:0:
329,192,108659,1,0,0:0:0:0:
475,192,108659,1,0,0:0:0:0:
256,192,108744,1,0,0:0:0:0:
109,192,108830,1,0,0:0:0:0:
475,192,108830,1,0,0:0:0:0:
329,192,108916,1,0,0:0:0:0:
36,192,109002,1,2,0:0:0:0:
182,192,109002,1,8,0:0:0:0:
256,192,109002,128,0,109173:0:0:0:0:
402,192,109002,1,0,0:0:0:0:
475,192,109087,1,0,0:0:0:0:
36,192,109173,1,0,0:0:0:0:
329,192,109173,128,0,109344:0:0:0:0:
109,192,109259,1,0,0:0:0:0:
182,192,109344,1,2,0:0:0:0:
475,192,109344,128,0,109516:0:0:0:0:
256,192,109344,1,0,0:0:0:0:
402,192,109430,1,0,0:0:0:0:
36,192,109516,1,0,0:0:0:0:
256,192,109516,1,0,0:0:0:0:
109,192,109602,1,0,0:0:0:0:
182,192,109687,1,2,0:0:0:0:
329,192,109687,1,8,0:0:0:0:
402,192,109687,128,0,109859:0:0:0:0:
475,192,109687,1,0,0:0:0:0:
36,192,109773,1,0,0:0:0:0:
109,192,109859,1,0,0:0:0:0:
256,192,109859,128,0,110030:0:0:0:0:
329,192,109944,1,0,0:0:0:0:
36,192,110030,128,2,110202:0:0:0:0:
402,192,110030,1,0,0:0:0:0:
475,192,110030,1,0,0:0:0:0:
182,192,110116,1,0,0:0:0:0:
109,192,110202,128,0,110373:0:0:0:0:
256,192,110202,1,0,0:0:0:0:
329,192,110287,1,2,0:0:0:0:
402,192,110287,1,0,0:0:0:0:
475,192,110287,1,0,0:0:0:0:
36,192,110373,1,2,0:0:0:0:
182,192,110373,128,8,110544:0:0:0:0:
402,192,110373,1,0,0:0:0:0:
475,192,110373,1,0,0:0:0:0:
256,192,110459,1,0,0:0:0:0:
36,192,110544,1,2,0:0:0:0:
329,192,110544,128,0,110716:0:0:0:0:
475,192,110544,1,0,0:0:0:0:
256,192,110630,1,0,0:0:0:0:
36,192,110716,1,2,0:0:0:0:
109,192,110716,1,0,0:0:0:0:
475,192,110716,128,0,110887:0:0:0:0:
182,192,110802,1,0,0:0:0:0:
36,192,110887,1,0,0:0:0:0:
402,192,110887,1,0,0:0:0:0:
256,192,110973,1,0,0:0:0:0:
36,192,111059,1,2,0:0:0:0:
109,192,111059,1,8,0:0:0:0:
182,192,111059,128,0,111230:0:0:0:0:
475,192,111059,1,0,0:0:0:0:
402,192,111144,1,0,0:0:0:0:
109,192,111230,1,0,0:0:0:0:
329,192,111230,128,0,111402:0:0:0:0:
256,192,111316,1,0,0:0:0:0:
36,192,111402,1,2,0:0:0:0:
109,192,111402,128,0,111573:0:0:0:0:
475,192,111402,1,0,0:0:0:0:
182,192,111487,1,0,0:0:0:0:
402,192,111573,1,0,0:0:0:0:
475,192,111573,1,0,0:0:0:0:
256,192,111659,1,0,0:0:0:0:
36,192,111744,1,2,0:0:0:0:
109,192,111744,1,8,0:0:0:0:
329,192,111744,128,0,111916:0:0:0:0:
475,192,111744,1,0,0:0:0:0:
256,192,111830,1,0,0:0:0:0:
109,192,111916,1,0,0:0:0:0:
475,192,111916,128,0,112087:0:0:0:0:
256,192,112002,1,0,0:0:0:0:
36,192,112087,128,2,112259:0:0:0:0:
109,192,112087,1,0,0:0:0:0:
329,192,112087,1,0,0:0:0:0:
182,192,112173,1,0,0:0:0:0:
329,192,112259,1,0,0:0:0:0:
475,192,112259,1,0,0:0:0:0:
182,192,112344,1,0,0:0:0:0:
36,192,112430,1,2,0:0:0:0:
109,192,112430,1,8,0:0:0:0:
256,192,112430,128,0,112602:0:0:0:0:
402,192,112430,1,0,0:0:0:0:
329,192,112516,1,0,0:0:0:0:
402,192,112602,128,0,112773:0:0:0:0:
475,192,112602,1,0,0:0:0:0:
109,192,112687,1,0,0:0:0:0:
36,192,112773,1,2,0:0:0:0:
182,192,112773,128,0,112944:0:0:0:0:
329,192,112773,1,0,0:0:0:0:
256,192,112859,1,0,0:0:0:0:
329,192,112944,128,0,113116:0:0:0:0:
475,192,112944,1,0,0:0:0:0:
402,192,113030,1,0,0:0:0:0:
36,192,113116,1,2,0:0:0:0:
109,192,113116,128,8,113287:0:0:0:0:
182,192,113116,1,0,0:0:0:0:
256,192,113116,1,0,0:0:0:0:
402,192,113202,1,0,0:0:0:0:
182,192,113287,128,2,113459:0:0:0:0:
256,192,113287,1,0,0:0:0:0:
475,192,113287,1,0,0:0:0:0:
329,192,113373,1,0,0:0:0:0:
402,192,113459,1,0,0:0:0:0:
109,192,113459,1,4,0:0:0:0:
109,192,113630,1,0,0:0:0:0:
402,192,113630,1,0,0:0:0:0:
256,192,113630,1,2,0:0:0:0:
36,192,113802,128,2,113973:0:0:0:0:
109,192,113802,1,8,0:0:0:0:
402,192,113802,1,0,0:0:0:0:
475,192,113802,1,0,0:0:0:0:
329,192,113887,1,0,0:0:0:0:
182,192,113973,1,0,0:0:0:0:
256,192,113973,128,0,114144:0:0:0:0:
475,192,114059,1,0,0:0:0:0:
36,192,114144,1,2,0:0:0:0:
109,192,114144,1,0,0:0:0:0:
402,192,114144,128,0,114316:0:0:0:0:
182,192,114230,1,0,0:0:0:0:
36,192,114316,1,0,0:0:0:0:
329,192,114316,1,0,0:0:0:0:
256,192,114402,1,0,0:0:0:0:
109,192,114487,1,2,0:0:0:0:
182,192,114487,128,8,114659:0:0:0:0:
402,192,114487,1,0,0:0:0:0:
475,192,114487,1,0,0:0:0:0:
36,192,114573,1,0,0:0:0:0:
329,192,114659,128,2,114830:0:0:0:0:
402,192,114659,1,0,0:0:0:0:
475,192,114659,1,0,0:0:0:0:
256,192,114744,1,0,0:0:0:0:
109,192,114830,1,2,0:0:0:0:
182,192,114830,1,0,0:0:0:0:
36,192,114830,128,0,115002:0:0:0:0:
402,192,114916,1,0,0:0:0:0:
475,192,115002,1,2,0:0:0:0:
256,192,115002,1,0,0:0:0:0:
329,192,115002,1,0,0:0:0:0:
109,192,115087,1,2,0:0:0:0:
182,192,115087,1,0,0:0:0:0:
402,192,115087,1,0,0:0:0:0:
36,192,115173,1,8,0:0:0:0:
256,192,115173,1,2,0:0:0:0:
329,192,115173,1,0,0:0:0:0:
475,192,115173,128,0,115344:0:0:0:0:
182,192,115259,1,0,0:0:0:0:
36,192,115344,128,2,115516:0:0:0:0:
109,192,115344,1,0,0:0:0:0:
402,192,115344,1,0,0:0:0:0:
329,192,115430,1,0,0:0:0:0:
109,192,115516,1,2,0:0:0:0:
256,192,115516,1,0,0:0:0:0:
475,192,115516,128,0,115687:0:0:0:0:
402,192,115602,128,0,115773:0:0:0:0:
36,192,115687,1,0,0:0:0:0:
329,192,115687,128,0,115859:0:0:0:0:
256,192,115773,128,0,115859:0:0:0:0:
36,192,115859,128,2,116030:0:0:0:0:
182,192,115859,1,8,0:0:0:0:
402,192,115859,1,0,0:0:0:0:
475,192,115859,1,0,0:0:0:0:
109,192,115944,128,0,116116:0:0:0:0:
182,192,116030,128,0,116202:0:0:0:0:
475,192,116030,1,0,0:0:0:0:
256,192,116116,128,0,116202:0:0:0:0:
36,192,116202,1,2,0:0:0:0:
329,192,116202,1,4,0:0:0:0:
475,192,116202,128,0,116373:0:0:0:0:
402,192,116202,1,0,0:0:0:0:
109,192,116202,1,0,0:0:0:0:
182,192,116287,1,0,0:0:0:0:
402,192,116373,1,0,0:0:0:0:
256,192,116373,1,0,0:0:0:0:
182,192,116459,1,0,0:0:0:0:
36,192,116544,128,2,116887:0:0:0:0:
109,192,116544,1,8,0:0:0:0:
402,192,116544,1,0,0:0:0:0:
475,192,116544,1,0,0:0:0:0:
329,192,116630,1,0,0:0:0:0:
256,192,116716,128,0,116887:0:0:0:0:
475,192,116716,1,0,0:0:0:0:
109,192,116802,1,0,0:0:0:0:
329,192,116887,1,2,0:0:0:0:
402,192,116887,128,0,117059:0:0:0:0:
475,192,116887,1,0,0:0:0:0:
182,192,116973,1,0,0:0:0:0:
36,192,117059,1,0,0:0:0:0:
256,192,117059,1,0,0:0:0:0:
475,192,117144,1,0,0:0:0:0:
36,192,117230,1,2,0:0:0:0:
109,192,117230,1,8,0:0:0:0:
182,192,117230,1,0,0:0:0:0:
329,192,117230,128,0,117573:0:0:0:0:
402,192,117316,1,0,0:0:0:0:
109,192,117402,128,0,117573:0:0:0:0:
475,192,117402,1,0,0:0:0:0:
256,192,117487,1,0,0:0:0:0:
36,192,117573,1,2,0:0:0:0:
402,192,117573,1,0,0:0:0:0:
475,192,117573,128,0,117744:0:0:0:0:
256,192,117659,1,0,0:0:0:0:
36,192,117744,1,0,0:0:0:0:
329,192,117744,1,0,0:0:0:0:
182,192,117830,1,0,0:0:0:0:
36,192,117916,128,2,118259:0:0:0:0:
256,192,117916,1,8,0:0:0:0:
402,192,117916,1,0,0:0:0:0:
475,192,117916,1,0,0:0:0:0:
329,192,118002,1,0,0:0:0:0:
182,192,118087,128,0,118259:0:0:0:0:
475,192,118087,1,0,0:0:0:0:
256,192,118173,1,0,0:0:0:0:
109,192,118259,1,2,0:0:0:0:
402,192,118259,128,0,118602:0:0:0:0:
475,192,118259,1,0,0:0:0:0:
329,192,118344,1,0,0:0:0:0:
36,192,118430,1,0,0:0:0:0:
256,192,118430,128,0,118602:0:0:0:0:
182,192,118516,1,0,0:0:0:0:
329,192,118602,1,8,0:0:0:0:
475,192,118602,1,0,0:0:0:0:
109,192,118602,128,0,118773:0:0:0:0:
36,192,118602,1,2,0:0:0:0:
182,192,118687,128,0,118859:0:0:0:0:
256,192,118773,128,2,118944:0:0:0:0:
402,192,118773,1,0,0:0:0:0:
475,192,118773,1,0,0:0:0:0:
329,192,118859,128,0,118944:0:0:0:0:
36,192,118944,1,2,0:0:0:0:
402,192,118944,1,0,0:0:0:0:
475,192,118944,128,0,119116:0:0:0:0:
182,192,119030,1,0,0:0:0:0:
109,192,119116,1,0,0:0:0:0:
402,192,119116,1,0,0:0:0:0:
329,192,119202,1,0,0:0:0:0:
36,192,119287,1,8,0:0:0:0:
182,192,119287,128,2,119630:0:0:0:0:
256,192,119287,1,0,0:0:0:0:
475,192,119287,1,0,0:0:0:0:
329,192,119373,1,0,0:0:0:0:
109,192,119459,1,0,0:0:0:0:
402,192,119459,128,0,119630:0:0:0:0:
256,192,119544,1,0,0:0:0:0:
36,192,119630,128,2,119802:0:0:0:0:
109,192,119630,1,0,0:0:0:0:
475,192,119630,1,0,0:0:0:0:
329,192,119716,1,0,0:0:0:0:
256,192,119802,1,0,0:0:0:0:
475,192,119802,1,0,0:0:0:0:
109,192,119887,1,0,0:0:0:0:
36,192,119973,1,2,0:0:0:0:
329,192,119973,128,8,120316:0:0:0:0:
402,192,119973,1,0,0:0:0:0:
475,192,119973,1,0,0:0:0:0:
182,192,120059,1,0,0:0:0:0:
36,192,120144,128,0,120316:0:0:0:0:
475,192,120144,1,0,0:0:0:0:
109,192,120230,1,0,0:0:0:0:
182,192,120316,1,2,0:0:0:0:
402,192,120316,1,0,0:0:0:0:
475,192,120316,128,0,120487:0:0:0:0:
256,192,120402,1,0,0:0:0:0:
36,192,120487,1,0,0:0:0:0:
329,192,120487,1,0,0:0:0:0:
182,192,120573,1,0,0:0:0:0:
36,192,120659,128,2,121002:0:0:0:0:
256,192,120659,1,8,0:0:0:0:
475,192,120659,1,0,0:0:0:0:
109,192,120659,1,0,0:0:0:0:
329,192,120744,1,0,0:0:0:0:
182,192,120830,1,0,0:0:0:0:
402,192,120830,128,0,121002:0:0:0:0:
109,192,120916,1,0,0:0:0:0:
256,192,121002,1,2,0:0:0:0:
329,192,121002,1,0,0:0:0:0:
475,192,121002,128,0,121344:0:0:0:0:
182,192,121087,1,0,0:0:0:0:
402,192,121173,128,0,121344:0:0:0:0:
329,192,121173,1,0,0:0:0:0:
109,192,121259,1,0,0:0:0:0:
256,192,121259,1,0,0:0:0:0:
36,192,121259,1,2,0:0:0:0:
329,192,121344,128,8,121516:0:0:0:0:
36,192,121344,1,2,0:0:0:0:
109,192,121344,1,0,0:0:0:0:
182,192,121344,1,0,0:0:0:0:
256,192,121430,128,0,121602:0:0:0:0:
182,192,121516,128,0,121687:0:0:0:0:
475,192,121516,1,0,0:0:0:0:
36,192,121516,1,2,0:0:0:0:
109,192,121602,128,0,121687:0:0:0:0:
36,192,121687,1,2,0:0:0:0:
402,192,121687,1,0,0:0:0:0:
475,192,121687,128,0,121859:0:0:0:0:
329,192,121773,1,0,0:0:0:0:
109,192,121859,1,0,0:0:0:0:
256,192,121859,1,0,0:0:0:0:
402,192,121944,1,0,0:0:0:0:
36,192,122030,1,2,0:0:0:0:
109,192,122030,1,8,0:0:0:0:
182,192,122030,128,0,122373:0:0:0:0:
475,192,122030,1,0,0:0:0:0:
329,192,122116,1,0,0:0:0:0:
36,192,122202,1,0,0:0:0:0:
402,192,122202,128,0,122373:0:0:0:0:
329,192,122287,1,0,0:0:0:0:
109,192,122373,1,2,0:0:0:0:
256,192,122373,128,0,122544:0:0:0:0:
475,192,122373,1,0,0:0:0:0:
36,192,122459,1,0,0:0:0:0:
182,192,122544,1,0,0:0:0:0:
475,192,122544,1,0,0:0:0:0:
329,192,122630,1,0,0:0:0:0:
36,192,122716,128,2,123059:0:0:0:0:
182,192,122716,1,8,0:0:0:0:
402,192,122716,1,0,0:0:0:0:
475,192,122716,1,0,0:0:0:0:
109,192,122802,1,0,0:0:0:0:
329,192,122887,128,0,123059:0:0:0:0:
475,192,122887,1,0,0:0:0:0:
182,192,122973,1,0,0:0:0:0:
109,192,123059,1,2,0:0:0:0:
402,192,123059,128,0,123230:0:0:0:0:
475,192,123059,1,0,0:0:0:0:
256,192,123144,1,0,0:0:0:0:
36,192,123230,1,0,0:0:0:0:
182,192,123230,1,0,0:0:0:0:
329,192,123316,1,0,0:0:0:0:
109,192,123402,1,2,0:0:0:0:
182,192,123402,128,8,123744:0:0:0:0:
402,192,123402,1,0,0:0:0:0:
475,192,123402,1,0,0:0:0:0:
329,192,123487,1,0,0:0:0:0:
36,192,123573,1,0,0:0:0:0:
475,192,123573,128,0,123744:0:0:0:0:
256,192,123659,1,0,0:0:0:0:
36,192,123744,1,2,0:0:0:0:
109,192,123744,1,0,0:0:0:0:
402,192,123744,128,0,123916:0:0:0:0:
329,192,123830,128,0,124002:0:0:0:0:
256,192,123916,128,0,124087:0:0:0:0:
109,192,123916,1,0,0:0:0:0:
182,192,124002,128,0,124087:0:0:0:0:
36,192,124087,128,8,124259:0:0:0:0:
402,192,124087,1,0,0:0:0:0:
475,192,124087,1,0,0:0:0:0:
329,192,124087,1,0,0:0:0:0:
109,192,124173,128,0,124344:0:0:0:0:
182,192,124259,128,2,124430:0:0:0:0:
402,192,124259,1,0,0:0:0:0:
475,192,124259,1,0,0:0:0:0:
256,192,124344,128,0,124430:0:0:0:0:
36,192,124430,128,2,124602:0:0:0:0:
402,192,124430,1,0,0:0:0:0:
475,192,124430,1,0,0:0:0:0:
109,192,124516,1,0,0:0:0:0:
182,192,124602,1,0,0:0:0:0:
329,192,124602,1,0,0:0:0:0:
256,192,124687,1,0,0:0:0:0:
36,192,124773,1,2,0:0:0:0:
109,192,124773,1,8,0:0:0:0:
402,192,124773,128,0,125116:0:0:0:0:
475,192,124773,1,0,0:0:0:0:
329,192,124859,1,0,0:0:0:0:
36,192,124944,1,0,0:0:0:0:
182,192,124944,128,0,125116:0:0:0:0:
256,192,125030,1,0,0:0:0:0:
109,192,125116,1,2,0:0:0:0:
329,192,125116,128,0,125287:0:0:0:0:
475,192,125116,1,0,0:0:0:0:
256,192,125202,1,0,0:0:0:0:
36,192,125287,1,0,0:0:0:0:
182,192,125287,1,0,0:0:0:0:
475,192,125373,1,0,0:0:0:0:
36,192,125459,1,2,0:0:0:0:
109,192,125459,1,8,0:0:0:0:
182,192,125459,1,0,0:0:0:0:
402,192,125459,128,0,125802:0:0:0:0:
329,192,125544,1,0,0:0:0:0:
109,192,125630,1,0,0:0:0:0:
256,192,125630,128,0,125802:0:0:0:0:
475,192,125716,1,0,0:0:0:0:
36,192,125802,1,0,0:0:0:0:
109,192,125802,1,0,0:0:0:0:
182,192,125802,1,0,0:0:0:0:
329,192,125973,1,0,0:0:0:0:
402,192,125973,1,0,0:0:0:0:
36,192,126144,1,0,0:0:0:0:
109,192,126144,1,0,0:0:0:0:
256,192,126144,1,8,0:0:0:0:
475,192,126144,1,0,0:0:0:0:
109,192,126316,1,0,0:0:0:0:
402,192,126402,1,0,0:0:0:0:
36,192,126487,1,0,0:0:0:0:
182,192,126487,1,0,0:0:0:0:
329,192,126573,1,0,0:0:0:0:
475,192,126573,1,0,0:0:0:0:
256,192,126659,1,0,0:0:0:0:
109,192,126659,1,8,0:0:0:0:
402,192,126659,1,0,0:0:0:0:
36,192,126659,1,0,0:0:0:0:
36,192,126830,1,0,0:0:0:0:
329,192,126830,1,0,0:0:0:0:
475,192,126830,1,0,0:0:0:0:
182,192,126916,1,0,0:0:0:0:
329,192,127002,1,0,0:0:0:0:
182,192,127087,1,0,0:0:0:0:
36,192,127173,1,4,0:0:0:0:
109,192,127173,1,2,0:0:0:0:
256,192,127173,1,0,0:0:0:0:
475,192,127173,1,0,0:0:0:0:
402,192,127344,1,0,0:0:0:0:
329,192,127387,1,0,0:0:0:0:
256,192,127430,1,0,0:0:0:0:
182,192,127473,1,0,0:0:0:0:
109,192,127516,1,0,0:0:0:0:
329,192,127559,1,0,0:0:0:0:
402,192,127602,1,0,0:0:0:0:
475,192,127644,1,0,0:0:0:0:
36,192,127687,1,0,0:0:0:0:
109,192,127730,1,0,0:0:0:0:
182,192,127773,1,0,0:0:0:0:
256,192,127816,1,0,0:0:0:0:
36,192,127859,1,0,0:0:0:70:hand_clap.wav
329,192,127859,1,0,0:0:0:0:
402,192,127859,1,0,0:0:0:0:
475,192,127859,1,0,0:0:0:0:
36,192,128459,1,2,0:0:0:0:
109,192,128459,1,0,0:0:0:0:
182,192,128459,1,0,0:0:0:0:
329,192,128544,1,2,0:0:0:0:
402,192,128544,1,0,0:0:0:0:
475,192,128544,1,0,0:0:0:0:
182,192,128630,1,0,0:0:0:0:
109,192,128673,1,0,0:0:0:0:
36,192,128716,1,0,0:0:0:0:
402,192,128759,1,0,0:0:0:0:
329,192,128802,1,0,0:0:0:0:
256,192,128844,1,0,0:0:0:0:
182,192,128887,1,0,0:0:0:0:
109,192,128930,1,0,0:0:0:0:
475,192,128973,1,0,0:0:0:0:
402,192,129016,1,0,0:0:0:0:
329,192,129059,1,0,0:0:0:0:
256,192,129102,1,0,0:0:0:0:
182,192,129144,1,0,0:0:0:0:
109,192,129144,1,2,0:0:0:0:
36,192,129144,1,0,0:0:0:0:
256,192,129230,1,0,0:0:0:70:hand_clap.wav
329,192,129230,1,0,0:0:0:0:
402,192,129230,1,0,0:0:0:0:
475,192,129230,1,0,0:0:0:0:
36,192,129573,1,0,0:0:0:0:
182,192,129616,1,0,0:0:0:0:
475,192,129744,1,0,0:0:0:0:
329,192,129787,1,0,0:0:0:0:
36,192,129916,1,2,0:0:0:0:
109,192,129916,1,0,0:0:0:0:
182,192,129916,1,0,0:0:0:0:
475,192,130087,1,0,0:0:0:0:
402,192,130130,1,0,0:0:0:0:
329,192,130173,1,0,0:0:0:0:
256,192,130216,1,0,0:0:0:0:
182,192,130259,1,0,0:0:0:0:
109,192,130302,1,0,0:0:0:0:
36,192,130344,1,0,0:0:0:0:
475,192,130387,1,0,0:0:0:0:
402,192,130430,1,0,0:0:0:0:
329,192,130473,1,0,0:0:0:0:
256,192,130516,1,0,0:0:0:0:
182,192,130559,1,0,0:0:0:0:
36,192,130602,1,0,0:0:0:70:hand_clap.wav
109,192,130602,1,0,0:0:0:0:
402,192,130602,1,0,0:0:0:0:
475,192,130602,1,0,0:0:0:0:
36,192,130944,1,2,0:0:0:0:
109,192,130944,1,0,0:0:0:0:
182,192,130944,1,0,0:0:0:0:
256,192,130987,1,0,0:0:0:0:
329,192,131030,1,0,0:0:0:0:
402,192,131073,1,0,0:0:0:0:
475,192,131116,1,0,0:0:0:0:
109,192,131159,1,0,0:0:0:0:
182,192,131202,1,0,0:0:0:0:
256,192,131244,1,0,0:0:0:0:
402,192,131287,1,0,0:0:0:0:
475,192,131287,1,0,0:0:0:0:
329,192,131287,1,2,0:0:0:0:
109,192,131373,1,0,0:0:0:0:
182,192,131416,1,0,0:0:0:0:
256,192,131459,1,0,0:0:0:0:
329,192,131502,1,0,0:0:0:0:
475,192,131544,1,2,0:0:0:0:
402,192,131544,1,0,0:0:0:0:
36,192,131544,1,0,0:0:0:0:
182,192,131630,1,0,0:0:0:0:
256,192,131673,1,0,0:0:0:0:
329,192,131716,1,0,0:0:0:0:
402,192,131759,1,0,0:0:0:0:
475,192,131802,1,0,0:0:0:0:
109,192,131802,1,0,0:0:0:0:
36,192,131802,1,2,0:0:0:0:
182,192,131844,1,0,0:0:0:0:
256,192,131887,1,0,0:0:0:0:
329,192,131930,1,0,0:0:0:0:
475,192,131973,1,0,0:0:0:70:hand_clap.wav
402,192,131973,1,0,0:0:0:0:
109,192,131973,1,0,0:0:0:0:
36,192,131973,1,0,0:0:0:0:
36,192,132316,1,2,0:0:0:0:
182,192,132316,1,0,0:0:0:0:
329,192,132316,1,0,0:0:0:0:
36,192,132487,1,2,0:0:0:0:
182,192,132487,1,0,0:0:0:0:
329,192,132487,1,0,0:0:0:0:
36,192,132659,1,2,0:0:0:0:
182,192,132659,1,0,0:0:0:0:
329,192,132659,1,0,0:0:0:0:
256,192,132830,1,0,0:0:0:0:
329,192,132873,1,0,0:0:0:0:
402,192,132916,1,0,0:0:0:0:
475,192,132959,1,0,0:0:0:0:
36,192,133002,1,0,0:0:0:0:
109,192,133044,1,0,0:0:0:0:
182,192,133087,1,0,0:0:0:0:
256,192,133130,1,0,0:0:0:0:
475,192,133173,1,0,0:0:0:0:
402,192,133216,1,0,0:0:0:0:
329,192,133259,1,0,0:0:0:0:
256,192,133302,1,0,0:0:0:0:
36,192,133344,1,0,0:0:0:70:hand_clap.wav
109,192,133344,1,0,0:0:0:0:
182,192,133344,1,0,0:0:0:0:
475,192,133344,1,0,0:0:0:0:
256,192,133944,1,2,0:0:0:0:
329,192,133944,1,0,0:0:0:0:
402,192,133944,1,0,0:0:0:0:
36,192,134030,1,2,0:0:0:0:
109,192,134030,1,0,0:0:0:0:
182,192,134030,1,0,0:0:0:0:
256,192,134202,1,0,0:0:0:0:
329,192,134244,1,0,0:0:0:0:
402,192,134287,1,0,0:0:0:0:
475,192,134330,1,0,0:0:0:0:
182,192,134373,1,0,0:0:0:0:
109,192,134416,1,0,0:0:0:0:
36,192,134459,1,0,0:0:0:0:
402,192,134502,1,0,0:0:0:0:
329,192,134544,1,0,0:0:0:0:
256,192,134587,1,0,0:0:0:0:
36,192,134630,1,0,0:0:0:0:
109,192,134630,1,2,0:0:0:0:
182,192,134630,1,0,0:0:0:0:
256,192,134716,1,0,0:0:0:70:hand_clap.wav
329,192,134716,1,0,0:0:0:0:
402,192,134716,1,0,0:0:0:0:
475,192,134716,1,0,0:0:0:0:
182,192,135059,1,0,0:0:0:0:
109,192,135102,1,0,0:0:0:0:
329,192,135230,1,0,0:0:0:0:
402,192,135273,1,0,0:0:0:0:
36,192,135402,1,2,0:0:0:0:
109,192,135402,1,0,0:0:0:0:
182,192,135402,1,0,0:0:0:0:
329,192,135573,1,0,0:0:0:0:
402,192,135616,1,0,0:0:0:0:
475,192,135659,1,0,0:0:0:0:
182,192,135702,1,0,0:0:0:0:
109,192,135744,1,0,0:0:0:0:
36,192,135787,1,0,0:0:0:0:
329,192,135830,1,0,0:0:0:0:
402,192,135873,1,0,0:0:0:0:
475,192,135916,1,0,0:0:0:0:
36,192,135959,1,0,0:0:0:0:
109,192,136002,1,0,0:0:0:0:
182,192,136044,1,0,0:0:0:0:
256,192,136087,1,0,0:0:0:70:hand_clap.wav
329,192,136087,1,0,0:0:0:0:
402,192,136087,1,0,0:0:0:0:
475,192,136087,1,0,0:0:0:0:
36,192,136430,1,2,0:0:0:0:
109,192,136430,1,0,0:0:0:0:
182,192,136430,1,0,0:0:0:0:
329,192,136516,1,2,0:0:0:0:
402,192,136516,1,0,0:0:0:0:
475,192,136516,1,0,0:0:0:0:
109,192,136602,1,2,0:0:0:0:
36,192,136602,1,0,0:0:0:0:
182,192,136602,1,0,0:0:0:0:
475,192,136687,1,2,0:0:0:0:
329,192,136687,1,0,0:0:0:0:
402,192,136687,1,0,0:0:0:0:
36,192,136773,1,2,0:0:0:0:
182,192,136773,1,0,0:0:0:0:
109,192,136773,1,0,0:0:0:0:
402,192,136944,1,0,0:0:0:0:
329,192,136987,1,0,0:0:0:0:
109,192,137030,1,0,0:0:0:0:
182,192,137073,1,0,0:0:0:0:
402,192,137116,1,0,0:0:0:0:
329,192,137159,1,0,0:0:0:0:
36,192,137202,1,0,0:0:0:0:
109,192,137244,1,0,0:0:0:0:
182,192,137287,1,0,0:0:0:0:
256,192,137330,1,0,0:0:0:0:
329,192,137373,1,2,0:0:0:0:
402,192,137373,1,0,0:0:0:0:
475,192,137373,1,0,0:0:0:0:
36,192,137459,1,0,0:0:0:70:hand_clap.wav
109,192,137459,1,0,0:0:0:0:
182,192,137459,1,0,0:0:0:0:
256,192,137459,1,0,0:0:0:0:
36,192,137630,1,2,0:0:0:0:
402,192,137630,1,0,0:0:0:0:
475,192,137630,1,0,0:0:0:0:
109,192,137673,1,0,0:0:0:0:
182,192,137716,1,0,0:0:0:0:
256,192,137759,1,0,0:0:0:0:
475,192,137802,1,0,0:0:0:0:
402,192,137844,1,0,0:0:0:0:
329,192,137887,1,0,0:0:0:0:
256,192,137930,1,0,0:0:0:0:
182,192,137973,1,0,0:0:0:0:
329,192,138144,1,2,0:0:0:0:
402,192,138144,1,0,0:0:0:0:
475,192,138144,1,0,0:0:0:0:
109,192,138316,1,0,0:0:0:0:
182,192,138359,1,0,0:0:0:0:
256,192,138402,1,0,0:0:0:0:
329,192,138444,1,0,0:0:0:0:
402,192,138487,1,0,0:0:0:0:
182,192,138530,1,0,0:0:0:0:
109,192,138573,1,0,0:0:0:0:
36,192,138616,1,0,0:0:0:0:
475,192,138659,1,0,0:0:0:0:
402,192,138702,1,0,0:0:0:0:
329,192,138744,1,0,0:0:0:0:
256,192,138787,1,0,0:0:0:0:
36,192,138830,1,0,0:0:0:70:hand_clap.wav
109,192,138830,1,0,0:0:0:0:
182,192,138830,1,0,0:0:0:0:
475,192,138830,1,0,0:0:0:0:
329,192,139430,1,2,0:0:0:0:
402,192,139430,1,0,0:0:0:0:
475,192,139430,1,0,0:0:0:0:
36,192,139516,1,2,0:0:0:0:
109,192,139516,1,0,0:0:0:0:
182,192,139516,1,0,0:0:0:0:
402,192,139602,1,0,0:0:0:0:
329,192,139644,1,0,0:0:0:0:
256,192,139687,1,0,0:0:0:0:
182,192,139730,1,0,0:0:0:0:
109,192,139773,1,0,0:0:0:0:
36,192,139816,1,0,0:0:0:0:
475,192,139859,1,0,0:0:0:0:
402,192,139902,1,0,0:0:0:0:
329,192,139944,1,0,0:0:0:0:
256,192,139987,1,0,0:0:0:0:
182,192,140030,1,0,0:0:0:0:
109,192,140073,1,0,0:0:0:0:
475,192,140116,1,2,0:0:0:0:
402,192,140116,1,0,0:0:0:0:
329,192,140116,1,0,0:0:0:0:
256,192,140202,1,0,0:0:0:70:hand_clap.wav
182,192,140202,1,0,0:0:0:0:
109,192,140202,1,0,0:0:0:0:
36,192,140202,1,0,0:0:0:0:
475,192,140544,1,0,0:0:0:0:
329,192,140587,1,0,0:0:0:0:
182,192,140716,1,0,0:0:0:0:
36,192,140759,1,0,0:0:0:0:
329,192,140887,1,2,0:0:0:0:
402,192,140887,1,0,0:0:0:0:
475,192,140887,1,0,0:0:0:0:
36,192,141059,1,0,0:0:0:0:
109,192,141102,1,0,0:0:0:0:
182,192,141144,1,0,0:0:0:0:
256,192,141187,1,0,0:0:0:0:
329,192,141230,1,0,0:0:0:0:
402,192,141273,1,0,0:0:0:0:
475,192,141316,1,0,0:0:0:0:
36,192,141359,1,0,0:0:0:0:
109,192,141402,1,0,0:0:0:0:
182,192,141444,1,0,0:0:0:0:
256,192,141487,1,0,0:0:0:0:
329,192,141530,1,0,0:0:0:0:
36,192,141573,1,0,0:0:0:70:hand_clap.wav
109,192,141573,1,0,0:0:0:0:
402,192,141573,1,0,0:0:0:0:
475,192,141573,1,0,0:0:0:0:
329,192,141916,1,2,0:0:0:0:
402,192,141916,1,0,0:0:0:0:
475,192,141916,1,0,0:0:0:0:
256,192,141959,1,0,0:0:0:0:
182,192,142002,1,0,0:0:0:0:
109,192,142044,1,0,0:0:0:0:
36,192,142087,1,0,0:0:0:0:
402,192,142130,1,0,0:0:0:0:
329,192,142173,1,0,0:0:0:0:
256,192,142216,1,0,0:0:0:0:
36,192,142259,1,2,0:0:0:0:
109,192,142259,1,0,0:0:0:0:
182,192,142259,1,0,0:0:0:0:
256,192,142430,1,0,0:0:0:0:
329,192,142473,1,0,0:0:0:0:
36,192,142516,1,2,0:0:0:0:
402,192,142516,1,0,0:0:0:0:
475,192,142516,1,0,0:0:0:0:
109,192,142559,1,0,0:0:0:0:
182,192,142602,1,0,0:0:0:0:
329,192,142687,1,0,0:0:0:0:
402,192,142730,1,0,0:0:0:0:
36,192,142773,1,2,0:0:0:0:
109,192,142773,1,0,0:0:0:0:
475,192,142773,1,0,0:0:0:0:
182,192,142816,1,0,0:0:0:0:
256,192,142859,1,0,0:0:0:0:
329,192,142902,1,0,0:0:0:0:
36,192,142944,1,0,0:0:0:70:hand_clap.wav
109,192,142944,1,0,0:0:0:0:
402,192,142944,1,0,0:0:0:0:
475,192,142944,1,0,0:0:0:0:
109,192,143287,1,2,0:0:0:0:
329,192,143287,1,0,0:0:0:0:
475,192,143287,1,0,0:0:0:0:
109,192,143459,1,2,0:0:0:0:
329,192,143459,1,0,0:0:0:0:
475,192,143459,1,0,0:0:0:0:
109,192,143630,1,2,0:0:0:0:
329,192,143630,1,0,0:0:0:0:
475,192,143630,1,0,0:0:0:0:
36,192,143802,1,0,0:0:0:0:
109,192,143844,1,0,0:0:0:0:
182,192,143887,1,0,0:0:0:0:
256,192,143930,1,0,0:0:0:0:
475,192,143973,1,0,0:0:0:0:
402,192,144016,1,0,0:0:0:0:
329,192,144059,1,0,0:0:0:0:
256,192,144102,1,0,0:0:0:0:
36,192,144144,1,0,0:0:0:0:
109,192,144187,1,0,0:0:0:0:
182,192,144230,1,0,0:0:0:0:
256,192,144273,1,0,0:0:0:0:
36,192,144316,1,0,0:0:0:70:hand_clap.wav
329,192,144316,1,0,0:0:0:0:
402,192,144316,1,0,0:0:0:0:
475,192,144316,1,0,0:0:0:0:
109,192,144916,1,2,0:0:0:0:
182,192,144916,1,0,0:0:0:0:
256,192,144916,1,0,0:0:0:0:
329,192,145002,1,2,0:0:0:0:
402,192,145002,1,0,0:0:0:0:
475,192,145002,1,0,0:0:0:0:
256,192,145173,1,0,0:0:0:0:
182,192,145216,1,0,0:0:0:0:
109,192,145259,1,0,0:0:0:0:
36,192,145302,1,0,0:0:0:0:
329,192,145344,1,0,0:0:0:0:
402,192,145387,1,0,0:0:0:0:
475,192,145430,1,0,0:0:0:0:
109,192,145473,1,0,0:0:0:0:
182,192,145516,1,0,0:0:0:0:
256,192,145559,1,0,0:0:0:0:
329,192,145602,1,2,0:0:0:0:
402,192,145602,1,0,0:0:0:0:
475,192,145602,1,0,0:0:0:0:
36,192,145687,1,0,0:0:0:70:hand_clap.wav
109,192,145687,1,0,0:0:0:0:
182,192,145687,1,0,0:0:0:0:
256,192,145687,1,0,0:0:0:0:
329,192,146030,1,0,0:0:0:0:
402,192,146073,1,0,0:0:0:0:
109,192,146202,1,0,0:0:0:0:
182,192,146244,1,0,0:0:0:0:
329,192,146373,1,2,0:0:0:0:
402,192,146373,1,0,0:0:0:0:
475,192,146373,1,0,0:0:0:0:
182,192,146544,1,0,0:0:0:0:
109,192,146587,1,0,0:0:0:0:
36,192,146630,1,0,0:0:0:0:
329,192,146673,1,0,0:0:0:0:
402,192,146716,1,0,0:0:0:0:
475,192,146759,1,0,0:0:0:0:
182,192,146802,1,0,0:0:0:0:
109,192,146844,1,0,0:0:0:0:
36,192,146887,1,0,0:0:0:0:
475,192,146930,1,0,0:0:0:0:
402,192,146973,1,0,0:0:0:0:
329,192,147016,1,0,0:0:0:0:
36,192,147059,1,0,0:0:0:70:hand_clap.wav
109,192,147059,1,0,0:0:0:0:
182,192,147059,1,0,0:0:0:0:
256,192,147059,1,0,0:0:0:0:
329,192,147402,1,2,0:0:0:0:
402,192,147402,1,0,0:0:0:0:
475,192,147402,1,0,0:0:0:0:
36,192,147487,1,2,0:0:0:0:
109,192,147487,1,0,0:0:0:0:
182,192,147487,1,0,0:0:0:0:
329,192,147573,1,2,0:0:0:0:
402,192,147573,1,0,0:0:0:0:
475,192,147573,1,0,0:0:0:0:
36,192,147659,1,2,0:0:0:0:
109,192,147659,1,0,0:0:0:0:
182,192,147659,1,0,0:0:0:0:
329,192,147744,1,2,0:0:0:0:
402,192,147744,1,0,0:0:0:0:
475,192,147744,1,0,0:0:0:0:
109,192,147916,1,2,0:0:0:0:
182,192,147916,1,0,0:0:0:0:
329,192,147916,1,0,0:0:0:0:
36,192,148087,1,2,0:0:0:0:
182,192,148087,1,0,0:0:0:0:
402,192,148087,1,0,0:0:0:0:
109,192,148259,1,2,0:0:0:0:
256,192,148259,1,0,0:0:0:0:
402,192,148259,1,0,0:0:0:0:
36,192,148430,1,2,0:0:0:0:
256,192,148430,1,0,0:0:0:70:hand_clap.wav
329,192,148430,1,0,0:0:0:0:
475,192,148430,1,0,0:0:0:0:
109,192,148602,1,2,0:0:0:0:
329,192,148602,1,0,0:0:0:0:
182,192,148602,1,0,0:0:0:0:
36,192,148773,1,2,0:0:0:0:
475,192,148773,1,2,0:0:0:0:
109,192,148816,1,2,0:0:0:0:
402,192,148816,1,2,0:0:0:0:
182,192,148859,1,2,0:0:0:0:
329,192,148859,1,2,0:0:0:0:
256,192,148902,1,2,0:0:0:0:
36,192,148944,1,2,0:0:0:0:
475,192,148944,1,2,0:0:0:0:
109,192,148987,1,2,0:0:0:0:
402,192,148987,1,2,0:0:0:0:
182,192,149030,1,2,0:0:0:0:
329,192,149030,1,2,0:0:0:0:
256,192,149073,1,2,0:0:0:0:
36,192,149116,1,2,0:0:0:0:
109,192,149116,1,4,0:0:0:0:
402,192,149116,1,0,0:0:0:0:
475,192,149116,1,0,0:0:0:0:
109,192,149287,1,0,0:0:0:0:
182,192,149287,1,0,0:0:0:0:
475,192,149287,1,0,0:0:0:0:
256,192,149373,1,0,0:0:0:0:
329,192,149373,1,0,0:0:0:0:
402,192,149373,1,0,0:0:0:0:
36,192,149459,1,2,0:0:0:0:
109,192,149459,1,8,0:0:0:0:
182,192,149459,1,0,0:0:0:0:
475,192,149459,1,0,0:0:0:0:
36,192,149630,1,0,0:0:0:0:
256,192,149630,1,0,0:0:0:0:
402,192,149630,1,0,0:0:0:0:
182,192,149716,1,0,0:0:0:0:
329,192,149716,1,0,0:0:0:0:
475,192,149716,1,0,0:0:0:0:
36,192,149802,1,2,0:0:0:0:
109,192,149802,1,0,0:0:0:0:
402,192,149802,1,0,0:0:0:0:
256,192,149887,1,0,0:0:0:0:
182,192,149887,1,0,0:0:0:0:
329,192,149887,1,0,0:0:0:0:
36,192,149973,1,0,0:0:0:0:
402,192,149973,1,0,0:0:0:0:
475,192,149973,1,0,0:0:0:0:
36,192,150144,1,2,0:0:0:0:
182,192,150144,1,8,0:0:0:0:
329,192,150144,1,0,0:0:0:0:
475,192,150144,1,0,0:0:0:0:
182,192,150316,1,0,0:0:0:0:
256,192,150316,1,0,0:0:0:0:
402,192,150316,1,0,0:0:0:0:
36,192,150487,1,2,0:0:0:0:
109,192,150487,1,0,0:0:0:0:
475,192,150487,1,0,0:0:0:0:
182,192,150659,1,0,0:0:0:0:
329,192,150659,1,0,0:0:0:0:
402,192,150659,1,0,0:0:0:0:
36,192,150744,1,0,0:0:0:0:
109,192,150744,1,0,0:0:0:0:
475,192,150744,1,0,0:0:0:0:
182,192,150830,1,2,0:0:0:0:
256,192,150830,1,8,0:0:0:0:
329,192,150830,1,0,0:0:0:0:
402,192,150830,1,0,0:0:0:0:
36,192,151002,1,0,0:0:0:0:
182,192,151002,1,0,0:0:0:0:
402,192,151002,1,0,0:0:0:0:
256,192,151087,1,0,0:0:0:0:
329,192,151087,1,0,0:0:0:0:
475,192,151087,1,0,0:0:0:0:
36,192,151173,1,2,0:0:0:0:
109,192,151173,1,0,0:0:0:0:
402,192,151173,1,0,0:0:0:0:
182,192,151259,1,0,0:0:0:0:
256,192,151259,1,0,0:0:0:0:
329,192,151259,1,0,0:0:0:0:
109,192,151344,1,0,0:0:0:0:
402,192,151344,1,0,0:0:0:0:
475,192,151344,1,0,0:0:0:0:
36,192,151516,1,2,0:0:0:0:
109,192,151516,1,8,0:0:0:0:
182,192,151516,1,0,0:0:0:0:
475,192,151516,1,0,0:0:0:0:
36,192,151687,1,2,0:0:0:0:
329,192,151687,1,0,0:0:0:0:
402,192,151687,1,0,0:0:0:0:
109,192,151859,1,2,0:0:0:0:
256,192,151859,1,0,0:0:0:0:
475,192,151859,1,0,0:0:0:0:
36,192,152030,1,0,0:0:0:0:
329,192,152030,1,0,0:0:0:0:
402,192,152030,1,0,0:0:0:0:
109,192,152116,1,0,0:0:0:0:
182,192,152116,1,0,0:0:0:0:
256,192,152116,1,0,0:0:0:0:
36,192,152202,1,8,0:0:0:0:
329,192,152202,1,2,0:0:0:0:
402,192,152202,1,0,0:0:0:0:
475,192,152202,1,0,0:0:0:0:
109,192,152373,1,0,0:0:0:0:
256,192,152373,1,0,0:0:0:0:
402,192,152373,1,0,0:0:0:0:
182,192,152459,1,0,0:0:0:0:
329,192,152459,1,0,0:0:0:0:
475,192,152459,1,0,0:0:0:0:
36,192,152544,1,2,0:0:0:0:
109,192,152544,1,0,0:0:0:0:
256,192,152544,1,0,0:0:0:0:
329,192,152630,1,0,0:0:0:0:
402,192,152630,1,0,0:0:0:0:
475,192,152630,1,0,0:0:0:0:
36,192,152716,1,0,0:0:0:0:
182,192,152716,1,0,0:0:0:0:
256,192,152716,1,0,0:0:0:0:
36,192,152887,1,2,0:0:0:0:
109,192,152887,1,8,0:0:0:0:
329,192,152887,1,0,0:0:0:0:
475,192,152887,1,0,0:0:0:0:
182,192,153059,1,0,0:0:0:0:
256,192,153059,1,0,0:0:0:0:
402,192,153059,1,0,0:0:0:0:
36,192,153230,1,2,0:0:0:0:
182,192,153230,1,0,0:0:0:0:
475,192,153230,1,0,0:0:0:0:
329,192,153402,1,0,0:0:0:0:
256,192,153402,1,0,0:0:0:0:
36,192,153402,1,0,0:0:0:0:
402,192,153487,1,0,0:0:0:0:
182,192,153487,1,0,0:0:0:0:
109,192,153487,1,0,0:0:0:0:
475,192,153573,1,2,0:0:0:0:
329,192,153573,1,8,0:0:0:0:
256,192,153573,1,0,0:0:0:0:
36,192,153573,1,0,0:0:0:0:
402,192,153659,1,0,0:0:0:0:
182,192,153659,1,0,0:0:0:0:
109,192,153659,1,0,0:0:0:0:
475,192,153744,1,0,0:0:0:0:
256,192,153744,1,0,0:0:0:0:
36,192,153744,1,0,0:0:0:0:
402,192,153830,1,0,0:0:0:0:
329,192,153830,1,0,0:0:0:0:
182,192,153830,1,0,0:0:0:0:
256,192,153916,1,2,0:0:0:0:
109,192,153916,1,0,0:0:0:0:
36,192,153916,1,0,0:0:0:0:
402,192,154002,1,0,0:0:0:0:
475,192,154002,1,0,0:0:0:0:
329,192,154002,1,0,0:0:0:0:
256,192,154087,1,0,0:0:0:0:
182,192,154087,1,0,0:0:0:0:
109,192,154087,1,0,0:0:0:0:
475,192,154173,1,2,0:0:0:0:
402,192,154173,1,0,0:0:0:0:
36,192,154173,1,0,0:0:0:0:
329,192,154259,1,2,0:0:0:0:
256,192,154259,1,8,0:0:0:0:
182,192,154259,1,0,0:0:0:0:
109,192,154259,1,0,0:0:0:0:
402,192,154344,1,0,0:0:0:0:
475,192,154344,1,0,0:0:0:0:
36,192,154344,1,0,0:0:0:0:
109,192,154430,128,2,154516:0:0:0:0:
329,192,154430,128,0,154516:0:0:0:0:
182,192,154430,128,0,154516:0:0:0:0:
256,192,154516,128,0,154602:0:0:0:0:
402,192,154516,128,0,154602:0:0:0:0:
475,192,154516,128,0,154602:0:0:0:0:
36,192,154602,128,2,154687:0:0:0:0:
109,192,154602,128,0,154687:0:0:0:0:
329,192,154602,128,0,154687:0:0:0:0:
109,192,154773,128,0,154859:0:0:0:0:
256,192,154773,128,0,154859:0:0:0:0:
402,192,154773,128,0,154859:0:0:0:0:
182,192,154859,128,0,154944:0:0:0:0:
329,192,154859,128,0,154944:0:0:0:0:
475,192,154859,128,0,154944:0:0:0:0:
36,192,154944,128,2,155030:0:0:0:0:
109,192,154944,128,8,155030:0:0:0:0:
256,192,154944,128,0,155030:0:0:0:0:
402,192,154944,128,0,155030:0:0:0:0:
182,192,155116,128,0,155202:0:0:0:0:
256,192,155116,128,0,155202:0:0:0:0:
402,192,155116,128,0,155202:0:0:0:0:
109,192,155202,128,0,155287:0:0:0:0:
329,192,155202,128,0,155287:0:0:0:0:
475,192,155202,128,0,155287:0:0:0:0:
36,192,155287,128,2,155373:0:0:0:0:
182,192,155287,128,0,155373:0:0:0:0:
402,192,155287,128,0,155373:0:0:0:0:
256,192,155373,128,0,155459:0:0:0:0:
329,192,155373,128,0,155459:0:0:0:0:
475,192,155373,128,0,155459:0:0:0:0:
36,192,155459,128,0,155544:0:0:0:0:
109,192,155459,128,0,155544:0:0:0:0:
182,192,155459,128,0,155544:0:0:0:0:
109,192,155630,128,2,155716:0:0:0:0:
329,192,155630,128,8,155716:0:0:0:0:
402,192,155630,128,0,155716:0:0:0:0:
475,192,155630,128,0,155716:0:0:0:0:
182,192,155802,128,0,155887:0:0:0:0:
256,192,155802,128,0,155887:0:0:0:0:
402,192,155802,128,0,155887:0:0:0:0:
36,192,155973,128,2,156059:0:0:0:0:
109,192,155973,128,0,156059:0:0:0:0:
329,192,155973,128,0,156059:0:0:0:0:
182,192,156144,128,0,156230:0:0:0:0:
329,192,156144,128,0,156230:0:0:0:0:
475,192,156144,128,0,156230:0:0:0:0:
36,192,156230,128,0,156316:0:0:0:0:
256,192,156230,128,0,156316:0:0:0:0:
402,192,156230,128,0,156316:0:0:0:0:
109,192,156316,128,2,156402:0:0:0:0:
182,192,156316,128,8,156402:0:0:0:0:
329,192,156316,128,0,156402:0:0:0:0:
475,192,156316,128,0,156402:0:0:0:0:
36,192,156487,128,0,156573:0:0:0:0:
109,192,156487,128,0,156573:0:0:0:0:
182,192,156487,128,0,156573:0:0:0:0:
256,192,156573,128,0,156659:0:0:0:0:
402,192,156573,128,0,156659:0:0:0:0:
475,192,156573,128,0,156659:0:0:0:0:
109,192,156659,128,2,156744:0:0:0:0:
182,192,156659,128,0,156744:0:0:0:0:
329,192,156659,128,0,156744:0:0:0:0:
36,192,156744,128,0,156830:0:0:0:0:
256,192,156744,128,0,156830:0:0:0:0:
402,192,156744,128,0,156830:0:0:0:0:
109,192,156830,128,0,156916:0:0:0:0:
182,192,156830,128,0,156916:0:0:0:0:
475,192,156830,128,0,156916:0:0:0:0:
36,192,157002,128,2,157087:0:0:0:0:
182,192,157002,128,8,157087:0:0:0:0:
329,192,157002,128,0,157087:0:0:0:0:
402,192,157002,128,0,157087:0:0:0:0:
36,192,157173,128,2,157259:0:0:0:0:
475,192,157173,128,0,157259:0:0:0:0:
256,192,157173,128,0,157259:0:0:0:0:
182,192,157344,1,2,0:0:0:0:
329,192,157344,1,2,0:0:0:0:
109,192,157387,1,2,0:0:0:0:
402,192,157387,1,2,0:0:0:0:
36,192,157430,1,2,0:0:0:0:
475,192,157430,1,2,0:0:0:0:
182,192,157473,1,2,0:0:0:0:
329,192,157473,1,2,0:0:0:0:
109,192,157516,1,2,0:0:0:0:
402,192,157516,1,2,0:0:0:0:
36,192,157559,1,2,0:0:0:0:
475,192,157559,1,2,0:0:0:0:
182,192,157602,1,2,0:0:0:0:
329,192,157602,1,2,0:0:0:0:
109,192,157644,1,2,0:0:0:0:
402,192,157644,1,2,0:0:0:0:
36,192,157687,1,2,0:0:0:0:
256,192,157687,1,8,0:0:0:0:
475,192,157687,1,0,0:0:0:0:
36,192,157859,128,0,157944:0:0:0:0:
109,192,157859,128,0,157944:0:0:0:0:
256,192,157859,128,0,157944:0:0:0:0:
182,192,157944,128,0,158030:0:0:0:0:
402,192,157944,128,0,158030:0:0:0:0:
475,192,157944,128,0,158030:0:0:0:0:
36,192,158030,128,2,158116:0:0:0:0:
256,192,158030,128,0,158116:0:0:0:0:
329,192,158030,128,0,158116:0:0:0:0:
109,192,158116,128,0,158202:0:0:0:0:
182,192,158116,128,0,158202:0:0:0:0:
475,192,158116,128,0,158202:0:0:0:0:
256,192,158202,128,0,158287:0:0:0:0:
329,192,158202,128,0,158287:0:0:0:0:
402,192,158202,128,0,158287:0:0:0:0:
36,192,158373,128,2,158459:0:0:0:0:
109,192,158373,128,8,158459:0:0:0:0:
182,192,158373,128,0,158459:0:0:0:0:
475,192,158373,128,0,158459:0:0:0:0:
182,192,158544,128,0,158630:0:0:0:0:
329,192,158544,128,0,158630:0:0:0:0:
402,192,158544,128,0,158630:0:0:0:0:
36,192,158716,1,4,0:0:0:0:
109,192,158716,1,0,0:0:0:0:
402,192,158716,1,0,0:0:0:0:
475,192,158716,1,0,0:0:0:0:
182,192,158802,1,0,0:0:0:0:
256,192,158802,1,0,0:0:0:0:
36,192,158887,1,0,0:0:0:0:
329,192,158887,1,0,0:0:0:0:
182,192,158973,1,0,0:0:0:0:
475,192,158973,1,0,0:0:0:0:
109,192,159059,1,0,0:0:0:0:
329,192,159059,1,0,0:0:0:0:
256,192,159144,1,0,0:0:0:0:
475,192,159144,1,0,0:0:0:0:
36,192,159230,1,0,0:0:0:0:
329,192,159230,1,0,0:0:0:0:
402,192,159230,1,0,0:0:0:0:
109,192,159316,1,0,0:0:0:0:
475,192,159316,1,0,0:0:0:0:
182,192,159402,1,0,0:0:0:0:
402,192,159402,1,0,0:0:0:0:
475,192,159487,1,0,0:0:0:0:
329,192,159487,1,0,0:0:0:0:
256,192,159573,1,0,0:0:0:0:
109,192,159573,1,0,0:0:0:0:
475,192,159659,1,0,0:0:0:0:
36,192,159659,1,0,0:0:0:0:
182,192,159744,1,0,0:0:0:0:
329,192,159744,1,0,0:0:0:0:
475,192,159830,1,0,0:0:0:0:
109,192,159830,1,0,0:0:0:0:
256,192,159916,1,0,0:0:0:0:
402,192,159916,1,0,0:0:0:0:
182,192,160002,1,0,0:0:0:0:
329,192,160002,1,0,0:0:0:0:
36,192,160087,1,4,0:0:0:0:
109,192,160087,1,2,0:0:0:0:
256,192,160087,1,0,0:0:0:0:
402,192,160087,1,0,0:0:0:0:
475,192,160087,1,0,0:0:0:0:
36,192,160259,1,0,0:0:0:0:
329,192,160259,1,0,0:0:0:0:
475,192,160259,1,0,0:0:0:0:
109,192,160344,1,0,0:0:0:0:
182,192,160344,1,0,0:0:0:0:
256,192,160344,1,0,0:0:0:0:
36,192,160430,1,2,0:0:0:0:
329,192,160430,1,8,0:0:0:0:
402,192,160430,1,0,0:0:0:0:
475,192,160430,1,0,0:0:0:0:
182,192,160602,1,0,0:0:0:0:
256,192,160602,1,0,0:0:0:0:
475,192,160602,1,0,0:0:0:0:
109,192,160687,1,0,0:0:0:0:
36,192,160687,1,0,0:0:0:0:
402,192,160687,1,0,0:0:0:0:
182,192,160773,1,2,0:0:0:0:
329,192,160773,1,0,0:0:0:0:
475,192,160773,1,0,0:0:0:0:
109,192,160859,1,0,0:0:0:0:
36,192,160859,1,0,0:0:0:0:
402,192,160859,1,0,0:0:0:0:
256,192,160944,1,0,0:0:0:0:
329,192,160944,1,0,0:0:0:0:
475,192,160944,1,0,0:0:0:0:
36,192,161116,1,2,0:0:0:0:
182,192,161116,1,8,0:0:0:0:
329,192,161116,1,0,0:0:0:0:
475,192,161116,1,0,0:0:0:0:
109,192,161287,1,0,0:0:0:0:
256,192,161287,1,0,0:0:0:0:
329,192,161287,1,0,0:0:0:0:
36,192,161459,1,2,0:0:0:0:
402,192,161459,1,0,0:0:0:0:
475,192,161459,1,0,0:0:0:0:
109,192,161630,1,0,0:0:0:0:
182,192,161630,1,0,0:0:0:0:
329,192,161630,1,0,0:0:0:0:
36,192,161716,1,0,0:0:0:0:
402,192,161716,1,0,0:0:0:0:
475,192,161716,1,0,0:0:0:0:
109,192,161802,1,8,0:0:0:0:
182,192,161802,1,2,0:0:0:0:
256,192,161802,1,0,0:0:0:0:
329,192,161802,1,0,0:0:0:0:
109,192,161973,1,0,0:0:0:0:
329,192,161973,1,0,0:0:0:0:
475,192,161973,1,0,0:0:0:0:
36,192,162059,1,0,0:0:0:0:
182,192,162059,1,0,0:0:0:0:
256,192,162059,1,0,0:0:0:0:
109,192,162144,1,2,0:0:0:0:
402,192,162144,1,0,0:0:0:0:
475,192,162144,1,0,0:0:0:0:
182,192,162230,1,0,0:0:0:0:
256,192,162230,1,0,0:0:0:0:
329,192,162230,1,0,0:0:0:0:
36,192,162316,1,0,0:0:0:0:
109,192,162316,1,0,0:0:0:0:
402,192,162316,1,0,0:0:0:0:
36,192,162487,1,2,0:0:0:0:
329,192,162487,1,8,0:0:0:0:
402,192,162487,1,0,0:0:0:0:
475,192,162487,1,0,0:0:0:0:
109,192,162659,1,2,0:0:0:0:
182,192,162659,1,0,0:0:0:0:
475,192,162659,1,0,0:0:0:0:
36,192,162830,1,2,0:0:0:0:
256,192,162830,1,0,0:0:0:0:
402,192,162830,1,0,0:0:0:0:
109,192,163002,1,0,0:0:0:0:
182,192,163002,1,0,0:0:0:0:
475,192,163002,1,0,0:0:0:0:
256,192,163087,1,0,0:0:0:0:
329,192,163087,1,0,0:0:0:0:
402,192,163087,1,0,0:0:0:0:
36,192,163173,1,2,0:0:0:0:
109,192,163173,1,8,0:0:0:0:
182,192,163173,1,0,0:0:0:0:
475,192,163173,1,0,0:0:0:0:
109,192,163344,1,0,0:0:0:0:
256,192,163344,1,0,0:0:0:0:
402,192,163344,1,0,0:0:0:0:
36,192,163430,1,0,0:0:0:0:
182,192,163430,1,0,0:0:0:0:
329,192,163430,1,0,0:0:0:0:
256,192,163516,1,2,0:0:0:0:
402,192,163516,1,0,0:0:0:0:
475,192,163516,1,0,0:0:0:0:
36,192,163602,1,0,0:0:0:0:
109,192,163602,1,0,0:0:0:0:
182,192,163602,1,0,0:0:0:0:
256,192,163687,1,0,0:0:0:0:
329,192,163687,1,0,0:0:0:0:
475,192,163687,1,0,0:0:0:0:
36,192,163859,1,2,0:0:0:0:
182,192,163859,1,8,0:0:0:0:
402,192,163859,1,0,0:0:0:0:
475,192,163859,1,0,0:0:0:0:
109,192,164030,1,0,0:0:0:0:
256,192,164030,1,0,0:0:0:0:
329,192,164030,1,0,0:0:0:0:
36,192,164202,1,2,0:0:0:0:
329,192,164202,1,0,0:0:0:0:
475,192,164202,1,0,0:0:0:0:
182,192,164373,1,0,0:0:0:0:
256,192,164373,1,0,0:0:0:0:
475,192,164373,1,0,0:0:0:0:
109,192,164459,1,0,0:0:0:0:
329,192,164459,1,0,0:0:0:0:
402,192,164459,1,0,0:0:0:0:
36,192,164544,1,2,0:0:0:0:
182,192,164544,1,8,0:0:0:0:
256,192,164544,1,0,0:0:0:0:
475,192,164544,1,0,0:0:0:0:
109,192,164630,1,0,0:0:0:0:
329,192,164630,1,0,0:0:0:0:
402,192,164630,1,0,0:0:0:0:
36,192,164716,1,0,0:0:0:0:
256,192,164716,1,0,0:0:0:0:
475,192,164716,1,0,0:0:0:0:
109,192,164802,1,0,0:0:0:0:
182,192,164802,1,0,0:0:0:0:
329,192,164802,1,0,0:0:0:0:
256,192,164887,1,2,0:0:0:0:
402,192,164887,1,0,0:0:0:0:
475,192,164887,1,0,0:0:0:0:
109,192,164973,1,0,0:0:0:0:
36,192,164973,1,0,0:0:0:0:
182,192,164973,1,0,0:0:0:0:
256,192,165059,1,0,0:0:0:0:
329,192,165059,1,0,0:0:0:0:
402,192,165059,1,0,0:0:0:0:
36,192,165144,1,2,0:0:0:0:
109,192,165144,1,0,0:0:0:0:
475,192,165144,1,0,0:0:0:0:
182,192,165230,1,2,0:0:0:0:
256,192,165230,1,8,0:0:0:0:
329,192,165230,1,0,0:0:0:0:
402,192,165230,1,0,0:0:0:0:
109,192,165316,1,0,0:0:0:0:
36,192,165316,1,0,0:0:0:0:
475,192,165316,1,0,0:0:0:0:
256,192,165402,128,2,165487:0:0:0:0:
329,192,165402,128,0,165487:0:0:0:0:
402,192,165402,128,0,165487:0:0:0:0:
36,192,165487,128,0,165573:0:0:0:0:
109,192,165487,128,0,165573:0:0:0:0:
182,192,165487,128,0,165573:0:0:0:0:
329,192,165573,128,2,165659:0:0:0:0:
402,192,165573,128,0,165659:0:0:0:0:
475,192,165573,128,0,165659:0:0:0:0:
109,192,165744,128,0,165830:0:0:0:0:
256,192,165744,128,0,165830:0:0:0:0:
402,192,165744,128,0,165830:0:0:0:0:
36,192,165830,128,0,165916:0:0:0:0:
182,192,165830,128,0,165916:0:0:0:0:
329,192,165830,128,0,165916:0:0:0:0:
109,192,165916,128,2,166002:0:0:0:0:
256,192,165916,128,8,166002:0:0:0:0:
402,192,165916,128,0,166002:0:0:0:0:
475,192,165916,128,0,166002:0:0:0:0:
109,192,166087,128,0,166173:0:0:0:0:
256,192,166087,128,0,166173:0:0:0:0:
329,192,166087,128,0,166173:0:0:0:0:
36,192,166173,128,0,166259:0:0:0:0:
182,192,166173,128,0,166259:0:0:0:0:
402,192,166173,128,0,166259:0:0:0:0:
109,192,166259,128,2,166344:0:0:0:0:
329,192,166259,128,0,166344:0:0:0:0:
475,192,166259,128,0,166344:0:0:0:0:
36,192,166344,128,0,166430:0:0:0:0:
182,192,166344,128,0,166430:0:0:0:0:
256,192,166344,128,0,166430:0:0:0:0:
329,192,166430,128,0,166516:0:0:0:0:
402,192,166430,128,0,166516:0:0:0:0:
475,192,166430,128,0,166516:0:0:0:0:
36,192,166602,128,2,166687:0:0:0:0:
109,192,166602,128,8,166687:0:0:0:0:
182,192,166602,128,0,166687:0:0:0:0:
402,192,166602,128,0,166687:0:0:0:0:
109,192,166773,128,0,166859:0:0:0:0:
256,192,166773,128,0,166859:0:0:0:0:
329,192,166773,128,0,166859:0:0:0:0:
182,192,166944,128,2,167030:0:0:0:0:
402,192,166944,128,0,167030:0:0:0:0:
475,192,166944,128,0,167030:0:0:0:0:
36,192,167116,128,0,167202:0:0:0:0:
182,192,167116,128,0,167202:0:0:0:0:
329,192,167116,128,0,167202:0:0:0:0:
109,192,167202,128,0,167287:0:0:0:0:
256,192,167202,128,0,167287:0:0:0:0:
475,192,167202,128,0,167287:0:0:0:0:
36,192,167287,128,2,167373:0:0:0:0:
182,192,167287,128,8,167373:0:0:0:0:
329,192,167287,128,0,167373:0:0:0:0:
402,192,167287,128,0,167373:0:0:0:0:
329,192,167459,128,0,167544:0:0:0:0:
402,192,167459,128,0,167544:0:0:0:0:
475,192,167459,128,0,167544:0:0:0:0:
36,192,167544,128,0,167630:0:0:0:0:
109,192,167544,128,0,167630:0:0:0:0:
256,192,167544,128,0,167630:0:0:0:0:
182,192,167630,128,2,167716:0:0:0:0:
329,192,167630,128,0,167716:0:0:0:0:
402,192,167630,128,0,167716:0:0:0:0:
109,192,167716,128,0,167802:0:0:0:0:
256,192,167716,128,0,167802:0:0:0:0:
475,192,167716,128,0,167802:0:0:0:0:
36,192,167802,128,0,167887:0:0:0:0:
329,192,167802,128,0,167887:0:0:0:0:
402,192,167802,128,0,167887:0:0:0:0:
109,192,167973,128,2,168059:0:0:0:0:
182,192,167973,128,8,168059:0:0:0:0:
329,192,167973,128,0,168059:0:0:0:0:
475,192,167973,128,0,168059:0:0:0:0:
182,192,168144,128,0,168230:0:0:0:0:
256,192,168144,128,0,168230:0:0:0:0:
329,192,168144,128,0,168230:0:0:0:0:
36,192,168316,1,2,0:0:0:0:
475,192,168316,1,2,0:0:0:0:
109,192,168359,1,2,0:0:0:0:
402,192,168359,1,2,0:0:0:0:
182,192,168402,1,2,0:0:0:0:
329,192,168402,1,2,0:0:0:0:
36,192,168444,1,2,0:0:0:0:
475,192,168444,1,2,0:0:0:0:
109,192,168487,1,2,0:0:0:0:
402,192,168487,1,2,0:0:0:0:
182,192,168530,1,2,0:0:0:0:
329,192,168530,1,2,0:0:0:0:
36,192,168573,1,2,0:0:0:0:
475,192,168573,1,2,0:0:0:0:
109,192,168616,1,2,0:0:0:0:
402,192,168616,1,2,0:0:0:0:
182,192,168659,1,2,0:0:0:0:
256,192,168659,1,8,0:0:0:0:
329,192,168659,1,0,0:0:0:0:
256,192,168830,128,0,168916:0:0:0:0:
402,192,168830,128,0,168916:0:0:0:0:
475,192,168830,128,0,168916:0:0:0:0:
36,192,168916,128,0,169002:0:0:0:0:
109,192,168916,128,0,169002:0:0:0:0:
329,192,168916,128,0,169002:0:0:0:0:
182,192,169002,128,2,169087:0:0:0:0:
256,192,169002,128,0,169087:0:0:0:0:
475,192,169002,128,0,169087:0:0:0:0:
36,192,169087,128,0,169173:0:0:0:0:
329,192,169087,128,0,169173:0:0:0:0:
402,192,169087,128,0,169173:0:0:0:0:
109,192,169173,128,0,169259:0:0:0:0:
182,192,169173,128,0,169259:0:0:0:0:
256,192,169173,128,0,169259:0:0:0:0:
36,192,169344,128,8,169430:0:0:0:0:
329,192,169344,128,2,169430:0:0:0:0:
402,192,169344,128,0,169430:0:0:0:0:
475,192,169344,128,0,169430:0:0:0:0:
109,192,169516,128,0,169602:0:0:0:0:
182,192,169516,128,0,169602:0:0:0:0:
329,192,169516,128,0,169602:0:0:0:0:
182,192,169687,128,2,169773:0:0:0:0:
256,192,169687,128,0,169773:0:0:0:0:
329,192,169687,128,0,169773:0:0:0:0:
36,192,169859,1,2,0:0:0:0:
475,192,169859,1,2,0:0:0:0:
109,192,169902,1,2,0:0:0:0:
402,192,169902,1,2,0:0:0:0:
182,192,169944,1,2,0:0:0:0:
329,192,169944,1,2,0:0:0:0:
36,192,170030,128,8,170116:0:0:0:0:
109,192,170030,128,2,170116:0:0:0:0:
402,192,170030,128,0,170116:0:0:0:0:
475,192,170030,128,0,170116:0:0:0:0:
182,192,170116,128,0,170202:0:0:0:0:
256,192,170116,128,0,170202:0:0:0:0:
329,192,170116,128,0,170202:0:0:0:0:
36,192,170202,128,2,170287:0:0:0:0:
402,192,170202,128,0,170287:0:0:0:0:
475,192,170202,128,0,170287:0:0:0:0:
109,192,170287,128,0,170373:0:0:0:0:
182,192,170287,128,0,170373:0:0:0:0:
256,192,170287,128,0,170373:0:0:0:0:
329,192,170373,128,2,170459:0:0:0:0:
402,192,170373,128,0,170459:0:0:0:0:
475,192,170373,128,0,170459:0:0:0:0:
36,192,170459,128,0,170544:0:0:0:0:
109,192,170459,128,0,170544:0:0:0:0:
182,192,170459,128,0,170544:0:0:0:0:
256,192,170544,128,0,170630:0:0:0:0:
329,192,170544,128,0,170630:0:0:0:0:
475,192,170544,128,0,170630:0:0:0:0:
36,192,170630,128,0,170716:0:0:0:0:
182,192,170630,128,0,170716:0:0:0:0:
402,192,170630,128,0,170716:0:0:0:0:
109,192,170716,128,8,170802:0:0:0:0:
256,192,170716,128,2,170802:0:0:0:0:
329,192,170716,128,0,170802:0:0:0:0:
475,192,170716,128,0,170802:0:0:0:0:
182,192,170802,128,0,170887:0:0:0:0:
402,192,170802,128,0,170887:0:0:0:0:
36,192,170887,128,2,170973:0:0:0:0:
109,192,170887,128,0,170973:0:0:0:0:
329,192,170887,128,0,170973:0:0:0:0:
475,192,170973,128,0,171059:0:0:0:0:
256,192,170973,128,0,171059:0:0:0:0:
402,192,170973,128,0,171059:0:0:0:0:
36,192,171059,1,2,0:0:0:0:
109,192,171059,1,4,0:0:0:0:
329,192,171059,1,0,0:0:0:0:
182,192,171059,1,0,0:0:0:0:
36,192,171230,1,0,0:0:0:0:
109,192,171230,1,0,0:0:0:0:
475,192,171230,1,0,0:0:0:0:
182,192,171316,1,0,0:0:0:0:
329,192,171316,1,0,0:0:0:0:
402,192,171316,1,0,0:0:0:0:
36,192,171402,1,2,0:0:0:0:
109,192,171402,1,8,0:0:0:0:
256,192,171402,1,0,0:0:0:0:
475,192,171402,1,0,0:0:0:0:
109,192,171573,1,0,0:0:0:0:
329,192,171573,1,0,0:0:0:0:
402,192,171573,1,0,0:0:0:0:
182,192,171659,1,0,0:0:0:0:
256,192,171659,1,0,0:0:0:0:
36,192,171744,1,2,0:0:0:0:
109,192,171744,1,0,0:0:0:0:
475,192,171744,1,0,0:0:0:0:
256,192,171830,1,0,0:0:0:0:
329,192,171830,1,0,0:0:0:0:
402,192,171830,1,0,0:0:0:0:
36,192,171916,1,0,0:0:0:0:
182,192,171916,1,0,0:0:0:0:
475,192,171916,1,0,0:0:0:0:
109,192,172087,1,2,0:0:0:0:
256,192,172087,1,8,0:0:0:0:
36,192,172087,1,0,0:0:0:0:
402,192,172087,1,0,0:0:0:0:
182,192,172259,1,0,0:0:0:0:
329,192,172259,1,0,0:0:0:0:
475,192,172259,1,0,0:0:0:0:
109,192,172430,1,2,0:0:0:0:
36,192,172430,1,0,0:0:0:0:
329,192,172430,1,0,0:0:0:0:
256,192,172602,1,0,0:0:0:0:
402,192,172602,1,0,0:0:0:0:
475,192,172602,1,0,0:0:0:0:
36,192,172687,1,0,0:0:0:0:
182,192,172687,1,0,0:0:0:0:
329,192,172687,1,0,0:0:0:0:
109,192,172773,1,2,0:0:0:0:
256,192,172773,1,8,0:0:0:0:
402,192,172773,1,0,0:0:0:0:
475,192,172773,1,0,0:0:0:0:
109,192,172944,1,0,0:0:0:0:
256,192,172944,1,0,0:0:0:0:
402,192,172944,1,0,0:0:0:0:
36,192,173030,1,0,0:0:0:0:
182,192,173030,1,0,0:0:0:0:
329,192,173030,1,0,0:0:0:0:
109,192,173116,1,2,0:0:0:0:
402,192,173116,1,0,0:0:0:0:
475,192,173116,1,0,0:0:0:0:
182,192,173202,1,0,0:0:0:0:
256,192,173202,1,0,0:0:0:0:
329,192,173202,1,0,0:0:0:0:
36,192,173287,1,0,0:0:0:0:
109,192,173287,1,0,0:0:0:0:
475,192,173287,1,0,0:0:0:0:
36,192,173459,1,8,0:0:0:0:
256,192,173459,1,2,0:0:0:0:
329,192,173459,1,0,0:0:0:0:
402,192,173459,1,0,0:0:0:0:
182,192,173630,1,2,0:0:0:0:
329,192,173630,1,0,0:0:0:0:
475,192,173630,1,0,0:0:0:0:
36,192,173802,1,2,0:0:0:0:
475,192,173802,1,0,0:0:0:0:
256,192,173802,1,0,0:0:0:0:
329,192,173887,1,0,0:0:0:0:
182,192,173973,1,0,0:0:0:0:
402,192,173973,1,0,0:0:0:0:
109,192,174059,1,0,0:0:0:0:
256,192,174059,1,0,0:0:0:0:
36,192,174144,1,2,0:0:0:0:
329,192,174144,1,8,0:0:0:0:
402,192,174144,1,0,0:0:0:0:
475,192,174144,1,0,0:0:0:0:
182,192,174230,1,0,0:0:0:0:
256,192,174316,1,0,0:0:0:0:
475,192,174316,1,0,0:0:0:0:
182,192,174402,1,0,0:0:0:0:
329,192,174402,1,0,0:0:0:0:
109,192,174487,1,2,0:0:0:0:
402,192,174487,1,0,0:0:0:0:
475,192,174487,1,0,0:0:0:0:
256,192,174573,1,0,0:0:0:0:
36,192,174659,1,0,0:0:0:0:
402,192,174659,1,0,0:0:0:0:
329,192,174744,1,0,0:0:0:0:
475,192,174744,1,0,0:0:0:0:
36,192,174830,1,8,0:0:0:0:
109,192,174830,1,2,0:0:0:0:
182,192,174830,1,0,0:0:0:0:
256,192,174830,1,0,0:0:0:0:
402,192,174916,1,0,0:0:0:0:
182,192,175002,1,0,0:0:0:0:
475,192,175002,1,0,0:0:0:0:
36,192,175087,1,0,0:0:0:0:
256,192,175087,1,0,0:0:0:0:
109,192,175173,1,2,0:0:0:0:
182,192,175173,1,0,0:0:0:0:
475,192,175173,1,0,0:0:0:0:
329,192,175259,1,0,0:0:0:0:
182,192,175344,1,0,0:0:0:0:
402,192,175344,1,0,0:0:0:0:
109,192,175430,1,0,0:0:0:0:
256,192,175430,1,0,0:0:0:0:
36,192,175516,1,2,0:0:0:0:
329,192,175516,1,8,0:0:0:0:
475,192,175516,1,0,0:0:0:0:
402,192,175516,1,0,0:0:0:0:
256,192,175602,1,0,0:0:0:0:
36,192,175687,1,0,0:0:0:0:
182,192,175687,1,0,0:0:0:0:
329,192,175773,1,0,0:0:0:0:
402,192,175773,1,0,0:0:0:0:
36,192,175859,1,2,0:0:0:0:
109,192,175859,1,0,0:0:0:0:
475,192,175859,1,0,0:0:0:0:
182,192,175944,1,0,0:0:0:0:
329,192,176030,1,0,0:0:0:0:
36,192,176030,1,0,0:0:0:0:
182,192,176116,1,2,0:0:0:0:
402,192,176116,1,0,0:0:0:0:
475,192,176116,1,0,0:0:0:0:
36,192,176202,1,2,0:0:0:0:
109,192,176202,1,8,0:0:0:0:
256,192,176202,1,0,0:0:0:0:
329,192,176202,1,0,0:0:0:0:
402,192,176287,1,0,0:0:0:0:
36,192,176373,1,2,0:0:0:0:
182,192,176373,1,0,0:0:0:0:
475,192,176373,1,0,0:0:0:0:
256,192,176459,1,0,0:0:0:0:
109,192,176544,1,2,0:0:0:0:
329,192,176544,1,0,0:0:0:0:
475,192,176544,1,0,0:0:0:0:
36,192,176630,1,0,0:0:0:0:
256,192,176716,1,0,0:0:0:0:
402,192,176716,1,0,0:0:0:0:
109,192,176802,1,0,0:0:0:0:
475,192,176802,1,0,0:0:0:0:
36,192,176887,1,2,0:0:0:0:
182,192,176887,1,8,0:0:0:0:
329,192,176887,1,0,0:0:0:0:
256,192,176887,1,0,0:0:0:0:
402,192,176973,1,0,0:0:0:0:
256,192,177059,1,0,0:0:0:0:
475,192,177059,1,0,0:0:0:0:
182,192,177144,1,0,0:0:0:0:
329,192,177144,1,0,0:0:0:0:
36,192,177230,1,2,0:0:0:0:
109,192,177230,1,0,0:0:0:0:
402,192,177230,1,0,0:0:0:0:
475,192,177316,1,0,0:0:0:0:
109,192,177402,1,0,0:0:0:0:
256,192,177402,1,0,0:0:0:0:
182,192,177487,1,0,0:0:0:0:
329,192,177487,1,0,0:0:0:0:
36,192,177573,1,8,0:0:0:0:
109,192,177573,1,2,0:0:0:0:
402,192,177573,1,0,0:0:0:0:
475,192,177573,1,0,0:0:0:0:
256,192,177659,1,0,0:0:0:0:
36,192,177744,1,0,0:0:0:0:
475,192,177744,1,0,0:0:0:0:
182,192,177830,1,0,0:0:0:0:
329,192,177830,1,0,0:0:0:0:
36,192,177916,1,2,0:0:0:0:
109,192,177916,1,0,0:0:0:0:
475,192,177916,1,0,0:0:0:0:
402,192,178002,1,0,0:0:0:0:
109,192,178087,1,0,0:0:0:0:
256,192,178087,1,0,0:0:0:0:
329,192,178173,1,0,0:0:0:0:
182,192,178173,1,0,0:0:0:0:
36,192,178259,1,2,0:0:0:0:
256,192,178259,1,8,0:0:0:0:
402,192,178259,1,0,0:0:0:0:
475,192,178259,1,0,0:0:0:0:
109,192,178344,1,0,0:0:0:0:
182,192,178430,1,0,0:0:0:0:
402,192,178430,1,0,0:0:0:0:
256,192,178516,1,0,0:0:0:0:
329,192,178516,1,0,0:0:0:0:
36,192,178602,1,2,0:0:0:0:
182,192,178602,1,0,0:0:0:0:
475,192,178602,1,0,0:0:0:0:
329,192,178687,1,0,0:0:0:0:
109,192,178773,1,0,0:0:0:0:
402,192,178773,1,0,0:0:0:0:
36,192,178859,1,0,0:0:0:0:
182,192,178859,1,0,0:0:0:0:
256,192,178944,1,2,0:0:0:0:
329,192,178944,1,8,0:0:0:0:
402,192,178944,1,0,0:0:0:0:
475,192,178944,1,0,0:0:0:0:
109,192,179030,1,0,0:0:0:0:
36,192,179116,1,2,0:0:0:0:
329,192,179116,1,0,0:0:0:0:
475,192,179116,1,0,0:0:0:0:
256,192,179202,1,0,0:0:0:0:
182,192,179287,1,2,0:0:0:0:
329,192,179287,1,2,0:0:0:0:
109,192,179330,1,2,0:0:0:0:
402,192,179330,1,2,0:0:0:0:
36,192,179373,1,2,0:0:0:0:
475,192,179373,1,2,0:0:0:0:
182,192,179416,1,2,0:0:0:0:
329,192,179416,1,2,0:0:0:0:
109,192,179459,1,2,0:0:0:0:
402,192,179459,1,2,0:0:0:0:
36,192,179502,1,2,0:0:0:0:
475,192,179502,1,2,0:0:0:0:
182,192,179544,1,2,0:0:0:0:
329,192,179544,1,2,0:0:0:0:
109,192,179587,1,2,0:0:0:0:
402,192,179587,1,2,0:0:0:0:
36,192,179630,1,2,0:0:0:0:
256,192,179630,1,8,0:0:0:0:
475,192,179630,1,0,0:0:0:0:
182,192,179716,1,0,0:0:0:0:
329,192,179802,1,0,0:0:0:0:
109,192,179802,1,0,0:0:0:0:
475,192,179887,1,0,0:0:0:0:
256,192,179887,1,0,0:0:0:0:
36,192,179973,1,2,0:0:0:0:
109,192,179973,1,0,0:0:0:0:
402,192,179973,1,0,0:0:0:0:
256,192,180059,1,0,0:0:0:0:
329,192,180144,1,0,0:0:0:0:
475,192,180144,1,0,0:0:0:0:
182,192,180230,1,0,0:0:0:0:
402,192,180230,1,0,0:0:0:0:
36,192,180316,1,2,0:0:0:0:
109,192,180316,1,8,0:0:0:0:
256,192,180316,1,0,0:0:0:0:
329,192,180316,1,0,0:0:0:0:
475,192,180402,1,0,0:0:0:0:
109,192,180487,1,0,0:0:0:0:
402,192,180487,1,0,0:0:0:0:
182,192,180573,1,0,0:0:0:0:
329,192,180573,1,0,0:0:0:0:
36,192,180659,128,0,180744:0:0:0:0:
402,192,180659,128,8,180744:0:0:0:0:
475,192,180659,128,0,180744:0:0:0:0:
256,192,180659,128,0,180744:0:0:0:0:
109,192,180830,1,0,0:0:0:0:
256,192,180916,1,0,0:0:0:0:
329,192,180916,1,0,0:0:0:0:
36,192,181002,1,0,0:0:0:0:
182,192,181002,1,0,0:0:0:0:
256,192,181087,1,0,0:0:0:0:
329,192,181087,1,0,0:0:0:0:
109,192,181173,128,0,181259:0:0:0:0:
182,192,181173,128,0,181259:0:0:0:0:
475,192,181173,128,0,181259:0:0:0:0:
36,192,181173,128,8,181259:0:0:0:0:
329,192,181344,1,0,0:0:0:0:
182,192,181430,1,0,0:0:0:0:
256,192,181430,1,0,0:0:0:0:
402,192,181516,1,0,0:0:0:0:
475,192,181516,1,0,0:0:0:0:
109,192,181602,1,0,0:0:0:0:
182,192,181602,1,0,0:0:0:0:
36,192,181687,128,8,181773:0:0:0:0:
256,192,181687,128,0,181773:0:0:0:0:
475,192,181687,128,0,181773:0:0:0:0:
402,192,181687,128,0,181773:0:0:0:0:
329,192,181859,1,0,0:0:0:0:
182,192,181944,1,0,0:0:0:0:
256,192,181944,1,0,0:0:0:0:
36,192,182030,1,4,0:0:0:0:
109,192,182030,1,0,0:0:0:0:
329,192,182030,1,0,0:0:0:0:
402,192,182030,1,8,0:0:0:0:
475,192,182030,1,0,0:0:0:0:
256,192,182202,1,0,0:0:0:0:
329,192,182202,1,0,0:0:0:0:
36,192,182373,1,0,0:0:0:0:
402,192,182373,1,0,0:0:0:0:
256,192,182459,1,0,0:0:0:0:
182,192,182544,1,0,0:0:0:0:
402,192,182544,1,0,0:0:0:0:
182,192,182716,1,0,0:0:0:0:
329,192,182716,1,0,0:0:0:0:
256,192,182887,1,0,0:0:0:0:
475,192,182887,1,0,0:0:0:0:
109,192,183059,1,0,0:0:0:0:
402,192,183059,1,0,0:0:0:0:
182,192,183144,1,0,0:0:0:0:
109,192,183230,1,0,0:0:0:0:
329,192,183230,1,0,0:0:0:0:
36,192,183402,1,0,0:0:0:0:
475,192,183402,1,0,0:0:0:0:
182,192,183573,1,0,0:0:0:0:
329,192,183573,1,0,0:0:0:0:
256,192,183744,1,0,0:0:0:0:
475,192,183744,1,0,0:0:0:0:
402,192,183830,1,0,0:0:0:0:
36,192,183916,1,0,0:0:0:0:
182,192,183916,1,0,0:0:0:0:
256,192,184087,1,0,0:0:0:0:
475,192,184087,1,0,0:0:0:0:
109,192,184259,1,0,0:0:0:0:
329,192,184259,1,0,0:0:0:0:
182,192,184430,1,0,0:0:0:0:
475,192,184430,1,0,0:0:0:0:
329,192,184516,1,0,0:0:0:0:
256,192,184602,1,0,0:0:0:0:
402,192,184602,1,0,0:0:0:0:
182,192,184687,1,0,0:0:0:0:
36,192,184773,1,0,0:0:0:0:
475,192,184773,1,0,0:0:0:0:
182,192,184944,1,0,0:0:0:0:
402,192,184944,1,0,0:0:0:0:
109,192,185116,1,0,0:0:0:0:
329,192,185116,1,0,0:0:0:0:
256,192,185202,1,0,0:0:0:0:
36,192,185287,1,0,0:0:0:0:
182,192,185287,1,0,0:0:0:0:
329,192,185459,1,0,0:0:0:0:
475,192,185459,1,0,0:0:0:0:
182,192,185630,1,0,0:0:0:0:
402,192,185630,1,0,0:0:0:0:
109,192,185802,1,0,0:0:0:0:
329,192,185802,1,0,0:0:0:0:
256,192,185887,1,0,0:0:0:0:
36,192,185973,1,0,0:0:0:0:
402,192,185973,1,0,0:0:0:0:
109,192,186144,1,0,0:0:0:0:
475,192,186144,1,0,0:0:0:0:
256,192,186316,1,0,0:0:0:0:
402,192,186316,1,0,0:0:0:0:
109,192,186487,1,0,0:0:0:0:
329,192,186487,1,0,0:0:0:0:
256,192,186573,1,0,0:0:0:0:
182,192,186659,1,0,0:0:0:0:
475,192,186659,1,0,0:0:0:0:
182,192,186830,1,0,0:0:0:0:
329,192,186830,1,0,0:0:0:0:
36,192,187002,1,0,0:0:0:0:
109,192,187002,1,0,0:0:0:0:
182,192,187173,1,0,0:0:0:0:
402,192,187173,1,0,0:0:0:0:
475,192,187259,1,0,0:0:0:0:
329,192,187344,1,0,0:0:0:0:
36,192,187344,1,0,0:0:0:0:
402,192,187430,1,0,0:0:0:0:
182,192,187516,1,0,0:0:0:0:
475,192,187516,1,0,0:0:0:0:
109,192,187687,1,0,0:0:0:0:
329,192,187687,1,0,0:0:0:0:
36,192,187859,1,0,0:0:0:0:
256,192,187859,1,0,0:0:0:0:
329,192,187944,1,0,0:0:0:0:
182,192,188030,1,0,0:0:0:0:
402,192,188030,1,0,0:0:0:0:
329,192,188202,1,0,0:0:0:0:
475,192,188202,1,0,0:0:0:0:
109,192,188373,1,0,0:0:0:0:
256,192,188373,1,0,0:0:0:0:
182,192,188544,1,0,0:0:0:0:
402,192,188544,1,0,0:0:0:0:
329,192,188630,1,0,0:0:0:0:
36,192,188716,1,0,0:0:0:0:
256,192,188716,1,0,0:0:0:0:
182,192,188887,1,0,0:0:0:0:
329,192,188887,1,0,0:0:0:0:
256,192,189059,1,0,0:0:0:0:
475,192,189059,1,0,0:0:0:0:
36,192,189230,1,0,0:0:0:0:
329,192,189230,1,0,0:0:0:0:
256,192,189316,1,0,0:0:0:0:
182,192,189402,1,0,0:0:0:0:
475,192,189402,1,0,0:0:0:0:
36,192,189573,1,0,0:0:0:0:
329,192,189573,1,0,0:0:0:0:
256,192,189744,1,0,0:0:0:0:
182,192,189916,1,0,0:0:0:0:
402,192,189916,1,0,0:0:0:0:
256,192,190002,1,0,0:0:0:0:
36,192,190087,1,0,0:0:0:0:
329,192,190087,1,0,0:0:0:0:
109,192,190173,1,0,0:0:0:0:
182,192,190259,1,0,0:0:0:0:
329,192,190259,1,0,0:0:0:0:
256,192,190430,1,0,0:0:0:0:
475,192,190430,1,0,0:0:0:0:
109,192,190602,1,0,0:0:0:0:
329,192,190602,1,0,0:0:0:0:
256,192,190687,1,0,0:0:0:0:
36,192,190773,1,0,0:0:0:0:
182,192,190773,1,0,0:0:0:0:
256,192,190944,1,0,0:0:0:0:
402,192,190944,1,0,0:0:0:0:
329,192,191116,1,0,0:0:0:0:
475,192,191116,1,0,0:0:0:0:
109,192,191287,1,0,0:0:0:0:
182,192,191287,1,0,0:0:0:0:
256,192,191373,1,0,0:0:0:0:
329,192,191459,1,0,0:0:0:0:
402,192,191459,1,0,0:0:0:0:
109,192,191630,1,0,0:0:0:0:
475,192,191630,1,0,0:0:0:0:
182,192,191802,1,0,0:0:0:0:
402,192,191802,1,0,0:0:0:0:
36,192,191973,1,0,0:0:0:0:
329,192,191973,1,0,0:0:0:0:
256,192,192059,1,0,0:0:0:0:
36,192,192144,1,0,0:0:0:0:
182,192,192144,1,0,0:0:0:0:
256,192,192316,1,0,0:0:0:0:
475,192,192316,1,0,0:0:0:0:
329,192,192487,1,0,0:0:0:0:
402,192,192487,1,0,0:0:0:0:
36,192,192659,1,0,0:0:0:0:
256,192,192659,1,0,0:0:0:0:
182,192,192744,1,0,0:0:0:0:
109,192,192830,1,0,0:0:0:0:
402,192,192830,1,0,0:0:0:0:
329,192,192916,1,0,0:0:0:0:
36,192,193002,1,0,0:0:0:0:
256,192,193002,1,0,0:0:0:0:
182,192,193173,1,0,0:0:0:0:
256,192,193173,1,0,0:0:0:0:
109,192,193344,1,0,0:0:0:0:
475,192,193344,1,0,0:0:0:0:
256,192,193430,1,0,0:0:0:0:
109,192,193516,1,0,0:0:0:0:
329,192,193516,1,0,0:0:0:0:
182,192,193687,1,0,0:0:0:0:
329,192,193687,1,0,0:0:0:0:
36,192,193859,1,0,0:0:0:0:
256,192,193859,1,0,0:0:0:0:
109,192,194030,1,0,0:0:0:0:
402,192,194030,1,0,0:0:0:0:
329,192,194116,1,0,0:0:0:0:
182,192,194202,1,0,0:0:0:0:
402,192,194202,1,0,0:0:0:0:
36,192,194373,1,0,0:0:0:0:
475,192,194373,1,0,0:0:0:0:
182,192,194544,1,0,0:0:0:0:
329,192,194544,1,0,0:0:0:0:
36,192,194716,1,0,0:0:0:0:
256,192,194716,1,0,0:0:0:0:
109,192,194802,1,0,0:0:0:0:
329,192,194887,1,0,0:0:0:0:
475,192,194887,1,0,0:0:0:0:
36,192,195059,1,0,0:0:0:0:
256,192,195059,1,0,0:0:0:0:
182,192,195230,1,0,0:0:0:0:
402,192,195230,1,0,0:0:0:0:
36,192,195402,1,0,0:0:0:0:
329,192,195402,1,0,0:0:0:0:
182,192,195487,1,0,0:0:0:0:
109,192,195573,1,0,0:0:0:0:
256,192,195573,1,0,0:0:0:0:
329,192,195659,1,0,0:0:0:0:
36,192,195744,1,0,0:0:0:0:
475,192,195744,1,0,0:0:0:0:
109,192,195916,1,0,0:0:0:0:
329,192,195916,1,0,0:0:0:0:
182,192,196087,1,0,0:0:0:0:
402,192,196087,1,0,0:0:0:0:
256,192,196173,1,0,0:0:0:0:
329,192,196259,1,0,0:0:0:0:
475,192,196259,1,0,0:0:0:0:
36,192,196430,1,0,0:0:0:0:
182,192,196430,1,0,0:0:0:0:
109,192,196602,1,0,0:0:0:0:
329,192,196602,1,0,0:0:0:0:
182,192,196773,1,0,0:0:0:0:
402,192,196773,1,0,0:0:0:0:
256,192,196859,1,0,0:0:0:0:
109,192,196944,1,0,0:0:0:0:
402,192,196944,1,0,0:0:0:0:
36,192,197116,1,0,0:0:0:0:
475,192,197116,1,0,0:0:0:0:
109,192,197287,1,0,0:0:0:0:
256,192,197287,1,0,0:0:0:0:
182,192,197459,1,0,0:0:0:0:
402,192,197459,1,0,0:0:0:0:
256,192,197544,1,0,0:0:0:0:
36,192,197630,1,0,0:0:0:0:
329,192,197630,1,0,0:0:0:0:
182,192,197802,1,0,0:0:0:0:
329,192,197802,1,0,0:0:0:0:
402,192,197973,1,0,0:0:0:0:
475,192,197973,1,0,0:0:0:0:
182,192,198144,1,0,0:0:0:0:
329,192,198144,1,0,0:0:0:0:
109,192,198230,1,0,0:0:0:0:
402,192,198316,1,0,0:0:0:0:
256,192,198316,1,0,0:0:0:0:
182,192,198402,1,0,0:0:0:0:
36,192,198487,1,0,0:0:0:0:
109,192,198487,1,0,0:0:0:0:
182,192,198659,1,0,0:0:0:0:
402,192,198659,1,0,0:0:0:0:
256,192,198830,1,0,0:0:0:0:
475,192,198830,1,0,0:0:0:0:
182,192,198916,1,0,0:0:0:0:
109,192,199002,1,0,0:0:0:0:
329,192,199002,1,0,0:0:0:0:
36,192,199173,1,0,0:0:0:0:
182,192,199173,1,0,0:0:0:0:
256,192,199344,1,0,0:0:0:0:
402,192,199344,1,0,0:0:0:0:
109,192,199516,1,0,0:0:0:0:
329,192,199516,1,0,0:0:0:0:
182,192,199602,1,0,0:0:0:0:
256,192,199687,1,0,0:0:0:0:
475,192,199687,1,0,0:0:0:0:
182,192,199859,1,0,0:0:0:0:
329,192,199859,1,0,0:0:0:0:
36,192,200030,1,0,0:0:0:0:
256,192,200030,1,0,0:0:0:0:
182,192,200202,1,0,0:0:0:0:
402,192,200202,1,0,0:0:0:0:
256,192,200287,1,0,0:0:0:0:
36,192,200373,1,0,0:0:0:0:
329,192,200373,1,0,0:0:0:0:
109,192,200544,1,0,0:0:0:0:
402,192,200544,1,0,0:0:0:0:
256,192,200716,1,0,0:0:0:0:
475,192,200716,1,0,0:0:0:0:
109,192,200887,1,0,0:0:0:0:
329,192,200887,1,0,0:0:0:0:
256,192,200973,1,0,0:0:0:0:
182,192,201059,1,0,0:0:0:0:
475,192,201059,1,0,0:0:0:0:
402,192,201144,1,0,0:0:0:0:
182,192,201230,1,0,0:0:0:0:
329,192,201230,1,0,0:0:0:0:
36,192,201402,1,0,0:0:0:0:
256,192,201402,1,0,0:0:0:0:
182,192,201573,1,0,0:0:0:0:
402,192,201573,1,0,0:0:0:0:
256,192,201659,1,0,0:0:0:0:
329,192,201744,1,0,0:0:0:0:
475,192,201744,1,0,0:0:0:0:
109,192,201916,1,0,0:0:0:0:
256,192,201916,1,0,0:0:0:0:
36,192,202087,1,0,0:0:0:0:
182,192,202087,1,0,0:0:0:0:
329,192,202259,1,0,0:0:0:0:
475,192,202259,1,0,0:0:0:0:
256,192,202344,1,0,0:0:0:0:
109,192,202430,1,0,0:0:0:0:
182,192,202430,1,0,0:0:0:0:
36,192,202602,1,0,0:0:0:0:
402,192,202602,1,0,0:0:0:0:
109,192,202773,1,0,0:0:0:0:
329,192,202773,1,0,0:0:0:0:
36,192,202859,1,0,0:0:0:0:
182,192,202944,1,0,0:0:0:0:
475,192,202944,1,0,0:0:0:0:
256,192,203030,1,0,0:0:0:0:
329,192,203116,1,0,0:0:0:0:
475,192,203116,1,0,0:0:0:0:
182,192,203202,1,0,0:0:0:0:
36,192,203287,1,0,0:0:0:0:
256,192,203287,1,0,0:0:0:0:
109,192,203459,1,0,0:0:0:0:
182,192,203459,1,0,0:0:0:0:
36,192,203544,1,0,0:0:0:0:
256,192,203630,1,0,0:0:0:0:
475,192,203630,1,0,0:0:0:0:
329,192,203716,1,0,0:0:0:0:
109,192,203802,1,0,0:0:0:0:
402,192,203802,1,0,0:0:0:0:
182,192,203887,1,0,0:0:0:0:
36,192,203973,1,4,0:0:0:0:
256,192,203973,1,0,0:0:0:0:
329,192,203973,1,0,0:0:0:0:
475,192,203973,1,0,0:0:0:0:
182,192,204144,1,0,0:0:0:0:
256,192,204144,1,0,0:0:0:0:
109,192,204316,1,0,0:0:0:0:
475,192,204316,1,0,0:0:0:0:
402,192,204316,1,0,0:0:0:0:
256,192,204402,1,0,0:0:0:0:
109,192,204487,1,0,0:0:0:0:
329,192,204487,1,0,0:0:0:0:
182,192,204659,1,0,0:0:0:0:
329,192,204659,1,0,0:0:0:0:
475,192,204659,1,0,0:0:0:0:
36,192,204830,1,0,0:0:0:0:
256,192,204830,1,0,0:0:0:0:
109,192,205002,1,0,0:0:0:0:
402,192,205002,1,0,0:0:0:0:
182,192,205002,1,0,0:0:0:0:
329,192,205087,1,0,0:0:0:0:
182,192,205173,1,0,0:0:0:0:
402,192,205173,1,0,0:0:0:0:
36,192,205344,1,0,0:0:0:0:
475,192,205344,1,0,0:0:0:0:
256,192,205344,1,0,0:0:0:0:
182,192,205516,1,0,0:0:0:0:
329,192,205516,1,0,0:0:0:0:
36,192,205687,1,0,0:0:0:0:
256,192,205687,1,0,0:0:0:0:
402,192,205687,1,0,0:0:0:0:
109,192,205773,1,0,0:0:0:0:
329,192,205859,1,0,0:0:0:0:
475,192,205859,1,0,0:0:0:0:
36,192,206030,1,0,0:0:0:0:
256,192,206030,1,0,0:0:0:0:
109,192,206030,1,0,0:0:0:0:
182,192,206202,1,0,0:0:0:0:
402,192,206202,1,0,0:0:0:0:
36,192,206373,1,0,0:0:0:0:
329,192,206373,1,0,0:0:0:0:
475,192,206373,1,0,0:0:0:0:
182,192,206459,1,0,0:0:0:0:
109,192,206544,1,0,0:0:0:0:
256,192,206544,1,0,0:0:0:0:
329,192,206630,1,0,0:0:0:0:
36,192,206716,1,0,0:0:0:0:
475,192,206716,1,0,0:0:0:0:
182,192,206716,1,0,0:0:0:0:
109,192,206887,1,0,0:0:0:0:
329,192,206887,1,0,0:0:0:0:
182,192,207059,1,0,0:0:0:0:
402,192,207059,1,0,0:0:0:0:
36,192,207059,1,0,0:0:0:0:
256,192,207144,1,0,0:0:0:0:
329,192,207230,1,0,0:0:0:0:
475,192,207230,1,0,0:0:0:0:
36,192,207402,1,0,0:0:0:0:
182,192,207402,1,0,0:0:0:0:
402,192,207402,1,0,0:0:0:0:
109,192,207573,1,0,0:0:0:0:
329,192,207573,1,0,0:0:0:0:
182,192,207744,1,0,0:0:0:0:
402,192,207744,1,0,0:0:0:0:
36,192,207744,1,0,0:0:0:0:
256,192,207830,1,0,0:0:0:0:
109,192,207916,1,0,0:0:0:0:
475,192,207916,1,0,0:0:0:0:
36,192,208087,1,0,0:0:0:0:
402,192,208087,1,0,0:0:0:0:
329,192,208087,1,0,0:0:0:0:
109,192,208259,1,0,0:0:0:0:
256,192,208259,1,0,0:0:0:0:
182,192,208430,1,0,0:0:0:0:
402,192,208430,1,0,0:0:0:0:
475,192,208430,1,0,0:0:0:0:
256,192,208516,1,0,0:0:0:0:
36,192,208602,1,0,0:0:0:0:
329,192,208602,1,0,0:0:0:0:
182,192,208773,1,0,0:0:0:0:
329,192,208773,1,0,0:0:0:0:
109,192,208773,1,0,0:0:0:0:
402,192,208944,1,0,0:0:0:0:
475,192,208944,1,0,0:0:0:0:
182,192,209116,1,0,0:0:0:0:
329,192,209116,1,0,0:0:0:0:
256,192,209116,1,0,0:0:0:0:
109,192,209202,1,0,0:0:0:0:
36,192,209287,1,0,0:0:0:0:
329,192,209287,1,0,0:0:0:0:
256,192,209373,1,0,0:0:0:0:
36,192,209459,1,0,0:0:0:0:
475,192,209459,1,0,0:0:0:0:
182,192,209459,1,0,0:0:0:0:
182,192,209630,1,0,0:0:0:0:
402,192,209630,1,0,0:0:0:0:
256,192,209802,1,0,0:0:0:0:
475,192,209802,1,0,0:0:0:0:
36,192,209802,1,0,0:0:0:0:
182,192,209887,1,0,0:0:0:0:
109,192,209973,1,0,0:0:0:0:
329,192,209973,1,0,0:0:0:0:
36,192,210144,1,0,0:0:0:0:
182,192,210144,1,0,0:0:0:0:
475,192,210144,1,0,0:0:0:0:
256,192,210316,1,0,0:0:0:0:
402,192,210316,1,0,0:0:0:0:
109,192,210487,1,0,0:0:0:0:
329,192,210487,1,0,0:0:0:0:
36,192,210487,1,0,0:0:0:0:
182,192,210573,1,0,0:0:0:0:
256,192,210659,1,0,0:0:0:0:
475,192,210659,1,0,0:0:0:0:
182,192,210830,1,0,0:0:0:0:
329,192,210830,1,0,0:0:0:0:
109,192,210830,1,0,0:0:0:0:
36,192,211002,1,0,0:0:0:0:
256,192,211002,1,0,0:0:0:0:
182,192,211173,1,0,0:0:0:0:
402,192,211173,1,0,0:0:0:0:
475,192,211173,1,0,0:0:0:0:
256,192,211259,1,0,0:0:0:0:
36,192,211344,1,0,0:0:0:0:
329,192,211344,1,0,0:0:0:0:
109,192,211516,1,0,0:0:0:0:
402,192,211516,1,0,0:0:0:0:
182,192,211516,1,0,0:0:0:0:
256,192,211687,1,0,0:0:0:0:
109,192,211859,1,0,0:0:0:0:
329,192,211859,1,0,0:0:0:0:
36,192,211859,1,0,0:0:0:0:
256,192,211944,1,0,0:0:0:0:
182,192,212030,1,0,0:0:0:0:
475,192,212030,1,0,0:0:0:0:
402,192,212116,1,0,0:0:0:0:
182,192,212202,1,0,0:0:0:0:
329,192,212202,1,0,0:0:0:0:
109,192,212202,1,0,0:0:0:0:
36,192,212373,1,0,0:0:0:0:
256,192,212373,1,0,0:0:0:0:
182,192,212544,1,0,0:0:0:0:
402,192,212544,1,0,0:0:0:0:
109,192,212544,1,0,0:0:0:0:
256,192,212630,1,0,0:0:0:0:
329,192,212716,1,0,0:0:0:0:
475,192,212716,1,0,0:0:0:0:
109,192,212887,1,0,0:0:0:0:
256,192,212887,1,0,0:0:0:0:
402,192,212887,1,0,0:0:0:0:
36,192,213059,1,0,0:0:0:0:
182,192,213059,1,0,0:0:0:0:
329,192,213230,1,0,0:0:0:0:
402,192,213230,1,0,0:0:0:0:
475,192,213230,1,0,0:0:0:0:
256,192,213316,1,0,0:0:0:0:
109,192,213402,1,0,0:0:0:0:
182,192,213402,1,0,0:0:0:0:
36,192,213573,1,0,0:0:0:0:
402,192,213573,1,0,0:0:0:0:
475,192,213573,1,0,0:0:0:0:
109,192,213744,1,0,0:0:0:0:
329,192,213744,1,0,0:0:0:0:
182,192,213916,1,0,0:0:0:0:
475,192,213916,1,0,0:0:0:0:
36,192,213916,1,0,0:0:0:0:
256,192,214002,1,0,0:0:0:0:
329,192,214087,1,0,0:0:0:0:
475,192,214087,1,0,0:0:0:0:
36,192,214259,1,0,0:0:0:0:
256,192,214259,1,0,0:0:0:0:
402,192,214259,1,0,0:0:0:0:
109,192,214430,1,0,0:0:0:0:
182,192,214430,1,0,0:0:0:0:
256,192,214602,1,0,0:0:0:0:
475,192,214602,1,0,0:0:0:0:
36,192,214602,1,0,0:0:0:0:
329,192,214687,1,0,0:0:0:0:
109,192,214773,1,0,0:0:0:0:
402,192,214773,1,0,0:0:0:0:
182,192,214859,1,0,0:0:0:0:
256,192,214944,1,0,0:0:0:0:
475,192,214944,1,0,0:0:0:0:
36,192,214944,1,0,0:0:0:0:
256,192,215116,1,0,0:0:0:0:
329,192,215116,1,0,0:0:0:0:
36,192,215287,1,0,0:0:0:0:
402,192,215287,1,0,0:0:0:0:
109,192,215287,1,0,0:0:0:0:
256,192,215373,1,0,0:0:0:0:
182,192,215459,1,0,0:0:0:0:
402,192,215459,1,0,0:0:0:0:
182,192,215630,1,0,0:0:0:0:
329,192,215630,1,0,0:0:0:0:
36,192,215630,1,0,0:0:0:0:
256,192,215802,1,0,0:0:0:0:
475,192,215802,1,0,0:0:0:0:
109,192,215973,1,0,0:0:0:0:
402,192,215973,1,0,0:0:0:0:
329,192,215973,1,0,0:0:0:0:
182,192,216059,1,0,0:0:0:0:
109,192,216144,1,0,0:0:0:0:
329,192,216144,1,0,0:0:0:0:
36,192,216316,1,0,0:0:0:0:
475,192,216316,1,0,0:0:0:0:
402,192,216316,1,0,0:0:0:0:
182,192,216487,1,0,0:0:0:0:
329,192,216487,1,0,0:0:0:0:
256,192,216659,1,0,0:0:0:0:
475,192,216659,1,0,0:0:0:0:
109,192,216659,1,0,0:0:0:0:
402,192,216744,1,0,0:0:0:0:
36,192,216830,1,0,0:0:0:0:
182,192,216830,1,0,0:0:0:0:
256,192,217002,1,0,0:0:0:0:
475,192,217002,1,0,0:0:0:0:
402,192,217002,1,0,0:0:0:0:
109,192,217173,1,0,0:0:0:0:
329,192,217173,1,0,0:0:0:0:
182,192,217344,1,0,0:0:0:0:
475,192,217344,1,0,0:0:0:0:
36,192,217344,1,0,0:0:0:0:
329,192,217430,1,0,0:0:0:0:
256,192,217516,1,0,0:0:0:0:
402,192,217516,1,0,0:0:0:0:
182,192,217602,1,0,0:0:0:0:
36,192,217687,1,0,0:0:0:0:
475,192,217687,1,0,0:0:0:0:
329,192,217687,1,0,0:0:0:0:
182,192,217859,1,0,0:0:0:0:
402,192,217859,1,0,0:0:0:0:
109,192,218030,1,0,0:0:0:0:
329,192,218030,1,0,0:0:0:0:
475,192,218030,1,0,0:0:0:0:
256,192,218116,1,0,0:0:0:0:
36,192,218202,1,0,0:0:0:0:
182,192,218202,1,0,0:0:0:0:
329,192,218373,1,0,0:0:0:0:
475,192,218373,1,0,0:0:0:0:
109,192,218373,1,0,0:0:0:0:
182,192,218544,1,0,0:0:0:0:
402,192,218544,1,0,0:0:0:0:
109,192,218716,1,0,0:0:0:0:
329,192,218716,1,0,0:0:0:0:
475,192,218716,1,0,0:0:0:0:
256,192,218802,1,0,0:0:0:0:
36,192,218887,1,0,0:0:0:0:
402,192,218887,1,0,0:0:0:0:
109,192,219059,1,0,0:0:0:0:
475,192,219059,1,0,0:0:0:0:
182,192,219059,1,0,0:0:0:0:
256,192,219230,1,0,0:0:0:0:
402,192,219230,1,0,0:0:0:0:
109,192,219402,1,0,0:0:0:0:
329,192,219402,1,0,0:0:0:0:
36,192,219402,1,0,0:0:0:0:
256,192,219487,1,0,0:0:0:0:
182,192,219573,1,0,0:0:0:0:
475,192,219573,1,0,0:0:0:0:
182,192,219744,1,0,0:0:0:0:
329,192,219744,1,0,0:0:0:0:
402,192,219744,1,0,0:0:0:0:
109,192,219916,1,0,0:0:0:0:
256,192,219916,1,0,0:0:0:0:
182,192,220087,1,0,0:0:0:0:
329,192,220087,1,0,0:0:0:0:
36,192,220087,1,0,0:0:0:0:
402,192,220173,1,0,0:0:0:0:
256,192,220259,1,0,0:0:0:0:
475,192,220259,1,0,0:0:0:0:
329,192,220344,1,0,0:0:0:0:
402,192,220430,1,0,0:0:0:0:
475,192,220430,1,0,0:0:0:0:
182,192,220430,1,0,0:0:0:0:
109,192,220602,1,0,0:0:0:0:
329,192,220602,1,0,0:0:0:0:
36,192,220773,1,0,0:0:0:0:
256,192,220773,1,0,0:0:0:0:
475,192,220773,1,0,0:0:0:0:
329,192,220859,1,0,0:0:0:0:
182,192,220944,1,0,0:0:0:0:
402,192,220944,1,0,0:0:0:0:
329,192,221116,1,0,0:0:0:0:
475,192,221116,1,0,0:0:0:0:
36,192,221116,1,0,0:0:0:0:
109,192,221287,1,0,0:0:0:0:
256,192,221287,1,0,0:0:0:0:
182,192,221459,1,0,0:0:0:0:
402,192,221459,1,0,0:0:0:0:
475,192,221459,1,0,0:0:0:0:
329,192,221544,1,0,0:0:0:0:
36,192,221630,1,0,0:0:0:0:
256,192,221630,1,0,0:0:0:0:
182,192,221802,1,0,0:0:0:0:
329,192,221802,1,0,0:0:0:0:
109,192,221802,1,0,0:0:0:0:
256,192,221973,1,0,0:0:0:0:
475,192,221973,1,0,0:0:0:0:
109,192,222144,1,0,0:0:0:0:
329,192,222144,1,0,0:0:0:0:
36,192,222144,1,0,0:0:0:0:
256,192,222230,1,0,0:0:0:0:
182,192,222316,1,0,0:0:0:0:
475,192,222316,1,0,0:0:0:0:
109,192,222487,1,0,0:0:0:0:
402,192,222487,1,0,0:0:0:0:
329,192,222487,1,0,0:0:0:0:
256,192,222659,1,0,0:0:0:0:
36,192,222659,1,0,0:0:0:0:
182,192,222830,1,0,0:0:0:0:
402,192,222830,1,0,0:0:0:0:
475,192,222830,1,0,0:0:0:0:
256,192,222916,1,0,0:0:0:0:
36,192,223002,1,0,0:0:0:0:
329,192,223002,1,0,0:0:0:0:
109,192,223087,1,0,0:0:0:0:
182,192,223173,1,0,0:0:0:0:
329,192,223173,1,0,0:0:0:0:
402,192,223173,1,0,0:0:0:0:
256,192,223344,1,0,0:0:0:0:
475,192,223344,1,0,0:0:0:0:
109,192,223516,1,0,0:0:0:0:
329,192,223516,1,0,0:0:0:0:
402,192,223516,1,0,0:0:0:0:
256,192,223602,1,0,0:0:0:0:
36,192,223687,1,0,0:0:0:0:
182,192,223687,1,0,0:0:0:0:
256,192,223859,1,0,0:0:0:0:
402,192,223859,1,0,0:0:0:0:
109,192,223859,1,0,0:0:0:0:
329,192,224030,1,0,0:0:0:0:
475,192,224030,1,0,0:0:0:0:
109,192,224202,1,0,0:0:0:0:
182,192,224202,1,0,0:0:0:0:
36,192,224202,1,0,0:0:0:0:
256,192,224287,1,0,0:0:0:0:
329,192,224373,1,0,0:0:0:0:
402,192,224373,1,0,0:0:0:0:
36,192,224544,128,0,224630:0:0:0:0:
402,192,224544,128,8,224630:0:0:0:0:
475,192,224544,128,0,224630:0:0:0:0:
256,192,224544,128,0,224630:0:0:0:0:
109,192,224716,1,0,0:0:0:0:
256,192,224802,1,0,0:0:0:0:
329,192,224802,1,0,0:0:0:0:
36,192,224887,1,0,0:0:0:0:
182,192,224887,1,0,0:0:0:0:
256,192,224973,1,0,0:0:0:0:
329,192,224973,1,0,0:0:0:0:
109,192,225059,128,8,225144:0:0:0:0:
182,192,225059,128,0,225144:0:0:0:0:
475,192,225059,128,0,225144:0:0:0:0:
36,192,225059,128,0,225144:0:0:0:0:
329,192,225230,1,0,0:0:0:0:
182,192,225316,1,0,0:0:0:0:
256,192,225316,1,0,0:0:0:0:
402,192,225402,1,0,0:0:0:0:
475,192,225402,1,0,0:0:0:0:
109,192,225487,1,0,0:0:0:0:
182,192,225487,1,0,0:0:0:0:
36,192,225573,128,0,225659:0:0:0:0:
256,192,225573,128,0,225659:0:0:0:0:
475,192,225573,128,0,225659:0:0:0:0:
402,192,225573,128,8,225659:0:0:0:0:
329,192,225744,1,0,0:0:0:0:
182,192,225830,1,0,0:0:0:0:
256,192,225830,1,0,0:0:0:0:
36,192,225916,1,2,0:0:0:0:
109,192,225916,1,4,0:0:0:0:
402,192,225916,1,0,0:0:0:0:
329,192,225916,1,0,0:0:0:0:
475,192,225916,1,0,0:0:0:0:
256,192,226002,1,0,0:0:0:0:
182,192,226087,1,0,0:0:0:0:
475,192,226087,1,0,0:0:0:0:
109,192,226173,1,0,0:0:0:0:
402,192,226173,1,0,0:0:0:0:
36,192,226259,1,2,0:0:0:0:
256,192,226259,1,8,0:0:0:0:
329,192,226259,1,0,0:0:0:0:
475,192,226259,1,0,0:0:0:0:
182,192,226344,1,0,0:0:0:0:
109,192,226430,1,0,0:0:0:0:
329,192,226430,1,0,0:0:0:0:
402,192,226516,1,0,0:0:0:0:
475,192,226516,1,0,0:0:0:0:
36,192,226602,1,2,0:0:0:0:
182,192,226602,1,0,0:0:0:0:
256,192,226602,1,0,0:0:0:0:
402,192,226687,1,0,0:0:0:0:
36,192,226773,1,0,0:0:0:0:
256,192,226773,1,0,0:0:0:0:
182,192,226859,1,0,0:0:0:0:
329,192,226859,1,0,0:0:0:0:
36,192,226944,1,2,0:0:0:0:
109,192,226944,1,8,0:0:0:0:
402,192,226944,1,0,0:0:0:0:
475,192,226944,1,0,0:0:0:0:
256,192,227030,1,0,0:0:0:0:
402,192,227116,1,0,0:0:0:0:
475,192,227116,1,0,0:0:0:0:
36,192,227202,1,0,0:0:0:0:
182,192,227202,1,0,0:0:0:0:
109,192,227287,1,2,0:0:0:0:
329,192,227287,1,0,0:0:0:0:
402,192,227287,1,0,0:0:0:0:
256,192,227373,1,0,0:0:0:0:
36,192,227459,1,0,0:0:0:0:
402,192,227459,1,0,0:0:0:0:
182,192,227544,1,0,0:0:0:0:
256,192,227544,1,0,0:0:0:0:
109,192,227630,1,2,0:0:0:0:
329,192,227630,1,8,0:0:0:0:
402,192,227630,1,0,0:0:0:0:
475,192,227630,1,0,0:0:0:0:
36,192,227716,1,0,0:0:0:0:
182,192,227802,1,0,0:0:0:0:
402,192,227802,1,0,0:0:0:0:
256,192,227887,1,0,0:0:0:0:
475,192,227887,1,0,0:0:0:0:
36,192,227973,1,2,0:0:0:0:
109,192,227973,1,0,0:0:0:0:
329,192,227973,1,0,0:0:0:0:
475,192,228059,1,0,0:0:0:0:
36,192,228144,1,0,0:0:0:0:
182,192,228144,1,0,0:0:0:0:
256,192,228230,1,0,0:0:0:0:
402,192,228230,1,0,0:0:0:0:
36,192,228316,1,2,0:0:0:0:
109,192,228316,1,8,0:0:0:0:
329,192,228316,1,0,0:0:0:0:
475,192,228316,1,0,0:0:0:0:
182,192,228402,1,0,0:0:0:0:
36,192,228487,1,2,0:0:0:0:
256,192,228487,1,0,0:0:0:0:
402,192,228487,1,0,0:0:0:0:
475,192,228573,1,0,0:0:0:0:
36,192,228659,1,2,0:0:0:0:
182,192,228659,1,0,0:0:0:0:
329,192,228659,1,0,0:0:0:0:
256,192,228744,1,0,0:0:0:0:
109,192,228830,1,0,0:0:0:0:
402,192,228830,1,0,0:0:0:0:
36,192,228916,1,0,0:0:0:0:
329,192,228916,1,0,0:0:0:0:
182,192,229002,1,8,0:0:0:0:
256,192,229002,1,2,0:0:0:0:
402,192,229002,1,0,0:0:0:0:
475,192,229002,1,0,0:0:0:0:
36,192,229087,1,0,0:0:0:0:
256,192,229173,1,0,0:0:0:0:
402,192,229173,1,0,0:0:0:0:
182,192,229259,1,0,0:0:0:0:
475,192,229259,1,0,0:0:0:0:
36,192,229344,1,2,0:0:0:0:
109,192,229344,1,0,0:0:0:0:
329,192,229344,1,0,0:0:0:0:
402,192,229430,1,0,0:0:0:0:
109,192,229516,1,0,0:0:0:0:
475,192,229516,1,0,0:0:0:0:
36,192,229602,1,0,0:0:0:0:
256,192,229602,1,0,0:0:0:0:
182,192,229687,1,2,0:0:0:0:
329,192,229687,1,8,0:0:0:0:
402,192,229687,1,0,0:0:0:0:
475,192,229687,1,0,0:0:0:0:
109,192,229773,1,0,0:0:0:0:
36,192,229859,1,0,0:0:0:0:
256,192,229859,1,0,0:0:0:0:
329,192,229944,1,0,0:0:0:0:
475,192,229944,1,0,0:0:0:0:
36,192,230030,1,2,0:0:0:0:
109,192,230030,1,0,0:0:0:0:
182,192,230030,1,0,0:0:0:0:
402,192,230116,1,0,0:0:0:0:
36,192,230202,1,2,0:0:0:0:
329,192,230202,1,0,0:0:0:0:
475,192,230202,1,0,0:0:0:0:
256,192,230287,1,0,0:0:0:0:
36,192,230373,1,2,0:0:0:0:
109,192,230373,1,8,0:0:0:0:
402,192,230373,1,0,0:0:0:0:
475,192,230373,1,0,0:0:0:0:
329,192,230416,1,0,0:0:0:0:
256,192,230459,1,0,0:0:0:0:
182,192,230502,1,0,0:0:0:0:
109,192,230544,1,0,0:0:0:0:
475,192,230544,1,0,0:0:0:0:
402,192,230587,1,0,0:0:0:0:
329,192,230630,1,0,0:0:0:0:
256,192,230673,1,0,0:0:0:0:
109,192,230716,1,2,0:0:0:0:
475,192,230716,1,0,0:0:0:0:
182,192,230716,1,0,0:0:0:0:
36,192,230802,1,0,0:0:0:0:
182,192,230887,1,2,0:0:0:0:
402,192,230887,1,0,0:0:0:0:
475,192,230887,1,0,0:0:0:0:
36,192,230973,1,2,0:0:0:0:
109,192,230973,1,0,0:0:0:0:
329,192,230973,1,0,0:0:0:0:
182,192,231059,1,8,0:0:0:0:
256,192,231059,1,2,0:0:0:0:
402,192,231059,1,0,0:0:0:0:
475,192,231059,1,0,0:0:0:0:
109,192,231144,1,0,0:0:0:0:
36,192,231230,1,2,0:0:0:0:
256,192,231230,1,0,0:0:0:0:
475,192,231230,1,0,0:0:0:0:
329,192,231316,1,0,0:0:0:0:
36,192,231402,1,2,0:0:0:0:
182,192,231402,1,0,0:0:0:0:
402,192,231402,1,0,0:0:0:0:
109,192,231487,1,0,0:0:0:0:
329,192,231573,1,0,0:0:0:0:
475,192,231573,1,0,0:0:0:0:
109,192,231659,1,0,0:0:0:0:
256,192,231659,1,0,0:0:0:0:
36,192,231744,1,8,0:0:0:0:
182,192,231744,1,2,0:0:0:0:
402,192,231744,1,0,0:0:0:0:
475,192,231744,1,0,0:0:0:0:
109,192,231830,1,0,0:0:0:0:
256,192,231916,1,0,0:0:0:0:
402,192,231916,1,0,0:0:0:0:
329,192,232002,1,0,0:0:0:0:
475,192,232002,1,0,0:0:0:0:
36,192,232087,1,2,0:0:0:0:
402,192,232087,1,0,0:0:0:0:
109,192,232087,1,0,0:0:0:0:
256,192,232173,1,0,0:0:0:0:
109,192,232259,1,0,0:0:0:0:
475,192,232259,1,0,0:0:0:0:
256,192,232344,1,0,0:0:0:0:
402,192,232344,1,0,0:0:0:0:
36,192,232430,1,2,0:0:0:0:
109,192,232430,1,8,0:0:0:0:
182,192,232430,1,0,0:0:0:0:
475,192,232430,1,0,0:0:0:0:
256,192,232516,1,0,0:0:0:0:
109,192,232602,1,0,0:0:0:0:
402,192,232602,1,0,0:0:0:0:
182,192,232687,1,0,0:0:0:0:
475,192,232687,1,0,0:0:0:0:
36,192,232773,1,2,0:0:0:0:
109,192,232773,1,0,0:0:0:0:
329,192,232773,1,0,0:0:0:0:
402,192,232859,1,0,0:0:0:0:
109,192,232944,1,0,0:0:0:0:
475,192,232944,1,0,0:0:0:0:
36,192,233030,1,0,0:0:0:0:
256,192,233030,1,0,0:0:0:0:
182,192,233116,1,2,0:0:0:0:
329,192,233116,1,8,0:0:0:0:
402,192,233116,1,0,0:0:0:0:
475,192,233116,1,0,0:0:0:0:
256,192,233202,1,0,0:0:0:0:
36,192,233287,1,0,0:0:0:0:
109,192,233287,1,0,0:0:0:0:
256,192,233373,1,0,0:0:0:0:
329,192,233373,1,0,0:0:0:0:
36,192,233459,1,2,0:0:0:0:
182,192,233459,1,0,0:0:0:0:
475,192,233459,1,0,0:0:0:0:
402,192,233544,1,0,0:0:0:0:
109,192,233630,1,0,0:0:0:0:
256,192,233630,1,0,0:0:0:0:
182,192,233716,1,0,0:0:0:0:
329,192,233716,1,0,0:0:0:0:
36,192,233802,1,2,0:0:0:0:
256,192,233802,1,8,0:0:0:0:
402,192,233802,1,0,0:0:0:0:
475,192,233802,1,0,0:0:0:0:
109,192,233887,1,0,0:0:0:0:
182,192,233973,1,2,0:0:0:0:
402,192,233973,1,0,0:0:0:0:
475,192,233973,1,0,0:0:0:0:
329,192,234059,1,0,0:0:0:0:
36,192,234144,1,2,0:0:0:0:
109,192,234144,1,0,0:0:0:0:
256,192,234144,1,0,0:0:0:0:
402,192,234230,1,0,0:0:0:0:
109,192,234316,1,0,0:0:0:0:
329,192,234316,1,0,0:0:0:0:
182,192,234402,1,0,0:0:0:0:
475,192,234402,1,0,0:0:0:0:
36,192,234487,1,2,0:0:0:0:
256,192,234487,1,8,0:0:0:0:
402,192,234487,1,0,0:0:0:0:
109,192,234487,1,0,0:0:0:0:
475,192,234573,1,0,0:0:0:0:
182,192,234659,1,0,0:0:0:0:
329,192,234659,1,0,0:0:0:0:
36,192,234744,1,0,0:0:0:0:
109,192,234744,1,0,0:0:0:0:
256,192,234830,1,2,0:0:0:0:
402,192,234830,1,0,0:0:0:0:
475,192,234830,1,0,0:0:0:0:
329,192,234916,1,0,0:0:0:0:
36,192,235002,1,0,0:0:0:0:
109,192,235002,1,0,0:0:0:0:
329,192,235087,1,0,0:0:0:0:
402,192,235087,1,0,0:0:0:0:
36,192,235173,1,2,0:0:0:0:
182,192,235173,1,8,0:0:0:0:
256,192,235173,1,0,0:0:0:0:
475,192,235173,1,0,0:0:0:0:
109,192,235259,1,0,0:0:0:0:
256,192,235344,1,2,0:0:0:0:
329,192,235344,1,0,0:0:0:0:
475,192,235344,1,0,0:0:0:0:
182,192,235430,1,0,0:0:0:0:
36,192,235516,1,2,0:0:0:0:
475,192,235516,1,0,0:0:0:0:
109,192,235516,1,0,0:0:0:0:
329,192,235602,1,0,0:0:0:0:
256,192,235687,1,0,0:0:0:0:
402,192,235687,1,0,0:0:0:0:
182,192,235773,1,0,0:0:0:0:
36,192,235773,1,0,0:0:0:0:
475,192,235859,1,2,0:0:0:0:
109,192,235859,1,8,0:0:0:0:
402,192,235859,1,0,0:0:0:0:
329,192,235859,1,0,0:0:0:0:
256,192,235944,1,0,0:0:0:0:
109,192,236030,1,0,0:0:0:0:
36,192,236030,1,0,0:0:0:0:
182,192,236116,1,0,0:0:0:0:
329,192,236116,1,0,0:0:0:0:
36,192,236202,1,2,0:0:0:0:
402,192,236202,1,0,0:0:0:0:
475,192,236202,1,0,0:0:0:0:
256,192,236287,1,0,0:0:0:0:
36,192,236373,1,0,0:0:0:0:
109,192,236373,1,0,0:0:0:0:
182,192,236459,1,2,0:0:0:0:
256,192,236459,1,0,0:0:0:0:
402,192,236459,1,0,0:0:0:0:
36,192,236544,1,2,0:0:0:0:
109,192,236544,1,8,0:0:0:0:
329,192,236544,1,0,0:0:0:0:
475,192,236544,1,0,0:0:0:0:
256,192,236630,1,0,0:0:0:0:
109,192,236716,1,2,0:0:0:0:
329,192,236716,1,0,0:0:0:0:
475,192,236716,1,0,0:0:0:0:
182,192,236802,1,0,0:0:0:0:
36,192,236887,1,2,0:0:0:0:
109,192,236887,1,4,0:0:0:0:
256,192,236887,1,0,0:0:0:0:
402,192,236887,1,0,0:0:0:0:
475,192,236887,1,0,0:0:0:0:
329,192,236973,1,0,0:0:0:0:
36,192,237059,1,0,0:0:0:0:
182,192,237059,1,0,0:0:0:0:
256,192,237144,1,0,0:0:0:0:
329,192,237144,1,0,0:0:0:0:
36,192,237230,1,2,0:0:0:0:
109,192,237230,1,8,0:0:0:0:
402,192,237230,1,0,0:0:0:0:
475,192,237230,1,0,0:0:0:0:
182,192,237316,1,0,0:0:0:0:
329,192,237402,1,0,0:0:0:0:
475,192,237402,1,0,0:0:0:0:
109,192,237487,1,0,0:0:0:0:
256,192,237487,1,0,0:0:0:0:
36,192,237573,1,2,0:0:0:0:
182,192,237573,1,0,0:0:0:0:
402,192,237573,1,0,0:0:0:0:
475,192,237659,1,0,0:0:0:0:
109,192,237744,1,0,0:0:0:0:
329,192,237744,1,0,0:0:0:0:
256,192,237830,1,0,0:0:0:0:
36,192,237916,1,2,0:0:0:0:
182,192,237916,1,8,0:0:0:0:
402,192,237916,1,0,0:0:0:0:
475,192,237916,1,0,0:0:0:0:
329,192,238002,1,0,0:0:0:0:
109,192,238087,1,0,0:0:0:0:
256,192,238087,1,0,0:0:0:0:
36,192,238173,1,0,0:0:0:0:
402,192,238173,1,0,0:0:0:0:
182,192,238259,1,2,0:0:0:0:
256,192,238259,1,0,0:0:0:0:
475,192,238259,1,0,0:0:0:0:
329,192,238344,1,0,0:0:0:0:
36,192,238430,1,0,0:0:0:0:
182,192,238430,1,0,0:0:0:0:
329,192,238516,1,0,0:0:0:0:
402,192,238516,1,0,0:0:0:0:
36,192,238602,1,2,0:0:0:0:
109,192,238602,1,8,0:0:0:0:
256,192,238602,1,0,0:0:0:0:
475,192,238602,1,0,0:0:0:0:
182,192,238687,1,0,0:0:0:0:
329,192,238773,1,0,0:0:0:0:
475,192,238773,1,0,0:0:0:0:
182,192,238859,1,0,0:0:0:0:
402,192,238859,1,0,0:0:0:0:
36,192,238944,1,2,0:0:0:0:
109,192,238944,1,0,0:0:0:0:
475,192,238944,1,0,0:0:0:0:
256,192,239030,1,0,0:0:0:0:
36,192,239116,1,0,0:0:0:0:
402,192,239116,1,0,0:0:0:0:
182,192,239202,1,0,0:0:0:0:
329,192,239202,1,0,0:0:0:0:
36,192,239287,1,2,0:0:0:0:
109,192,239287,1,8,0:0:0:0:
256,192,239287,1,0,0:0:0:0:
475,192,239287,1,0,0:0:0:0:
402,192,239373,1,0,0:0:0:0:
36,192,239459,1,2,0:0:0:0:
182,192,239459,1,0,0:0:0:0:
256,192,239459,1,0,0:0:0:0:
329,192,239544,1,0,0:0:0:0:
36,192,239630,1,2,0:0:0:0:
402,192,239630,1,0,0:0:0:0:
475,192,239630,1,0,0:0:0:0:
256,192,239716,1,0,0:0:0:0:
109,192,239802,1,0,0:0:0:0:
402,192,239802,1,0,0:0:0:0:
329,192,239887,1,0,0:0:0:0:
182,192,239887,1,0,0:0:0:0:
36,192,239973,1,2,0:0:0:0:
256,192,239973,1,8,0:0:0:0:
475,192,239973,1,0,0:0:0:0:
402,192,239973,1,0,0:0:0:0:
109,192,240059,1,0,0:0:0:0:
329,192,240144,1,0,0:0:0:0:
475,192,240144,1,0,0:0:0:0:
256,192,240230,1,0,0:0:0:0:
402,192,240230,1,0,0:0:0:0:
36,192,240316,1,2,0:0:0:0:
109,192,240316,1,0,0:0:0:0:
329,192,240316,1,0,0:0:0:0:
182,192,240402,1,0,0:0:0:0:
475,192,240487,1,0,0:0:0:0:
36,192,240487,1,0,0:0:0:0:
182,192,240573,1,2,0:0:0:0:
256,192,240573,1,0,0:0:0:0:
402,192,240573,1,0,0:0:0:0:
36,192,240659,1,2,0:0:0:0:
109,192,240659,1,8,0:0:0:0:
329,192,240659,1,0,0:0:0:0:
475,192,240659,1,0,0:0:0:0:
256,192,240744,1,0,0:0:0:0:
109,192,240830,1,2,0:0:0:0:
182,192,240830,1,0,0:0:0:0:
402,192,240830,1,0,0:0:0:0:
329,192,240916,1,0,0:0:0:0:
36,192,241002,1,2,0:0:0:0:
256,192,241002,1,0,0:0:0:0:
475,192,241002,1,0,0:0:0:0:
402,192,241087,1,0,0:0:0:0:
36,192,241173,1,2,0:0:0:0:
256,192,241173,1,0,0:0:0:0:
329,192,241173,1,0,0:0:0:0:
182,192,241259,1,0,0:0:0:0:
36,192,241344,1,2,0:0:0:0:
402,192,241344,1,8,0:0:0:0:
109,192,241344,1,0,0:0:0:0:
475,192,241344,1,0,0:0:0:0:
256,192,241387,1,0,0:0:0:0:
329,192,241430,1,0,0:0:0:0:
402,192,241473,1,0,0:0:0:0:
182,192,241516,1,0,0:0:0:0:
475,192,241516,1,0,0:0:0:0:
256,192,241559,1,0,0:0:0:0:
329,192,241602,1,0,0:0:0:0:
402,192,241644,1,0,0:0:0:0:
36,192,241687,1,2,0:0:0:0:
109,192,241687,1,0,0:0:0:0:
475,192,241687,1,0,0:0:0:0:
256,192,241773,1,2,0:0:0:0:
329,192,241773,1,0,0:0:0:0:
182,192,241773,1,0,0:0:0:0:
402,192,241859,1,0,0:0:0:0:
475,192,241859,1,0,0:0:0:0:
182,192,241944,1,2,0:0:0:0:
256,192,241944,1,0,0:0:0:0:
36,192,241944,1,0,0:0:0:0:
402,192,242030,1,2,0:0:0:0:
109,192,242030,1,8,0:0:0:0:
329,192,242030,1,0,0:0:0:0:
475,192,242030,1,0,0:0:0:0:
256,192,242116,1,0,0:0:0:0:
109,192,242202,1,2,0:0:0:0:
36,192,242202,1,0,0:0:0:0:
182,192,242202,1,0,0:0:0:0:
329,192,242287,1,0,0:0:0:0:
109,192,242373,1,2,0:0:0:0:
475,192,242373,1,0,0:0:0:0:
402,192,242373,1,0,0:0:0:0:
256,192,242459,1,0,0:0:0:0:
36,192,242544,1,0,0:0:0:0:
475,192,242544,1,0,0:0:0:0:
182,192,242630,1,0,0:0:0:0:
256,192,242630,1,0,0:0:0:0:
109,192,242716,1,2,0:0:0:0:
329,192,242716,1,8,0:0:0:0:
402,192,242716,1,0,0:0:0:0:
475,192,242716,1,0,0:0:0:0:
36,192,242802,1,0,0:0:0:0:
182,192,242887,1,0,0:0:0:0:
402,192,242887,1,0,0:0:0:0:
256,192,242973,1,0,0:0:0:0:
329,192,242973,1,0,0:0:0:0:
36,192,243059,1,2,0:0:0:0:
182,192,243059,1,0,0:0:0:0:
475,192,243059,1,0,0:0:0:0:
402,192,243144,1,0,0:0:0:0:
109,192,243230,1,0,0:0:0:0:
329,192,243230,1,0,0:0:0:0:
36,192,243316,1,0,0:0:0:0:
182,192,243316,1,0,0:0:0:0:
256,192,243402,1,2,0:0:0:0:
329,192,243402,1,8,0:0:0:0:
402,192,243402,1,0,0:0:0:0:
475,192,243402,1,0,0:0:0:0:
109,192,243487,1,0,0:0:0:0:
182,192,243573,1,0,0:0:0:0:
329,192,243573,1,0,0:0:0:0:
256,192,243659,1,0,0:0:0:0:
402,192,243659,1,0,0:0:0:0:
36,192,243744,1,2,0:0:0:0:
109,192,243744,1,0,0:0:0:0:
475,192,243744,1,0,0:0:0:0:
329,192,243830,1,0,0:0:0:0:
109,192,243916,1,0,0:0:0:0:
256,192,243916,1,0,0:0:0:0:
182,192,244002,1,0,0:0:0:0:
402,192,244002,1,0,0:0:0:0:
36,192,244087,1,2,0:0:0:0:
109,192,244087,1,8,0:0:0:0:
329,192,244087,1,0,0:0:0:0:
475,192,244087,1,0,0:0:0:0:
256,192,244173,1,0,0:0:0:0:
36,192,244259,1,0,0:0:0:0:
182,192,244259,1,0,0:0:0:0:
329,192,244344,1,0,0:0:0:0:
402,192,244344,1,0,0:0:0:0:
36,192,244430,1,2,0:0:0:0:
109,192,244430,1,0,0:0:0:0:
475,192,244430,1,0,0:0:0:0:
256,192,244516,1,0,0:0:0:0:
109,192,244602,1,0,0:0:0:0:
402,192,244602,1,0,0:0:0:0:
182,192,244687,1,0,0:0:0:0:
329,192,244687,1,0,0:0:0:0:
475,192,244773,1,2,0:0:0:0:
109,192,244773,1,8,0:0:0:0:
36,192,244773,1,0,0:0:0:0:
256,192,244773,1,0,0:0:0:0:
329,192,244859,1,0,0:0:0:0:
475,192,244944,1,2,0:0:0:0:
402,192,244944,1,0,0:0:0:0:
109,192,244944,1,0,0:0:0:0:
182,192,245030,1,0,0:0:0:0:
475,192,245116,1,2,0:0:0:0:
256,192,245116,1,0,0:0:0:0:
36,192,245116,1,0,0:0:0:0:
109,192,245202,1,0,0:0:0:0:
475,192,245287,1,2,0:0:0:0:
402,192,245287,1,0,0:0:0:0:
182,192,245287,1,0,0:0:0:0:
256,192,245373,1,0,0:0:0:0:
402,192,245459,1,8,0:0:0:0:
475,192,245459,1,0,0:0:0:0:
109,192,245459,1,0,0:0:0:0:
36,192,245459,1,0,0:0:0:0:
329,192,245502,1,0,0:0:0:0:
256,192,245544,1,0,0:0:0:0:
182,192,245587,1,0,0:0:0:0:
109,192,245630,1,0,0:0:0:0:
402,192,245630,1,0,0:0:0:0:
329,192,245673,1,0,0:0:0:0:
256,192,245716,1,0,0:0:0:0:
182,192,245759,1,0,0:0:0:0:
109,192,245802,1,0,0:0:0:0:
36,192,245802,1,0,0:0:0:0:
475,192,245802,1,0,0:0:0:0:
256,192,245887,1,0,0:0:0:0:
36,192,245973,1,2,0:0:0:0:
109,192,245973,1,0,0:0:0:0:
329,192,245973,1,0,0:0:0:0:
182,192,246059,1,2,0:0:0:0:
402,192,246059,1,0,0:0:0:0:
475,192,246059,1,0,0:0:0:0:
36,192,246144,1,2,0:0:0:0:
109,192,246144,1,8,0:0:0:0:
256,192,246144,1,0,0:0:0:0:
329,192,246144,1,0,0:0:0:0:
475,192,246230,1,0,0:0:0:0:
36,192,246316,1,2,0:0:0:0:
402,192,246316,1,0,0:0:0:0:
329,192,246316,1,0,0:0:0:0:
109,192,246402,1,0,0:0:0:0:
256,192,246402,1,0,0:0:0:0:
36,192,246487,1,4,0:0:0:0:
475,192,246487,1,0,0:0:0:0:
182,192,246487,1,0,0:0:0:0:
402,192,246487,1,0,0:0:0:0:
329,192,246573,1,0,0:0:0:0:
256,192,246573,1,0,0:0:0:0:
402,192,246659,1,0,0:0:0:0:
109,192,246659,1,0,0:0:0:0:
329,192,246830,128,0,246916:0:0:0:0:
475,192,246830,128,0,246916:0:0:0:0:
36,192,246830,128,0,246916:0:0:0:0:
402,192,246830,128,8,246916:0:0:0:0:
256,192,247002,1,0,0:0:0:0:
36,192,247087,1,0,0:0:0:0:
109,192,247087,1,0,0:0:0:0:
475,192,247173,1,0,0:0:0:0:
329,192,247173,1,0,0:0:0:0:
182,192,247259,1,0,0:0:0:0:
109,192,247259,1,0,0:0:0:0:
36,192,247344,1,0,0:0:0:0:
329,192,247344,1,0,0:0:0:0:
256,192,247430,1,0,0:0:0:0:
475,192,247516,128,0,247602:0:0:0:0:
402,192,247516,128,8,247602:0:0:0:0:
329,192,247516,128,0,247602:0:0:0:0:
109,192,247516,128,0,247602:0:0:0:0:
182,192,247687,1,0,0:0:0:0:
402,192,247773,1,0,0:0:0:0:
329,192,247773,1,0,0:0:0:0:
109,192,247859,1,2,0:0:0:0:
182,192,247859,1,4,0:0:0:0:
256,192,247859,1,0,0:0:0:0:
475,192,247859,1,0,0:0:0:0:
36,192,247944,1,0,0:0:0:0:
402,192,248030,1,0,0:0:0:0:
256,192,248030,1,0,0:0:0:0:
475,192,248116,1,0,0:0:0:0:
182,192,248116,1,0,0:0:0:0:
36,192,248202,1,2,0:0:0:0:
109,192,248202,1,8,0:0:0:0:
256,192,248202,1,0,0:0:0:0:
329,192,248202,1,0,0:0:0:0:
475,192,248287,1,0,0:0:0:0:
182,192,248373,1,0,0:0:0:0:
329,192,248373,1,0,0:0:0:0:
36,192,248459,1,0,0:0:0:0:
109,192,248459,1,0,0:0:0:0:
256,192,248544,1,2,0:0:0:0:
329,192,248544,1,0,0:0:0:0:
475,192,248544,1,0,0:0:0:0:
109,192,248630,1,0,0:0:0:0:
256,192,248716,1,0,0:0:0:0:
402,192,248716,1,0,0:0:0:0:
182,192,248802,1,0,0:0:0:0:
329,192,248802,1,0,0:0:0:0:
36,192,248887,1,2,0:0:0:0:
109,192,248887,1,8,0:0:0:0:
256,192,248887,1,0,0:0:0:0:
475,192,248887,1,0,0:0:0:0:
402,192,248973,1,0,0:0:0:0:
36,192,249059,1,0,0:0:0:0:
182,192,249059,1,0,0:0:0:0:
329,192,249144,1,0,0:0:0:0:
475,192,249144,1,0,0:0:0:0:
36,192,249230,1,2,0:0:0:0:
402,192,249230,1,0,0:0:0:0:
109,192,249230,1,0,0:0:0:0:
256,192,249316,1,0,0:0:0:0:
109,192,249402,1,0,0:0:0:0:
475,192,249402,1,0,0:0:0:0:
256,192,249487,1,0,0:0:0:0:
329,192,249487,1,0,0:0:0:0:
36,192,249573,1,2,0:0:0:0:
109,192,249573,1,8,0:0:0:0:
182,192,249573,1,0,0:0:0:0:
402,192,249573,1,0,0:0:0:0:
475,192,249659,1,0,0:0:0:0:
109,192,249744,1,0,0:0:0:0:
329,192,249744,1,0,0:0:0:0:
36,192,249830,1,0,0:0:0:0:
256,192,249830,1,0,0:0:0:0:
182,192,249916,1,2,0:0:0:0:
402,192,249916,1,0,0:0:0:0:
475,192,249916,1,0,0:0:0:0:
36,192,250002,1,0,0:0:0:0:
329,192,250087,1,0,0:0:0:0:
475,192,250087,1,0,0:0:0:0:
109,192,250173,1,0,0:0:0:0:
256,192,250173,1,0,0:0:0:0:
36,192,250259,1,2,0:0:0:0:
182,192,250259,1,8,0:0:0:0:
402,192,250259,1,0,0:0:0:0:
475,192,250259,1,0,0:0:0:0:
329,192,250344,1,0,0:0:0:0:
109,192,250430,1,2,0:0:0:0:
256,192,250430,1,0,0:0:0:0:
475,192,250430,1,0,0:0:0:0:
36,192,250516,1,0,0:0:0:0:
182,192,250602,1,2,0:0:0:0:
329,192,250602,1,0,0:0:0:0:
475,192,250602,1,0,0:0:0:0:
256,192,250687,1,0,0:0:0:0:
109,192,250773,1,0,0:0:0:0:
402,192,250773,1,0,0:0:0:0:
182,192,250859,1,0,0:0:0:0:
475,192,250859,1,0,0:0:0:0:
36,192,250944,1,8,0:0:0:0:
109,192,250944,1,2,0:0:0:0:
256,192,250944,1,0,0:0:0:0:
329,192,250944,1,0,0:0:0:0:
475,192,251030,1,0,0:0:0:0:
109,192,251116,1,0,0:0:0:0:
256,192,251116,1,0,0:0:0:0:
36,192,251202,1,0,0:0:0:0:
329,192,251202,1,0,0:0:0:0:
182,192,251287,1,2,0:0:0:0:
402,192,251287,1,0,0:0:0:0:
475,192,251287,1,0,0:0:0:0:
109,192,251373,1,0,0:0:0:0:
36,192,251459,1,0,0:0:0:0:
402,192,251459,1,0,0:0:0:0:
256,192,251544,1,0,0:0:0:0:
475,192,251544,1,0,0:0:0:0:
36,192,251630,1,2,0:0:0:0:
109,192,251630,1,8,0:0:0:0:
182,192,251630,1,0,0:0:0:0:
329,192,251630,1,0,0:0:0:0:
402,192,251716,1,0,0:0:0:0:
256,192,251802,1,0,0:0:0:0:
475,192,251802,1,0,0:0:0:0:
36,192,251887,1,0,0:0:0:0:
109,192,251887,1,0,0:0:0:0:
182,192,251973,1,2,0:0:0:0:
329,192,251973,1,0,0:0:0:0:
475,192,251973,1,0,0:0:0:0:
256,192,252059,1,0,0:0:0:0:
36,192,252144,1,2,0:0:0:0:
182,192,252144,1,0,0:0:0:0:
402,192,252144,1,0,0:0:0:0:
329,192,252230,1,0,0:0:0:0:
36,192,252316,1,2,0:0:0:0:
109,192,252316,1,8,0:0:0:0:
475,192,252316,1,0,0:0:0:0:
402,192,252316,1,0,0:0:0:0:
182,192,252359,1,0,0:0:0:0:
256,192,252402,1,0,0:0:0:0:
329,192,252444,1,0,0:0:0:0:
402,192,252487,1,0,0:0:0:0:
109,192,252487,1,0,0:0:0:0:
182,192,252530,1,0,0:0:0:0:
256,192,252573,1,0,0:0:0:0:
329,192,252616,1,0,0:0:0:0:
36,192,252659,1,2,0:0:0:0:
475,192,252659,1,0,0:0:0:0:
402,192,252659,1,0,0:0:0:0:
182,192,252744,1,0,0:0:0:0:
36,192,252830,1,2,0:0:0:0:
109,192,252830,1,0,0:0:0:0:
329,192,252830,1,0,0:0:0:0:
256,192,252916,1,2,0:0:0:0:
402,192,252916,1,0,0:0:0:0:
475,192,252916,1,0,0:0:0:0:
36,192,253002,1,8,0:0:0:0:
109,192,253002,1,2,0:0:0:0:
182,192,253002,1,0,0:0:0:0:
329,192,253002,1,0,0:0:0:0:
402,192,253087,1,0,0:0:0:0:
36,192,253173,1,2,0:0:0:0:
256,192,253173,1,0,0:0:0:0:
475,192,253173,1,0,0:0:0:0:
182,192,253259,1,0,0:0:0:0:
109,192,253344,1,2,0:0:0:0:
329,192,253344,1,0,0:0:0:0:
475,192,253344,1,0,0:0:0:0:
402,192,253430,1,0,0:0:0:0:
36,192,253516,1,0,0:0:0:0:
182,192,253516,1,0,0:0:0:0:
256,192,253602,1,0,0:0:0:0:
402,192,253602,1,0,0:0:0:0:
36,192,253687,1,8,0:0:0:0:
109,192,253687,1,2,0:0:0:0:
329,192,253687,1,0,0:0:0:0:
475,192,253687,1,0,0:0:0:0:
402,192,253773,1,0,0:0:0:0:
109,192,253859,1,0,0:0:0:0:
256,192,253859,1,0,0:0:0:0:
36,192,253944,1,0,0:0:0:0:
182,192,253944,1,0,0:0:0:0:
402,192,254030,1,2,0:0:0:0:
329,192,254030,1,0,0:0:0:0:
475,192,254030,1,0,0:0:0:0:
256,192,254116,1,0,0:0:0:0:
36,192,254202,1,0,0:0:0:0:
182,192,254202,1,0,0:0:0:0:
402,192,254287,1,0,0:0:0:0:
329,192,254287,1,0,0:0:0:0:
36,192,254373,1,2,0:0:0:0:
109,192,254373,1,8,0:0:0:0:
182,192,254373,1,0,0:0:0:0:
475,192,254373,1,0,0:0:0:0:
402,192,254459,1,0,0:0:0:0:
109,192,254544,1,0,0:0:0:0:
256,192,254544,1,0,0:0:0:0:
36,192,254630,1,0,0:0:0:0:
402,192,254630,1,0,0:0:0:0:
182,192,254716,1,2,0:0:0:0:
329,192,254716,1,0,0:0:0:0:
475,192,254716,1,0,0:0:0:0:
109,192,254802,1,0,0:0:0:0:
36,192,254887,1,0,0:0:0:0:
402,192,254887,1,0,0:0:0:0:
256,192,254973,1,0,0:0:0:0:
475,192,254973,1,0,0:0:0:0:
36,192,255059,1,2,0:0:0:0:
109,192,255059,1,8,0:0:0:0:
182,192,255059,1,0,0:0:0:0:
329,192,255059,1,0,0:0:0:0:
256,192,255144,1,0,0:0:0:0:
402,192,255230,1,0,0:0:0:0:
475,192,255230,1,0,0:0:0:0:
182,192,255316,1,0,0:0:0:0:
256,192,255316,1,0,0:0:0:0:
36,192,255402,1,2,0:0:0:0:
329,192,255402,1,0,0:0:0:0:
475,192,255402,1,0,0:0:0:0:
109,192,255487,1,0,0:0:0:0:
256,192,255573,1,0,0:0:0:0:
402,192,255573,1,0,0:0:0:0:
182,192,255659,1,0,0:0:0:0:
329,192,255659,1,0,0:0:0:0:
36,192,255744,1,2,0:0:0:0:
109,192,255744,1,8,0:0:0:0:
256,192,255744,1,0,0:0:0:0:
475,192,255744,1,0,0:0:0:0:
402,192,255830,1,0,0:0:0:0:
36,192,255916,1,2,0:0:0:0:
109,192,255916,1,0,0:0:0:0:
329,192,255916,1,0,0:0:0:0:
182,192,256002,1,0,0:0:0:0:
256,192,256087,1,2,0:0:0:0:
402,192,256087,1,0,0:0:0:0:
475,192,256087,1,0,0:0:0:0:
109,192,256173,1,0,0:0:0:0:
182,192,256259,1,0,0:0:0:0:
402,192,256259,1,0,0:0:0:0:
36,192,256344,1,0,0:0:0:0:
329,192,256344,1,0,0:0:0:0:
109,192,256430,1,2,0:0:0:0:
256,192,256430,1,8,0:0:0:0:
475,192,256430,1,0,0:0:0:0:
36,192,256516,1,0,0:0:0:0:
182,192,256602,1,0,0:0:0:0:
329,192,256602,1,0,0:0:0:0:
402,192,256687,1,0,0:0:0:0:
475,192,256687,1,0,0:0:0:0:
36,192,256773,1,2,0:0:0:0:
109,192,256773,1,0,0:0:0:0:
256,192,256773,1,0,0:0:0:0:
182,192,256859,1,0,0:0:0:0:
402,192,256944,1,0,0:0:0:0:
475,192,256944,1,0,0:0:0:0:
109,192,257030,1,0,0:0:0:0:
182,192,257030,1,0,0:0:0:0:
36,192,257116,1,2,0:0:0:0:
256,192,257116,1,8,0:0:0:0:
329,192,257116,1,0,0:0:0:0:
475,192,257116,1,0,0:0:0:0:
402,192,257202,1,0,0:0:0:0:
36,192,257287,1,2,0:0:0:0:
182,192,257287,1,0,0:0:0:0:
256,192,257287,1,0,0:0:0:0:
329,192,257373,1,0,0:0:0:0:
36,192,257459,1,2,0:0:0:0:
109,192,257459,1,0,0:0:0:0:
475,192,257459,1,0,0:0:0:0:
256,192,257630,1,0,0:0:0:0:
402,192,257630,1,0,0:0:0:0:
36,192,257802,1,0,0:0:0:0:
109,192,257802,1,8,0:0:0:0:
329,192,257802,1,0,0:0:0:0:
475,192,257802,1,0,0:0:0:0:
256,192,257973,1,0,0:0:0:0:
402,192,258059,1,0,0:0:0:0:
36,192,258144,1,0,0:0:0:0:
182,192,258144,1,0,0:0:0:0:
329,192,258230,1,0,0:0:0:0:
475,192,258230,1,0,0:0:0:0:
36,192,258316,1,0,0:0:0:0:
109,192,258316,1,8,0:0:0:0:
256,192,258316,1,0,0:0:0:0:
402,192,258316,1,0,0:0:0:0:
182,192,258487,1,0,0:0:0:0:
329,192,258573,1,0,0:0:0:0:
256,192,258659,1,0,0:0:0:0:
109,192,258659,1,0,0:0:0:0:
329,192,258744,1,0,0:0:0:0:
36,192,258830,1,2,0:0:0:0:
109,192,258830,1,4,0:0:0:0:
256,192,258830,1,0,0:0:0:0:
402,192,258830,1,0,0:0:0:0:
475,192,258830,1,0,0:0:0:0:
182,192,258916,1,0,0:0:0:0:
329,192,259002,1,0,0:0:0:0:
475,192,259002,1,0,0:0:0:0:
182,192,259087,1,0,0:0:0:0:
256,192,259087,1,0,0:0:0:0:
36,192,259173,1,2,0:0:0:0:
109,192,259173,1,8,0:0:0:0:
402,192,259173,1,0,0:0:0:0:
475,192,259173,1,0,0:0:0:0:
329,192,259259,1,0,0:0:0:0:
36,192,259344,1,0,0:0:0:0:
182,192,259344,1,0,0:0:0:0:
256,192,259430,1,0,0:0:0:0:
402,192,259430,1,0,0:0:0:0:
109,192,259516,1,2,0:0:0:0:
329,192,259516,1,0,0:0:0:0:
475,192,259516,1,0,0:0:0:0:
36,192,259602,1,0,0:0:0:0:
182,192,259687,1,0,0:0:0:0:
402,192,259687,1,0,0:0:0:0:
256,192,259773,1,0,0:0:0:0:
36,192,259859,1,2,0:0:0:0:
109,192,259859,1,8,0:0:0:0:
329,192,259859,1,0,0:0:0:0:
475,192,259859,1,0,0:0:0:0:
182,192,259944,1,0,0:0:0:0:
256,192,260030,1,0,0:0:0:0:
402,192,260030,1,0,0:0:0:0:
109,192,260116,1,0,0:0:0:0:
475,192,260116,1,0,0:0:0:0:
36,192,260202,1,2,0:0:0:0:
256,192,260202,1,0,0:0:0:0:
329,192,260202,1,0,0:0:0:0:
182,192,260287,1,0,0:0:0:0:
329,192,260373,1,0,0:0:0:0:
475,192,260373,1,0,0:0:0:0:
109,192,260459,1,0,0:0:0:0:
182,192,260459,1,0,0:0:0:0:
36,192,260544,1,2,0:0:0:0:
256,192,260544,1,8,0:0:0:0:
402,192,260544,1,0,0:0:0:0:
475,192,260544,1,0,0:0:0:0:
329,192,260630,1,0,0:0:0:0:
36,192,260716,1,0,0:0:0:0:
182,192,260716,1,0,0:0:0:0:
109,192,260802,1,0,0:0:0:0:
329,192,260802,1,0,0:0:0:0:
36,192,260887,1,2,0:0:0:0:
402,192,260887,1,0,0:0:0:0:
475,192,260887,1,0,0:0:0:0:
256,192,260973,1,0,0:0:0:0:
109,192,261059,1,0,0:0:0:0:
329,192,261059,1,0,0:0:0:0:
182,192,261144,1,0,0:0:0:0:
256,192,261144,1,0,0:0:0:0:
36,192,261230,1,2,0:0:0:0:
329,192,261230,1,8,0:0:0:0:
402,192,261230,1,0,0:0:0:0:
475,192,261230,1,0,0:0:0:0:
109,192,261316,1,0,0:0:0:0:
256,192,261402,1,2,0:0:0:0:
329,192,261402,1,0,0:0:0:0:
475,192,261402,1,0,0:0:0:0:
182,192,261487,1,0,0:0:0:0:
36,192,261573,1,2,0:0:0:0:
109,192,261573,1,0,0:0:0:0:
475,192,261573,1,0,0:0:0:0:
329,192,261659,1,0,0:0:0:0:
402,192,261744,1,0,0:0:0:0:
36,192,261744,1,0,0:0:0:0:
182,192,261744,1,0,0:0:0:0:
256,192,261830,1,0,0:0:0:0:
109,192,261830,1,0,0:0:0:0:
36,192,261916,1,2,0:0:0:0:
475,192,261916,1,0,0:0:0:0:
329,192,261916,1,8,0:0:0:0:
256,192,262002,1,0,0:0:0:0:
109,192,262087,1,0,0:0:0:0:
182,192,262087,1,0,0:0:0:0:
475,192,262173,1,0,0:0:0:0:
329,192,262173,1,0,0:0:0:0:
109,192,262259,1,2,0:0:0:0:
256,192,262259,1,0,0:0:0:0:
36,192,262259,1,0,0:0:0:0:
182,192,262344,1,0,0:0:0:0:
329,192,262430,1,0,0:0:0:0:
402,192,262430,1,0,0:0:0:0:
109,192,262516,1,2,0:0:0:0:
256,192,262516,1,0,0:0:0:0:
182,192,262516,1,0,0:0:0:0:
329,192,262602,1,2,0:0:0:0:
36,192,262602,1,8,0:0:0:0:
402,192,262602,1,0,0:0:0:0:
475,192,262602,1,0,0:0:0:0:
182,192,262687,1,0,0:0:0:0:
36,192,262773,1,2,0:0:0:0:
256,192,262773,1,0,0:0:0:0:
475,192,262773,1,0,0:0:0:0:
329,192,262859,1,0,0:0:0:0:
36,192,262944,1,2,0:0:0:0:
109,192,262944,1,0,0:0:0:0:
402,192,262944,1,0,0:0:0:0:
182,192,263030,1,0,0:0:0:0:
256,192,263116,1,2,0:0:0:0:
329,192,263116,1,0,0:0:0:0:
475,192,263116,1,0,0:0:0:0:
182,192,263202,1,0,0:0:0:0:
36,192,263287,1,2,0:0:0:0:
109,192,263287,1,8,0:0:0:0:
475,192,263287,1,0,0:0:0:0:
402,192,263287,1,0,0:0:0:0:
329,192,263330,1,0,0:0:0:0:
256,192,263373,1,0,0:0:0:0:
182,192,263416,1,0,0:0:0:0:
109,192,263459,1,0,0:0:0:0:
475,192,263459,1,0,0:0:0:0:
402,192,263502,1,0,0:0:0:0:
329,192,263544,1,0,0:0:0:0:
256,192,263587,1,0,0:0:0:0:
36,192,263630,1,2,0:0:0:0:
402,192,263630,1,0,0:0:0:0:
475,192,263630,1,0,0:0:0:0:
182,192,263630,1,0,0:0:0:0:
109,192,263716,1,2,0:0:0:0:
256,192,263716,1,0,0:0:0:0:
329,192,263716,1,0,0:0:0:0:
182,192,263802,1,0,0:0:0:0:
402,192,263802,1,0,0:0:0:0:
109,192,263887,1,2,0:0:0:0:
36,192,263887,1,0,0:0:0:0:
475,192,263887,1,0,0:0:0:0:
182,192,263973,1,2,0:0:0:0:
402,192,263973,1,8,0:0:0:0:
329,192,263973,1,0,0:0:0:0:
256,192,263973,1,0,0:0:0:0:
36,192,264059,1,0,0:0:0:0:
109,192,264144,1,2,0:0:0:0:
329,192,264144,1,0,0:0:0:0:
402,192,264144,1,0,0:0:0:0:
182,192,264230,1,0,0:0:0:0:
36,192,264316,1,2,0:0:0:0:
256,192,264316,1,0,0:0:0:0:
475,192,264316,1,0,0:0:0:0:
329,192,264402,1,0,0:0:0:0:
36,192,264487,1,0,0:0:0:0:
182,192,264487,1,0,0:0:0:0:
329,192,264573,1,0,0:0:0:0:
475,192,264573,1,0,0:0:0:0:
36,192,264659,1,2,0:0:0:0:
109,192,264659,1,8,0:0:0:0:
182,192,264659,1,0,0:0:0:0:
256,192,264659,1,0,0:0:0:0:
402,192,264744,1,0,0:0:0:0:
109,192,264830,1,0,0:0:0:0:
475,192,264830,1,0,0:0:0:0:
182,192,264916,1,0,0:0:0:0:
329,192,264916,1,0,0:0:0:0:
36,192,265002,1,2,0:0:0:0:
256,192,265002,1,0,0:0:0:0:
475,192,265002,1,0,0:0:0:0:
109,192,265087,1,0,0:0:0:0:
182,192,265173,1,0,0:0:0:0:
402,192,265173,1,0,0:0:0:0:
329,192,265259,1,0,0:0:0:0:
475,192,265259,1,0,0:0:0:0:
36,192,265344,1,2,0:0:0:0:
109,192,265344,1,8,0:0:0:0:
182,192,265344,1,0,0:0:0:0:
256,192,265344,1,0,0:0:0:0:
402,192,265430,1,0,0:0:0:0:
182,192,265516,1,0,0:0:0:0:
329,192,265516,1,0,0:0:0:0:
109,192,265602,1,0,0:0:0:0:
256,192,265602,1,0,0:0:0:0:
36,192,265687,1,2,0:0:0:0:
402,192,265687,1,0,0:0:0:0:
475,192,265687,1,0,0:0:0:0:
182,192,265773,1,0,0:0:0:0:
256,192,265859,1,0,0:0:0:0:
402,192,265859,1,0,0:0:0:0:
109,192,265944,1,0,0:0:0:0:
329,192,265944,1,0,0:0:0:0:
36,192,266030,1,2,0:0:0:0:
182,192,266030,1,8,0:0:0:0:
402,192,266030,1,0,0:0:0:0:
475,192,266030,1,0,0:0:0:0:
256,192,266116,1,0,0:0:0:0:
329,192,266202,1,0,0:0:0:0:
475,192,266202,1,0,0:0:0:0:
109,192,266287,1,0,0:0:0:0:
182,192,266287,1,0,0:0:0:0:
36,192,266373,1,2,0:0:0:0:
402,192,266373,1,0,0:0:0:0:
475,192,266373,1,0,0:0:0:0:
256,192,266459,1,0,0:0:0:0:
109,192,266544,1,0,0:0:0:0:
329,192,266544,1,0,0:0:0:0:
182,192,266630,1,0,0:0:0:0:
402,192,266630,1,0,0:0:0:0:
36,192,266716,1,2,0:0:0:0:
109,192,266716,1,8,0:0:0:0:
475,192,266716,1,0,0:0:0:0:
256,192,266802,1,0,0:0:0:0:
36,192,266887,1,2,0:0:0:0:
329,192,266887,1,0,0:0:0:0:
475,192,266887,1,0,0:0:0:0:
182,192,266973,1,0,0:0:0:0:
36,192,267059,1,2,0:0:0:0:
256,192,267059,1,0,0:0:0:0:
402,192,267059,1,0,0:0:0:0:
182,192,267144,1,0,0:0:0:0:
36,192,267230,1,2,0:0:0:0:
109,192,267230,1,0,0:0:0:0:
475,192,267230,1,0,0:0:0:0:
329,192,267316,1,0,0:0:0:0:
36,192,267402,1,2,0:0:0:0:
109,192,267402,1,8,0:0:0:0:
475,192,267402,1,0,0:0:0:0:
182,192,267402,1,0,0:0:0:0:
256,192,267444,1,0,0:0:0:0:
329,192,267487,1,0,0:0:0:0:
402,192,267530,1,0,0:0:0:0:
475,192,267573,1,0,0:0:0:0:
109,192,267573,1,0,0:0:0:0:
182,192,267616,1,0,0:0:0:0:
256,192,267659,1,0,0:0:0:0:
329,192,267702,1,0,0:0:0:0:
36,192,267744,1,2,0:0:0:0:
109,192,267744,1,0,0:0:0:0:
402,192,267744,1,0,0:0:0:0:
256,192,267830,1,0,0:0:0:0:
182,192,267916,1,2,0:0:0:0:
402,192,267916,1,0,0:0:0:0:
475,192,267916,1,0,0:0:0:0:
36,192,268002,1,2,0:0:0:0:
109,192,268002,1,0,0:0:0:0:
329,192,268002,1,0,0:0:0:0:
182,192,268087,1,2,0:0:0:0:
256,192,268087,1,8,0:0:0:0:
402,192,268087,1,0,0:0:0:0:
475,192,268087,1,0,0:0:0:0:
36,192,268173,1,0,0:0:0:0:
109,192,268259,1,2,0:0:0:0:
329,192,268259,1,0,0:0:0:0:
475,192,268259,1,0,0:0:0:0:
256,192,268344,1,0,0:0:0:0:
402,192,268344,1,0,0:0:0:0:
109,192,268430,1,4,0:0:0:0:
329,192,268430,1,0,0:0:0:0:
475,192,268430,1,0,0:0:0:0:
36,192,268430,1,0,0:0:0:0:
256,192,268516,1,0,0:0:0:0:
182,192,268516,1,0,0:0:0:0:
402,192,268602,1,0,0:0:0:0:
329,192,268602,1,0,0:0:0:0:
475,192,268773,128,0,268859:0:0:0:0:
36,192,268773,128,0,268859:0:0:0:0:
182,192,268773,128,8,268859:0:0:0:0:
109,192,268773,128,0,268859:0:0:0:0:
329,192,268944,1,0,0:0:0:0:
402,192,269030,1,0,0:0:0:0:
475,192,269030,1,0,0:0:0:0:
182,192,269116,1,0,0:0:0:0:
36,192,269116,1,0,0:0:0:0:
329,192,269202,1,0,0:0:0:0:
109,192,269202,1,0,0:0:0:0:
256,192,269287,1,0,0:0:0:0:
475,192,269287,1,0,0:0:0:0:
182,192,269459,128,8,269544:0:0:0:0:
109,192,269459,128,0,269544:0:0:0:0:
36,192,269459,128,0,269544:0:0:0:0:
402,192,269459,128,0,269544:0:0:0:0:
329,192,269630,1,0,0:0:0:0:
182,192,269716,1,0,0:0:0:0:
109,192,269716,1,0,0:0:0:0:
36,192,269802,1,4,0:0:0:0:
402,192,269802,1,0,0:0:0:0:
329,192,269802,1,0,0:0:0:0:
475,192,269802,1,0,0:0:0:0:
256,192,269802,1,0,0:0:0:0:
36,192,272544,128,0,275287:0:0:0:0:
109,192,272544,128,0,273916:0:0:0:0:
402,192,272544,128,0,275287:0:0:0:0:
182,192,273230,1,0,0:0:0:0:
256,192,273402,1,0,0:0:0:0:
329,192,273573,1,0,0:0:0:0:
475,192,273744,1,0,0:0:0:0:
256,192,273916,128,0,276659:0:0:0:0:
329,192,274602,1,0,0:0:0:0:
182,192,274773,1,0,0:0:0:0:
109,192,274944,1,0,0:0:0:0:
329,192,275116,1,0,0:0:0:0:
475,192,275287,128,0,278030:0:0:0:0:
109,192,275287,128,0,278030:0:0:0:0:
36,192,275973,1,0,0:0:0:0:
182,192,276144,1,0,0:0:0:0:
329,192,276316,1,0,0:0:0:0:
182,192,276487,1,0,0:0:0:0:
402,192,276659,128,0,279402:0:0:0:0:
329,192,277344,1,0,0:0:0:0:
256,192,277516,1,0,0:0:0:0:
182,192,277687,1,0,0:0:0:0:
329,192,277859,1,0,0:0:0:0:
182,192,278030,128,0,280773:0:0:0:0:
36,192,278030,128,0,280773:0:0:0:0:
109,192,278716,1,0,0:0:0:0:
256,192,278887,1,0,0:0:0:0:
329,192,279059,1,0,0:0:0:0:
475,192,279230,1,0,0:0:0:0:
256,192,279402,128,0,282144:0:0:0:0:
329,192,280087,1,0,0:0:0:0:
402,192,280259,1,0,0:0:0:0:
475,192,280430,1,0,0:0:0:0:
109,192,280602,1,0,0:0:0:0:
329,192,280773,128,0,283516:0:0:0:0:
475,192,280773,128,0,283516:0:0:0:0:
402,192,280773,1,0,0:0:0:0:
182,192,280944,1,0,0:0:0:0:
109,192,281116,1,0,0:0:0:0:
36,192,281287,1,0,0:0:0:0:
402,192,281459,1,0,0:0:0:0:
182,192,281630,1,0,0:0:0:0:
109,192,281802,1,0,0:0:0:0:
36,192,282144,128,0,283516:0:0:0:0:
256,192,282487,1,0,0:0:0:0:
109,192,282659,1,0,0:0:0:0:
182,192,282830,1,0,0:0:0:0:
256,192,283002,1,0,0:0:0:0:
402,192,283173,1,0,0:0:0:0:
182,192,283344,1,0,0:0:0:0:
256,192,283516,128,0,286259:0:0:0:0:
109,192,283516,128,0,284887:0:0:0:0:
402,192,283516,128,0,286259:0:0:0:0:
36,192,284202,1,0,0:0:0:0:
182,192,284373,1,0,0:0:0:0:
329,192,284544,1,0,0:0:0:0:
475,192,284716,1,0,0:0:0:0:
36,192,284887,128,0,287630:0:0:0:0:
182,192,285573,1,0,0:0:0:0:
329,192,285744,1,0,0:0:0:0:
475,192,285916,1,0,0:0:0:0:
109,192,286087,1,0,0:0:0:0:
475,192,286259,128,0,289002:0:0:0:0:
182,192,286259,128,0,289002:0:0:0:0:
402,192,287116,1,0,0:0:0:0:
329,192,287287,1,0,0:0:0:0:
256,192,287459,1,0,0:0:0:0:
329,192,287630,128,0,290373:0:0:0:0:
36,192,288144,1,0,0:0:0:0:
109,192,288316,1,0,0:0:0:0:
256,192,288487,1,0,0:0:0:0:
402,192,288659,1,0,0:0:0:0:
109,192,288830,1,0,0:0:0:0:
36,192,289002,128,0,291744:0:0:0:0:
256,192,289002,128,0,291744:0:0:0:0:
475,192,289687,1,0,0:0:0:0:
402,192,289859,1,0,0:0:0:0:
182,192,290030,1,0,0:0:0:0:
109,192,290202,1,0,0:0:0:0:
475,192,290373,128,0,293116:0:0:0:0:
109,192,291059,1,0,0:0:0:0:
182,192,291230,1,0,0:0:0:0:
329,192,291402,1,0,0:0:0:0:
402,192,291573,1,0,0:0:0:0:
329,192,291744,128,0,294487:0:0:0:0:
109,192,291744,128,0,294487:0:0:0:0:
182,192,291744,1,0,0:0:0:0:
36,192,291916,1,0,0:0:0:0:
402,192,292087,1,0,0:0:0:0:
256,192,292259,1,0,0:0:0:0:
182,192,292430,1,0,0:0:0:0:
36,192,292602,1,0,0:0:0:0:
256,192,292773,1,0,0:0:0:0:
182,192,293116,128,0,294487:0:0:0:0:
36,192,293459,1,0,0:0:0:0:
256,192,293630,1,0,0:0:0:0:
402,192,293802,1,0,0:0:0:0:
475,192,293973,1,0,0:0:0:0:
256,192,294144,1,0,0:0:0:0:
475,192,294316,1,0,0:0:0:0:
36,192,294487,128,0,297230:0:0:0:0:
402,192,294487,128,0,295859:0:0:0:0:
182,192,294830,1,0,0:0:0:0:
329,192,294830,1,0,0:0:0:0:
109,192,295173,1,0,0:0:0:0:
256,192,295173,1,0,0:0:0:0:
329,192,295516,1,0,0:0:0:0:
182,192,295516,1,0,0:0:0:0:
182,192,295859,128,0,297230:0:0:0:0:
475,192,295859,1,0,0:0:0:0:
256,192,296202,1,0,0:0:0:0:
402,192,296202,1,0,0:0:0:0:
329,192,296544,1,0,0:0:0:0:
475,192,296544,1,0,0:0:0:0:
256,192,296887,1,0,0:0:0:0:
402,192,296887,1,0,0:0:0:0:
329,192,297230,128,0,299973:0:0:0:0:
475,192,297230,128,0,298602:0:0:0:0:
36,192,297573,1,0,0:0:0:0:
402,192,297573,1,0,0:0:0:0:
109,192,297916,1,0,0:0:0:0:
256,192,297916,1,0,0:0:0:0:
36,192,298259,1,0,0:0:0:0:
402,192,298259,1,0,0:0:0:0:
109,192,298602,128,0,299973:0:0:0:0:
256,192,298602,1,0,0:0:0:0:
402,192,298944,1,0,0:0:0:0:
182,192,298944,1,0,0:0:0:0:
256,192,299287,1,0,0:0:0:0:
475,192,299287,1,0,0:0:0:0:
402,192,299630,1,0,0:0:0:0:
182,192,299630,1,0,0:0:0:0:
182,192,299973,128,0,302716:0:0:0:0:
36,192,299973,128,0,301344:0:0:0:0:
329,192,300316,1,0,0:0:0:0:
475,192,300316,1,0,0:0:0:0:
256,192,300659,1,0,0:0:0:0:
402,192,300659,1,0,0:0:0:0:
256,192,301002,1,0,0:0:0:0:
402,192,301002,1,0,0:0:0:0:
329,192,301344,128,0,302716:0:0:0:0:
475,192,301344,1,0,0:0:0:0:
36,192,301687,1,0,0:0:0:0:
109,192,301687,1,0,0:0:0:0:
402,192,302030,1,0,0:0:0:0:
475,192,302030,1,0,0:0:0:0:
475,192,302373,1,0,0:0:0:0:
402,192,302373,1,0,0:0:0:0:
256,192,302716,128,0,304087:0:0:0:0:
402,192,302716,128,0,305459:0:0:0:0:
36,192,303059,1,0,0:0:0:0:
182,192,303059,1,0,0:0:0:0:
329,192,303402,1,0,0:0:0:0:
475,192,303402,1,0,0:0:0:0:
109,192,303744,1,0,0:0:0:0:
36,192,303744,1,0,0:0:0:0:
182,192,304087,128,0,305459:0:0:0:0:
36,192,304087,1,0,0:0:0:0:
329,192,304430,1,0,0:0:0:0:
475,192,304430,1,0,0:0:0:0:
109,192,304773,1,0,0:0:0:0:
36,192,304773,1,0,0:0:0:0:
256,192,305116,1,0,0:0:0:0:
329,192,305116,1,0,0:0:0:0:
36,192,305459,128,0,306830:0:0:0:0:
182,192,305802,1,0,0:0:0:0:
256,192,306144,1,0,0:0:0:0:
182,192,306487,1,0,0:0:0:0:
329,192,306830,128,0,308202:0:0:0:0:
109,192,307173,1,0,0:0:0:0:
36,192,307516,1,0,0:0:0:0:
109,192,307859,1,0,0:0:0:0:
109,192,308202,128,0,309573:0:0:0:0:
256,192,308544,1,0,0:0:0:0:
182,192,308887,1,0,0:0:0:0:
256,192,309230,1,0,0:0:0:0:
402,192,309573,128,0,310944:0:0:0:0:
36,192,309916,1,0,0:0:0:0:
329,192,310259,1,0,0:0:0:0:
36,192,310602,1,0,0:0:0:0:
256,192,310944,1,0,0:0:0:0:
109,192,311287,1,0,0:0:0:0:
256,192,311630,1,0,0:0:0:0:
109,192,311973,1,0,0:0:0:0:
329,192,312316,1,0,0:0:0:0:
182,192,312659,1,0,0:0:0:0:
329,192,313002,1,0,0:0:0:0:
182,192,313344,1,0,0:0:0:0:
