osu file format v14

[General]
AudioFilename: STRIP.mp3
AudioLeadIn: 0
PreviewTime: 149116
Countdown: 0
SampleSet: Soft
StackLeniency: 0.7
Mode: 3
LetterboxInBreaks: 0
SpecialStyle: 0
WidescreenStoryboard: 0

[Editor]
DistanceSpacing: 0.8
BeatDivisor: 4
GridSize: 4
TimelineZoom: 1.399998

[Metadata]
Title:RougokuSTRIP (Grimoire crossbreed rmx)
TitleUnicode:牢獄STRIP (Grimoire crossbreed rmx)
Artist:Team Grimoire
ArtistUnicode:Team Grimoire
Creator:[Shana Lesus]
Version:Golden Truth [EZ]
Source:うみねこのなく頃に
Tags:hardcore gothic -45 Umineko no Naku Koro ni 07th expansion うみねこのなく頃に散 D'va;;;;;;;;5 japanese Chiru
BeatmapID:1086582
BeatmapSetID:490717

[Difficulty]
HPDrainRate:6
CircleSize:4
OverallDifficulty:7
ApproachRate:5
SliderMultiplier:1.4
SliderTickRate:1

[Events]
//Background and Video events
Video,-1750,"Umineko.avi"
0,0,"umineko2.jpg",0,45
//Break Periods
//Storyboard Layer 0 (Background)
//Storyboard Layer 1 (Fail)
//Storyboard Layer 2 (Pass)
//Storyboard Layer 3 (Foreground)
//Storyboard Sound Samples

[TimingPoints]
1002,342.857142857143,4,2,1,40,1,0
61344,-100,4,2,1,40,0,1
82944,-100,4,2,1,40,0,0
149116,-100,4,2,1,40,0,1
158716,-100,4,2,1,40,0,0
160087,-100,4,2,1,40,0,1
182030,-100,4,2,1,40,0,0
225916,-100,4,2,1,40,0,1
269802,-100,4,2,1,40,0,0
304430,-100,4,2,1,15,0,0

[HitObjects]
448,192,1001,5,2,0:0:0:0:
64,192,1001,1,0,0:0:0:0:
192,192,3916,1,0,0:0:0:0:
448,192,5330,1,0,0:0:0:0:
64,192,6659,1,0,0:0:0:0:
320,192,8802,1,0,0:0:0:0:
192,192,9509,1,0,0:0:0:0:
448,192,10687,1,0,0:0:0:0:
64,192,12230,1,0,0:0:0:0:
320,192,14930,1,0,0:0:0:0:
448,192,16302,1,0,0:0:0:0:
192,192,17673,1,0,0:0:0:0:
64,192,19687,1,0,0:0:0:0:
320,192,20459,1,0,0:0:0:0:
192,192,22023,1,0,0:0:0:0:
448,192,23073,1,0,0:0:0:0:
192,192,25902,1,0,0:0:0:0:
320,192,27273,1,0,0:0:0:0:
64,192,28687,1,0,0:0:0:0:
448,192,30702,1,0,0:0:0:0:
192,192,31452,1,0,0:0:0:0:
448,192,32630,1,0,0:0:0:0:
64,192,33916,1,0,0:0:0:0:
320,192,36959,1,0,0:0:0:0:
64,192,38266,1,0,0:0:0:0:
448,192,39702,1,0,0:0:0:0:
64,192,41716,1,0,0:0:0:0:
192,192,42530,1,0,0:0:0:0:
320,192,43816,1,0,0:0:0:0:
192,192,44459,1,0,0:0:0:0:
448,192,44887,1,2,0:0:0:0:
64,192,44887,1,0,0:0:0:0:
448,192,46259,128,0,50373:0:0:0:0:
64,192,50373,128,6,51059:0:0:0:0:
192,192,51059,128,2,51744:0:0:0:0:
320,192,51744,128,2,52430:0:0:0:0:
448,192,52430,128,2,53116:0:0:0:0:
64,192,52773,1,8,0:0:0:0:
192,192,53116,1,2,0:0:0:0:
320,192,53802,1,2,0:0:0:0:
192,192,54487,1,2,0:0:0:0:
64,192,55173,1,2,0:0:0:0:
448,192,55516,1,8,0:0:0:0:
64,192,55859,1,2,0:0:0:0:
448,192,56544,1,2,0:0:0:0:
192,192,57230,1,2,0:0:0:0:
320,192,57916,1,2,0:0:0:0:
64,192,58259,1,8,0:0:0:0:
448,192,58602,1,2,0:0:0:0:
192,192,58944,1,8,0:0:0:0:
320,192,59287,1,2,0:0:0:0:
64,192,59630,1,8,0:0:0:0:
448,192,59973,1,2,0:0:0:0:
192,192,60316,1,8,0:0:0:0:
64,192,60659,1,2,0:0:0:0:
320,192,61002,1,12,0:0:0:0:
64,192,61344,1,2,0:0:0:0:
448,192,61344,1,4,0:0:0:0:
192,192,61687,1,8,0:0:0:0:
320,192,62373,1,8,0:0:0:0:
64,192,63059,1,8,0:0:0:0:
448,192,63744,1,8,0:0:0:0:
192,192,64430,1,8,0:0:0:0:
448,192,65116,1,8,0:0:0:0:
64,192,65802,1,8,0:0:0:0:
320,192,66487,1,8,0:0:0:0:
192,192,67173,1,8,0:0:0:0:
448,192,67859,1,8,0:0:0:0:
64,192,68544,1,8,0:0:0:0:
320,192,69230,1,8,0:0:0:0:
192,192,69916,1,8,0:0:0:0:
448,192,70602,1,8,0:0:0:0:
64,192,71287,1,8,0:0:0:0:
320,192,71973,1,8,0:0:0:0:
64,192,72316,1,2,0:0:0:0:
448,192,72316,1,4,0:0:0:0:
192,192,72659,1,8,0:0:0:0:
448,192,73344,1,8,0:0:0:0:
192,192,74030,1,8,0:0:0:0:
320,192,74716,1,8,0:0:0:0:
64,192,75402,1,8,0:0:0:0:
448,192,76087,1,8,0:0:0:0:
192,192,76773,1,8,0:0:0:0:
320,192,77459,1,8,0:0:0:0:
64,192,77802,1,2,0:0:0:0:
448,192,78144,1,8,0:0:0:0:
192,192,78830,1,8,0:0:0:0:
64,192,79516,1,8,0:0:0:0:
320,192,80202,1,8,0:0:0:0:
64,192,80887,1,8,0:0:0:0:
448,192,81573,1,8,0:0:0:0:
192,192,81916,1,4,0:0:0:0:
192,192,82259,1,4,0:0:0:0:
192,192,82602,1,4,0:0:0:0:
448,192,82944,1,4,0:0:0:0:
64,192,83287,1,2,0:0:0:0:
320,192,83630,1,8,0:0:0:0:
192,192,84316,1,8,0:0:0:0:
64,192,85002,1,8,0:0:0:0:
448,192,85687,1,8,0:0:0:0:
192,192,86373,1,8,0:0:0:0:
320,192,87059,1,8,0:0:0:0:
448,192,87744,1,8,0:0:0:0:
192,192,88430,1,8,0:0:0:0:
64,192,89116,1,8,0:0:0:0:
320,192,89802,1,8,0:0:0:0:
192,192,90487,1,8,0:0:0:0:
448,192,91173,1,8,0:0:0:0:
64,192,91859,1,8,0:0:0:0:
320,192,92544,1,8,0:0:0:0:
192,192,93230,1,8,0:0:0:0:
64,192,93916,1,8,0:0:0:0:
448,192,94259,1,4,0:0:0:0:
192,192,94602,1,8,0:0:0:0:
64,192,95287,1,8,0:0:0:0:
320,192,95973,1,8,0:0:0:0:
192,192,96659,1,8,0:0:0:0:
448,192,97344,1,8,0:0:0:0:
64,192,98030,1,8,0:0:0:0:
320,192,98716,1,8,0:0:0:0:
192,192,99402,1,8,0:0:0:0:
448,192,100087,1,8,0:0:0:0:
64,192,100773,1,8,0:0:0:0:
320,192,101459,1,8,0:0:0:0:
192,192,102144,1,8,0:0:0:0:
448,192,102830,1,8,0:0:0:0:
64,192,103516,1,8,0:0:0:0:
448,192,103859,1,4,0:0:0:0:
192,192,104202,1,8,0:0:0:0:
64,192,104544,1,0,0:0:0:0:
448,192,104887,1,4,0:0:0:0:
320,192,105230,1,6,0:0:0:0:
64,192,105573,1,8,0:0:0:0:
320,192,106259,1,8,0:0:0:0:
192,192,106944,1,8,0:0:0:0:
64,192,107630,1,8,0:0:0:0:
448,192,108316,1,8,0:0:0:0:
64,192,109002,1,8,0:0:0:0:
320,192,109687,1,8,0:0:0:0:
192,192,110373,1,8,0:0:0:0:
448,192,111059,1,8,0:0:0:0:
64,192,111744,1,8,0:0:0:0:
320,192,112430,1,8,0:0:0:0:
192,192,113116,1,8,0:0:0:0:
448,192,113802,1,8,0:0:0:0:
192,192,114487,1,8,0:0:0:0:
320,192,115173,1,8,0:0:0:0:
64,192,115859,1,10,0:0:0:0:
192,192,116202,1,6,0:0:0:0:
448,192,116544,1,8,0:0:0:0:
64,192,117230,1,8,0:0:0:0:
320,192,117916,1,8,0:0:0:0:
192,192,118602,1,8,0:0:0:0:
448,192,119287,1,8,0:0:0:0:
64,192,119973,1,8,0:0:0:0:
320,192,120659,1,8,0:0:0:0:
192,192,121344,1,8,0:0:0:0:
448,192,122030,1,8,0:0:0:0:
192,192,122716,1,8,0:0:0:0:
64,192,123402,1,8,0:0:0:0:
320,192,124087,1,8,0:0:0:0:
192,192,124773,1,8,0:0:0:0:
448,192,125459,1,8,0:0:0:0:
64,192,125802,1,8,0:0:0:0:
320,192,126144,1,8,0:0:0:0:
64,192,126487,1,8,0:0:0:0:
448,192,126659,1,8,0:0:0:0:
192,192,127173,1,6,0:0:0:0:
448,192,127859,1,8,0:0:0:0:
64,192,128544,1,2,0:0:0:0:
320,192,129230,1,8,0:0:0:0:
448,192,129916,1,2,0:0:0:0:
192,192,130602,1,8,0:0:0:0:
64,192,131287,1,2,0:0:0:0:
320,192,131973,1,8,0:0:0:0:
64,192,132659,1,2,0:0:0:0:
448,192,133344,1,8,0:0:0:0:
192,192,134030,1,2,0:0:0:0:
320,192,134716,1,8,0:0:0:0:
64,192,135402,1,2,0:0:0:0:
448,192,136087,1,8,0:0:0:0:
320,192,136430,1,2,0:0:0:0:
64,192,136773,1,2,0:0:0:0:
448,192,137459,1,8,0:0:0:0:
192,192,138144,1,2,0:0:0:0:
320,192,138830,1,8,0:0:0:0:
64,192,139516,1,2,0:0:0:0:
448,192,140202,1,8,0:0:0:0:
192,192,140887,1,2,0:0:0:0:
320,192,141573,1,8,0:0:0:0:
64,192,142259,1,2,0:0:0:0:
448,192,142944,1,8,0:0:0:0:
192,192,143630,1,2,0:0:0:0:
320,192,144316,1,8,0:0:0:0:
64,192,145002,1,2,0:0:0:0:
448,192,145687,1,8,0:0:0:0:
192,192,146373,1,2,0:0:0:0:
320,192,147059,1,8,0:0:0:0:
64,192,147744,128,2,148087:0:0:0:0:
448,192,148087,128,2,148430:0:0:0:0:
320,192,148430,128,2,148773:0:0:0:0:
192,192,148773,128,2,149116:0:0:0:0:
64,192,149116,1,6,0:0:0:0:
448,192,149459,1,8,0:0:0:0:
320,192,150144,1,8,0:0:0:0:
192,192,150830,1,8,0:0:0:0:
64,192,151516,1,8,0:0:0:0:
448,192,151859,1,2,0:0:0:0:
192,192,152202,1,8,0:0:0:0:
64,192,152887,1,8,0:0:0:0:
320,192,153573,1,8,0:0:0:0:
448,192,154259,1,8,0:0:0:0:
192,192,154602,1,2,0:0:0:0:
320,192,154944,1,8,0:0:0:0:
64,192,155630,1,8,0:0:0:0:
448,192,156316,1,8,0:0:0:0:
192,192,157002,1,8,0:0:0:0:
64,192,157344,128,2,157687:0:0:0:0:
448,192,157687,1,8,0:0:0:0:
320,192,158373,1,8,0:0:0:0:
64,192,158716,1,4,0:0:0:0:
192,192,159059,1,0,0:0:0:0:
320,192,159402,1,0,0:0:0:0:
448,192,159744,1,0,0:0:0:0:
64,192,160087,1,6,0:0:0:0:
320,192,160430,1,8,0:0:0:0:
192,192,161116,1,8,0:0:0:0:
448,192,161802,1,8,0:0:0:0:
64,192,162487,1,8,0:0:0:0:
320,192,162830,1,2,0:0:0:0:
192,192,163173,1,8,0:0:0:0:
448,192,163859,1,8,0:0:0:0:
64,192,164544,1,8,0:0:0:0:
320,192,165230,1,8,0:0:0:0:
448,192,165573,1,2,0:0:0:0:
64,192,165916,1,8,0:0:0:0:
448,192,166602,1,8,0:0:0:0:
192,192,167287,1,8,0:0:0:0:
320,192,167973,1,8,0:0:0:0:
64,192,168316,128,2,168659:0:0:0:0:
448,192,168659,1,8,0:0:0:0:
192,192,169344,1,8,0:0:0:0:
320,192,170030,1,8,0:0:0:0:
64,192,170716,1,8,0:0:0:0:
448,192,171059,1,6,0:0:0:0:
192,192,171402,1,8,0:0:0:0:
320,192,172087,1,8,0:0:0:0:
64,192,172773,1,8,0:0:0:0:
448,192,173459,1,8,0:0:0:0:
64,192,173802,1,2,0:0:0:0:
320,192,174144,1,8,0:0:0:0:
192,192,174830,1,8,0:0:0:0:
64,192,175516,1,8,0:0:0:0:
448,192,176202,1,8,0:0:0:0:
64,192,176544,1,2,0:0:0:0:
192,192,176887,1,8,0:0:0:0:
320,192,177573,1,8,0:0:0:0:
448,192,178259,1,8,0:0:0:0:
64,192,178944,1,8,0:0:0:0:
192,192,179287,128,2,179630:0:0:0:0:
448,192,179630,1,8,0:0:0:0:
320,192,180316,1,8,0:0:0:0:
64,192,180659,1,4,0:0:0:0:
448,192,181173,1,4,0:0:0:0:
192,192,181687,1,4,0:0:0:0:
64,192,182030,1,4,0:0:0:0:
448,192,182716,1,0,0:0:0:0:
192,192,183402,1,0,0:0:0:0:
320,192,184087,1,0,0:0:0:0:
64,192,184773,1,0,0:0:0:0:
192,192,185459,1,0,0:0:0:0:
320,192,186144,1,0,0:0:0:0:
64,192,186830,1,0,0:0:0:0:
448,192,187516,1,0,0:0:0:0:
192,192,188202,1,0,0:0:0:0:
64,192,188887,1,0,0:0:0:0:
320,192,189573,1,0,0:0:0:0:
448,192,190259,1,0,0:0:0:0:
64,192,190944,1,0,0:0:0:0:
320,192,191630,1,0,0:0:0:0:
192,192,192316,1,0,0:0:0:0:
448,192,193002,1,0,0:0:0:0:
64,192,193687,1,0,0:0:0:0:
192,192,194373,1,0,0:0:0:0:
320,192,195059,1,0,0:0:0:0:
64,192,195744,1,0,0:0:0:0:
320,192,196430,1,0,0:0:0:0:
192,192,197116,1,0,0:0:0:0:
448,192,197802,1,0,0:0:0:0:
64,192,198487,1,0,0:0:0:0:
320,192,199173,1,0,0:0:0:0:
192,192,199859,1,0,0:0:0:0:
64,192,200544,1,0,0:0:0:0:
448,192,201230,1,0,0:0:0:0:
192,192,201916,1,0,0:0:0:0:
448,192,202944,128,0,203973:0:0:0:0:
64,192,203973,1,4,0:0:0:0:
192,192,204659,1,4,0:0:0:0:
320,192,205344,1,0,0:0:0:0:
448,192,206030,1,4,0:0:0:0:
64,192,206716,1,0,0:0:0:0:
448,192,207402,1,4,0:0:0:0:
320,192,208087,1,0,0:0:0:0:
192,192,208773,1,4,0:0:0:0:
64,192,209459,1,0,0:0:0:0:
448,192,210144,1,4,0:0:0:0:
64,192,210830,1,0,0:0:0:0:
320,192,211516,1,4,0:0:0:0:
64,192,212202,1,0,0:0:0:0:
448,192,212887,1,4,0:0:0:0:
192,192,213573,1,0,0:0:0:0:
320,192,214259,1,4,0:0:0:0:
64,192,214944,1,0,0:0:0:0:
448,192,215630,1,4,0:0:0:0:
192,192,216316,1,0,0:0:0:0:
64,192,217002,1,4,0:0:0:0:
320,192,217687,1,0,0:0:0:0:
192,192,218373,1,4,0:0:0:0:
448,192,219059,1,0,0:0:0:0:
64,192,219744,1,4,0:0:0:0:
320,192,220430,1,0,0:0:0:0:
192,192,221116,1,4,0:0:0:0:
64,192,221802,1,0,0:0:0:0:
448,192,222487,1,4,0:0:0:0:
192,192,223173,1,0,0:0:0:0:
320,192,223859,1,4,0:0:0:0:
448,192,224544,1,8,0:0:0:0:
64,192,225059,1,8,0:0:0:0:
320,192,225573,1,8,0:0:0:0:
64,192,225916,1,4,0:0:0:0:
448,192,225916,1,2,0:0:0:0:
192,192,226259,1,8,0:0:0:0:
320,192,226944,1,8,0:0:0:0:
448,192,227630,1,8,0:0:0:0:
64,192,228316,1,8,0:0:0:0:
320,192,228659,1,2,0:0:0:0:
64,192,229002,1,8,0:0:0:0:
448,192,229687,1,8,0:0:0:0:
192,192,230373,1,8,0:0:0:0:
64,192,231059,1,8,0:0:0:0:
320,192,231402,1,2,0:0:0:0:
192,192,231744,1,8,0:0:0:0:
448,192,232430,1,8,0:0:0:0:
64,192,233116,1,8,0:0:0:0:
320,192,233802,1,8,0:0:0:0:
448,192,234144,1,2,0:0:0:0:
192,192,234487,1,8,0:0:0:0:
64,192,235173,1,8,0:0:0:0:
448,192,235859,1,8,0:0:0:0:
64,192,236544,1,8,0:0:0:0:
320,192,236887,1,6,0:0:0:0:
192,192,237230,1,8,0:0:0:0:
448,192,237916,1,8,0:0:0:0:
64,192,238602,1,8,0:0:0:0:
320,192,239287,1,8,0:0:0:0:
64,192,239630,1,2,0:0:0:0:
448,192,239973,1,8,0:0:0:0:
192,192,240659,1,8,0:0:0:0:
64,192,241002,1,2,0:0:0:0:
320,192,241344,1,8,0:0:0:0:
64,192,242030,1,8,0:0:0:0:
448,192,242373,1,2,0:0:0:0:
192,192,242716,1,8,0:0:0:0:
64,192,243402,1,8,0:0:0:0:
320,192,244087,1,8,0:0:0:0:
448,192,244773,1,8,0:0:0:0:
64,192,245116,1,2,0:0:0:0:
192,192,245459,128,8,245802:0:0:0:0:
448,192,245802,1,2,0:0:0:0:
64,192,246144,1,8,0:0:0:0:
320,192,246487,1,8,0:0:0:0:
448,192,246830,1,8,0:0:0:0:
64,192,247173,1,4,0:0:0:0:
192,192,247516,1,8,0:0:0:0:
448,192,247859,1,6,0:0:0:0:
64,192,248202,1,8,0:0:0:0:
192,192,248887,1,8,0:0:0:0:
320,192,249573,1,8,0:0:0:0:
448,192,250259,1,8,0:0:0:0:
64,192,250602,1,2,0:0:0:0:
320,192,250944,1,8,0:0:0:0:
192,192,251630,1,8,0:0:0:0:
64,192,252316,1,8,0:0:0:0:
192,192,253002,1,8,0:0:0:0:
448,192,253344,1,2,0:0:0:0:
64,192,253687,1,8,0:0:0:0:
320,192,254373,1,8,0:0:0:0:
192,192,255059,1,8,0:0:0:0:
64,192,255744,1,8,0:0:0:0:
448,192,256087,1,2,0:0:0:0:
320,192,256430,1,8,0:0:0:0:
64,192,257116,1,8,0:0:0:0:
320,192,257459,1,8,0:0:0:0:
448,192,257802,1,8,0:0:0:0:
192,192,258316,1,8,0:0:0:0:
320,192,258830,1,6,0:0:0:0:
64,192,259173,1,8,0:0:0:0:
192,192,259859,1,8,0:0:0:0:
320,192,260544,1,8,0:0:0:0:
448,192,261230,1,8,0:0:0:0:
64,192,261573,1,2,0:0:0:0:
320,192,261916,1,8,0:0:0:0:
192,192,262602,1,8,0:0:0:0:
448,192,262944,1,2,0:0:0:0:
64,192,263287,1,8,0:0:0:0:
448,192,263973,1,8,0:0:0:0:
192,192,264316,1,2,0:0:0:0:
320,192,264659,1,8,0:0:0:0:
64,192,265344,1,8,0:0:0:0:
448,192,266030,1,8,0:0:0:0:
192,192,266716,1,8,0:0:0:0:
64,192,267059,1,2,0:0:0:0:
320,192,267402,1,8,0:0:0:0:
192,192,268087,1,8,0:0:0:0:
64,192,268430,1,0,0:0:0:0:
448,192,268773,1,8,0:0:0:0:
64,192,269459,1,8,0:0:0:0:
448,192,269802,128,4,272544:0:0:0:0:
64,192,272544,128,0,273916:0:0:0:0:
192,192,273916,128,0,275287:0:0:0:0:
320,192,275287,128,0,276659:0:0:0:0:
448,192,276659,128,0,278030:0:0:0:0:
192,192,278030,128,0,279402:0:0:0:0:
64,192,279402,128,0,280773:0:0:0:0:
320,192,280773,128,0,282144:0:0:0:0:
192,192,282144,128,0,283516:0:0:0:0:
448,192,283516,128,0,284887:0:0:0:0:
64,192,284887,128,0,286259:0:0:0:0:
320,192,286259,128,0,287630:0:0:0:0:
448,192,287630,128,0,289002:0:0:0:0:
192,192,289002,128,0,290373:0:0:0:0:
320,192,290373,128,0,291744:0:0:0:0:
64,192,291744,128,0,292087:0:0:0:0:
448,192,292087,128,0,293116:0:0:0:0:
192,192,293116,128,0,295859:0:0:0:0:
64,192,295859,128,0,297230:0:0:0:0:
320,192,297230,128,0,298602:0:0:0:0:
192,192,298602,128,0,299973:0:0:0:0:
448,192,299973,128,0,301344:0:0:0:0:
64,192,301344,128,0,302716:0:0:0:0:
320,192,302716,128,0,304087:0:0:0:0:
192,192,304087,128,0,305459:0:0:0:0:
448,192,305459,128,0,305802:0:0:0:0:
64,192,305802,128,0,306830:0:0:0:0:
320,192,306830,128,0,308202:0:0:0:0:
192,192,308202,128,0,309573:0:0:0:0:
448,192,309573,128,0,310944:0:0:0:0:
64,192,310944,128,0,312316:0:0:0:0:
