osu file format v14

[General]
AudioFilename: audio.mp3
AudioLeadIn: 0
PreviewTime: 219603
Countdown: 1
SampleSet: Soft
StackLeniency: 0.7
Mode: 0
LetterboxInBreaks: 0
WidescreenStoryboard: 0

[Editor]
Bookmarks: 44060,66003,76975,87946,98917,109889,120860,131832,142803,175717,197660,219603,230575,241546,252860,263489,274460,285432,296403
DistanceSpacing: 0.2
BeatDivisor: 4
GridSize: 32
TimelineZoom: 2.5

[Metadata]
Title:Nightmare System
TitleUnicode:Nightmare System
Artist:Team Grimoire
ArtistUnicode:Team Grimoire
Creator:EijiKuinbii
Version:Collab
Source:
Tags:cappu tatemae anishina kodoku den0saur dendyhere angel arrow smozit yooh livia frakturehawkens ksardas colicen dcvlive caspar
BeatmapID:1990545
BeatmapSetID:953359

[Difficulty]
HPDrainRate:6
CircleSize:4
OverallDifficulty:9
ApproachRate:9.6
SliderMultiplier:2
SliderTickRate:1

[Events]
//Background and Video events
0,0,"bg.jpg",0,0
//Break Periods
//Storyboard Layer 0 (Background)
//Storyboard Layer 1 (Fail)
//Storyboard Layer 2 (Pass)
//Storyboard Layer 3 (Foreground)
//Storyboard Sound Samples

[TimingPoints]
175,342.857142857143,4,2,0,40,1,0
175,342.857142857143,4,2,0,40,1,0
175,342.857142857143,4,2,0,40,1,0
175,342.857142857143,4,2,0,40,1,0
175,342.857142857143,4,2,0,40,1,0
175,342.857142857143,4,2,0,40,1,0
1546,-222.222222222221,4,2,0,40,0,0
1546,-222.222222222221,4,2,0,40,0,0
1546,-222.222222222221,4,2,0,40,0,0
1546,-222.222222222221,4,2,0,40,0,0
22117,-100,4,2,0,40,0,0
22117,-100,4,2,0,40,0,0
22117,-100,4,2,0,40,0,0
22117,-100,4,2,0,40,0,0
23489,-222.222222222221,4,2,0,40,0,0
23489,-222.222222222221,4,2,0,40,0,0
23489,-222.222222222221,4,2,0,40,0,0
23489,-222.222222222221,4,2,0,40,0,0
43717,-285.714285714284,4,2,0,40,0,0
43717,-285.714285714284,4,2,0,40,0,0
43717,-285.714285714284,4,2,0,40,0,0
43717,-285.714285714284,4,2,0,40,0,0
44060,-41.6666666666667,4,2,0,40,0,0
44060,-41.6666666666667,4,2,0,40,0,0
44060,-41.6666666666667,4,2,0,40,0,0
44060,-41.6666666666667,4,2,0,40,0,0
44917,-50,4,2,0,40,0,0
44917,-50,4,2,0,40,0,0
44917,-50,4,2,0,40,0,0
44917,-50,4,2,0,40,0,0
45089,-100,4,2,0,40,0,0
45089,-100,4,2,0,40,0,0
45089,-100,4,2,0,40,0,0
45089,-100,4,2,0,40,0,0
45432,-41.6666666666667,4,2,0,40,0,0
45432,-41.6666666666667,4,2,0,40,0,0
45432,-41.6666666666667,4,2,0,40,0,0
45432,-41.6666666666667,4,2,0,40,0,0
46289,-50,4,2,0,40,0,0
46289,-50,4,2,0,40,0,0
46289,-50,4,2,0,40,0,0
46289,-50,4,2,0,40,0,0
46460,-100,4,2,0,40,0,0
46460,-100,4,2,0,40,0,0
46460,-100,4,2,0,40,0,0
46460,-100,4,2,0,40,0,0
46803,-41.6666666666667,4,2,0,40,0,0
46803,-41.6666666666667,4,2,0,40,0,0
46803,-41.6666666666667,4,2,0,40,0,0
46803,-41.6666666666667,4,2,0,40,0,0
47660,-50,4,2,0,40,0,0
47660,-50,4,2,0,40,0,0
47660,-50,4,2,0,40,0,0
47660,-50,4,2,0,40,0,0
47832,-100,4,2,0,40,0,0
47832,-100,4,2,0,40,0,0
47832,-100,4,2,0,40,0,0
47832,-100,4,2,0,40,0,0
48175,-41.6666666666667,4,2,0,40,0,0
48175,-41.6666666666667,4,2,0,40,0,0
48175,-41.6666666666667,4,2,0,40,0,0
48175,-41.6666666666667,4,2,0,40,0,0
49032,-50,4,2,0,40,0,0
49032,-50,4,2,0,40,0,0
49032,-50,4,2,0,40,0,0
49032,-50,4,2,0,40,0,0
49203,-100,4,2,0,40,0,0
49203,-100,4,2,0,40,0,0
49203,-100,4,2,0,40,0,0
49203,-100,4,2,0,40,0,0
49546,-41.6666666666667,4,2,0,40,0,0
49546,-41.6666666666667,4,2,0,40,0,0
49546,-41.6666666666667,4,2,0,40,0,0
49546,-41.6666666666667,4,2,0,40,0,0
50403,-50,4,2,0,40,0,0
50403,-50,4,2,0,40,0,0
50403,-50,4,2,0,40,0,0
50403,-50,4,2,0,40,0,0
50575,-100,4,2,0,40,0,0
50575,-100,4,2,0,40,0,0
50575,-100,4,2,0,40,0,0
50575,-100,4,2,0,40,0,0
50917,-41.6666666666667,4,2,0,40,0,0
50917,-41.6666666666667,4,2,0,40,0,0
50917,-41.6666666666667,4,2,0,40,0,0
50917,-41.6666666666667,4,2,0,40,0,0
51775,-50,4,2,0,40,0,0
51775,-50,4,2,0,40,0,0
51775,-50,4,2,0,40,0,0
51775,-50,4,2,0,40,0,0
51946,-100,4,2,0,40,0,0
51946,-100,4,2,0,40,0,0
51946,-100,4,2,0,40,0,0
51946,-100,4,2,0,40,0,0
52289,-41.6666666666667,4,2,0,40,0,0
52289,-41.6666666666667,4,2,0,40,0,0
52289,-41.6666666666667,4,2,0,40,0,0
52289,-41.6666666666667,4,2,0,40,0,0
53146,-50,4,2,0,40,0,0
53146,-50,4,2,0,40,0,0
53146,-50,4,2,0,40,0,0
53146,-50,4,2,0,40,0,0
53317,-100,4,2,0,40,0,0
53317,-100,4,2,0,40,0,0
53317,-100,4,2,0,40,0,0
53317,-100,4,2,0,40,0,0
53660,-41.6666666666667,4,2,0,40,0,0
53660,-41.6666666666667,4,2,0,40,0,0
53660,-41.6666666666667,4,2,0,40,0,0
53660,-41.6666666666667,4,2,0,40,0,0
55032,-41.6666666666667,4,2,0,40,0,0
55032,-41.6666666666667,4,2,0,40,0,0
55032,-41.6666666666667,4,2,0,40,0,0
55032,-41.6666666666667,4,2,0,40,0,0
55889,-50,4,2,0,40,0,0
55889,-50,4,2,0,40,0,0
55889,-50,4,2,0,40,0,0
55889,-50,4,2,0,40,0,0
56060,-100,4,2,0,40,0,0
56060,-100,4,2,0,40,0,0
56060,-100,4,2,0,40,0,0
56060,-100,4,2,0,40,0,0
56403,-41.6666666666667,4,2,0,40,0,0
56403,-41.6666666666667,4,2,0,40,0,0
56403,-41.6666666666667,4,2,0,40,0,0
56403,-41.6666666666667,4,2,0,40,0,0
57260,-50,4,2,0,40,0,0
57260,-50,4,2,0,40,0,0
57260,-50,4,2,0,40,0,0
57260,-50,4,2,0,40,0,0
57432,-100,4,2,0,40,0,0
57432,-100,4,2,0,40,0,0
57432,-100,4,2,0,40,0,0
57432,-100,4,2,0,40,0,0
57775,-41.6666666666667,4,2,0,40,0,0
57775,-41.6666666666667,4,2,0,40,0,0
57775,-41.6666666666667,4,2,0,40,0,0
57775,-41.6666666666667,4,2,0,40,0,0
58632,-50,4,2,0,40,0,0
58632,-50,4,2,0,40,0,0
58632,-50,4,2,0,40,0,0
58632,-50,4,2,0,40,0,0
58803,-100,4,2,0,40,0,0
58803,-100,4,2,0,40,0,0
58803,-100,4,2,0,40,0,0
58803,-100,4,2,0,40,0,0
59146,-41.6666666666667,4,2,0,40,0,0
59146,-41.6666666666667,4,2,0,40,0,0
59146,-41.6666666666667,4,2,0,40,0,0
59146,-41.6666666666667,4,2,0,40,0,0
60003,-50,4,2,0,40,0,0
60003,-50,4,2,0,40,0,0
60003,-50,4,2,0,40,0,0
60003,-50,4,2,0,40,0,0
60175,-100,4,2,0,40,0,0
60175,-100,4,2,0,40,0,0
60175,-100,4,2,0,40,0,0
60175,-100,4,2,0,40,0,0
60517,-41.6666666666667,4,2,0,40,0,0
60517,-41.6666666666667,4,2,0,40,0,0
60517,-41.6666666666667,4,2,0,40,0,0
60517,-41.6666666666667,4,2,0,40,0,0
61375,-50,4,2,0,40,0,0
61375,-50,4,2,0,40,0,0
61375,-50,4,2,0,40,0,0
61375,-50,4,2,0,40,0,0
61546,-100,4,2,0,40,0,0
61546,-100,4,2,0,40,0,0
61546,-100,4,2,0,40,0,0
61546,-100,4,2,0,40,0,0
61889,-41.6666666666667,4,2,0,40,0,0
61889,-41.6666666666667,4,2,0,40,0,0
61889,-41.6666666666667,4,2,0,40,0,0
61889,-41.6666666666667,4,2,0,40,0,0
62746,-50,4,2,0,40,0,0
62746,-50,4,2,0,40,0,0
62746,-50,4,2,0,40,0,0
62746,-50,4,2,0,40,0,0
62917,-100,4,2,0,40,0,0
62917,-100,4,2,0,40,0,0
62917,-100,4,2,0,40,0,0
62917,-100,4,2,0,40,0,0
63260,-41.6666666666667,4,2,0,40,0,0
63260,-41.6666666666667,4,2,0,40,0,0
63260,-41.6666666666667,4,2,0,40,0,0
63260,-41.6666666666667,4,2,0,40,0,0
64117,-50,4,2,0,40,0,0
64117,-50,4,2,0,40,0,0
64117,-50,4,2,0,40,0,0
64117,-50,4,2,0,40,0,0
64289,-100,4,2,0,40,0,0
64289,-100,4,2,0,40,0,0
64289,-100,4,2,0,40,0,0
64289,-100,4,2,0,40,0,0
64632,-40,4,2,0,40,0,0
64632,-40,4,2,0,40,0,0
64632,-40,4,2,0,40,0,0
64632,-40,4,2,0,40,0,0
66003,-50,4,2,0,40,0,0
66003,-50,4,2,0,40,0,0
66003,-50,4,2,0,40,0,0
66003,-50,4,2,0,40,0,0
66346,-58.8235294117647,4,2,0,40,0,0
66346,-58.8235294117647,4,2,0,40,0,0
66346,-58.8235294117647,4,2,0,40,0,0
66346,-58.8235294117647,4,2,0,40,0,0
67375,-50,4,2,0,40,0,0
67375,-50,4,2,0,40,0,0
67375,-50,4,2,0,40,0,0
67375,-50,4,2,0,40,0,0
67717,-58.8235294117647,4,2,0,40,0,0
67717,-58.8235294117647,4,2,0,40,0,0
67717,-58.8235294117647,4,2,0,40,0,0
67717,-58.8235294117647,4,2,0,40,0,0
68746,-50,4,2,0,40,0,0
68746,-50,4,2,0,40,0,0
68746,-50,4,2,0,40,0,0
68746,-50,4,2,0,40,0,0
69089,-58.8235294117647,4,2,0,40,0,0
69089,-58.8235294117647,4,2,0,40,0,0
69089,-58.8235294117647,4,2,0,40,0,0
69089,-58.8235294117647,4,2,0,40,0,0
69946,-133.333333333333,4,2,0,40,0,0
69946,-133.333333333333,4,2,0,40,0,0
69946,-133.333333333333,4,2,0,40,0,0
69946,-133.333333333333,4,2,0,40,0,0
70117,-50,4,2,0,40,0,0
70117,-50,4,2,0,40,0,0
70117,-50,4,2,0,40,0,0
70117,-50,4,2,0,40,0,0
70460,-58.8235294117647,4,2,0,40,0,0
70460,-58.8235294117647,4,2,0,40,0,0
70460,-58.8235294117647,4,2,0,40,0,0
70460,-58.8235294117647,4,2,0,40,0,0
71317,-133.333333333333,4,2,0,40,0,0
71317,-133.333333333333,4,2,0,40,0,0
71317,-133.333333333333,4,2,0,40,0,0
71317,-133.333333333333,4,2,0,40,0,0
71489,-50,4,2,0,40,0,0
71489,-50,4,2,0,40,0,0
71489,-50,4,2,0,40,0,0
71489,-50,4,2,0,40,0,0
71832,-58.8235294117647,4,2,0,40,0,0
71832,-58.8235294117647,4,2,0,40,0,0
71832,-58.8235294117647,4,2,0,40,0,0
71832,-58.8235294117647,4,2,0,40,0,0
72860,-50,4,2,0,40,0,0
72860,-50,4,2,0,40,0,0
72860,-50,4,2,0,40,0,0
72860,-50,4,2,0,40,0,0
73203,-58.8235294117647,4,2,0,40,0,0
73203,-58.8235294117647,4,2,0,40,0,0
73203,-58.8235294117647,4,2,0,40,0,0
73203,-58.8235294117647,4,2,0,40,0,0
74232,-50,4,2,0,40,0,0
74232,-50,4,2,0,40,0,0
74232,-50,4,2,0,40,0,0
74232,-50,4,2,0,40,0,0
74575,-58.8235294117647,4,2,0,40,0,0
74575,-58.8235294117647,4,2,0,40,0,0
74575,-58.8235294117647,4,2,0,40,0,0
74575,-58.8235294117647,4,2,0,40,0,0
75603,-181.818181818181,4,2,0,40,0,0
75603,-181.818181818181,4,2,0,40,0,0
75603,-181.818181818181,4,2,0,40,0,0
75603,-181.818181818181,4,2,0,40,0,0
76632,-50,4,2,0,40,0,0
76632,-50,4,2,0,40,0,0
76632,-50,4,2,0,40,0,0
76632,-50,4,2,0,40,0,0
76975,-50,4,2,0,40,0,0
76975,-50,4,2,0,40,0,0
76975,-50,4,2,0,40,0,0
76975,-50,4,2,0,40,0,0
77317,-66.6666666666667,4,2,0,40,0,0
77317,-66.6666666666667,4,2,0,40,0,0
77317,-66.6666666666667,4,2,0,40,0,0
77317,-66.6666666666667,4,2,0,40,0,0
77660,-50,4,2,0,40,0,0
77660,-50,4,2,0,40,0,0
77660,-50,4,2,0,40,0,0
77660,-50,4,2,0,40,0,0
78003,-43.4782608695652,4,2,0,40,0,0
78003,-43.4782608695652,4,2,0,40,0,0
78003,-43.4782608695652,4,2,0,40,0,0
78003,-43.4782608695652,4,2,0,40,0,0
78346,-50,4,2,0,40,0,0
78346,-50,4,2,0,40,0,0
78346,-50,4,2,0,40,0,0
78346,-50,4,2,0,40,0,0
78689,-66.6666666666667,4,2,0,40,0,0
78689,-66.6666666666667,4,2,0,40,0,0
78689,-66.6666666666667,4,2,0,40,0,0
78689,-66.6666666666667,4,2,0,40,0,0
79032,-50,4,2,0,40,0,0
79032,-50,4,2,0,40,0,0
79032,-50,4,2,0,40,0,0
79032,-50,4,2,0,40,0,0
79375,-50,4,2,0,40,0,0
79375,-50,4,2,0,40,0,0
79375,-50,4,2,0,40,0,0
79375,-50,4,2,0,40,0,0
79717,-45.4545454545455,4,2,0,40,0,0
79717,-45.4545454545455,4,2,0,40,0,0
79717,-45.4545454545455,4,2,0,40,0,0
79717,-45.4545454545455,4,2,0,40,0,0
80060,-66.6666666666667,4,2,0,40,0,0
80060,-66.6666666666667,4,2,0,40,0,0
80060,-66.6666666666667,4,2,0,40,0,0
80060,-66.6666666666667,4,2,0,40,0,0
80403,-41.6666666666667,4,2,0,40,0,0
80403,-41.6666666666667,4,2,0,40,0,0
80403,-41.6666666666667,4,2,0,40,0,0
80403,-41.6666666666667,4,2,0,40,0,0
80746,-38.4615384615385,4,2,0,40,0,0
80746,-38.4615384615385,4,2,0,40,0,0
80746,-38.4615384615385,4,2,0,40,0,0
80746,-38.4615384615385,4,2,0,40,0,0
81089,-41.6666666666667,4,2,0,40,0,0
81089,-41.6666666666667,4,2,0,40,0,0
81089,-41.6666666666667,4,2,0,40,0,0
81089,-41.6666666666667,4,2,0,40,0,0
81432,-66.6666666666667,4,2,0,40,0,0
81432,-66.6666666666667,4,2,0,40,0,0
81432,-66.6666666666667,4,2,0,40,0,0
81432,-66.6666666666667,4,2,0,40,0,0
81775,-41.6666666666667,4,2,0,40,0,0
81775,-41.6666666666667,4,2,0,40,0,0
81775,-41.6666666666667,4,2,0,40,0,0
81775,-41.6666666666667,4,2,0,40,0,0
82117,-38.4615384615385,4,2,0,40,0,0
82117,-38.4615384615385,4,2,0,40,0,0
82117,-38.4615384615385,4,2,0,40,0,0
82117,-38.4615384615385,4,2,0,40,0,0
82460,-40,4,2,0,40,0,0
82460,-40,4,2,0,40,0,0
82460,-40,4,2,0,40,0,0
82460,-40,4,2,0,40,0,0
82803,-66.6666666666667,4,2,0,40,0,0
82803,-66.6666666666667,4,2,0,40,0,0
82803,-66.6666666666667,4,2,0,40,0,0
82803,-66.6666666666667,4,2,0,40,0,0
83146,-41.6666666666667,4,2,0,40,0,0
83146,-41.6666666666667,4,2,0,40,0,0
83146,-41.6666666666667,4,2,0,40,0,0
83146,-41.6666666666667,4,2,0,40,0,0
83489,-38.4615384615385,4,2,0,40,0,0
83489,-38.4615384615385,4,2,0,40,0,0
83489,-38.4615384615385,4,2,0,40,0,0
83489,-38.4615384615385,4,2,0,40,0,0
83832,-40,4,2,0,40,0,0
83832,-40,4,2,0,40,0,0
83832,-40,4,2,0,40,0,0
83832,-40,4,2,0,40,0,0
84175,-66.6666666666667,4,2,0,40,0,0
84175,-66.6666666666667,4,2,0,40,0,0
84175,-66.6666666666667,4,2,0,40,0,0
84175,-66.6666666666667,4,2,0,40,0,0
84517,-40,4,2,0,40,0,0
84517,-40,4,2,0,40,0,0
84517,-40,4,2,0,40,0,0
84517,-40,4,2,0,40,0,0
84860,-35.7142857142857,4,3,0,40,0,0
84860,-35.7142857142857,4,3,0,40,0,0
84860,-35.7142857142857,4,3,0,40,0,0
84860,-35.7142857142857,4,3,0,40,0,0
85203,-38.4615384615385,4,3,0,40,0,0
85203,-38.4615384615385,4,3,0,40,0,0
85203,-38.4615384615385,4,3,0,40,0,0
85203,-38.4615384615385,4,3,0,40,0,0
85546,-66.6666666666667,4,3,0,40,0,0
85546,-66.6666666666667,4,3,0,40,0,0
85546,-66.6666666666667,4,3,0,40,0,0
85546,-66.6666666666667,4,3,0,40,0,0
85889,-33.3333333333333,4,3,0,40,0,0
85889,-33.3333333333333,4,3,0,40,0,0
85889,-33.3333333333333,4,3,0,40,0,0
85889,-33.3333333333333,4,3,0,40,0,0
86575,-66.6666666666667,4,3,0,40,0,0
86575,-66.6666666666667,4,3,0,40,0,0
86575,-66.6666666666667,4,3,0,40,0,0
86575,-66.6666666666667,4,3,0,40,0,0
87946,-40,4,2,0,40,0,0
87946,-40,4,2,0,40,0,0
87946,-40,4,2,0,40,0,0
87946,-40,4,2,0,40,0,0
90346,-33.3333333333333,4,2,0,40,0,0
90346,-33.3333333333333,4,2,0,40,0,0
90346,-33.3333333333333,4,2,0,40,0,0
90346,-33.3333333333333,4,2,0,40,0,0
90689,-40,4,2,0,40,0,0
90689,-40,4,2,0,40,0,0
90689,-40,4,2,0,40,0,0
90689,-40,4,2,0,40,0,0
93089,-33.3333333333333,4,2,0,40,0,0
93089,-33.3333333333333,4,2,0,40,0,0
93089,-33.3333333333333,4,2,0,40,0,0
93089,-33.3333333333333,4,2,0,40,0,0
93432,-40,4,2,0,40,0,0
93432,-40,4,2,0,40,0,0
93432,-40,4,2,0,40,0,0
93432,-40,4,2,0,40,0,0
94460,-28.5714285714286,4,2,0,40,0,0
94460,-28.5714285714286,4,2,0,40,0,0
94460,-28.5714285714286,4,2,0,40,0,0
94460,-28.5714285714286,4,2,0,40,0,0
94803,-40,4,2,0,40,0,0
94803,-40,4,2,0,40,0,0
94803,-40,4,2,0,40,0,0
94803,-40,4,2,0,40,0,0
95832,-33.3333333333333,4,2,0,40,0,0
96175,-37.037037037037,4,2,0,40,0,0
96175,-37.037037037037,4,2,0,40,0,0
96175,-37.037037037037,4,2,0,40,0,0
96175,-37.037037037037,4,2,0,40,0,0
97546,-33.3333333333333,4,2,0,40,0,0
97546,-33.3333333333333,4,2,0,40,0,0
97546,-33.3333333333333,4,2,0,40,0,0
97546,-33.3333333333333,4,2,0,40,0,0
98575,-31.25,4,2,0,40,0,0
98575,-31.25,4,2,0,40,0,0
98575,-31.25,4,2,0,40,0,0
98575,-31.25,4,2,0,40,0,0
98917,-40,4,2,0,40,0,0
99260,-33.3333333333333,4,2,0,40,0,0
99603,-28.5714285714286,4,2,0,40,0,0
99946,-33.3333333333333,4,2,0,40,0,0
100289,-40,4,2,0,40,0,0
100632,-33.3333333333333,4,2,0,40,0,0
100975,-28.5714285714286,4,2,0,40,0,0
101318,-33.3333333333333,4,2,0,40,0,0
101660,-40,4,2,0,40,0,0
102003,-33.3333333333333,4,2,0,40,0,0
102346,-28.5714285714286,4,2,0,40,0,0
102689,-33.3333333333333,4,2,0,40,0,0
103032,-40,4,2,0,40,0,0
103375,-33.3333333333333,4,2,0,40,0,0
103718,-28.5714285714286,4,2,0,40,0,0
104061,-33.3333333333333,4,2,0,40,0,0
104232,-28.5714285714286,4,2,0,40,0,0
104403,-40,4,2,0,40,0,0
104746,-33.3333333333333,4,2,0,40,0,0
105089,-28.5714285714286,4,2,0,40,0,0
105432,-33.3333333333333,4,2,0,40,0,0
105775,-40,4,2,0,40,0,0
106118,-33.3333333333333,4,2,0,40,0,0
106461,-28.5714285714286,4,2,0,40,0,0
106804,-33.3333333333333,4,2,0,40,0,0
107146,-40,4,2,0,40,0,0
107489,-33.3333333333333,4,2,0,40,0,0
107832,-28.5714285714286,4,2,0,40,0,0
108175,-33.3333333333333,4,2,0,40,0,0
108517,-40,4,2,0,40,0,0
108860,-33.3333333333333,4,2,0,40,0,0
109203,-28.5714285714286,4,2,0,40,0,0
109546,-33.3333333333333,4,2,0,40,0,0
109889,-50,4,2,0,40,0,0
109889,-50,4,2,0,40,0,0
109889,-50,4,2,0,40,0,0
109889,-50,4,2,0,40,0,0
110232,-66.6666666666667,4,2,0,40,0,0
110232,-66.6666666666667,4,2,0,40,0,0
110232,-66.6666666666667,4,2,0,40,0,0
110232,-66.6666666666667,4,2,0,40,0,0
110917,-55.5555555555556,4,2,0,40,0,0
110917,-55.5555555555556,4,2,0,40,0,0
110917,-55.5555555555556,4,2,0,40,0,0
110917,-55.5555555555556,4,2,0,40,0,0
111260,-50,4,2,0,40,0,0
111260,-50,4,2,0,40,0,0
111260,-50,4,2,0,40,0,0
111260,-50,4,2,0,40,0,0
111603,-66.6666666666667,4,2,0,40,0,0
111603,-66.6666666666667,4,2,0,40,0,0
111603,-66.6666666666667,4,2,0,40,0,0
111603,-66.6666666666667,4,2,0,40,0,0
112289,-55.5555555555556,4,2,0,40,0,0
112289,-55.5555555555556,4,2,0,40,0,0
112289,-55.5555555555556,4,2,0,40,0,0
112289,-55.5555555555556,4,2,0,40,0,0
112632,-50,4,2,0,40,0,0
112632,-50,4,2,0,40,0,0
112632,-50,4,2,0,40,0,0
112632,-50,4,2,0,40,0,0
112975,-66.6666666666667,4,2,0,40,0,0
112975,-66.6666666666667,4,2,0,40,0,0
112975,-66.6666666666667,4,2,0,40,0,0
112975,-66.6666666666667,4,2,0,40,0,0
113660,-55.5555555555556,4,2,0,40,0,0
113660,-55.5555555555556,4,2,0,40,0,0
113660,-55.5555555555556,4,2,0,40,0,0
113660,-55.5555555555556,4,2,0,40,0,0
114003,-50,4,2,0,40,0,0
114003,-50,4,2,0,40,0,0
114003,-50,4,2,0,40,0,0
114003,-50,4,2,0,40,0,0
114346,-66.6666666666667,4,2,0,40,0,0
114346,-66.6666666666667,4,2,0,40,0,0
114346,-66.6666666666667,4,2,0,40,0,0
114346,-66.6666666666667,4,2,0,40,0,0
115032,-55.5555555555556,4,2,0,40,0,0
115032,-55.5555555555556,4,2,0,40,0,0
115032,-55.5555555555556,4,2,0,40,0,0
115032,-55.5555555555556,4,2,0,40,0,0
115375,-50,4,2,0,40,0,0
115375,-50,4,2,0,40,0,0
115375,-50,4,2,0,40,0,0
115375,-50,4,2,0,40,0,0
115717,-66.6666666666667,4,2,0,40,0,0
115717,-66.6666666666667,4,2,0,40,0,0
115717,-66.6666666666667,4,2,0,40,0,0
115717,-66.6666666666667,4,2,0,40,0,0
116403,-50,4,2,0,40,0,0
116403,-50,4,2,0,40,0,0
116403,-50,4,2,0,40,0,0
116403,-50,4,2,0,40,0,0
116746,-50,4,2,0,40,0,0
116746,-50,4,2,0,40,0,0
116746,-50,4,2,0,40,0,0
116746,-50,4,2,0,40,0,0
117089,-66.6666666666667,4,2,0,40,0,0
117089,-66.6666666666667,4,2,0,40,0,0
117089,-66.6666666666667,4,2,0,40,0,0
117089,-66.6666666666667,4,2,0,40,0,0
117775,-55.5555555555556,4,2,0,40,0,0
117775,-55.5555555555556,4,2,0,40,0,0
117775,-55.5555555555556,4,2,0,40,0,0
117775,-55.5555555555556,4,2,0,40,0,0
118117,-66.6666666666667,4,2,0,40,0,0
118117,-66.6666666666667,4,2,0,40,0,0
118117,-66.6666666666667,4,2,0,40,0,0
118117,-66.6666666666667,4,2,0,40,0,0
119146,-55.5555555555556,4,2,0,40,0,0
119146,-55.5555555555556,4,2,0,40,0,0
119146,-55.5555555555556,4,2,0,40,0,0
119146,-55.5555555555556,4,2,0,40,0,0
119489,-41.6666666666667,4,2,0,40,0,0
119489,-41.6666666666667,4,2,0,40,0,0
119489,-41.6666666666667,4,2,0,40,0,0
119489,-41.6666666666667,4,2,0,40,0,0
120517,-41.6666666666667,4,2,0,40,0,0
120517,-41.6666666666667,4,2,0,40,0,0
120517,-41.6666666666667,4,2,0,40,0,0
120517,-41.6666666666667,4,2,0,40,0,0
120603,-25,4,2,0,40,0,0
120603,-25,4,2,0,40,0,0
120603,-25,4,2,0,40,0,0
120603,-25,4,2,0,40,0,0
120860,-66.6666666666667,4,2,0,40,0,0
121203,-50,4,2,0,40,0,0
121546,-58.8235294117647,4,2,0,40,0,0
121889,-50,4,2,0,40,0,0
122232,-66.6666666666667,4,2,0,40,0,0
122575,-50,4,2,0,40,0,0
122917,-58.8235294117647,4,2,0,40,0,0
123260,-50,4,2,0,40,0,0
123603,-66.6666666666667,4,2,0,40,0,0
123946,-50,4,2,0,40,0,0
124289,-58.8235294117647,4,2,0,40,0,0
124975,-66.6666666666667,4,2,0,40,0,0
125317,-50,4,2,0,40,0,0
126346,-66.6666666666667,4,2,0,40,0,0
126689,-50,4,2,0,40,0,0
127032,-58.8235294117647,4,2,0,40,0,0
127375,-50,4,2,0,40,0,0
127717,-66.6666666666667,4,2,0,40,0,0
128060,-50,4,2,0,40,0,0
128403,-58.8235294117647,4,2,0,40,0,0
128746,-50,4,2,0,40,0,0
129089,-38.4615384615385,4,2,0,40,0,0
129432,-50,4,2,0,40,0,0
129775,-66.6666666666667,4,2,0,40,0,0
130117,-50,4,2,0,40,0,0
130460,-83.3333333333333,4,2,0,40,0,0
130803,-50,4,2,0,40,0,0
131146,-25,4,2,0,15,0,0
131489,-41.6666666666667,4,2,0,40,0,0
131832,-66.6666666666667,4,2,0,40,0,0
131832,-66.6666666666667,4,2,0,40,0,0
132175,-55.5555555555556,4,2,0,40,0,0
132175,-55.5555555555556,4,2,0,40,0,0
132517,-76.9230769230769,4,2,0,40,0,0
132517,-76.9230769230769,4,2,0,40,0,0
132860,-55.5555555555556,4,2,0,40,0,0
132860,-55.5555555555556,4,2,0,40,0,0
133117,-76.9230769230769,4,2,0,40,0,0
133117,-76.9230769230769,4,2,0,40,0,0
133546,-55.5555555555556,4,2,0,40,0,0
133546,-55.5555555555556,4,2,0,40,0,0
134232,-181.818181818181,4,2,0,40,0,0
134232,-181.818181818181,4,2,0,40,0,0
134575,-55.5555555555556,4,2,0,40,0,0
134575,-55.5555555555556,4,2,0,40,0,0
134917,-76.9230769230769,4,2,0,40,0,0
134917,-76.9230769230769,4,2,0,40,0,0
135432,-55.5555555555556,4,2,0,40,0,0
135432,-55.5555555555556,4,2,0,40,0,0
135603,-125,4,2,0,40,0,0
135603,-125,4,2,0,40,0,0
135775,-83.3333333333333,4,2,0,40,0,0
135775,-83.3333333333333,4,2,0,40,0,0
135946,-55.5555555555556,4,2,0,40,0,0
135946,-55.5555555555556,4,2,0,40,0,0
136289,-62.5,4,2,0,40,0,0
136289,-62.5,4,2,0,40,0,0
136803,-52.6315789473684,4,2,0,40,0,0
136803,-52.6315789473684,4,2,0,40,0,0
136975,-76.9230769230769,4,2,0,40,0,0
136975,-76.9230769230769,4,2,0,40,0,0
137317,-55.5555555555556,4,2,0,40,0,0
137317,-55.5555555555556,4,2,0,40,0,0
137660,-76.9230769230769,4,2,0,40,0,0
137660,-76.9230769230769,4,2,0,40,0,0
137917,-76.9230769230769,4,2,0,40,0,0
137917,-76.9230769230769,4,2,0,40,0,0
138175,-62.5,4,2,0,40,0,0
138175,-62.5,4,2,0,40,0,0
138349,-76.9230769230769,4,2,0,40,0,0
138349,-76.9230769230769,4,2,0,40,0,0
138689,-55.5555555555556,4,2,0,40,0,0
138689,-55.5555555555556,4,2,0,40,0,0
139032,-76.9230769230769,4,2,0,40,0,0
139032,-76.9230769230769,4,2,0,40,0,0
139546,-62.5,4,2,0,40,0,0
139546,-62.5,4,2,0,40,0,0
139717,-125,4,2,0,40,0,0
139717,-125,4,2,0,40,0,0
140060,-55.5555555555556,4,2,0,40,0,0
140060,-55.5555555555556,4,2,0,40,0,0
140403,-76.9230769230769,4,2,0,40,0,0
140403,-76.9230769230769,4,2,0,40,0,0
141089,-50,4,2,0,40,0,0
141089,-50,4,2,0,40,0,0
141260,-25,4,2,0,40,0,0
141260,-25,4,2,0,40,0,0
142803,-50,4,2,0,80,0,0
142803,-50,4,2,0,80,0,0
144003,-66.6666666666667,4,2,0,80,0,0
144003,-66.6666666666667,4,2,0,80,0,0
144175,-50,4,2,0,80,0,0
144175,-50,4,2,0,80,0,0
144646,-50,4,2,0,5,0,0
144646,-50,4,2,0,5,0,0
144689,-133.333333333333,4,2,0,80,0,0
144689,-133.333333333333,4,2,0,80,0,0
144860,-50,4,2,0,80,0,0
144860,-50,4,2,0,80,0,0
146746,-66.6666666666667,4,2,0,80,0,0
146746,-66.6666666666667,4,2,0,80,0,0
146917,-50,4,2,0,80,0,0
146917,-50,4,2,0,80,0,0
147389,-50,4,2,0,5,0,0
147389,-50,4,2,0,5,0,0
147432,-133.333333333333,4,2,0,80,0,0
147432,-133.333333333333,4,2,0,80,0,0
147603,-50,4,2,0,80,0,0
147603,-50,4,2,0,80,0,0
148117,-133.333333333333,4,2,0,80,0,0
148117,-133.333333333333,4,2,0,80,0,0
148289,-50,4,2,0,80,0,0
148289,-50,4,2,0,80,0,0
149489,-133.333333333333,4,2,0,80,0,0
149489,-133.333333333333,4,2,0,80,0,0
149660,-50,4,2,0,80,0,0
149660,-50,4,2,0,80,0,0
150775,-50,4,2,0,5,0,0
150775,-50,4,2,0,5,0,0
150860,-133.333333333333,4,2,0,80,0,0
150860,-133.333333333333,4,2,0,80,0,0
151032,-50,4,2,0,80,0,0
151032,-50,4,2,0,80,0,0
153689,-50,4,2,0,5,0,0
153689,-50,4,2,0,5,0,0
153775,-133.333333333333,4,2,0,80,0,0
153775,-133.333333333333,4,2,0,80,0,0
155060,-133.333333333333,4,2,0,5,0,0
155060,-133.333333333333,4,2,0,5,0,0
155146,-133.333333333333,4,2,0,80,0,0
155146,-133.333333333333,4,2,0,80,0,0
156432,-133.333333333333,4,2,0,5,0,0
156432,-133.333333333333,4,2,0,5,0,0
156517,-133.333333333333,4,2,0,80,0,0
156517,-133.333333333333,4,2,0,80,0,0
157803,-133.333333333333,4,2,0,5,0,0
157803,-133.333333333333,4,2,0,5,0,0
157889,-133.333333333333,4,2,0,80,0,0
157889,-133.333333333333,4,2,0,80,0,0
159175,-133.333333333333,4,2,0,5,0,0
159175,-133.333333333333,4,2,0,5,0,0
159260,-133.333333333333,4,2,0,80,0,0
159260,-133.333333333333,4,2,0,80,0,0
160546,-133.333333333333,4,2,0,5,0,0
160546,-133.333333333333,4,2,0,5,0,0
160632,-133.333333333333,4,2,0,80,0,0
160632,-133.333333333333,4,2,0,80,0,0
161917,-133.333333333333,4,2,0,5,0,0
161917,-133.333333333333,4,2,0,5,0,0
162003,-133.333333333333,4,2,0,80,0,0
162003,-133.333333333333,4,2,0,80,0,0
163289,-133.333333333333,4,2,0,5,0,0
163289,-133.333333333333,4,2,0,5,0,0
163375,-133.333333333333,4,2,0,80,0,0
163375,-133.333333333333,4,2,0,80,0,0
164660,-133.333333333333,4,2,0,5,0,0
164660,-133.333333333333,4,2,0,5,0,0
164746,-133.333333333333,4,2,0,80,0,0
164746,-133.333333333333,4,2,0,80,0,0
166032,-133.333333333333,4,2,0,5,0,0
166032,-133.333333333333,4,2,0,5,0,0
166117,-133.333333333333,4,2,0,80,0,0
166117,-133.333333333333,4,2,0,80,0,0
167403,-133.333333333333,4,2,0,5,0,0
167403,-133.333333333333,4,2,0,5,0,0
167489,-133.333333333333,4,2,0,80,0,0
167489,-133.333333333333,4,2,0,80,0,0
168775,-133.333333333333,4,2,0,5,0,0
168775,-133.333333333333,4,2,0,5,0,0
168860,-133.333333333333,4,2,0,80,0,0
168860,-133.333333333333,4,2,0,80,0,0
170146,-133.333333333333,4,2,0,5,0,0
170146,-133.333333333333,4,2,0,5,0,0
170232,-133.333333333333,4,2,0,80,0,0
170232,-133.333333333333,4,2,0,80,0,0
171517,-133.333333333333,4,2,0,5,0,0
171517,-133.333333333333,4,2,0,5,0,0
171603,-133.333333333333,4,2,0,80,0,0
171603,-133.333333333333,4,2,0,80,0,0
172889,-133.333333333333,4,2,0,5,0,0
172889,-133.333333333333,4,2,0,5,0,0
172975,-133.333333333333,4,2,0,80,0,0
172975,-133.333333333333,4,2,0,80,0,0
174260,-133.333333333333,4,2,0,5,0,0
174260,-133.333333333333,4,2,0,5,0,0
174346,-133.333333333333,4,2,0,80,0,0
174346,-133.333333333333,4,2,0,80,0,0
175632,-133.333333333333,4,2,0,5,0,0
175632,-133.333333333333,4,2,0,5,0,0
175717,-133.333333333333,4,2,0,60,0,0
175717,-133.333333333333,4,2,0,80,0,0
175717,-133.333333333333,4,2,0,80,0,0
176317,-133.333333333333,4,2,0,5,0,0
176403,-133.333333333333,4,2,0,60,0,0
177689,-133.333333333333,4,2,0,5,0,0
177775,-133.333333333333,4,2,0,60,0,0
179403,-133.333333333333,4,2,0,5,0,0
179489,-133.333333333333,4,2,0,60,0,0
180432,-133.333333333333,4,2,0,5,0,0
180517,-133.333333333333,4,2,0,60,0,0
183175,-133.333333333333,4,2,0,5,0,0
183260,-133.333333333333,4,2,0,60,0,0
184889,-133.333333333333,4,2,0,5,0,0
184975,-133.333333333333,4,2,0,60,0,0
185917,-133.333333333333,4,2,0,5,0,0
186003,-133.333333333333,4,2,0,60,0,0
186946,-133.333333333333,4,2,0,5,0,0
187032,-133.333333333333,4,2,0,60,0,0
187289,-133.333333333333,4,2,0,5,0,0
187375,-133.333333333333,4,2,0,60,0,0
188660,-133.333333333333,4,2,0,5,0,0
188746,-133.333333333333,4,2,0,60,0,0
189003,-133.333333333333,4,2,0,5,0,0
189089,-133.333333333333,4,2,0,60,0,0
189689,-133.333333333333,4,2,0,5,0,0
189775,-133.333333333333,4,2,0,60,0,0
190032,-133.333333333333,4,2,0,5,0,0
190117,-133.333333333333,4,2,0,60,0,0
191403,-133.333333333333,4,2,0,5,0,0
191489,-133.333333333333,4,2,0,60,0,0
191746,-133.333333333333,4,2,0,5,0,0
191832,-133.333333333333,4,2,0,60,0,0
192432,-133.333333333333,4,2,0,5,0,0
192517,-133.333333333333,4,2,0,60,0,0
192775,-133.333333333333,4,2,0,5,0,0
192860,-133.333333333333,4,2,0,60,0,0
195089,-133.333333333333,4,2,0,56,0,0
195260,-133.333333333333,4,2,0,52,0,0
195432,-133.333333333333,4,2,0,48,0,0
195603,-133.333333333333,4,2,0,44,0,0
195775,-133.333333333333,4,2,0,40,0,0
195946,-133.333333333333,4,2,0,36,0,0
196117,-133.333333333333,4,2,0,32,0,0
196289,-133.333333333333,4,2,0,28,0,0
196460,-133.333333333333,4,2,0,24,0,0
196632,-133.333333333333,4,2,0,20,0,0
196809,-133.333333333333,4,2,0,16,0,0
196975,-133.333333333333,4,2,0,12,0,0
197146,-133.333333333333,4,2,0,8,0,0
197317,-133.333333333333,4,2,0,80,0,0
197660,-66.6666666666667,4,2,0,80,0,0
198089,-66.6666666666667,4,2,0,5,0,0
198175,-66.6666666666667,4,2,0,80,0,0
198517,-55.5555555555556,4,2,0,80,0,0
198689,-66.6666666666667,4,2,0,80,0,0
199460,-66.6666666666667,4,2,0,5,0,0
199546,-66.6666666666667,4,2,0,80,0,0
199889,-55.5555555555556,4,2,0,80,0,0
200146,-55.5555555555556,4,2,0,5,0,0
200232,-55.5555555555556,4,2,0,80,0,0
200403,-66.6666666666667,4,2,0,80,0,0
200832,-66.6666666666667,4,2,0,5,0,0
201089,-55.5555555555556,4,2,0,80,0,0
201775,-66.6666666666667,4,2,0,80,0,0
202203,-66.6666666666667,4,2,0,5,0,0
202289,-66.6666666666667,4,2,0,80,0,0
202632,-55.5555555555556,4,2,0,80,0,0
202889,-55.5555555555556,4,2,0,5,0,0
202975,-55.5555555555556,4,2,0,80,0,0
203575,-55.5555555555556,4,2,0,5,0,0
203660,-55.5555555555556,4,2,0,80,0,0
204003,-47.6190476190476,4,2,0,80,0,0
204517,-55.5555555555556,4,2,0,80,0,0
204946,-55.5555555555556,4,2,0,5,0,0
205032,-55.5555555555556,4,2,0,80,0,0
205375,-47.6190476190476,4,2,0,80,0,0
205632,-47.6190476190476,4,2,0,5,0,0
205717,-47.6190476190476,4,2,0,80,0,0
205889,-55.5555555555556,4,2,0,80,0,0
206317,-55.5555555555556,4,2,0,5,0,0
206403,-55.5555555555556,4,2,0,80,0,0
206746,-47.6190476190476,4,2,0,80,0,0
207260,-55.5555555555556,4,2,0,80,0,0
207689,-55.5555555555556,4,2,0,5,0,0
207775,-55.5555555555556,4,2,0,80,0,0
208289,-45.4545454545455,4,2,0,80,0,0
208375,-45.4545454545455,4,2,0,5,0,0
208460,-45.4545454545455,4,2,0,80,0,0
208632,-50,4,2,0,80,0,0
209489,-41.6666666666667,4,2,0,80,0,0
210003,-50,4,2,0,80,0,0
210860,-41.6666666666667,4,2,0,80,0,0
211375,-50,4,2,0,80,0,0
212232,-41.6666666666667,4,2,0,80,0,0
212746,-50,4,2,0,80,0,0
213603,-41.6666666666667,4,2,0,80,0,0
214117,-45.4545454545455,4,2,0,80,0,0
214975,-38.4615384615385,4,2,0,80,0,0
215489,-45.4545454545455,4,2,0,80,0,0
216346,-38.4615384615385,4,2,0,80,0,0
216860,-45.4545454545455,4,2,0,80,0,0
217717,-38.4615384615385,4,2,0,80,0,0
218232,-66.6666666666667,4,2,0,80,0,0
218575,-50,4,2,0,80,0,0
218746,-47.6190476190476,4,2,0,80,0,0
219003,-43.4782608695652,4,2,0,80,0,0
219260,-58.8235294117647,4,2,0,80,0,0
219603,-32.258064516129,4,2,0,40,0,0
219946,-35.7142857142857,4,2,0,40,0,0
220289,-40,4,2,0,40,0,0
220632,-200,4,2,0,40,0,0
220975,-32.258064516129,4,2,0,40,0,0
221317,-35.7142857142857,4,2,0,40,0,0
221660,-34.4827586206897,4,2,0,40,0,0
222003,-31.25,4,2,0,40,0,0
222346,-100,4,2,0,40,0,0
222689,-32.258064516129,4,2,0,40,0,0
223032,-40,4,2,0,40,0,0
223375,-250,4,2,0,40,0,0
223546,-50,4,2,0,40,0,0
223717,-32.258064516129,4,2,0,40,0,0
224060,-35.7142857142857,4,2,0,40,0,0
224403,-33.3333333333333,4,2,0,40,0,0
224746,-166.666666666667,4,2,0,40,0,0
224917,-41.6666666666667,4,2,0,40,0,0
225089,-32.258064516129,4,2,0,40,0,0
225432,-35.7142857142857,4,2,0,40,0,0
225775,-40,4,2,0,40,0,0
226117,-200,4,2,0,40,0,0
226460,-32.258064516129,4,2,0,40,0,0
226803,-35.7142857142857,4,2,0,40,0,0
227146,-40,4,2,0,40,0,0
227489,-31.25,4,2,0,40,0,0
227832,-100,4,2,0,40,0,0
228175,-32.258064516129,4,2,0,40,0,0
228517,-41.6666666666667,4,2,0,40,0,0
228860,-38.4615384615385,4,2,0,40,0,0
229203,-1000,4,2,0,40,0,0
230060,-33.3333333333333,4,2,0,40,0,0
230575,-333.333333333333,4,2,0,40,0,0
231089,-100,4,2,0,40,0,0
231775,-333.333333333333,4,2,0,40,0,0
231946,-25,4,2,0,40,0,0
232975,-333.333333333333,4,2,0,40,0,0
233317,-33.3333333333333,4,2,0,40,0,0
235203,-333.333333333333,4,2,0,40,0,0
235375,-50,4,2,0,40,0,0
235632,-333.333333333333,4,2,0,40,0,0
235889,-100,4,2,0,40,0,0
236060,-33.3333333333333,4,2,0,40,0,0
236575,-30.3030303030303,4,2,0,40,0,0
237089,-100,4,2,0,40,0,0
237260,-25,4,2,0,40,0,0
237432,-66.6666666666667,4,2,0,40,0,0
237946,-25,4,2,0,40,0,0
238460,-50,4,2,0,40,0,0
239146,-33.3333333333333,4,2,0,40,0,0
239317,-100,4,2,0,40,0,0
240175,-50,4,2,0,40,0,0
241546,-28.5714285714286,4,2,0,80,0,0
241803,-40,4,2,0,80,0,0
241975,-40,4,2,0,80,0,0
242317,-40,4,2,0,5,0,0
242403,-40,4,2,0,80,0,0
242575,-31.25,4,2,0,80,0,0
242917,-37.037037037037,4,2,0,80,0,0
243003,-37.037037037037,4,2,0,5,0,0
243089,-37.037037037037,4,2,0,80,0,0
243260,-29.4117647058824,4,2,0,80,0,0
243517,-37.037037037037,4,2,0,80,0,0
243775,-45.4545454545455,4,2,0,80,0,0
243860,-45.4545454545455,4,2,0,5,0,0
243946,-31.25,4,2,0,80,0,0
244117,-35.7142857142857,4,2,0,80,0,0
244203,-35.7142857142857,4,2,0,5,0,0
244289,-40,4,2,0,80,0,0
244460,-40,4,2,0,5,0,0
244546,-40,4,2,0,80,0,0
244632,-27.027027027027,4,2,0,80,0,0
244803,-50,4,2,0,80,0,0
245060,-27.027027027027,4,2,0,80,0,0
245317,-25,4,2,0,80,0,0
245489,-43.4782608695652,4,2,0,80,0,0
245575,-43.4782608695652,4,2,0,5,0,0
245660,-43.4782608695652,4,2,0,80,0,0
246003,-40,4,2,0,80,0,0
246175,-37.037037037037,4,2,0,80,0,0
246603,-37.037037037037,4,2,0,5,0,0
246689,-37.037037037037,4,2,0,100,0,0
246860,-133.333333333333,4,2,0,100,0,0
247546,-66.6666666666667,4,2,0,100,0,0
248232,-58.8235294117647,4,2,0,100,0,0
248746,-52.6315789473684,4,2,0,100,0,0
249260,-47.6190476190476,4,2,0,100,0,0
249775,-43.4782608695652,4,2,0,100,0,0
249946,-133.333333333333,4,2,0,100,0,0
250289,-40,4,2,0,100,0,0
251146,-76.9230769230769,4,2,0,100,0,0
251489,-50,4,2,0,100,0,0
251660,-100,4,2,0,100,0,0
251832,-66.6666666666667,4,2,0,100,0,0
252175,-58.8235294117647,4,2,0,100,0,0
252860,-47.6190476190476,4,2,0,100,0,0
253546,-52.6315789473684,4,2,0,100,0,0
254232,-58.8235294117647,4,2,0,100,0,0
254575,-66.6666666666667,4,2,0,100,0,0
254917,-47.6190476190476,4,2,0,100,0,0
255946,-52.6315789473684,4,2,0,100,0,0
256975,-47.6190476190476,4,2,0,100,0,0
257660,-55.5555555555556,4,2,0,100,0,0
259375,-50,4,2,0,100,0,0
260060,-58.8235294117647,4,2,0,100,0,0
260403,-47.6190476190476,4,2,0,100,0,0
261089,-55.5555555555556,4,2,0,100,0,0
261432,-52.6315789473684,4,2,0,100,0,0
262117,-66.6666666666667,4,2,0,100,0,0
262460,-76.9230769230769,4,2,0,100,0,0
262632,-125,4,2,0,100,0,0
262975,-50,4,2,0,100,0,0
265546,-45.045045045045,4,2,0,100,0,0
266232,-50,4,2,0,100,0,0
267260,-100,4,2,0,100,0,0
267603,-50,4,2,0,100,0,0
271032,-45.045045045045,4,2,0,100,0,0
271717,-50,4,2,0,100,0,0
272746,-100,4,2,0,100,0,0
273089,-37.593984962406,4,2,0,100,0,0
274117,-45.045045045045,4,2,0,100,0,0
274460,-50,4,2,0,50,0,0
275146,-100,4,2,0,50,0,0
275489,-50,4,2,0,50,0,0
276517,-100,4,2,0,50,0,0
276860,-50,4,2,0,50,0,0
277889,-100,4,2,0,50,0,0
278232,-50,4,2,0,50,0,0
279260,-66.6666666666667,4,2,0,50,0,0
279946,-50,4,2,0,50,0,0
280632,-100,4,2,0,50,0,0
280975,-50,4,2,0,50,0,0
282003,-100,4,2,0,50,0,0
282346,-40,4,2,0,50,0,0
282689,-50,4,2,0,50,0,0
283375,-100,4,2,0,50,0,0
283717,-50,4,2,0,50,0,0
284060,-133.333333333333,4,2,0,50,0,0
284403,-50,4,2,0,50,0,0
284917,-100,4,2,0,50,0,0
285089,-50,4,2,0,50,0,0
285432,-50,4,2,0,40,0,0
285432,-50,4,2,0,40,0,0
285775,-66.6666666666667,4,2,0,40,0,0
285775,-66.6666666666667,4,2,0,40,0,0
286117,-40,4,2,0,40,0,0
286117,-40,4,2,0,40,0,0
286460,-100,4,2,0,40,0,0
286460,-100,4,2,0,40,0,0
286632,-50,4,2,0,40,0,0
286632,-50,4,2,0,40,0,0
286975,-200,4,2,0,40,0,0
286975,-200,4,2,0,40,0,0
287146,-40,4,2,0,40,0,0
287146,-40,4,2,0,40,0,0
287489,-100,4,2,0,40,0,0
287489,-100,4,2,0,40,0,0
287660,-66.6666666666667,4,2,0,40,0,0
287660,-66.6666666666667,4,2,0,40,0,0
287832,-33.3333333333333,4,2,0,40,0,0
287832,-33.3333333333333,4,2,0,40,0,0
288175,-40,4,2,0,40,0,0
288175,-40,4,2,0,40,0,0
288517,-66.6666666666667,4,2,0,40,0,0
288517,-66.6666666666667,4,2,0,40,0,0
288860,-40,4,2,0,40,0,0
288860,-40,4,2,0,40,0,0
289203,-200,4,2,0,40,0,0
289203,-200,4,2,0,40,0,0
289375,-50,4,2,0,40,0,0
289375,-50,4,2,0,40,0,0
289717,-294.117647058824,4,2,0,40,0,0
289717,-294.117647058824,4,2,0,40,0,0
289889,-40,4,2,0,40,0,0
289889,-40,4,2,0,40,0,0
290232,-100,4,2,0,40,0,0
290232,-100,4,2,0,40,0,0
290403,-66.6666666666667,4,2,0,40,0,0
290403,-66.6666666666667,4,2,0,40,0,0
290575,-33.3333333333333,4,2,0,40,0,0
290575,-33.3333333333333,4,2,0,40,0,0
290917,-37.037037037037,4,2,0,40,0,0
290917,-37.037037037037,4,2,0,40,0,0
291260,-66.6666666666667,4,2,0,40,0,0
291260,-66.6666666666667,4,2,0,40,0,0
291603,-40,4,2,0,40,0,0
291603,-40,4,2,0,40,0,0
291946,-100,4,2,0,40,0,0
291946,-100,4,2,0,40,0,0
292117,-50,4,2,0,40,0,0
292117,-50,4,2,0,40,0,0
292460,-333.333333333333,4,2,0,40,0,0
292460,-333.333333333333,4,2,0,40,0,0
292632,-33.3333333333333,4,2,0,40,0,0
292632,-33.3333333333333,4,2,0,40,0,0
292975,-100,4,2,0,40,0,0
292975,-100,4,2,0,40,0,0
293317,-33.3333333333333,4,2,0,40,0,0
293317,-33.3333333333333,4,2,0,40,0,0
293660,-37.037037037037,4,2,0,40,0,0
293660,-37.037037037037,4,2,0,40,0,0
294003,-66.6666666666667,4,2,0,40,0,0
294003,-66.6666666666667,4,2,0,40,0,0
294346,-50,4,2,0,40,0,0
294346,-50,4,2,0,40,0,0
294689,-33.3333333333333,4,2,0,40,0,0
294689,-33.3333333333333,4,2,0,40,0,0
295032,-1000,4,2,0,40,0,0
295032,-1000,4,2,0,40,0,0
296403,-40,4,2,0,40,0,0
296746,-50,4,2,0,40,0,0
297603,-66.6666666666667,4,2,0,40,0,0
297775,-57.1428571428571,4,2,0,40,0,0
298460,-36.3636363636364,4,2,0,40,0,0
299146,-33.3333333333333,4,2,0,40,0,0
299832,-50,4,2,0,40,0,0
301203,-25,4,2,0,40,0,0
301889,-40,4,2,0,40,0,0
302917,-100,4,2,0,40,0,0
303260,-36.3636363636364,4,2,0,40,0,0
306003,-50,4,2,0,40,0,0
307032,-200,4,2,0,40,0,0
307375,-200,4,2,0,38,0,0
307717,-200,4,2,0,36,0,0
308060,-200,4,2,0,34,0,0
308403,-200,4,2,0,32,0,0
308746,-200,4,2,0,30,0,0
309089,-200,4,2,0,28,0,0
309432,-200,4,2,0,26,0,0
309775,-200,4,2,0,24,0,0
310117,-200,4,2,0,22,0,0
310460,-200,4,2,0,20,0,0
310803,-200,4,2,0,18,0,0
311146,-200,4,2,0,16,0,0
311489,-200,4,2,0,14,0,0

[Colours]
Combo1 : 139,193,207
Combo2 : 223,220,196
Combo3 : 245,129,132
Combo4 : 74,74,74

[HitObjects]
144,171,175,5,0,0:0:0:0:
262,187,517,1,0,0:0:0:0:
271,183,689,1,0,0:0:0:0:
144,171,1032,1,0,0:0:0:0:
144,171,1546,6,0,B|187:129|323:156|293:318|231:320|192:271|283:193,1,314.999990386963
402,146,2917,6,0,B|421:236|467:272|578:289|549:154|455:114|403:110|336:152|342:236|318:296|159:210|228:89|228:89|208:167|284:205,1,719.999978027344
473,69,6003,5,0,0:0:0:0:
473,69,6517,1,0,0:0:0:0:
473,69,7032,6,0,B|350:108|446:259|248:266,1,314.999990386963
84,318,8403,6,0,B|174:231|174:329|98:391|33:393|-16:347|-16:270|-4:209|73:136|188:98|271:222|261:369|425:314,1,719.999978027344
447,246,11489,5,0,0:0:0:0:
447,246,12003,1,0,0:0:0:0:
447,246,12517,6,0,B|524:221|381:140|377:152|397:264|322:267|201:189|318:152,1,314.999990386963
159,14,13889,6,0,B|190:44|252:134|264:256|221:318|164:318|118:252|159:152|199:83|273:10|419:-22|450:49|392:159|300:155,1,719.999978027344
302,243,16975,5,0,0:0:0:0:
302,243,17489,1,0,0:0:0:0:
302,243,18003,6,0,B|397:282|486:154|435:102|356:82|308:138|340:182,1,314.999990386963
418,324,19375,6,0,B|463:238|277:101|280:204|186:309|101:387|9:294|-15:201|58:139|150:159|177:257|230:268,1,674.999979400635
227,268,22117,6,0,P|250:203|314:126,1,150
425,102,22460,6,0,B|383:188|309:140|301:43|267:1|185:-7|103:100|103:100|171:48|243:82,1,550
189,160,23489,6,0,B|103:185|182:303|308:337|412:205|284:263,1,314.999990386963
452,284,24860,6,0,B|464:269|443:315|87:435|393:407|525:363|535:265|448:178|324:153|294:131|389:39|440:29|440:29|347:96|376:174,1,719.999978027344
297,170,27946,5,0,0:0:0:0:
297,170,28460,5,0,0:0:0:0:
256,192,28975,12,0,33089,0:0:0:0:
256,192,33175,12,0,38575,0:0:0:0:
256,192,38660,12,0,42860,0:0:0:0:
256,192,42946,12,0,43631,0:0:0:0:
426,290,43717,6,0,L|422:230,1,52.4999983978272
494,186,44060,6,0,B|459:194|438:224|438:224|389:208|389:208|383:211|383:211|339:196|339:196|322:222|275:238,2,239.999992675781
350,50,44917,6,0,P|399:45|458:90,1,100
395,273,45089,6,0,P|417:202|368:133,1,150
292,117,45432,6,0,B|264:88|236:88|236:88|235:84|235:84|234:88|234:88|194:91|175:142|132:153|84:103,2,239.999992675781
220,318,46289,6,0,L|236:220,1,100
128,40,46460,6,0,L|150:209,1,150
90,256,46803,6,0,B|138:212|138:212|231:208|231:208|237:203|237:203|320:213,2,239.999992675781
354,357,47660,6,0,B|310:331|310:331|296:279,1,100
424,123,47832,6,0,B|390:166|390:166|385:281,1,150
475,240,48175,6,0,B|452:238|426:249|426:249|312:204|312:204|303:198|303:198|232:221,2,239.999992675781
296,68,49032,6,0,L|311:180,1,100
94,220,49203,6,0,B|145:193|145:193|268:204,1,150
178,272,49546,6,0,B|228:209|197:158|197:158|202:155|202:155|165:97|203:29,2,239.999992675781
37,97,50403,6,0,P|82:113|104:184,1,100
114,376,50575,6,0,P|147:315|217:370,1,150
279,382,50917,6,0,B|308:331|308:331|338:349|366:340|366:340|371:345|371:345|399:332|431:343|431:343|456:293,2,239.999992675781
512,226,51775,6,0,P|462:205|416:213,1,100
227,228,51946,6,0,P|299:230|345:165,1,150
291,98,52289,6,0,B|316:144|316:144|310:260|310:260|316:270|316:270|312:331,2,239.999992675781
414,355,53146,6,0,L|304:310,1,100
157,363,53317,6,0,P|193:304|157:198,1,150
264,186,53660,6,0,B|155:197|155:197|150:204|150:204|70:213|70:213|66:208|66:208|28:213,2,239.999992675781
487,6,54517,5,0,0:0:0:0:
453,37,54603,1,0,0:0:0:0:
448,82,54689,5,0,0:0:0:0:
502,174,54860,1,0,0:0:0:0:
451,295,55032,6,0,B|390:277|390:277|382:286|382:286|314:302|314:302|278:288|278:288|214:301,2,239.999992675781
339,79,55889,6,0,L|369:183,1,100
257,375,56060,6,0,L|290:195,1,150
190,202,56403,6,0,B|203:233|203:233|229:247|229:247|260:241|260:241|287:206|287:206|320:201|320:201|350:218|350:218|357:249,2,239.999992675781
437,73,57260,6,0,B|397:104|397:104|338:108,1,100
134,46,57432,6,0,B|169:12|169:12|162:133,1,150
247,154,57775,6,0,B|182:141|182:141|155:168|155:168|111:161|111:161|92:142|92:142|30:129,2,239.999992675781
59,336,58632,6,0,P|102:314|188:321,1,100
368,275,58803,6,0,P|341:338|279:285,1,150
234,382,59146,6,0,B|273:264|273:264|262:256|262:256|235:214|235:214|255:163,2,239.999992675781
477,239,60003,6,0,P|495:195|488:143,1,100
370,13,60175,6,0,P|344:100|392:168,1,150
279,160,60517,6,0,B|383:128|383:128|386:115|386:115|474:98|474:98|505:126,2,239.999992675781
79,21,61375,6,0,L|99:124,1,100
0,308,61546,6,0,B|49:245|49:245|108:284,1,150
148,201,61889,6,0,B|125:279|125:279|132:317|132:317|120:382|120:382|160:343,2,239.999992675781
430,260,62746,6,0,L|321:284,1,100
170,119,62917,6,0,B|221:102|221:102|312:132,1,150
325,39,63260,6,0,B|328:78|328:78|314:102|314:102|321:198|321:198|334:215|334:215|339:270,2,239.999992675781
267,320,64117,6,0,P|232:290|226:210,1,100
105,43,64289,6,0,P|159:80|139:177,1,150
117,254,64632,6,0,B|86:275|83:313|83:313|108:290|147:282,1,125
283,182,64803,5,0,0:0:0:0:
284,157,64889,1,0,0:0:0:0:
281,132,64975,2,0,B|275:94|243:75|243:75|252:108|241:146,1,125
275,336,65146,5,0,0:0:0:0:
288,345,65232,2,0,B|322:360|356:344|356:344|323:333|297:304,1,125
133,250,65403,5,0,0:0:0:0:
98,263,65489,2,0,B|67:284|64:322|64:322|89:299|128:291,1,125
365,246,65660,5,0,0:0:0:0:
378,236,65746,2,0,B|408:214|411:176|411:176|386:199|347:207,1,125
141,164,65917,1,0,0:0:0:0:
131,141,66003,6,0,B|108:83|108:83|384:133,1,300
347,335,66346,2,0,P|285:283|282:197,1,170.000003242493
246,376,66603,1,0,0:0:0:0:
246,376,66689,2,0,P|196:348|159:340,1,85.0000016212464
412,268,66860,2,0,P|400:211|404:174,1,85.0000016212464
195,164,67032,2,0,B|114:100|31:171|31:171|72:191|80:256,1,255.000004863739
31,382,67375,6,0,P|93:312|291:296,1,300
448,349,67717,2,0,L|426:153,1,170.000003242493
183,98,67975,1,0,0:0:0:0:
183,98,68060,2,0,P|206:144|246:178,1,85.0000016212464
268,292,68232,2,0,P|311:296|352:286,1,85.0000016212464
502,27,68403,2,0,L|492:111,1,85.0000016212464
432,268,68575,1,0,0:0:0:0:
423,191,68660,1,0,0:0:0:0:
414,115,68746,6,0,B|382:89|382:89|408:312|408:312|431:272,1,300
304,145,69089,2,0,P|198:198|104:176,1,170.000003242493
251,68,69346,1,0,0:0:0:0:
251,68,69432,2,0,P|195:79|162:78,1,85.0000016212464
335,237,69603,2,0,P|301:263|275:297,1,85.0000016212464,0|0,3:0|3:0,3:0:0:0:
55,142,69775,2,0,L|47:269,1,85.0000016212464
40,342,69946,6,0,L|42:304,1,37.5000014305115
189,204,70117,6,0,B|138:191|138:191|200:278|200:278|364:229,1,300
426,28,70460,2,0,L|413:233,1,170.000003242493
335,37,70717,1,0,0:0:0:0:
335,37,70803,2,0,B|341:80|341:80|317:131,1,85.0000016212464
165,57,70975,2,0,L|308:72,1,85.0000016212464
404,199,71146,2,0,L|261:214,1,85.0000016212464
197,222,71317,6,0,L|234:218,1,37.5000014305115
417,287,71489,6,0,B|478:352|478:352|488:252|488:252|483:239|483:239|495:134,1,300
319,286,71832,2,0,B|242:326|242:326|103:306,1,170.000003242493
330,184,72089,1,0,0:0:0:0:
330,184,72175,2,0,L|322:290,1,85.0000016212464
78,324,72346,2,0,L|84:239,1,85.0000016212464
320,42,72517,2,0,B|372:86|372:86|165:118,1,255.000004863739
0,30,72860,6,0,B|42:7|42:7|25:101|25:101|15:111|15:111|18:206|18:206|31:183|54:171,1,300
330,184,73203,2,0,L|161:209,1,170.000003242493
284,106,73460,1,0,0:0:0:0:
284,106,73546,2,0,P|342:95|386:119,1,85.0000016212464
316,273,73717,2,0,P|373:261|405:222,1,85.0000016212464,0|0,3:0|3:0,3:0:0:0:
127,296,73889,2,0,L|140:198,1,85.0000016212464
257,66,74060,1,0,0:0:0:0:
180,76,74145,1,0,0:0:0:0:
105,88,74232,6,0,B|81:129|81:129|172:113|172:113|196:95|196:95|295:78|295:78|273:125,1,300
246,339,74575,2,0,P|227:239|300:180,1,170.000003242493
460,204,74832,1,0,0:0:0:0:
460,204,74917,2,0,L|440:310,1,85.0000016212464
360,182,75089,2,0,L|345:266,1,85.0000016212464
134,286,75260,2,0,L|18:301,1,85.0000016212464
218,106,75432,2,0,L|334:121,1,85.0000016212464
56,184,75603,6,0,B|28:115|28:115|121:128|121:128|148:173|148:173|236:203,1,302.500009231568
222,216,76632,6,0,L|231:102,1,100
289,29,76975,6,0,B|278:57|273:15|283:-6|344:-59|472:89|293:278,1,300
442,223,77317,6,0,B|441:242|479:223|434:166|388:152|314:239,1,150.000005722046
268,319,77575,1,0,0:0:0:0:
268,241,77660,6,0,B|231:217|201:232|179:269|194:275|205:258,1,100
330,369,77832,2,0,B|369:349|370:316|350:277|337:287|346:305,1,100
22,351,78003,6,0,B|9:361|-1:349|20:330|27:340|45:359|45:359|364:370,1,345.000006580353
242,71,78346,6,0,B|255:78|259:65|252:39|217:24|99:124|209:169|79:221|79:221|131:212,1,300
7,32,78689,6,0,B|-13:37|2:10|19:15|12:30|64:58|82:197,1,150.000005722046
157,286,78946,1,0,0:0:0:0:
76,274,79032,6,0,B|88:283|65:290|58:278|70:273|55:230|150:195,1,100
242,244,79203,2,0,B|232:256|256:257|259:244|246:242|249:196|148:189,1,100
121,365,79375,6,0,B|123:352|92:352|79:367|94:395|199:441|252:353|247:335|227:318|214:348,1,200
445,275,79632,1,0,0:0:0:0:
395,339,79717,6,0,B|416:341|398:357|382:356|373:342|356:292|312:280|400:262|360:180|360:180|354:179|354:179|355:171|355:171|411:124|370:44,1,330.000010070801
294,35,80060,6,0,B|306:27|297:8|272:14|273:63|309:107|309:107|263:77|225:85|207:104|222:121|235:99,1,225.000008583069
282,253,80403,6,0,B|263:256|277:275|297:272|319:241|251:215|244:199|266:147,1,119.999996337891
177,195,80575,2,0,B|183:212|160:210|152:191|167:156|224:201|242:198|274:152,1,119.999996337891
173,34,80746,6,0,B|144:51|126:44|94:-25|62:0|61:20|81:35|84:14,1,129.999994049073
156,121,80917,2,0,B|138:92|145:74|215:42|190:10|169:9|154:29|175:32,1,129.999994049073
113,314,81089,6,0,B|93:318|104:349|139:329|147:302|135:290|116:240|61:196|-24:236|-6:118|-6:118|30:146|3:211,1,359.999989013672
0,277,81432,6,0,B|-22:279|-5:298|19:303|65:289|107:197,1,150.000005722046
258,298,81689,1,0,0:0:0:0:
205,238,81775,6,0,B|199:250|181:238|193:220|218:220|306:229,1,119.999996337891
304,122,81946,2,0,B|304:108|283:109|284:131|306:144|386:180,1,119.999996337891
464,323,82117,6,0,B|400:266|377:249|355:258|363:280|380:264,1,129.999994049073
393,369,82289,2,0,B|364:288|357:261|373:243|391:260|370:269,1,129.999994049073
392,37,82460,6,0,B|377:93|396:110|464:62|436:10|243:-73|146:88|155:121|192:152|233:134|173:71,1,375
104,306,82803,6,0,B|92:288|80:299|93:326|108:367|172:367|253:312|213:262|192:204,1,225.000008583069
93,116,83146,6,0,B|91:105|84:101|79:111|102:158|102:158|99:168|99:168|124:237,1,119.999996337891
21,181,83317,2,0,B|10:176|4:180|10:190|62:193|62:193|70:201|70:201|141:214,1,119.999996337891
288,344,83489,6,0,B|301:325|322:351|297:364|278:374|255:360|189:353|165:258|217:117|321:141|308:226|376:241|433:132,1,389.999982147218
341,115,83832,6,0,B|361:125|367:92|339:93|318:93|304:115|249:152|265:277|383:385|448:354|503:322|536:277,1,375
434,98,84175,6,0,B|441:88|467:75|515:119|521:169|500:193|487:192|480:187|479:173|493:164|503:165,1,150.000005722046
312,232,84432,1,0,0:0:0:0:
231,203,84517,6,0,B|224:200|241:196|251:207|250:216|241:225|209:225|169:195|200:146|236:149|257:173|258:192,1,125
397,264,84689,2,0,B|403:266|386:270|376:259|377:250|386:241|418:241|458:271|427:320|391:317|370:293|369:274,1,125
260,307,84860,6,0,B|178:343|172:374|139:339|146:316|167:339,1,139.999995727539
40,210,85032,1,0,0:0:0:0:
50,137,85117,1,0,0:0:0:0:
74,55,85203,6,0,B|65:72|57:63|53:36|76:27|141:9|144:50|149:158|229:112|229:112|274:107|274:107|276:64|276:64|227:64|227:64|229:113,1,389.999982147218
277,192,85546,6,0,B|268:207|291:210|302:197|288:171|227:144|204:114|241:54,1,150.000005722046
363,36,85803,1,0,0:0:0:0:
442,58,85889,6,0,B|442:52|457:43|456:81|415:100|415:100|404:102|404:102|369:148|364:146|360:132|364:130|374:129,1,150.000005722046
359,235,86060,2,0,B|366:234|370:231|366:217|361:215|326:261|326:261|314:263|314:263|274:282|272:320|288:312|288:305,1,150.000005722046
483,345,86232,6,0,B|492:360|506:341|500:325|470:324|417:364|379:368|345:307,1,150.000005722046
482,156,86403,2,0,B|499:152|486:132|469:133|458:160|477:224|468:261|399:272,1,150.000005722046
206,357,86575,6,0,L|195:262,1,75.0000028610231
124,370,86746,2,0,L|113:275,1,75.0000028610231
45,86,86917,6,0,L|54:161,1,75.0000028610231
137,108,87089,1,0,0:0:0:0:
137,108,87175,1,0,0:0:0:0:
137,108,87260,2,0,L|145:182,1,75.0000028610231
472,343,87432,6,0,L|461:248,1,75.0000028610231
390,356,87603,2,0,L|379:261,1,75.0000028610231
345,23,87775,1,0,0:0:0:0:
345,23,87860,1,0,0:0:0:0:
240,59,87946,6,0,L|495:86,1,250
213,160,88289,2,0,L|468:187,1,250
186,261,88632,2,0,L|441:288,1,250
434,287,88975,6,0,L|418:136,1,125
498,1,89146,2,0,L|511:125,1,125
251,330,89317,6,0,L|224:75,1,250
150,357,89660,2,0,L|123:102,1,250
49,384,90003,2,0,L|22:129,1,250
22,135,90346,6,0,P|97:120|76:202,1,150.000005722046
397,15,90517,2,0,P|321:0|342:82,1,150.000005722046
267,250,90689,6,0,L|294:-5,1,250
368,277,91032,2,0,L|395:22,1,250
469,304,91375,2,0,L|496:49,1,250
495,55,91717,6,0,L|344:71,1,125
10,270,91889,2,0,L|134:256,1,125
299,330,92060,6,0,L|272:75,1,250
198,357,92403,2,0,L|171:102,1,250
97,384,92746,2,0,L|70:129,1,250
70,135,93089,6,0,P|145:149|124:67,1,150.000005722046
299,330,93260,2,0,P|223:344|244:262,1,150.000005722046
251,19,93432,6,0,L|264:143,1,125
338,0,93603,2,0,L|351:124,1,125
378,288,93775,6,0,L|404:39,1,250
479,316,94117,2,0,L|505:67,1,250
165,159,94460,6,0,B|-34:314|-226:166|-73:-39|131:111,1,525.00000500679
75,79,94803,6,0,L|48:328,1,250
176,107,95146,2,0,L|150:356,1,250
277,135,95489,2,0,L|251:384,1,250
251,383,95832,6,0,P|326:398|305:316,1,150.000005722046
447,52,96003,2,0,P|383:29|360:93,1,150.000005722046
475,240,96175,6,0,L|169:267,1,270.000001029968
52,178,96517,2,0,L|320:154,1,270.000001029968
432,343,96860,2,0,L|126:370,1,270.000001029968
95,75,97203,2,0,L|385:49,1,270.000001029968
475,83,97546,6,0,L|159:55,1,300.000011444092
52,335,97889,2,0,L|367:362,1,300.000011444092
299,211,98232,2,0,L|-16:183,1,300.000011444092
0,184,98575,6,0,B|99:107|245:143|186:308|333:316|448:280,1,480
416,68,98917,6,0,B|403:5|403:5|361:-10|361:-10|329:18|329:18|347:135,1,250
415,67,99260,2,0,B|434:192|434:192|397:226|397:226|347:207|347:207|337:138,1,300.000011444092
256,11,99603,2,0,B|268:94|268:94|259:129|259:129|276:250|276:250|311:274|311:274|323:348,1,350.00000333786
88,384,99946,2,0,B|58:391|21:357|21:357|55:376|95:358,1,150.000005722046
169,289,100117,2,0,B|198:281|235:315|235:315|201:296|161:314,1,150.000005722046
38,124,100289,6,0,B|-16:206|62:289|62:289|37:249|48:201,1,250
214,21,100632,2,0,B|275:114|186:208|186:208|215:162|202:108,1,300.000011444092
467,233,100975,2,0,B|475:337|360:338|360:338|359:343|359:343|360:338|360:338|263:281|327:175,1,350.00000333786
433,0,101317,2,0,L|394:184,1,175.00000166893
325,194,101489,1,0,0:0:0:0:
325,194,101575,1,0,0:0:0:0:
325,194,101660,6,0,B|318:167|318:167|221:182|221:182|221:189|221:189|124:201|124:201|121:174,1,250
0,62,102003,2,0,B|-24:93|-24:93|-8:137|-8:137|44:145|44:145|77:103|77:103|160:93|160:93|165:122,1,300.000011444092
38,287,102346,2,0,B|257:260|257:260|264:250|264:250|308:245|308:245|316:253|316:253|398:243,1,350.00000333786
301,357,102689,1,0,0:0:0:0:
286,267,102775,1,0,0:0:0:0:
274,178,102860,1,0,0:0:0:0:
260,88,102946,1,0,0:0:0:0:
246,1,103032,6,0,B|226:40|226:40|234:52|234:52|241:217|241:217|244:222|244:222|242:224|242:224|243:250,1,250
109,298,103375,2,0,B|186:290|243:352|243:352|291:281|373:297,1,300.000011444092
476,81,103717,2,0,B|441:308|441:308|359:294,1,300.000011444092
402,47,104060,2,0,L|376:228,1,175.00000166893
449,324,104232,2,0,L|475:143,1,175.00000166893
301,123,104403,6,0,B|275:297|275:297|355:311,1,250
492,130,104746,2,0,B|287:102|287:102|271:197,1,300.000011444092
65,327,105089,2,0,B|149:346|149:346|203:62,1,350.00000333786
104,116,105432,2,0,B|54:174|54:174|87:253,1,150.000005722046
249,269,105603,2,0,B|299:211|299:211|266:132,1,150.000005722046
91,20,105775,6,0,B|163:19|197:82|197:82|255:33|321:58,1,250
488,177,106117,2,0,B|416:178|382:115|382:115|324:164|258:139,1,250
400,343,106460,2,0,P|402:243|296:333,1,300.000011444092
388,81,106803,2,0,L|354:278,1,175.00000166893
331,384,106975,1,0,0:0:0:0:
12,64,107146,6,0,P|108:79|305:231,1,250
250,0,107489,2,0,P|310:83|343:342,1,300.000011444092
512,85,107832,2,0,P|495:186|336:393,1,350.00000333786
71,295,108175,2,0,P|136:262|152:322,1,150.000005722046
332,256,108346,2,0,P|267:289|251:229,1,150.000005722046
270,71,108517,6,0,B|193:372|193:372|189:338|158:322,1,375
183,43,108860,2,0,B|152:27|148:-7|148:-7|71:294,1,375
16,121,109203,2,0,B|66:190|169:160|169:160|167:170|167:170|271:144|336:229,1,350.00000333786
360,55,109546,6,0,B|431:66|431:66|389:374|389:374|313:362,1,450.000017166138
245,320,109889,6,0,B|166:311|166:311|141:285|141:285|8:265|8:265|49:294,1,300
50,295,110232,6,0,L|61:218,1,75.0000028610231
216,152,110403,1,0,0:0:0:0:
216,152,110489,1,0,0:0:0:0:
216,152,110575,2,0,L|205:226,1,75.0000028610231
32,94,110746,5,0,0:0:0:0:
32,94,110832,1,0,0:0:0:0:
32,94,110917,2,0,B|86:93|127:42|127:42|103:76|136:119,1,179.999994506836
149,299,111260,6,0,B|323:340|249:205|421:219,1,300
398,371,111603,6,0,P|376:340|367:304,1,75.0000028610231
431,129,111775,1,0,0:0:0:0:
431,129,111860,1,0,0:0:0:0:
431,129,111946,2,0,L|276:154,1,150.000005722046
212,86,112203,1,0,0:0:0:0:
212,86,112289,6,0,B|178:169|178:169|229:243,1,179.999994506836
498,296,112546,5,0,0:0:0:0:
498,296,112632,2,0,B|490:229|490:229|518:181|518:181|510:57|510:57|440:18,1,300
342,42,112975,6,0,L|358:158,1,75.0000028610231
408,239,113146,1,0,0:0:0:0:
408,239,113232,1,0,0:0:0:0:
408,239,113317,2,0,B|379:254|379:254|337:247,2,75.0000028610231
233,346,113660,6,0,P|180:264|97:244,1,179.999994506836
0,106,114003,6,0,B|58:113|58:113|87:101|87:101|121:154|121:154|265:178,1,300
266,167,114346,6,0,L|179:154,1,75.0000028610231
33,199,114517,2,0,B|18:234|18:234|26:287,1,75.0000028610231
129,342,114689,6,0,L|126:300,1,37.5000014305115
139,342,114775,2,0,L|136:300,1,37.5000014305115
151,342,114860,2,0,L|145:242,1,75.0000028610231
34,109,115032,6,0,B|168:84|168:84|136:98|124:113,1,179.999994506836
231,298,115289,1,0,0:0:0:0:
231,298,115375,6,0,B|291:297|291:297|422:170|422:170|495:173,1,300
263,132,115717,6,0,L|261:231,1,75.0000028610231
453,329,115889,1,0,0:0:0:0:
453,329,115975,1,0,0:0:0:0:
453,329,116060,2,0,P|460:289|446:238,1,75.0000028610231
167,260,116232,2,0,P|198:286|249:299,1,75.0000028610231
362,96,116403,6,0,L|123:117,1,200
7,60,116660,1,0,0:0:0:0:
7,60,116746,6,0,B|103:22|103:22|48:263,1,300
153,333,117089,6,0,L|170:241,1,75.0000028610231
267,313,117260,1,0,0:0:0:0:
267,313,117346,1,0,0:0:0:0:
267,313,117432,2,0,L|340:326,2,75.0000028610231
132,163,117775,6,0,B|180:170|211:129|211:129|206:176|255:211,1,179.999994506836
329,131,118117,6,0,L|350:88,1,37.5000014305115
329,131,118203,2,0,L|270:117,1,37.5000014305115
329,131,118289,2,0,L|300:63,1,37.5000014305115
329,131,118375,2,0,L|329:159,1,37.5000014305115
329,131,118460,6,0,L|307:34,1,75.0000028610231
106,86,118632,1,0,0:0:0:0:
106,86,118717,1,0,0:0:0:0:
106,86,118803,2,0,P|142:79|178:88,1,75.0000028610231
370,243,118975,2,0,P|333:249|297:240,1,75.0000028610231
176,347,119146,6,0,B|140:311|140:311|138:152,1,179.999994506836
512,39,119489,6,0,B|464:66|436:0|372:47|372:47|384:132|390:202|390:202|421:191|468:197|468:197|457:160|459:117|459:117|418:128|369:121|369:121|308:159|260:135|260:135|318:207|275:316|279:356|279:356|322:351|366:353|366:353|355:315|357:276|357:276|317:281|249:273|249:273|215:317|172:334|86:284,1,1319.9999597168
117,300,120517,6,0,L|101:162,1,119.999996337891
103,180,120860,6,0,B|174:199|174:199|217:265|217:265|294:282,1,225.000008583069
349,58,121203,2,0,B|231:96|231:96|286:182,1,200
373,247,121460,1,0,0:0:0:0:
373,247,121546,2,0,B|420:232|420:232|477:255,1,85.0000016212464
224,359,121717,2,0,B|177:374|177:374|120:351,1,85.0000016212464
233,95,121889,2,0,B|275:80|275:80|232:258,1,200
34,197,122146,1,0,0:0:0:0:
70,170,122232,6,0,B|122:140|177:174|177:174|233:210|328:162,1,225.000008583069,0|0,2:0|2:0,2:0:0:0:
219,347,122575,2,0,P|147:352|164:219,1,200
380,111,122832,1,0,0:0:0:0:
361,127,122917,1,0,0:0:0:0:
359,179,123003,1,0,0:0:0:0:
395,217,123089,2,0,P|440:217|484:194,1,85.0000016212464
250,52,123260,2,0,B|277:97|257:142|257:142|271:137|271:137|254:187|280:239,1,200
408,313,123517,1,0,0:0:0:0:
446,288,123603,6,0,P|385:164|339:204,1,225.000008583069
430,59,123946,2,0,P|353:173|403:194,1,200
255,342,124203,1,0,0:0:0:0:
255,342,124289,2,0,P|295:303|289:232,1,85.0000016212464
107,214,124460,2,0,P|152:246|221:228,1,85.0000016212464
207,46,124632,2,0,P|182:96|212:160,1,85.0000016212464
437,103,124803,1,0,0:0:0:0:
437,103,124889,1,0,0:0:0:0:
437,103,124975,6,0,B|381:73|381:73|291:112|291:112|285:182,1,225.000008583069
415,312,125317,2,0,B|443:335|443:335|361:132,1,200
177,273,125660,2,0,L|168:332,1,50
121,339,125746,2,0,L|178:317,1,50
206,352,125832,1,0,0:0:0:0:
192,27,126003,2,0,B|218:153|218:153|321:69|321:69|246:42,1,300
13,121,126346,6,0,B|54:88|54:88|108:113|108:113|119:171|119:171|78:204,1,225.000008583069
206,352,126689,2,0,B|177:334|132:335|132:335|103:295|103:295|60:302|23:279,1,200
335,223,126946,1,0,0:0:0:0:
335,223,127032,2,0,P|334:273|311:310,1,85.0000016212464
231,61,127203,2,0,P|212:98|213:140,1,85.0000016212464
434,125,127375,2,0,B|463:152|463:152|400:144|400:144|370:125|370:125|269:113,1,200
435,287,127632,1,0,0:0:0:0:
449,334,127717,6,0,B|351:322|351:322|321:302|321:302|201:290,1,225.000008583069
80,111,128060,2,0,P|194:104|212:222,1,200
85,348,128317,1,0,0:0:0:0:
85,348,128403,2,0,B|76:303|76:303|90:247,1,85.0000016212464
228,86,128575,2,0,B|219:131|219:131|233:187,1,85.0000016212464
333,355,128746,2,0,B|320:303|320:303|225:277|225:277|173:324,1,200
381,97,129089,6,0,L|363:165,1,64.9999970245363
309,124,129175,2,0,L|368:162,1,64.9999970245363
313,200,129260,2,0,L|367:155,1,64.9999970245363
387,220,129346,2,0,L|361:154,1,64.9999970245363
428,156,129432,2,0,L|208:170,1,200
333,355,129689,1,0,0:0:0:0:
374,336,129775,6,0,B|394:314|394:314|308:308|308:308|278:325|278:325|188:316,1,225.000008583069
73,275,130117,2,0,B|44:303|44:303|239:320,1,200
208,144,130375,1,0,0:0:0:0:
208,144,130460,6,0,B|193:202|193:202|215:259|215:259|202:317,1,179.999994506836
48,324,130803,2,0,B|55:347|55:347|72:274,1,100
342,231,130975,2,0,B|337:255|337:255|309:185,1,100
140,33,131146,6,0,B|135:61|135:61|145:90,12,50
241,318,131489,2,0,L|186:181,1,119.999996337891
249,6,131832,6,0,B|144:29|144:29|123:44|123:44|24:67,1,225.000008583069
47,142,132175,6,0,B|152:119|152:119|173:104|173:104|272:81,1,179.999994506836
273,161,132432,1,0,0:0:0:0:
273,161,132517,2,0,L|167:187,1,64.9999970245363
61,225,132689,2,0,L|167:199,1,64.9999970245363
323,160,132860,2,0,L|-14:242,1,269.999991760254
185,355,133203,6,0,P|119:316|141:358,1,194.999991073609
270,280,133546,2,0,P|160:203|74:241,1,179.999994506836
132,98,133803,1,0,0:0:0:0:
150,81,133889,2,0,P|194:77|239:68,1,89.9999972534181
435,144,134060,2,0,P|390:135|346:131,1,89.9999972534181
271,279,134232,6,0,P|299:281|319:283,1,27.5000008392334
477,338,134403,1,0,0:0:0:0:
471,323,134489,1,0,0:0:0:0:
463,304,134575,6,0,B|477:201|352:258|321:162|370:67|456:125|438:174,1,269.999991760254
302,202,134917,2,0,P|304:113|370:51,1,129.999994049073
213,98,135175,1,0,0:0:0:0:
196,89,135260,2,0,P|160:95|100:98,1,64.9999970245363
27,201,135432,2,0,P|63:207|123:210,1,89.9999972534181
271,279,135603,6,0,P|251:282|229:284,1,40
82,349,135775,2,0,P|110:353|142:356,1,59.9999981689454
362,273,135946,6,0,P|253:257|274:280,1,269.999991760254
362,272,136289,2,0,P|316:178|264:204,1,160
212,78,136546,1,0,0:0:0:0:
233,94,136632,2,0,P|295:104|329:104,1,80
495,34,136803,2,0,P|433:44|399:44,1,94.9999974632264
468,245,136975,6,0,P|463:155|464:133,1,64.9999970245363
270,278,137146,2,0,P|301:362|306:383,1,64.9999970245363
85,270,137317,6,0,P|180:241|179:70,1,269.999991760254
89,198,137660,2,0,P|142:173|117:114,1,129.999994049073
119,25,137917,1,0,0:0:0:0:
99,42,138003,2,0,P|61:39|12:29,1,64.9999970245363
233,94,138175,2,0,P|271:91|320:81,1,80
478,225,138346,6,0,P|438:221|398:214,1,80
229,345,138517,2,0,P|268:341|308:334,1,64.9999970245363
192,90,138689,6,0,B|147:138|133:211|133:211|112:139|28:70,1,269.999991760254
87,264,139032,2,0,P|148:279|198:241,1,129.999994049073
293,337,139289,1,0,0:0:0:0:
293,337,139375,2,0,P|324:339|357:344,1,64.9999970245363
478,225,139546,2,0,P|438:227|395:234,1,80
234,167,139717,6,0,P|251:169|283:169,1,40
191,30,139889,1,0,0:0:0:0:
175,46,139975,1,0,0:0:0:0:
155,56,140060,6,0,B|186:77|173:188|108:77|37:135|23:208|29:267|90:320,1,269.999991760254
115,223,140403,2,0,P|160:234|123:205,1,129.999994049073
16,345,140660,1,0,0:0:0:0:
41,358,140746,2,0,P|72:354|129:353,1,64.9999970245363
307,230,140917,2,0,P|276:226|219:225,1,64.9999970245363
397,339,141089,6,0,L|409:145,1,100
409,139,141260,6,0,L|391:421,1,200
307,230,141432,1,0,0:0:0:0:
22,62,142460,1,0,0:0:0:0:
18,58,142803,6,0,B|24:20|77:12|121:36|111:119|68:164,1,200,8|2,0:0|0:0,0:0:0:0:
121,242,143060,1,2,0:0:0:0:
121,242,143146,2,0,P|123:285|160:364,1,100,2|0,0:0|0:0,0:0:0:0:
239,224,143317,2,0,P|256:177|260:127,1,100,2|0,0:0|0:0,0:0:0:0:
261,116,143489,2,0,P|146:106|66:169,1,200,8|0,0:0|0:0,0:0:0:0:
142,338,143832,1,12,0:0:0:0:
355,323,144003,6,0,L|255:315,1,75.0000028610231,2|0,0:0|0:0,0:0:0:0:
269,316,144175,1,2,0:0:0:0:
487,262,144346,1,0,0:0:0:0:
393,142,144517,2,0,B|375:136|358:124|358:124|383:247,1,150,8|0,0:0|0:0,0:0:0:0:
387,240,144689,2,0,L|379:199,1,37.5000014305115,2|0,0:0|0:0,0:0:0:0:
402,60,144860,2,0,B|358:31|272:43|260:93|270:137|309:155|340:135,1,200,2|0,0:0|0:0,0:0:0:0:
468,108,145203,1,10,0:0:0:0:
249,39,145375,5,0,0:0:0:0:
170,49,145460,1,0,0:0:0:0:
91,59,145546,2,0,B|62:65|38:60|38:60|130:82|165:166,1,200,8|2,0:0|0:0,0:0:0:0:
133,240,145803,1,2,0:0:0:0:
133,240,145889,2,0,P|130:294|149:352,1,100,2|0,0:0|0:0,0:0:0:0:
286,290,146060,2,0,P|315:244|328:185,1,100,2|0,2:0|2:0,2:0:0:0:
329,190,146232,2,0,B|279:222|219:189|219:189|194:150|152:142,1,200,8|0,0:0|0:0,0:0:0:0:
141,337,146575,1,12,0:0:0:0:
333,274,146746,6,0,L|337:369,1,75.0000028610231,2|0,0:0|0:0,0:0:0:0:
338,360,146917,1,2,0:0:0:0:
512,216,147089,1,0,0:0:0:0:
402,112,147260,2,0,B|408:220|408:220|415:200|431:183,1,150,8|0,0:0|0:0,0:0:0:0:
439,184,147432,2,0,P|428:198|421:215,1,37.5000014305115,2|0,0:0|0:0,0:0:0:0:
511,58,147603,2,0,B|431:48|431:48|398:60|398:60|363:41|363:41|286:64,1,200,2|0,0:0|0:0,0:0:0:0:
251,202,147946,1,12,0:0:0:0:
99,35,148117,6,0,L|135:43,1,37.5000014305115
139,54,148289,2,0,B|71:38|71:38|83:95|83:95|80:101|80:101|85:106|85:106|109:195,1,200,8|2,0:0|0:0,0:0:0:0:
63,254,148546,1,2,0:0:0:0:
63,254,148632,2,0,L|74:353,1,100,2|0,0:0|0:0,0:0:0:0:
211,302,148803,2,0,L|223:194,1,100,2|0,0:0|0:0,0:0:0:0:
223,191,148975,2,0,B|222:198|245:221|245:221|182:170|99:160,1,200,8|0,0:0|0:0,0:0:0:0:
74,353,149317,1,12,0:0:0:0:
285,285,149489,6,0,P|319:284|338:290,1,37.5000014305115,2|0,0:0|0:0,0:0:0:0:
313,305,149660,2,0,P|419:299|504:230,1,200,2|0,0:0|0:0,0:0:0:0:
351,103,150003,2,0,B|321:168|345:230|345:230|395:239|442:181,1,200,8|2,0:0|0:0,0:0:0:0:
465,157,150260,1,2,0:0:0:0:
465,157,150346,2,0,P|421:135|350:159,1,100,2|0,0:0|0:0,0:0:0:0:
285,193,150517,2,0,P|241:215|259:60,1,300,2|0,0:0|0:0,0:0:0:0:
228,135,150860,6,0,L|168:129,1,37.5000014305115,2|0,0:0|0:0,0:0:0:0:
200,152,151032,2,0,B|137:145|137:145|84:165|84:165|-12:156,1,200,2|0,0:0|0:0,0:0:0:0:
76,344,151375,2,0,B|83:294|83:294|79:288|79:288|85:283|85:283|93:242|93:242|144:220|144:220|240:234,1,200,8|2,0:0|0:0,0:0:0:0:
215,296,151632,1,2,0:0:0:0:
215,296,151717,2,0,P|250:261|247:186,1,100,2|0,0:0|0:0,0:0:0:0:
253,111,151889,2,0,P|260:159|294:194,1,100,2|0,0:0|0:0,0:0:0:0:
383,202,152060,2,0,B|433:218|454:172|440:110|359:91|296:137,1,200,8|2,0:0|0:0,0:0:0:0:
394,306,152403,5,8,0:0:0:0:
491,86,152575,1,2,0:0:0:0:
253,111,152746,1,2,0:0:0:0:
185,192,152917,5,8,0:0:0:0:
126,179,153002,1,2,0:0:0:0:
78,145,153088,1,2,0:0:0:0:
46,94,153174,1,2,0:0:0:0:
36,35,153260,2,0,P|85:41|126:76,1,100,8|0,0:0|0:0,0:0:0:0:
126,179,153432,2,0,B|113:276|55:329|9:319|9:319|42:271|126:336,1,300,2|0,0:0|0:0,0:0:0:0:
102,322,153775,6,0,B|196:363|264:288|311:231|343:277|359:327|347:363|309:377|262:387|237:362|226:332|235:264|243:234|321:214|414:247,1,562.500021457673
411,247,155146,2,0,B|460:224|469:184|491:155|482:68|423:29|349:31|306:56|281:91|281:91|332:112|376:76|376:76|350:114|367:176,1,562.500021457673
364,168,156517,2,0,B|270:184|222:155|208:112|208:112|160:120|120:96|120:96|88:128|48:136|48:136|64:176|48:224|48:224|112:256|107:328,1,562.500021457673
103,325,157889,2,0,B|64:232|136:192|136:192|208:232|176:320|176:320|255:280|320:323|320:323|370:356|418:338|441:307,1,562.500021457673
426,317,159260,6,0,B|452:252|401:216|359:211|325:243|325:243|314:157|385:149|341:22|341:22|376:115|473:109,1,562.500021457673
466,108,160632,2,0,B|416:40|336:24|272:80|272:80|240:32|152:16|112:64|112:64|128:112|184:108|184:108|156:139|164:185,1,562.500021457673
162,176,162003,2,0,B|166:247|139:329|102:361|62:358|16:345|-13:291|28:234|65:214|114:210|124:272|152:359|270:351|319:273,1,562.500021457673
307,285,163375,2,0,B|400:256|472:320|472:320|408:224|440:112|440:112|416:168|353:223|364:173|336:245,1,562.500021457673
333,249,164746,6,0,B|218:192|248:65|248:65|184:96|136:72|144:64|81:46|51:50|37:88|24:112|29:138|38:168|78:187|116:179|137:153,1,562.500021457673
121,166,166117,2,0,B|158:175|196:211|187:281|154:288|121:310|84:312|49:268|49:268|92:324|176:321|176:321|264:272|328:352,1,562.500021457673
324,349,167489,2,0,B|378:365|418:341|436:274|403:236|403:236|353:181|353:90|407:25|407:25|440:48|473:112|444:159,1,562.500021457673
441,162,168860,2,0,B|369:196|296:177|296:177|277:114|318:17|318:17|256:64|200:40|208:32|136:8|72:48,1,562.500021457673
71,50,170232,6,0,B|30:84|65:148|113:142|144:114|144:114|57:227|119:352|119:352|109:250|188:194,1,562.500021457673
169,210,171603,2,0,B|228:274|194:370|194:370|220:315|277:309|277:309|258:267|270:237|304:202|346:206|373:224|394:243|402:297|386:325|335:338,1,562.500021457673
336,337,172975,2,0,B|290:295|298:194|377:176|377:176|337:174|303:154|282:121|276:69|301:25|345:-3|392:7|424:19|456:45|456:107,1,562.500021457673
456,102,174346,2,0,B|415:152|298:140|253:70|253:70|164:25|96:77|96:77|113:128|167:129|167:129|118:135|100:185,1,562.500021457673
106,172,175717,5,0,0:0:0:0:
166,314,175889,1,0,0:0:0:0:
172,333,176060,2,0,P|184:280|159:201,1,112.500004291535
179,212,176403,2,0,P|235:222|283:207,1,75.0000028610231
403,112,176746,1,0,0:0:0:0:
337,210,176917,1,0,0:0:0:0:
128,65,177089,5,0,0:0:0:0:
166,220,177260,1,0,0:0:0:0:
141,77,177432,2,0,L|-2:60,1,112.500004291535
151,89,177775,2,0,L|256:76,1,75.0000028610231
305,48,178117,1,0,0:0:0:0:
479,132,178289,1,0,0:0:0:0:
413,263,178460,6,0,P|414:211|436:167,2,75.0000028610231
419,279,179146,2,0,P|362:288|304:348,1,112.500004291535
325,343,179489,1,0,0:0:0:0:
325,343,179660,1,0,0:0:0:0:
86,329,179832,5,0,0:0:0:0:
247,298,180003,1,0,0:0:0:0:
79,345,180175,2,0,P|72:289|94:238,1,112.500004291535
235,309,180517,2,0,P|231:357|246:403,1,75.0000028610231
404,241,180860,1,0,0:0:0:0:
325,343,181032,1,0,0:0:0:0:
127,226,181203,5,0,0:0:0:0:
319,256,181546,1,0,0:0:0:0:
240,16,181889,1,0,0:0:0:0:
218,106,182232,6,0,P|214:68|225:33,1,75.0000028610231
229,124,182575,1,0,0:0:0:0:
385,96,182746,1,0,0:0:0:0:
218,106,182917,2,0,B|181:93|181:93|75:118,1,112.500004291535
104,125,183260,2,0,L|116:215,2,75.0000028610231
47,46,183775,1,0,0:0:0:0:
143,179,183946,6,0,B|156:250|122:293|122:293|83:275,1,150.000005722046
244,368,184632,6,0,B|257:357|257:357|257:343|257:343|300:329|317:282,1,112.500004291535
324,277,184975,2,0,P|353:328|356:373,1,75.0000028610231
176,307,185317,5,0,0:0:0:0:
358,359,185489,1,0,0:0:0:0:
313,269,185660,2,0,P|308:216|352:134,1,112.500004291535
343,151,186003,5,0,0:0:0:0:
319,28,186175,1,0,0:0:0:0:
235,183,186346,5,0,0:0:0:0:
431,146,186517,1,0,0:0:0:0:
305,25,186689,6,0,P|253:63|190:77,1,112.500004291535
208,90,187032,2,0,P|143:96|82:77,1,112.500004291535
86,74,187375,5,0,0:0:0:0:
135,148,187546,1,0,0:0:0:0:
141,237,187717,1,0,0:0:0:0:
115,323,187889,1,0,0:0:0:0:
254,227,188060,5,0,0:0:0:0:
293,346,188232,1,0,0:0:0:0:
268,232,188403,6,0,P|297:281|299:344,1,112.500004291535
310,347,188746,2,0,P|328:294|368:255,1,112.500004291535
386,252,189089,1,0,0:0:0:0:
353,127,189260,1,0,0:0:0:0:
211,160,189432,6,0,B|220:185|220:185|203:243|203:243|178:270,1,112.500004291535
174,260,189775,2,0,B|164:234|164:234|181:176|181:176|206:149,1,112.500004291535
250,224,190117,5,0,0:0:0:0:
342,238,190288,1,0,0:0:0:0:
327,330,190460,1,0,0:0:0:0:
234,316,190631,1,0,0:0:0:0:
353,242,190803,5,0,0:0:0:0:
401,114,190975,1,0,0:0:0:0:
357,253,191146,2,0,P|330:213|326:140,1,112.500004291535
320,132,191489,2,0,L|179:143,1,112.500004291535
115,44,191832,5,0,0:0:0:0:
195,156,192003,1,0,0:0:0:0:
80,241,192175,6,0,P|94:205|55:238,1,112.500004291535
89,249,192517,2,0,P|75:285|114:252,1,112.500004291535
141,263,192860,5,0,0:0:0:0:
227,237,193032,1,0,0:0:0:0:
302,284,193203,1,0,0:0:0:0:
388,258,193375,1,0,0:0:0:0:
480,355,193546,6,0,L|488:272,2,75.0000028610231
478,264,194060,1,0,0:0:0:0:
315,129,194232,6,0,L|322:203,1,75.0000028610231
303,118,194575,1,0,0:0:0:0:
330,219,194746,1,0,0:0:0:0:
304,310,194917,6,0,B|299:331|299:331|282:345,1,37.5000014305115
273,331,195089,2,0,B|262:349|262:349|242:359,1,37.5000014305115
233,338,195260,2,0,B|218:353|218:353|196:357,1,37.5000014305115
192,329,195432,2,0,B|173:340|173:340|151:338,1,37.5000014305115
154,300,195603,6,0,B|133:306|133:306|112:298,1,37.5000014305115
127,259,195775,2,0,B|105:259|105:259|87:246,1,37.5000014305115
121,206,195946,2,0,B|99:200|99:200|85:184,1,37.5000014305115
133,149,196117,2,0,B|114:138|114:138|104:118,1,37.5000014305115
164,104,196289,6,0,L|154:169,1,37.5000014305115
191,88,196460,2,0,L|164:148,1,37.5000014305115
215,85,196632,2,0,L|173:136,1,37.5000014305115
234,87,196803,2,0,L|180:125,1,37.5000014305115
246,92,196975,6,0,L|184:115,1,37.5000014305115
252,99,197146,2,0,L|186:106,1,37.5000014305115
13,153,197317,5,0,0:0:0:0:
20,155,197660,6,0,B|161:183|53:263|207:288,1,225.000008583069
258,256,198003,2,0,P|277:236|247:250,1,75.0000028610231
20,155,198517,2,0,P|93:147|128:76,1,134.999995880127
104,24,198689,2,0,P|84:3|88:32,2,75.0000028610231
508,30,199032,6,0,P|400:39|349:152,1,225.000008583069
368,206,199375,2,0,P|386:228|375:201,1,75.0000028610231
255,6,199889,6,0,P|296:-1|332:94,1,134.999995880127
289,184,200060,2,0,P|265:206|280:177,1,89.9999972534181
479,350,200403,6,0,B|469:267|386:248|345:262|345:262|360:325,1,225.000008583069
308,364,200746,2,0,P|279:372|302:355,1,75.0000028610231
123,192,201260,6,0,P|164:158|247:193,1,134.999995880127
256,259,201432,2,0,P|243:290|245:256,2,89.9999972534181
239,29,201775,2,0,B|200:61|215:115|215:115|194:188|120:191,1,225.000008583069
61,143,202117,2,0,P|32:134|57:151,1,75.0000028610231
290,88,202632,6,0,P|315:113|415:107,1,134.999995880127
425,40,202803,2,0,P|440:11|433:43,1,89.9999972534181
269,374,203146,6,0,B|301:264|394:323|429:250|439:167,1,269.999991760254
408,112,203489,2,0,B|380:105|369:86|369:86|368:114|388:126,1,89.9999972534181
507,256,203832,1,0,0:0:0:0:
359,384,204003,6,0,P|315:303|244:302,1,157.499995193482
165,331,204175,2,0,B|159:308|180:284|180:284|174:310|189:335,2,104.999996795654
0,10,204517,6,0,B|68:-8|150:40|136:108|136:108|103:81|62:91,1,269.999991760254
56,205,204860,2,0,B|63:182|84:169|84:169|52:172|40:192,1,89.9999972534181
198,20,205203,1,0,0:0:0:0:
318,144,205375,6,0,B|355:101|280:67|240:68|199:140,1,157.499995193482
193,181,205546,2,0,B|188:214|214:232|214:232|207:207|215:181,1,104.999996795654
292,5,205889,6,0,B|444:32|365:150|509:169,1,269.999991760254
494,244,206232,2,0,B|517:245|536:229|536:229|523:258|500:262,1,89.9999972534181
456,25,206575,1,0,0:0:0:0:
492,166,206746,6,0,P|417:211|427:292,1,157.499995193482
449,345,206917,2,0,B|470:372|500:366|500:366|477:353|464:329,2,104.999996795654
211,278,207260,6,0,B|278:306|278:306|73:353,1,269.999991760254
2,302,207603,2,0,B|19:279|45:284|45:284|25:295|14:315,1,89.9999972534181
330,374,207946,1,0,0:0:0:0:
63,159,208117,5,0,0:0:0:0:
44,83,208203,1,0,0:0:0:0:
96,25,208289,2,0,P|139:14|104:46,1,110.000003356934
41,161,208460,1,0,0:0:0:0:
186,13,208632,6,0,B|266:12|380:101|270:215|243:187|284:74,1,300
210,199,208975,2,0,B|241:244|298:267|433:199|306:128|427:93,1,300
494,123,209317,6,0,P|518:148|489:129,1,100
498,6,209489,2,0,P|456:117|419:284,2,239.999992675781
500,317,210003,6,0,B|519:280|454:182|297:271|333:402,1,300
253,355,210346,2,0,B|225:326|252:297|298:266|413:257|351:366|514:319,1,300
288,213,210689,6,0,P|317:203|281:204,1,100
170,384,210860,2,0,B|139:312|199:205|323:212,2,239.999992675781
22,86,211375,6,0,B|-29:102|37:-6|160:101|11:141|109:262|232:215,1,300
195,86,211717,2,0,B|199:120|202:167|161:171|140:123|136:64|208:-14|342:25,1,300
364,71,212060,6,0,P|392:93|370:65,1,100
276,109,212232,2,0,L|528:185,2,239.999992675781
433,2,212746,6,0,B|515:56|473:227|377:129|340:236,1,300
321,384,213089,2,0,B|348:393|407:313|340:246|257:169|285:247|230:304|180:172|244:143|288:196|248:238,1,300
446,249,213432,6,0,P|426:279|451:256,1,100
463,355,213603,2,0,B|429:368|317:370|408:265|237:296|226:353,2,239.999992675781
386,144,214117,6,0,B|366:187|265:291|253:111|124:297|166:359,1,330.000010070801
242,384,214460,2,0,B|285:273|145:259|183:165|183:165|308:205,1,330.000010070801
81,336,214803,6,0,B|53:331|53:331|48:356|48:356|76:362|76:362|81:335,1,110.000003356934
266,191,214975,2,0,B|190:195|144:266|144:266|18:243,2,259.999988098145
15,0,215489,6,0,B|-10:40|-17:110|46:190|137:165|137:165|83:150|72:83,1,330.000010070801
156,90,215832,2,0,B|242:42|242:42|-29:-7,1,330.000010070801
337,121,216175,6,0,B|357:136|392:74|319:46,1,110.000003356934
156,90,216346,2,0,B|201:86|272:105|212:160|312:225|378:198,2,259.999988098145
394,0,216860,6,0,B|434:30|486:149|381:113|395:262|496:296,1,330.000010070801
204,314,217203,2,0,B|190:340|203:390|294:406|407:333|369:190,1,330.000010070801
387,332,217546,6,0,B|425:344|424:370|424:370|398:378|375:338,1,110.000003356934
34,177,217717,2,0,B|211:231|211:231|161:227|131:275,2,259.999988098145
47,311,218232,6,0,L|66:408,1,75.0000028610231
58,299,218403,2,0,L|77:396,1,75.0000028610231
34,177,218575,2,0,L|58:58,1,100
114,23,218746,5,0,0:0:0:0:
132,14,218832,2,0,P|164:38|129:19,1,104.999996795654
235,67,219003,1,0,0:0:0:0:
257,74,219089,2,0,P|263:118|250:76,1,115.000002193451
414,34,219260,5,0,0:0:0:0:
433,30,219346,2,0,L|500:14,1,42.5000008106232
416,45,219432,5,0,0:0:0:0:
435,41,219518,2,0,L|502:25,1,42.5000008106232
185,194,219603,6,0,B|155:136|65:158|65:158|120:109|267:164|166:228|272:290|373:261,1,465.000003547668
480,307,219946,2,0,B|445:366|493:376|493:376|472:348|419:307|473:295|468:230|423:191,1,279.999991455078
337,187,220203,1,0,0:0:0:0:
324,188,220289,2,0,B|286:182|278:146|278:146|316:155|330:196,1,125
512,128,220460,2,0,B|535:97|515:65|515:65|494:98|513:137,1,125
346,64,220632,6,0,P|335:49|321:30,1,25
428,41,220803,2,0,P|422:23|416:0,1,25
162,200,220975,6,0,B|178:183|181:238|165:284|143:300|143:300|123:262|136:209|257:180|228:41|228:41|251:74|248:102,1,465.000003547668
0,98,221317,2,0,B|34:173|142:197|215:33|118:19|108:132,1,279.999991455078
50,219,221575,1,0,0:0:0:0:
34,228,221660,2,0,B|25:274|53:299|53:299|45:266|58:234,1,145.000004425049
269,280,221832,2,0,B|258:325|222:338|222:338|247:308|245:276,1,145.000004425049
118,129,222003,6,0,B|152:167|235:184|292:172|292:172|265:197|222:187,1,240
232,202,222175,1,0,0:0:0:0:
240,106,222260,1,0,0:0:0:0:
248,10,222346,6,0,L|304:19,1,50
462,120,222517,2,0,L|518:129,1,50
378,280,222689,6,0,B|295:167|385:62|385:62|361:97|369:143,1,310.000002365112
465,223,222946,1,0,0:0:0:0:
474,232,223032,2,0,B|524:259|524:259|457:239,1,125
288,323,223203,2,0,B|276:378|276:378|304:314,1,125
239,151,223375,6,0,P|251:162|258:181,1,30
253,185,223546,6,0,P|249:137|206:99,1,100
24,62,223717,6,0,B|51:25|74:58|110:13|110:13|109:78|72:92|73:209|139:151|150:263|150:263|185:211|132:164,1,465.000003547668
88,328,224060,2,0,B|63:315|60:274|60:274|48:353|124:389|176:382|211:354|219:313,1,279.999991455078
341,339,224317,1,0,0:0:0:0:
355,332,224403,2,0,B|333:296|291:299|291:299|331:289|375:329,1,150.000005722046
461,370,224575,2,0,B|503:368|520:330|520:330|510:369|453:388,1,150.000005722046
395,162,224746,6,0,P|413:177|432:206,1,44.999998626709
417,206,224917,6,0,P|409:129|443:83,1,119.999996337891
269,123,225089,6,0,B|238:119|205:140|206:222|142:233|80:199|104:117|143:84|225:153|310:130|152:266|303:323|388:299,1,465.000003547668
461,370,225432,2,0,B|461:327|497:298|497:298|427:312|453:373|371:422|298:360,1,279.999991455078
225,326,225689,1,0,0:0:0:0:
212,323,225775,2,0,B|188:307|172:268|172:268|185:311|211:339,1,125
358,292,225946,2,0,B|373:267|372:225|372:225|377:270|365:306,1,125
92,354,226117,6,0,L|56:358,1,25
39,263,226289,2,0,L|3:267,1,25
335,113,226460,6,0,B|358:52|430:60|430:60|356:35|274:105|339:163|235:211|190:191|190:191|202:155|186:126,1,465.000003547668
113,11,226803,2,0,B|44:40|16:97|22:160|22:160|78:132|129:162,1,279.999991455078
230,77,227060,1,0,0:0:0:0:
242,72,227146,2,0,P|233:30|232:72,1,125
419,140,227317,2,0,P|427:181|428:139,1,125
302,327,227489,6,0,B|253:230|304:167|304:167|306:221|340:240,1,240
341,239,227660,1,0,0:0:0:0:
242,259,227746,1,0,0:0:0:0:
143,279,227832,6,0,P|120:291|90:317,1,50
0,184,228003,2,0,P|19:199|41:210,1,50
267,61,228175,6,0,B|307:49|349:75|349:75|216:72|133:123,1,310.000002365112
106,37,228432,1,0,0:0:0:0:
101,48,228517,2,0,B|72:23|39:24|39:24|69:39|80:57,1,119.999996337891
152,201,228689,2,0,B|145:238|119:258|119:258|132:227|130:206,1,119.999996337891
315,221,228860,6,0,B|314:180|290:154|290:154|299:188|293:210,1,129.999994049073
231,359,229032,2,0,B|196:379|161:372|161:372|196:361|211:344,1,129.999994049073
468,313,229203,6,0,L|423:305,1,45
384,370,230060,6,0,B|403:172|463:285|480:93,2,300.000011444092
2,164,230575,6,0,L|30:155,1,29.9999990844727
202,92,230832,2,0,L|172:101,1,29.9999990844727
93,101,231089,6,0,L|107:149,1,50
164,318,231260,1,0,0:0:0:0:
90,91,231432,5,0,0:0:0:0:
129,210,231517,1,0,0:0:0:0:
167,328,231603,1,0,0:0:0:0:
337,112,231775,6,0,P|339:104|346:93,1,14.9999995422363
384,33,231946,6,0,P|323:76|191:89,2,200
321,201,232289,6,0,P|327:196|340:193,1,14.9999995422363,0|0,3:0|3:0,3:0:0:0:
396,28,232460,5,0,3:0:0:0:
344,114,232546,1,0,3:0:0:0:
326,212,232631,1,0,3:0:0:0:
399,301,232803,6,0,B|427:266|427:266|244:320,1,200
194,335,232975,6,0,B|212:329,2,14.9999995422363
99,64,233317,6,0,B|147:24|147:24|234:157|79:248,1,300.000011444092
21,242,233575,1,0,0:0:0:0:
14,238,233660,1,0,0:0:0:0:
248,182,233832,1,0,0:0:0:0:
7,234,234003,5,0,0:0:0:0:
124,206,234089,1,0,0:0:0:0:
241,178,234175,1,0,0:0:0:0:
412,20,234346,5,0,0:0:0:0:
396,130,234517,1,0,0:0:0:0:
391,115,234602,1,0,0:0:0:0:
387,101,234688,1,0,0:0:0:0:
412,20,234860,6,0,L|391:249,1,150.000005722046
339,353,235032,1,0,0:0:0:0:
352,348,235117,1,0,0:0:0:0:
310,274,235203,2,0,P|315:278|312:272,1,14.9999995422363
244,322,235375,6,0,B|140:311|140:311|251:316,1,200
388,255,235632,2,0,L|405:220,1,29.9999990844727
252,199,235889,6,0,P|292:180|297:156,1,50
110,177,236060,2,0,P|258:179|387:254,1,300.000011444092
437,324,236317,1,0,0:0:0:0:
426,333,236403,2,0,B|503:347|503:347|436:323,1,150.000005722046
99,167,236575,6,0,P|262:170|403:251,1,330.000003147125
306,377,236832,1,0,0:0:0:0:
260,296,236917,2,0,B|248:308|238:334|238:334|282:264|392:297|392:391,1,165.000001573563
449,186,237089,6,0,P|445:159|460:127,1,50
377,107,237260,6,0,B|402:67|373:15|373:15|403:65|460:56,1,200
35,41,237432,2,0,B|38:65|53:83|53:83|34:61|28:37,1,75.0000028610231
309,67,237603,5,0,3:0:0:0:
211,49,237689,1,0,3:0:0:0:
113,32,237775,1,0,3:0:0:0:
460,56,237946,6,0,B|403:65|373:15|373:15|402:67|377:108,1,200
122,33,238117,5,0,3:0:0:0:
211,49,238203,1,0,3:0:0:0:
299,65,238289,1,0,3:0:0:0:
496,177,238460,6,0,P|393:219|392:264,1,100
367,269,238632,1,0,3:0:0:0:
406,83,238804,5,0,3:0:0:0:
334,165,238889,1,0,3:0:0:0:
358,270,238975,1,0,3:0:0:0:
471,366,239146,6,0,B|514:329|514:329|302:377,1,150.000005722046
296,379,239317,2,0,B|386:358,1,50
496,177,239489,1,0,0:0:0:0:
497,186,239660,5,0,0:0:0:0:
419,166,239746,1,0,0:0:0:0:
341,146,239832,1,0,0:0:0:0:
495,168,240003,1,0,0:0:0:0:
88,127,240175,6,0,B|99:186|65:218|65:218|139:176|121:73|121:73|166:136|261:97|261:97|304:44|371:61|371:61|326:26|272:26|225:68|216:119|194:204|271:284|334:244|390:199|409:348|409:348|259:331|259:331|304:323|304:323|257:327|476:289|476:289|405:321,1,1500
6,157,241546,6,0,B|-5:84|41:-26|201:-16|201:-16|177:89,1,350.00000333786
177,101,241803,1,0,0:0:0:0:
173,124,241889,2,0,L|152:228,1,62.5
172,333,242060,5,0,0:0:0:0:
206,384,242145,1,0,0:0:0:0:
266,377,242232,2,0,P|321:317|295:282,1,125
100,268,242403,1,0,0:0:0:0:
312,190,242575,2,0,B|251:181|151:266|252:296|177:393|61:378,1,320
0,335,242832,5,0,0:0:0:0:
3,257,242917,2,0,P|33:227|99:288,1,135.000000514984
10,356,243089,1,0,0:0:0:0:
49,144,243260,2,0,B|132:135|232:220|131:250|206:347|322:332,1,340.000006484985
368,379,243517,6,0,B|397:398|397:398|440:245|268:170,1,270.000001029968
317,196,243775,2,0,P|277:204|316:239,1,110.000003356934
473,265,243946,2,0,P|518:190|491:87,1,160
468,56,244117,2,0,B|461:4|429:-2|429:-2|419:33|482:73,1,139.999995727539
512,351,244289,5,0,0:0:0:0:
497,368,244375,2,0,P|440:375|422:301,1,125
171,4,244546,1,0,0:0:0:0:
203,11,244632,2,0,B|272:30|289:96|289:96|446:131,1,277.499998941422
173,102,244803,2,0,B|156:67|222:88|214:134|188:151,1,100
435,129,244975,5,0,0:0:0:0:
435,128,245060,2,0,B|491:74|491:74|328:110|328:110|292:120|259:158|264:208,1,369.999998588562
316,329,245317,2,0,B|332:358|332:358|249:370|222:297|222:297|201:217|108:215,1,300
33,254,245489,2,0,B|0:260|-10:290|-10:290|29:295|55:236,1,115.000002193451
58,177,245660,6,0,L|33:80,1,57.5000010967255
134,361,245832,1,0,0:0:0:0:
109,361,245917,1,0,0:0:0:0:
97,337,246003,2,0,L|138:193,1,125
10,31,246175,6,0,B|99:8|137:91|137:91|202:230|328:157|277:65|211:90,1,405.000001544952
299,27,246517,2,0,P|224:74|270:105,1,135.000000514984
291,227,246689,2,0,P|311:213|338:78,1,135.000000514984
147,24,246860,2,0,L|103:16,1,37.5000014305115
422,67,247032,6,0,P|465:72|470:41,1,75.0000028610231
430,13,247289,2,0,P|404:48|429:67,1,75.0000028610231
472,48,247546,2,0,P|454:8|425:19,1,75.0000028610231
291,227,247717,6,0,L|313:335,1,75.0000028610231
364,357,247889,1,0,0:0:0:0:
373,363,247975,1,0,0:0:0:0:
375,352,248060,1,0,0:0:0:0:
341,173,248232,6,0,L|319:281,1,85.0000016212464
269,367,248404,1,0,0:0:0:0:
260,373,248490,1,0,0:0:0:0:
258,362,248575,1,0,0:0:0:0:
272,133,248746,6,0,L|294:241,1,94.9999974632264
357,325,248918,1,0,0:0:0:0:
366,331,249004,1,0,0:0:0:0:
368,320,249089,1,0,0:0:0:0:
189,265,249260,6,0,P|105:287|114:304,1,104.999996795654
87,353,249432,1,0,0:0:0:0:
94,367,249517,1,0,0:0:0:0:
103,352,249603,1,0,0:0:0:0:
184,158,249775,6,0,P|103:111|97:131,1,115.000002193451
14,168,249946,2,0,L|3:203,2,37.5000014305115
270,96,250289,6,0,P|243:-3|222:6,1,125
51,32,250460,1,0,0:0:0:0:
37,39,250545,1,0,0:0:0:0:
52,48,250631,1,0,0:0:0:0:
270,96,250803,6,0,B|327:85|327:85|330:91|330:91|331:84|331:84|416:68,1,125
507,48,250975,1,0,0:0:0:0:
379,163,251146,6,0,P|362:201|369:231,1,64.9999970245363
463,183,251317,2,0,P|465:215|449:243,1,64.9999970245363
408,310,251489,2,0,P|400:318|406:304,1,50
42,304,251660,6,0,L|104:321,1,50
123,248,251832,2,0,L|50:227,1,75.0000028610231
45,384,252003,1,0,0:0:0:0:
117,166,252175,6,0,B|121:123|121:123|92:179,1,85.0000016212464
150,5,252346,1,0,0:0:0:0:
146,47,252431,1,0,0:0:0:0:
165,10,252517,1,0,0:0:0:0:
442,337,252860,6,0,B|379:301|379:301|413:129|413:129|355:94,1,314.999990386963
256,131,253203,2,0,B|314:166|314:166|280:338|280:338|343:374,1,314.999990386963
192,281,253546,6,0,P|145:251|195:320,1,284.999992389679
195,226,253889,2,0,P|96:221|94:383,1,284.999992389679
191,328,254232,6,0,L|271:77,1,255.000004863739
172,28,254575,2,0,L|147:105,2,75.0000028610231
374,38,254917,6,0,L|284:347,1,314.999990386963
377,361,255260,2,0,B|408:242|408:242|482:233|482:233|517:104,1,314.999990386963
443,77,255603,6,0,B|419:162|419:162|302:170|302:170|292:167|292:167|180:175,1,314.999990386963
64,102,255946,2,0,P|124:194|51:340,1,284.999992389679
197,338,256289,6,0,P|242:250|259:370,1,284.999992389679
111,276,256632,2,0,B|187:105|187:105|288:138,1,284.999992389679
423,103,256975,6,0,B|359:82|359:82|356:75|356:75|352:87|352:87|348:79|348:79|136:8,1,314.999990386963
189,106,257317,2,0,B|254:127|254:127|260:122|260:122|255:134|255:134|264:131|264:131|404:178|404:178|338:233,1,314.999990386963
286,278,257660,6,0,L|498:98,1,269.999991760254
424,272,258003,2,0,L|151:188,1,269.999991760254
41,100,258346,6,0,B|102:110|88:174|88:174|47:347,1,269.999991760254
146,286,258689,2,0,B|167:204|167:204|185:118|156:62|99:33,1,269.999991760254
246,41,259032,6,0,B|336:60|336:60|356:58|356:58|521:87,1,269.999991760254
474,185,259375,2,0,P|376:177|417:322,1,300
285,335,259717,6,0,B|72:280|72:280|61:201,1,300
123,87,260060,2,0,L|155:348,1,255.000004863739
60,200,260403,6,0,B|246:245|246:245|252:252|252:252|254:242|254:242|259:248|259:248|363:274,1,314.999990386963
453,358,260746,2,0,B|438:302|438:302|449:298|449:298|422:202|422:202|411:206|411:206|367:58,1,314.999990386963
319,159,261089,6,0,B|371:337|371:337|287:314,1,269.999991760254
177,286,261432,2,0,L|480:365,1,284.999992389679
374,255,261775,6,0,L|95:186,1,284.999992389679
33,297,262117,6,0,L|106:265,1,75.0000028610231
254,99,262289,2,0,L|181:131,1,75.0000028610231
53,188,262460,6,0,L|113:164,1,64.9999970245363
347,58,262632,2,0,L|279:40,1,40
216,21,262803,2,0,L|163:10,1,40
308,144,262975,6,0,L|425:178,1,100
491,202,263146,1,0,0:0:0:0:
491,202,263489,6,0,B|440:232|400:254|400:254|414:308|443:371|443:371|399:359|322:345,1,300
323,220,263832,2,0,P|339:121|352:17,1,200
414,143,264089,1,0,0:0:0:0:
421,136,264175,6,0,P|453:184|526:203,1,100
323,220,264346,2,0,P|265:223|212:277,1,100
299,93,264517,2,0,B|336:51|321:1|321:1|263:78|218:62|170:46|112:29,1,300
34,230,264860,6,0,B|81:219|133:211|133:211|106:144|97:106|97:106|50:92|8:76,1,300
200,145,265203,2,0,P|303:137|419:123,1,200
219,68,265460,1,0,0:0:0:0:
223,55,265546,6,0,P|274:47|316:2,1,111.000002709961
180,221,265717,2,0,P|219:258|229:312,1,111.000002709961
387,99,265889,1,0,0:0:0:0:
406,384,266060,1,0,0:0:0:0:
428,315,266146,1,0,0:0:0:0:
381,338,266232,6,0,B|340:343|306:348|306:348|319:294|331:243|331:243|266:232|176:209,1,300
394,37,266575,2,0,P|408:151|424:257,1,200
228,54,266832,1,0,0:0:0:0:
236,64,266917,6,0,P|267:105|323:125,1,100
422,236,267089,2,0,P|470:219|506:172,1,100
269,357,267260,6,0,P|276:320|283:269,1,50
310,123,267432,2,0,P|316:89|324:35,1,50
492,321,267603,6,0,B|440:329|390:338|390:338|397:285|401:232|401:232|346:219|274:199,1,300
187,380,267946,2,0,P|176:272|164:160,1,200
298,284,268203,1,0,0:0:0:0:
296,297,268289,6,0,P|212:281|172:226,1,100
27,367,268460,2,0,P|82:302|149:295,1,100
100,99,268632,2,0,B|133:142|128:195|128:195|160:151|209:143,1,200
288,370,268975,6,0,B|271:320|253:269|253:269|291:251|335:227|335:227|344:183|359:129,1,300
179,66,269317,2,0,P|275:59|394:45,1,200
421,228,269575,1,0,0:0:0:0:
431,221,269660,6,0,P|460:272|521:303,1,100
252,282,269832,2,0,P|193:281|135:318,1,100
288,96,270003,2,0,B|321:66|318:4|318:4|367:21|391:68|381:110|363:156|346:200,1,300
215,365,270346,6,0,B|270:370|326:377|326:377|296:326|270:268|270:268|308:264|432:242,1,300
494,134,270689,2,0,P|389:122|251:98,1,200
175,232,270946,1,0,0:0:0:0:
183,224,271032,6,0,P|235:252|263:313,1,111.000002709961
302,101,271203,2,0,P|250:73|222:12,1,111.000002709961
117,297,271375,1,0,0:0:0:0:
7,76,271546,1,0,0:0:0:0:
80,67,271632,1,0,0:0:0:0:
49,109,271717,6,0,B|97:125|141:145|141:145|157:90|176:40|176:40|226:35|281:27,1,300
220,161,272060,2,0,P|229:257|240:359,1,200
412,335,272317,1,0,0:0:0:0:
401,331,272403,6,0,P|462:311|488:279,1,100
263,233,272575,2,0,P|292:290|327:310,1,100
506,74,272746,6,0,P|501:106|497:154,1,50
484,285,272917,2,0,P|479:322|475:365,1,50
264,80,273089,6,0,B|346:50|435:8|435:8|425:58|415:152,1,265.999989041138
264,249,273346,2,0,B|196:194|116:136|116:136|160:122|250:82,1,265.999989041138
411,164,273603,2,0,B|396:244|387:348|387:348|351:316|273:258,1,265.999989041138
316,162,273860,6,0,P|194:174|219:339,1,265.999989041138
205,368,274117,1,0,0:0:0:0:
34,159,274289,1,0,0:0:0:0:
43,231,274375,1,0,0:0:0:0:
0,201,274460,6,0,B|47:213|79:183|79:183|143:192|143:192|150:199|150:199|220:210|220:210|252:184|308:189,1,300
483,259,274803,2,0,B|517:282|517:282|441:313|441:313|332:255,1,200
444,112,275060,1,0,0:0:0:0:
449,131,275146,2,0,L|446:211,1,50
375,326,275317,2,0,L|373:276,1,50
293,85,275489,2,0,B|265:32|265:32|261:143|261:143|279:188|279:188|277:297,1,300
42,336,275832,6,0,B|7:273|52:195|146:180|182:221|182:221|141:225|122:256,1,300
305,253,276175,2,0,B|258:305|264:360|264:360|245:319|193:304,1,200
394,349,276432,1,0,0:0:0:0:
411,340,276517,2,0,L|486:347,1,50
325,242,276689,2,0,L|400:249,1,50
501,153,276860,2,0,B|436:146|436:146|405:130|405:130|370:142|370:142|279:133,1,200
92,75,277117,1,0,0:0:0:0:
73,62,277203,6,0,B|137:-3|137:-3|180:101|180:101|111:190,1,300
6,343,277546,2,0,P|64:270|189:306,1,200
361,261,277803,1,0,0:0:0:0:
374,246,277889,2,0,L|288:242,1,50
205,207,278060,2,0,L|254:204,1,50
330,97,278232,2,0,B|313:79|313:79|331:176,1,100
248,348,278403,2,0,B|265:366|265:366|247:269,1,100
208,82,278575,6,0,B|195:12|195:12|338:96|338:96|271:118,1,300
142,246,278917,2,0,B|167:187|167:187|318:139,1,200
501,199,279175,1,0,0:0:0:0:
492,219,279260,2,0,L|405:249,1,75.0000028610231
309,229,279432,2,0,L|222:259,1,75.0000028610231
65,358,279603,2,0,L|135:333,1,75.0000028610231
248,348,279775,2,0,L|318:323,1,75.0000028610231
373,103,279946,6,0,B|334:36|334:36|292:149|292:149|361:253,1,300
512,306,280289,2,0,P|441:252|302:269,1,200
137,363,280546,1,0,0:0:0:0:
153,352,280632,2,0,P|167:329|172:281,1,50
247,219,280803,2,0,P|234:195|195:167,1,50
42,111,280975,2,0,B|92:143|139:124|139:124|185:82|246:95|246:95|289:125|345:106,1,300
502,17,281317,6,0,B|404:82|413:202|413:202|444:240|435:293,1,300
252,368,281660,2,0,B|268:303|268:303|349:270|349:270|339:320,1,200
158,341,281917,1,0,0:0:0:0:
156,320,282003,2,0,L|179:235,1,50
53,313,282175,2,0,L|76:228,1,50
162,65,282346,2,0,B|124:7|56:17|56:17|6:82|66:142,1,250
247,219,282603,1,0,0:0:0:0:
269,229,282689,6,0,B|338:218|338:218|384:237|384:237|427:202|427:202|503:185|503:185|463:233,1,300
395,338,283032,2,0,B|381:237|381:237|384:231|384:231|368:110,1,200
221,0,283289,1,0,0:0:0:0:
233,15,283375,2,0,L|245:98,1,50
136,195,283546,2,0,L|143:145,1,50
249,30,283717,2,0,B|262:78|262:78|251:140,1,100
25,268,283889,2,0,B|12:220|12:220|23:158,1,100
269,229,284060,6,0,L|261:291,1,37.5000014305115
247,233,284232,2,0,L|239:295,1,37.5000014305115
336,66,284403,2,0,B|321:157|321:157|308:178|308:178|299:267,1,200
343,384,284660,1,0,0:0:0:0:
405,284,284746,1,0,0:0:0:0:
385,286,284832,1,0,0:0:0:0:
365,289,284917,2,0,L|310:284,1,50
129,219,285089,2,0,P|167:240|262:201,1,100
318,79,285260,2,0,B|300:124|300:124|307:187,1,100
512,223,285432,6,0,B|497:221|526:247|592:272|549:-6|458:171|416:-8,1,300
328,145,285775,2,0,B|353:152|353:152|393:250|393:250|383:271,1,150.000005722046
494,70,286032,1,0,0:0:0:0:
500,63,286117,2,0,B|490:155|448:170,1,125
259,253,286289,2,0,B|307:247|307:247|293:216|293:216|256:246,1,125
168,293,286460,2,0,L|106:319,1,50
46,343,286632,6,0,B|21:334|12:298|34:261|53:270,1,100
152,157,286803,2,0,B|156:183|130:208|86:208|85:187,1,100
90,104,286975,2,0,L|99:59,1,37.5
17,140,287146,2,0,B|-22:113|74:-3|126:73|160:56|199:11,1,250
376,111,287403,5,0,0:0:0:0:
508,97,287489,2,0,L|459:103,1,50
293,117,287660,2,0,B|234:124|234:124|245:135,1,75.0000028610231
192,348,287832,2,0,B|203:112|245:248|245:114,1,225.000008583069
286,248,288003,1,0,0:0:0:0:
281,258,288089,1,0,0:0:0:0:
152,157,288175,6,0,B|148:143|148:143|161:137|161:137|409:255|409:255|405:292|430:321,1,375
509,130,288517,2,0,B|526:150|526:150|507:254|507:254|492:264,1,150.000005722046
293,117,288775,1,0,0:0:0:0:
290,105,288860,2,0,L|412:164,1,125
501,47,289032,2,0,B|497:32|497:32|406:56|406:56|411:72,1,125
410,256,289203,2,0,L|395:286,1,25
334,331,289375,6,0,B|343:346|327:355|291:293|282:277|297:268|306:284,1,100
423,358,289546,2,0,B|407:367|416:382|479:346|494:337|485:321|469:330,1,100
410,256,289717,2,0,L|398:280,1,25.5000001556397
438,178,289889,2,0,B|446:198|487:163|435:123|286:148|352:280|263:313|121:277|205:212,1,312.5
146,190,290146,5,0,0:0:0:0:
108,62,290232,2,0,L|120:110,1,50
65,171,290403,2,0,B|57:168|57:168|31:181|31:181|60:178|60:178|65:171,1,75.0000028610231
235,77,290575,2,0,B|232:63|232:63|257:82|257:82|229:183,1,150.000005722046
140,351,290746,2,0,B|130:361|130:361|161:358|161:358|190:258,1,150.000005722046
27,336,290917,6,0,B|413:247|413:247|403:274,1,405.000001544952
383,370,291260,2,0,B|328:271|328:271|332:235,1,150.000005722046
347,135,291517,1,0,0:0:0:0:
429,130,291603,2,0,B|437:137|437:137|335:153|335:153|340:144,1,125
215,168,291775,2,0,B|262:113|262:113|224:169,1,125
82,189,291946,2,0,L|132:182,1,50
33,328,292117,6,0,B|45:337|22:344|15:332|27:327|12:284|107:249,1,100
128,46,292289,2,0,B|114:51|119:28|133:28|131:41|176:49|159:149,1,100
150,269,292460,2,0,P|144:268|152:267,1,22.4999993133545
124,369,292632,2,0,B|71:203|71:203|68:206|68:206|51:104|51:104|14:78|14:78|37:98|40:129,1,375.000014305115
82,189,292889,5,0,0:0:0:0:
215,168,292975,2,0,L|141:180,1,50
348,147,293146,2,0,L|274:159,1,50
149,268,293317,2,0,B|154:251|154:251|190:254|190:254|188:252|188:252|190:254|190:254|216:257|216:257|221:264|221:264|365:284,1,225.000008583069
451,299,293489,1,0,0:0:0:0:
460,301,293575,1,0,0:0:0:0:
507,186,293660,6,0,B|507:170|507:170|493:175|493:175|475:218|475:218|131:271,1,405.000001544952
186,155,294003,2,0,B|180:144|180:144|235:107|235:107|226:166|226:166|214:168,1,150.000005722046
114,372,294260,1,0,0:0:0:0:
109,381,294346,2,0,B|91:334|91:334|42:320,1,100
290,331,294517,2,0,L|192:346,1,100
477,185,294689,2,0,B|483:179|483:179|491:247|491:247|463:307|463:307|460:301,1,150.000005722046
396,170,294860,2,0,B|392:163|392:163|364:223|364:223|373:291|373:291|379:286,1,150.000005722046
402,384,295032,6,0,B|408:357|408:357|404:384,1,55
450,107,296060,5,0,0:0:0:0:
458,109,296403,6,0,B|474:120|474:120|474:53|474:53|402:26|402:26|452:176|452:176|450:277,1,375
474,317,296746,2,0,B|436:348|436:348|407:307,1,100
281,151,296917,5,0,0:0:0:0:
281,151,297003,1,0,0:0:0:0:
236,88,297089,2,0,B|258:105|258:105|364:83,1,100
280,288,297260,2,0,B|293:263|293:263|398:240,1,100
494,136,297432,5,0,0:0:0:0:
180,205,297603,2,0,L|102:221,1,75.0000028610231
257,13,297775,6,0,P|301:45|310:108,1,87.500000834465
188,214,297946,2,0,L|177:306,1,87.500000834465
91,41,298117,2,0,L|183:30,1,87.500000834465
477,140,298289,5,0,0:0:0:0:
477,140,298375,1,0,0:0:0:0:
477,140,298460,2,0,B|423:151|423:151|419:148|419:148|383:154|383:154|380:158|380:158|328:112|328:112|324:116|324:116|280:123|280:123|276:121|276:121|228:127,2,275.000002622604
441,233,298889,1,0,0:0:0:0:
454,307,298975,1,0,0:0:0:0:
388,342,299060,1,0,0:0:0:0:
335,290,299146,6,0,P|454:307|453:249,1,150.000005722046
512,50,299317,2,0,P|446:23|397:74,1,150.000005722046
441,233,299489,1,0,0:0:0:0:
64,149,299660,5,0,0:0:0:0:
136,164,299745,1,0,0:0:0:0:
208,179,299832,2,0,B|223:226|223:226|212:281,1,100
64,149,300003,2,0,B|54:99|54:99|69:52,1,100
352,209,300175,1,0,0:0:0:0:
187,62,300346,2,0,P|209:70|185:56,1,100
25,329,300517,6,0,P|62:283|127:265,1,100
359,237,300689,2,0,L|224:252,1,100
10,225,300860,2,0,P|49:256|98:266,1,100
458,225,301032,1,0,0:0:0:0:
458,225,301117,1,0,0:0:0:0:
458,225,301203,6,0,B|483:264|483:264|416:209|416:209|425:174|425:174|459:162|459:162|474:117|474:117|368:80|368:80|401:132,2,400
438,15,301717,2,0,B|503:53|503:53|350:0,1,200
45,122,301889,6,0,B|22:137|22:137|11:136|11:136|-8:150|-8:150|37:139|37:139|44:143|44:143|91:127|91:127|94:123|94:123|133:133|133:133|138:130|138:130|199:126|199:126|213:115|213:115|307:108,1,375
488,122,302232,2,0,B|457:112|457:112|397:131|397:131|354:118,1,125
135,34,302403,5,0,0:0:0:0:
154,30,302489,1,0,0:0:0:0:
142,20,302575,2,0,B|135:37|135:37|157:68|157:68|152:85|152:85|167:148,1,125
217,384,302746,2,0,B|224:367|224:367|202:336|202:336|206:318|206:318|192:256,1,125
246,186,302917,6,0,L|295:175,1,50
112,217,303089,2,0,L|63:228,1,50
429,69,303260,6,0,B|451:17|451:17|434:39|434:39|425:40|425:40|397:85|397:85|403:92|403:92|410:158|410:158|418:156|418:156|408:247|408:247|417:245|417:245|426:351,1,412.500003933907
266,373,303603,2,0,B|243:350|243:350|266:355|266:355|365:339,1,137.500001311302
512,96,303775,5,0,0:0:0:0:
512,96,303860,1,0,0:0:0:0:
512,96,303946,2,0,B|502:142|502:142|506:149|506:149|489:242,1,137.500001311302
353,365,304117,2,0,B|343:319|343:319|347:312|347:312|332:230,1,137.500001311302
296,4,304289,1,0,0:0:0:0:
98,272,304460,5,0,0:0:0:0:
84,165,304546,1,0,0:0:0:0:
70,58,304632,6,0,B|63:-10|63:-10|52:46|52:46|56:53|56:53|42:117|42:117|49:116|49:116|104:180|104:180|111:179|111:179|114:233|114:233|122:240|122:240|127:321,1,412.500003933907
358,355,304975,2,0,B|407:338|407:338|387:333|387:333|347:346|347:346|288:329,1,137.500001311302
1,283,305146,5,0,0:0:0:0:
1,283,305232,1,0,0:0:0:0:
0,282,305317,2,0,B|17:298|17:298|129:279,1,137.500001311302
417,216,305489,2,0,B|406:236|406:236|293:255,1,137.500001311302
178,57,305660,2,0,B|200:192,1,137.500001311302
226,362,305832,1,0,0:0:0:0:
361,75,306003,6,0,B|260:92,1,100
11,130,306175,2,0,B|112:112,1,100
216,291,306346,2,0,B|196:169,1,100
448,64,306517,5,0,0:0:0:0:
490,131,306603,1,0,0:0:0:0:
438,192,306689,1,0,0:0:0:0:
364,162,306774,1,0,0:0:0:0:
370,82,306860,1,0,0:0:0:0:
512,384,307032,2,0,B|488:360|459:369|470:378|440:386|409:362,13,100
