osu file format v14

[General]
AudioFilename: BGMmeithanatos.mp3
AudioLeadIn: 0
PreviewTime: 76400
Countdown: 0
SampleSet: Soft
StackLeniency: 0.2
Mode: 0
LetterboxInBreaks: 1
WidescreenStoryboard: 0

[Editor]
Bookmarks: 31400,38600,75800,77000,115400,134600,153800,173000,182600,183800,203000,222200,241400,260600,279800
DistanceSpacing: 0.4
BeatDivisor: 4
GridSize: 4
TimelineZoom: 4.599998

[Metadata]
Title:Mei -Thanatos remix-
TitleUnicode:- 冥 - Θάνατος remix -
Artist:Team Grimoire
ArtistUnicode:Team Grimoire
Creator:Urushi38
Version:Another
Source:
Tags:
BeatmapID:1370272
BeatmapSetID:546494

[Difficulty]
HPDrainRate:3
CircleSize:4
OverallDifficulty:9.4
ApproachRate:9.7
SliderMultiplier:2
SliderTickRate:1

[Events]
//Background and Video events
0,0,"BGThanatos.jpg",0,0
//Break Periods
2,120400,124505
//Storyboard Layer 0 (Background)
//Storyboard Layer 1 (Fail)
//Storyboard Layer 2 (Pass)
//Storyboard Layer 3 (Foreground)
//Storyboard Sound Samples

[TimingPoints]
200,300,4,2,1,30,1,0
200,-1000,4,2,1,30,0,0
350,-1000,4,2,1,5,0,0
2450,-200,4,2,1,30,0,0
5000,-1000,4,2,1,30,0,0
5150,-1000,4,2,1,5,0,0
7400,-200,4,2,1,30,0,0
9800,-1000,4,2,1,30,0,0
9950,-1000,4,2,1,5,0,0
12050,-200,4,2,1,30,0,0
13400,-333.333333333333,4,2,1,30,0,0
13550,-285.714285714286,4,2,1,10,0,0
16850,-200,4,2,1,30,0,0
18196,-333.333333333333,4,2,1,20,0,0
19400,-200,4,2,1,30,0,0
20600,-333.333333333333,4,2,1,20,0,0
21800,-200,4,2,1,30,0,0
38600,-133.333333333333,4,1,1,50,0,0
75725,-133.333333333333,4,1,1,83,0,0
77000,-100,4,1,1,60,0,0
115400,-200,4,2,1,20,0,0
153200,-200,4,2,1,50,0,0
153800,-66.6666666666667,4,2,1,80,0,1
154250,-83.3333333333333,4,2,1,80,0,1
154550,-66.6666666666667,4,2,1,80,0,1
156200,-83.3333333333333,4,2,1,80,0,1
156500,-66.6666666666667,4,2,1,80,0,1
158600,-83.3333333333333,4,2,1,80,0,1
159200,-50,4,2,1,80,0,1
159500,-66.6666666666667,4,2,1,80,0,1
162800,-83.3333333333333,4,2,1,80,0,1
163400,-66.6666666666667,4,2,1,80,0,1
163700,-50,4,2,1,80,0,1
164000,-66.6666666666667,4,2,1,80,0,1
164600,-83.3333333333333,4,2,1,80,0,1
165200,-66.6666666666667,4,2,1,80,0,1
166100,-50,4,2,1,80,0,1
166400,-66.6666666666667,4,2,1,80,0,1
168200,-83.3333333333333,4,2,1,80,0,1
168500,-50,4,2,1,80,0,1
168800,-66.6666666666667,4,2,1,80,0,1
170600,-83.3333333333333,4,2,1,80,0,1
170900,-50,4,2,1,80,0,1
171200,-83.3333333333333,4,2,1,80,0,1
172400,-66.6666666666667,4,2,1,80,0,1
173000,-100,4,2,1,80,0,0
173600,-66.6666666666667,4,2,1,80,0,0
174200,-100,4,2,1,80,0,0
174800,-66.6666666666667,4,2,1,80,0,0
175400,-100,4,2,1,80,0,0
176000,-66.6666666666667,4,2,1,80,0,0
176600,-100,4,2,1,80,0,0
177200,-66.6666666666667,4,2,1,80,0,0
177800,-83.3333333333333,4,2,1,80,0,0
178100,-50,4,2,1,80,0,0
178400,-83.3333333333333,4,2,1,80,0,0
178700,-50,4,2,1,80,0,0
179000,-83.3333333333333,4,2,1,80,0,0
179300,-50,4,2,1,80,0,0
179600,-83.3333333333333,4,2,1,80,0,0
179900,-50,4,2,1,80,0,0
182600,-1000,4,2,1,30,0,0
183200,-100,4,1,1,60,0,0
353000,300,4,2,1,70,1,0
353600,315.789473684211,4,2,1,70,1,0
354231,333.333333333333,4,2,1,70,1,0
354675,405.405405405405,4,2,1,70,1,0
355485,428.571428571429,4,2,1,70,1,0
356342,400,4,2,1,70,1,0
357142,375,4,2,1,70,1,0
358267,750,4,2,1,70,1,0
359767,666.666666666667,4,2,1,70,1,0
361100,666.666666666667,4,2,1,70,1,0

[HitObjects]
140,136,200,6,0,P|200:160|284:160,1,140
340,136,2450,1,0,0:0:0:0:
356,124,2525,1,0,0:0:0:0:
372,108,2600,2,0,L|364:168,1,50
392,232,2900,2,0,L|398:182,1,50
372,108,3200,1,0,0:0:0:0:
336,176,3350,1,0,0:0:0:0:
392,232,3500,1,0,0:0:0:0:
356,300,3650,1,0,0:0:0:0:
356,300,5000,6,0,L|216:312,1,140
92,296,7400,2,0,L|152:304,1,50
56,204,7700,2,0,L|116:212,1,50
141,302,8000,1,0,0:0:0:0:
68,292,8150,1,0,0:0:0:0:
56,204,8300,1,0,0:0:0:0:
129,214,8450,1,0,0:0:0:0:
129,214,9800,6,0,P|168:200|272:204,1,140
328,240,12050,1,0,0:0:0:0:
340,248,12125,1,0,0:0:0:0:
352,256,12200,2,0,L|348:316,1,50
464,280,12500,2,0,L|460:230,1,50
364,264,12800,1,0,0:0:0:0:
372,164,12950,1,0,0:0:0:0:
456,216,13100,1,0,0:0:0:0:
372,268,13250,1,0,0:0:0:0:
360,172,13400,6,0,L|372:48,1,119.999996337891
371,52,14000,6,0,L|336:192,1,139.999995727539
336,188,14600,6,0,P|368:164|468:152,1,139.999995727539
175,195,15800,2,0,P|144:220|44:232,1,139.999995727539
46,232,16850,1,0,0:0:0:0:
60,244,16925,1,0,0:0:0:0:
72,256,17000,2,0,L|80:312,1,50
184,352,17300,2,0,L|191:302,1,50
292,232,17600,1,0,0:0:0:0:
384,260,17750,1,0,0:0:0:0:
360,352,17900,1,0,0:0:0:0:
268,324,18050,1,0,0:0:0:0:
268,324,18200,6,0,P|296:324|336:328,1,59.9999981689454
360,352,18650,2,0,P|388:352|428:348,1,59.9999981689454
452,328,19100,1,0,0:0:0:0:
452,328,19250,5,0,0:0:0:0:
456,312,19325,1,0,0:0:0:0:
460,296,19400,2,0,L|452:240,1,50
360,176,19700,2,0,L|367:225,1,50
456,268,20000,1,0,0:0:0:0:
492,196,20150,1,0,0:0:0:0:
432,136,20300,1,0,0:0:0:0:
360,176,20450,1,0,0:0:0:0:
376,256,20600,6,0,P|376:228|368:192,1,59.9999981689454
360,176,21050,2,0,P|360:148|368:112,1,59.9999981689454
384,88,21500,1,0,0:0:0:0:
384,88,21725,1,0,0:0:0:0:
384,88,21800,6,0,L|316:96,1,50
256,44,22100,2,0,L|188:52,1,50
132,88,22400,1,0,0:0:0:0:
48,72,22550,1,0,0:0:0:0:
104,160,22700,1,0,0:0:0:0:
188,144,22850,1,0,0:0:0:0:
200,156,22925,1,0,0:0:0:0:
212,168,23000,6,0,L|216:232,1,50
260,292,23300,2,0,L|156:300,1,100
84,260,23750,1,0,0:0:0:0:
164,316,23900,1,0,0:0:0:0:
260,292,24050,1,0,0:0:0:0:
276,284,24125,1,0,0:0:0:0:
292,276,24200,6,0,L|296:336,1,50
432,244,24500,2,0,L|428:304,1,50
324,192,24800,1,0,0:0:0:0:
404,152,24950,1,0,0:0:0:0:
332,108,25100,2,0,L|340:36,1,50
364,40,25325,1,0,0:0:0:0:
364,40,25400,6,0,L|416:44,1,50
252,116,25700,2,0,L|202:119,1,50
124,60,26000,1,0,0:0:0:0:
120,172,26150,1,0,0:0:0:0:
112,80,26300,2,0,B|99:116|99:116|112:152,1,75
120,172,26600,6,0,L|60:164,1,50
40,260,26900,2,0,L|89:253,1,50
184,240,27200,1,0,0:0:0:0:
256,264,27350,1,0,0:0:0:0:
324,224,27500,1,0,0:0:0:0:
332,144,27650,1,0,0:0:0:0:
324,128,27725,1,0,0:0:0:0:
316,112,27800,6,0,L|312:48,1,50
404,192,28100,2,0,L|410:291,1,100
488,344,28550,1,0,0:0:0:0:
400,320,28700,2,0,L|328:316,1,50
316,352,28925,1,0,0:0:0:0:
316,352,29000,6,0,L|308:292,1,50
216,232,29300,2,0,L|209:281,1,50
104,356,29600,1,0,0:0:0:0:
84,276,29750,1,0,0:0:0:0:
136,212,29900,1,0,0:0:0:0:
116,132,30050,1,0,0:0:0:0:
100,120,30125,1,0,0:0:0:0:
84,112,30200,6,0,L|24:116,1,50
164,56,30500,2,0,L|213:52,1,50
296,104,30800,2,0,L|284:196,1,75
284,196,31100,2,0,L|340:188,1,50
360,180,31325,1,0,0:0:0:0:
360,180,31400,1,0,0:0:0:0:
256,192,31475,12,0,38525,0:0:0:0:
256,192,38600,6,0,L|264:280,1,75.0000028610231,6|0,0:1|0:0,0:0:0:0:
172,256,38900,1,8,0:0:0:0:
176,120,39050,1,0,0:0:0:0:
284,104,39200,1,0,0:0:0:0:
284,104,39350,1,2,0:0:0:0:
64,272,39500,1,8,0:0:0:0:
64,272,39650,1,0,0:0:0:0:
64,272,39800,6,0,L|56:168,1,75.0000028610231,2|0,0:0|0:0,0:0:0:0:
88,40,40100,1,8,0:0:0:0:
284,104,40250,1,0,0:0:0:0:
176,120,40400,1,0,0:0:0:0:
176,120,40550,1,2,0:0:0:0:
332,0,40700,1,8,0:0:0:0:
332,0,40850,1,0,0:0:0:0:
277,178,41000,6,0,L|284:104,1,75.0000028610231,2|0,0:0|0:0,0:0:0:0:
380,200,41300,1,8,0:0:0:0:
200,256,41450,1,0,0:0:0:0:
408,304,41600,1,0,0:0:0:0:
408,304,41750,1,2,0:0:0:0:
456,112,41900,1,8,0:0:0:0:
456,112,42050,1,0,0:0:0:0:
484,224,42200,6,0,L|416:292,1,75.0000028610231,2|0,0:0|0:0,0:0:0:0:
456,112,42500,1,8,0:0:0:0:
484,224,42650,1,8,0:0:0:0:
380,200,42800,1,2,0:0:0:0:
380,200,42950,1,0,0:0:0:0:
400,40,43100,1,8,0:0:0:0:
400,40,43250,1,0,0:0:0:0:
400,40,43400,6,0,L|312:48,1,75.0000028610231,2|0,0:0|0:0,0:0:0:0:
184,124,43700,1,8,0:0:0:0:
296,140,43850,1,0,0:0:0:0:
128,52,44000,1,0,0:0:0:0:
128,52,44150,1,2,0:0:0:0:
108,188,44300,1,8,0:0:0:0:
108,188,44450,1,0,0:0:0:0:
108,188,44600,6,0,L|120:272,1,75.0000028610231,2|0,0:0|0:0,0:0:0:0:
184,336,44900,1,8,0:0:0:0:
44,320,45050,1,0,0:0:0:0:
272,276,45200,1,0,0:0:0:0:
276,364,45350,1,2,0:0:0:0:
184,336,45500,1,8,0:0:0:0:
180,248,45650,1,0,0:0:0:0:
268,188,45800,6,0,L|364:200,1,75.0000028610231,2|0,0:0|0:0,0:0:0:0:
236,104,46100,1,8,0:0:0:0:
400,120,46250,1,0,0:0:0:0:
392,280,46400,1,0,0:0:0:0:
392,280,46550,1,2,0:0:0:0:
424,108,46700,1,8,0:0:0:0:
424,108,46850,1,0,0:0:0:0:
368,260,47000,6,0,L|376:348,1,75.0000028610231,2|0,0:0|0:0,0:0:0:0:
468,340,47300,1,8,0:0:0:0:
256,272,47450,1,0,0:0:0:0:
472,232,47600,1,0,0:0:0:0:
472,232,47750,1,2,0:0:0:0:
292,360,47900,1,8,0:0:0:0:
292,360,48050,1,0,0:0:0:0:
272,184,48200,6,0,L|280:88,1,75.0000028610231,2|0,0:0|0:0,0:0:0:0:
364,44,48500,1,8,0:0:0:0:
180,112,48650,1,0,0:0:0:0:
388,152,48800,1,0,0:0:0:0:
388,152,48950,1,2,0:0:0:0:
156,12,49100,1,8,0:0:0:0:
156,12,49250,1,0,0:0:0:0:
132,216,49400,6,0,L|144:304,1,75.0000028610231,2|0,0:0|0:0,0:0:0:0:
36,216,49700,1,8,0:0:0:0:
248,284,49850,1,0,0:0:0:0:
4,308,50000,1,0,0:0:0:0:
4,308,50150,1,2,0:0:0:0:
84,124,50300,1,8,0:0:0:0:
84,124,50450,1,0,0:0:0:0:
84,124,50600,6,0,L|188:112,1,75.0000028610231,2|0,0:0|0:0,0:0:0:0:
384,88,50900,1,8,0:0:0:0:
256,60,51050,1,0,0:0:0:0:
308,156,51200,1,0,0:0:0:0:
308,156,51350,1,2,0:0:0:0:
464,20,51500,1,8,0:0:0:0:
464,20,51650,1,0,0:0:0:0:
464,20,51800,6,0,L|456:108,1,75.0000028610231,2|0,0:0|0:0,0:0:0:0:
436,288,52100,1,8,0:0:0:0:
436,288,52250,1,8,0:0:0:0:
328,356,52400,2,0,L|320:268,1,75.0000028610231,0|2,0:0|0:0,0:0:0:0:
308,156,52700,1,8,0:0:0:0:
308,156,52850,1,0,0:0:0:0:
144,216,53000,6,0,L|236:228,1,75.0000028610231,2|0,0:0|0:0,0:0:0:0:
424,144,53300,1,8,0:0:0:0:
288,124,53450,1,0,0:0:0:0:
336,40,53600,1,0,0:0:0:0:
336,40,53750,1,2,0:0:0:0:
376,228,53900,1,8,0:0:0:0:
376,228,54050,1,0,0:0:0:0:
204,146,54200,6,0,L|196:72,1,75.0000028610231,2|0,0:0|0:0,0:0:0:0:
336,40,54500,1,8,0:0:0:0:
56,124,54650,1,0,0:0:0:0:
168,228,54800,1,0,0:0:0:0:
168,228,54950,1,2,0:0:0:0:
196,72,55100,1,8,0:0:0:0:
196,72,55250,1,0,0:0:0:0:
196,72,55400,6,0,L|184:164,1,75.0000028610231,2|0,0:0|0:0,0:0:0:0:
180,320,55700,1,8,0:0:0:0:
252,204,55850,1,0,0:0:0:0:
88,256,56000,1,0,0:0:0:0:
88,256,56150,1,2,0:0:0:0:
336,224,56300,1,8,0:0:0:0:
336,224,56450,1,0,0:0:0:0:
276,288,56600,5,0,0:0:0:0:
312,140,56750,5,2,0:0:0:0:
336,224,56900,1,8,0:0:0:0:
364,76,57050,5,2,0:0:0:0:
252,204,57200,1,0,0:0:0:0:
272,0,57350,5,2,0:0:0:0:
336,224,57500,1,8,0:0:0:0:
232,124,57650,1,8,0:0:0:0:
392,164,57800,6,0,L|496:148,1,75.0000028610231,2|0,0:0|0:0,0:0:0:0:
496,68,58100,1,8,0:0:0:0:
416,248,58250,1,0,0:0:0:0:
364,76,58400,1,0,0:0:0:0:
364,76,58550,1,2,0:0:0:0:
500,240,58700,1,8,0:0:0:0:
500,240,58850,1,0,0:0:0:0:
340,292,59000,6,0,L|252:284,1,75.0000028610231,2|0,0:0|0:0,0:0:0:0:
60,192,59300,1,8,0:0:0:0:
168,172,59450,1,0,0:0:0:0:
80,288,59600,1,0,0:0:0:0:
80,288,59750,1,2,0:0:0:0:
148,76,59900,1,8,0:0:0:0:
148,76,60050,1,0,0:0:0:0:
63,117,60200,6,0,L|60:192,1,75.0000028610231,2|0,0:0|0:0,0:0:0:0:
248,100,60500,1,8,0:0:0:0:
68,24,60650,1,0,0:0:0:0:
224,16,60800,1,0,0:0:0:0:
224,16,60950,1,2,0:0:0:0:
64,116,61100,1,8,0:0:0:0:
64,116,61250,1,0,0:0:0:0:
272,180,61400,6,0,L|372:184,1,75.0000028610231,2|0,0:0|0:0,0:0:0:0:
496,148,61700,1,8,0:0:0:0:
504,232,61850,1,0,0:0:0:0:
432,88,62000,1,0,0:0:0:0:
432,88,62150,1,2,0:0:0:0:
424,292,62300,1,8,0:0:0:0:
424,292,62450,1,0,0:0:0:0:
424,292,62600,6,0,L|336:284,1,75.0000028610231,2|0,0:0|0:0,0:0:0:0:
172,200,62900,1,8,0:0:0:0:
272,180,63050,1,0,0:0:0:0:
204,292,63200,1,0,0:0:0:0:
104,272,63350,1,2,0:0:0:0:
108,88,63500,1,8,0:0:0:0:
208,108,63650,1,0,0:0:0:0:
76,176,63800,6,0,L|-20:184,1,75.0000028610231,2|0,0:0|0:0,0:0:0:0:
108,88,64100,1,8,0:0:0:0:
172,200,64250,1,0,0:0:0:0:
216,16,64400,1,0,0:0:0:0:
216,16,64550,1,2,0:0:0:0:
292,192,64700,1,8,0:0:0:0:
292,192,64850,1,0,0:0:0:0:
356,80,65000,6,0,L|440:88,1,75.0000028610231,2|0,0:0|0:0,0:0:0:0:
500,152,65300,1,8,0:0:0:0:
428,8,65450,1,0,0:0:0:0:
384,192,65600,1,0,0:0:0:0:
384,192,65750,1,2,0:0:0:0:
452,352,65900,1,8,0:0:0:0:
452,352,66050,1,0,0:0:0:0:
232,280,66200,6,0,L|320:272,1,75.0000028610231,2|0,0:0|0:0,0:0:0:0:
476,260,66500,1,8,0:0:0:0:
344,360,66650,1,0,0:0:0:0:
184,112,66800,2,0,L|176:196,1,75.0000028610231,0|2,0:0|0:0,0:0:0:0:
28,384,67100,2,0,L|20:309,1,75.0000028610231,8|8,0:0|0:0,0:0:0:0:
188,132,67400,6,0,L|180:216,1,75.0000028610231,2|0,0:0|0:0,0:0:0:0:
108,296,67700,1,8,0:0:0:0:
280,184,67850,1,0,0:0:0:0:
32,240,68000,1,0,0:0:0:0:
32,240,68150,1,2,0:0:0:0:
356,240,68300,1,8,0:0:0:0:
356,240,68450,1,0,0:0:0:0:
356,240,68600,6,0,L|268:288,1,75.0000028610231,2|0,0:0|0:0,0:0:0:0:
348,344,68900,1,8,0:0:0:0:
280,184,69050,1,0,0:0:0:0:
232,344,69200,1,0,0:0:0:0:
232,344,69350,1,2,0:0:0:0:
448,300,69500,1,8,0:0:0:0:
448,300,69650,1,0,0:0:0:0:
368,152,69800,6,0,L|364:72,1,75.0000028610231,2|0,0:0|0:0,0:0:0:0:
464,12,70100,1,8,0:0:0:0:
260,88,70250,1,0,0:0:0:0:
512,84,70400,1,0,0:0:0:0:
512,84,70550,1,2,0:0:0:0:
212,16,70700,1,8,0:0:0:0:
212,16,70850,1,0,0:0:0:0:
188,136,71000,6,0,L|184:224,1,75.0000028610231,2|0,0:0|0:0,0:0:0:0:
116,320,71300,1,8,0:0:0:0:
256,280,71450,1,0,0:0:0:0:
64,228,71600,1,0,0:0:0:0:
64,228,71750,1,2,0:0:0:0:
308,372,71900,1,8,0:0:0:0:
308,372,72050,1,0,0:0:0:0:
360,224,72200,6,0,L|356:136,1,75.0000028610231,2|0,0:0|0:0,0:0:0:0:
464,32,72500,1,8,0:0:0:0:
452,120,72650,1,0,0:0:0:0:
244,32,72800,1,0,0:0:0:0:
244,32,72950,1,2,0:0:0:0:
268,124,73100,1,8,0:0:0:0:
268,124,73250,1,0,0:0:0:0:
44,48,73400,6,0,L|144:40,1,75.0000028610231,2|0,0:0|0:0,0:0:0:0:
356,20,73700,1,8,0:0:0:0:
184,96,73850,1,0,0:0:0:0:
356,152,74000,1,0,0:0:0:0:
356,152,74150,1,2,0:0:0:0:
244,32,74300,1,8,0:0:0:0:
244,32,74450,1,0,0:0:0:0:
204,184,74600,6,0,L|208:272,1,75.0000028610231,10|0,0:0|0:0,0:0:0:0:
356,152,74900,2,0,L|352:240,1,75.0000028610231,10|0,0:0|0:0,0:0:0:0:
100,112,75200,2,0,L|104:200,1,75.0000028610231,10|0,0:0|0:0,0:0:0:0:
448,56,75500,2,0,L|444:144,1,75.0000028610231,10|10,0:0|0:0,0:0:0:0:
28,48,75800,1,4,2:3:0:0:
28,48,76400,5,2,3:2:0:0:
64,54,76475,1,2,3:2:0:0:
97,71,76550,1,2,3:2:0:0:
123,97,76625,1,2,3:2:0:0:
143,128,76700,1,2,3:2:0:0:
155,163,76775,1,2,3:2:0:0:
162,199,76850,1,2,3:2:0:0:
163,236,76925,1,2,3:2:0:0:
157,273,77000,5,6,0:1:0:0:
197,243,77075,1,0,0:0:0:0:
246,233,77150,1,0,0:0:0:0:
294,245,77225,1,0,0:0:0:0:
336,270,77300,1,8,0:0:0:0:
359,314,77375,1,0,0:0:0:0:
368,363,77450,5,0,0:0:0:0:
340,321,77525,1,0,0:0:0:0:
336,270,77600,1,2,0:0:0:0:
351,222,77675,1,0,0:0:0:0:
381,182,77750,1,0,0:0:0:0:
422,154,77825,1,0,0:0:0:0:
470,141,77900,5,8,0:0:0:0:
427,114,77975,1,0,0:0:0:0:
377,104,78050,1,2,0:0:0:0:
328,113,78125,1,0,0:0:0:0:
281,132,78200,1,0,0:0:0:0:
244,172,78275,1,0,0:0:0:0:
223,216,78350,5,2,0:0:0:0:
178,236,78425,1,0,0:0:0:0:
131,219,78500,1,8,0:0:0:0:
110,171,78575,1,0,0:0:0:0:
130,124,78650,1,0,0:0:0:0:
175,106,78725,1,0,0:0:0:0:
222,124,78800,5,2,0:0:0:0:
244,172,78875,1,0,0:0:0:0:
223,216,78950,1,0,0:0:0:0:
245,258,79025,1,0,0:0:0:0:
265,303,79100,2,0,P|278:310|318:316,1,50,8|0,0:0|0:0,0:0:0:0:
419,252,79250,2,0,P|394:254|371:265,1,50
201,348,79400,5,2,0:0:0:0:
196,341,79475,1,0,0:0:0:0:
148,305,79550,5,0,0:0:0:0:
138,301,79625,1,0,0:0:0:0:
89,290,79700,5,8,0:0:0:0:
80,283,79775,1,0,0:0:0:0:
54,236,79850,5,0,0:0:0:0:
44,207,79925,2,0,P|47:169|54:148,1,50,0|2,0:0|0:0,0:0:0:0:
85,86,80075,1,0,0:0:0:0:
113,94,80150,1,0,0:0:0:0:
142,96,80225,1,0,0:0:0:0:
171,92,80300,1,8,0:0:0:0:
200,85,80375,1,0,0:0:0:0:
228,74,80450,1,2,0:0:0:0:
254,60,80525,1,0,0:0:0:0:
274,38,80600,5,0,0:0:0:0:
268,57,80675,1,0,0:0:0:0:
265,76,80750,1,2,0:0:0:0:
265,95,80825,1,0,0:0:0:0:
267,114,80900,1,8,0:0:0:0:
269,133,80975,1,0,0:0:0:0:
271,152,81050,1,0,0:0:0:0:
273,171,81125,1,0,0:0:0:0:
273,190,81200,6,0,L|271:252,1,50,2|0,0:0|0:0,0:0:0:0:
402,211,81350,2,0,P|404:241|406:274,1,50,2|0,0:0|0:0,0:0:0:0:
160,212,81500,2,0,P|160:246|158:274,1,50,10|0,0:0|0:0,0:0:0:0:
499,159,81650,2,0,P|502:186|520:223,1,50,10|0,0:0|0:0,0:0:0:0:
274,38,81800,5,2,0:0:0:0:
242,62,81875,1,0,0:0:0:0:
203,72,81950,1,0,0:0:0:0:
163,65,82025,2,0,P|139:58|111:41,1,50,0|8,0:0|0:0,0:0:0:0:
31,118,82175,1,0,0:0:0:0:
69,127,82250,1,0,0:0:0:0:
99,152,82325,1,0,0:0:0:0:
119,186,82400,5,2,0:0:0:0:
90,214,82475,1,0,0:0:0:0:
68,248,82550,2,0,P|60:262|57:306,1,50
164,256,82700,1,8,0:0:0:0:
168,285,82775,1,0,0:0:0:0:
179,312,82850,1,2,0:0:0:0:
193,338,82925,1,0,0:0:0:0:
216,356,83000,5,0,0:0:0:0:
249,333,83075,1,0,0:0:0:0:
288,325,83150,1,2,0:0:0:0:
327,329,83225,2,0,P|355:335|396:334,1,50,0|8,0:0|0:0,0:0:0:0:
469,262,83375,2,0,P|419:258|370:264,1,100
291,226,83600,1,2,0:0:0:0:
322,201,83675,1,0,0:0:0:0:
337,164,83750,1,2,0:0:0:0:
343,124,83825,1,0,0:0:0:0:
331,85,83900,1,8,0:0:0:0:
293,99,83975,1,0,0:0:0:0:
253,102,84050,1,0,0:0:0:0:
213,93,84125,1,0,0:0:0:0:
178,71,84200,5,2,0:0:0:0:
148,98,84275,1,0,0:0:0:0:
129,133,84350,1,0,0:0:0:0:
121,172,84425,1,0,0:0:0:0:
125,211,84500,5,8,0:0:0:0:
158,233,84575,2,0,P|178:234|217:218,1,50
325,193,84725,5,0,0:0:0:0:
290,211,84800,2,0,P|279:227|273:269,1,50,2|0,0:0|0:0,0:0:0:0:
241,381,84950,5,0,0:0:0:0:
244,342,85025,2,0,P|234:324|201:298,1,50,0|8,0:0|0:0,0:0:0:0:
86,205,85175,1,0,0:0:0:0:
72,211,85250,1,2,0:0:0:0:
60,220,85325,1,0,0:0:0:0:
51,232,85400,5,0,0:0:0:0:
79,191,85475,1,0,0:0:0:0:
101,146,85550,1,2,0:0:0:0:
100,96,85625,1,0,0:0:0:0:
126,53,85700,1,8,0:0:0:0:
172,34,85775,1,0,0:0:0:0:
220,47,85850,1,0,0:0:0:0:
256,81,85925,1,0,0:0:0:0:
268,129,86000,5,2,0:0:0:0:
296,170,86075,1,0,0:0:0:0:
340,193,86150,1,0,0:0:0:0:
389,201,86225,1,0,0:0:0:0:
435,182,86300,1,8,0:0:0:0:
469,145,86375,1,0,0:0:0:0:
485,97,86450,1,0,0:0:0:0:
479,47,86525,1,0,0:0:0:0:
443,11,86600,5,2,0:0:0:0:
408,47,86675,1,0,0:0:0:0:
397,95,86750,1,2,0:0:0:0:
404,144,86825,1,0,0:0:0:0:
435,182,86900,1,8,0:0:0:0:
336,310,87050,1,0,0:0:0:0:
359,302,87125,1,0,0:0:0:0:
382,294,87200,5,2,0:0:0:0:
348,331,87275,1,0,0:0:0:0:
299,343,87350,1,0,0:0:0:0:
253,322,87425,1,0,0:0:0:0:
218,285,87500,1,8,0:0:0:0:
91,150,87650,1,2,0:0:0:0:
67,157,87725,1,0,0:0:0:0:
43,165,87800,5,0,0:0:0:0:
85,191,87875,1,0,0:0:0:0:
134,190,87950,1,2,0:0:0:0:
179,169,88025,1,0,0:0:0:0:
212,131,88100,2,0,L|222:16,1,100,8|0,0:0|0:0,0:0:0:0:
309,91,88325,1,0,0:0:0:0:
309,91,88400,2,0,L|300:180,1,50,2|0,0:0|0:0,0:0:0:0:
388,282,88550,6,0,L|381:218,1,50
409,62,88700,2,0,L|403:111,1,50,8|0,0:0|0:0,0:0:0:0:
480,299,88850,2,0,L|473:235,1,50,8|0,0:0|0:0,0:0:0:0:
507,25,89000,5,2,0:0:0:0:
507,25,89075,1,0,0:0:0:0:
507,25,89150,1,0,0:0:0:0:
376,149,89300,1,8,0:0:0:0:
256,24,89450,1,0,0:0:0:0:
136,149,89600,1,2,0:0:0:0:
136,149,89675,1,0,0:0:0:0:
136,149,89750,1,0,0:0:0:0:
100,48,89900,2,0,P|120:40|152:44,1,50,8|0,0:0|0:0,0:0:0:0:
172,250,90050,2,0,P|152:258|120:254,1,50,2|0,0:0|0:0,0:0:0:0:
24,128,90200,5,2,0:0:0:0:
54,95,90275,1,0,0:0:0:0:
106,78,90350,1,2,0:0:0:0:
160,82,90425,1,0,0:0:0:0:
209,106,90500,1,8,0:0:0:0:
258,129,90575,1,0,0:0:0:0:
312,137,90650,1,0,0:0:0:0:
366,129,90725,1,0,0:0:0:0:
411,98,90800,5,2,0:0:0:0:
382,144,90875,1,0,0:0:0:0:
367,197,90950,1,0,0:0:0:0:
370,251,91025,1,0,0:0:0:0:
394,300,91100,5,8,0:0:0:0:
412,308,91175,1,0,0:0:0:0:
429,316,91250,1,8,0:0:0:0:
446,324,91325,1,0,0:0:0:0:
464,333,91400,6,0,L|309:336,1,150,2|0,0:0|0:0,0:0:0:0:
232,264,91700,2,0,L|240:368,1,100,8|0,0:0|0:0,0:0:0:0:
40,264,92000,5,2,0:0:0:0:
48,220,92075,1,0,0:0:0:0:
56,176,92150,1,0,0:0:0:0:
64,132,92225,1,0,0:0:0:0:
40,88,92300,5,8,0:0:0:0:
84,104,92375,1,0,0:0:0:0:
128,120,92450,1,2,0:0:0:0:
172,136,92525,1,0,0:0:0:0:
200,172,92600,5,2,0:0:0:0:
196,128,92675,1,0,0:0:0:0:
192,84,92750,1,0,0:0:0:0:
188,40,92825,1,0,0:0:0:0:
216,12,92900,5,8,0:0:0:0:
260,28,92975,1,0,0:0:0:0:
300,44,93050,1,0,0:0:0:0:
340,60,93125,1,0,0:0:0:0:
388,52,93200,5,2,0:0:0:0:
356,90,93275,1,0,0:0:0:0:
346,139,93350,1,0,0:0:0:0:
361,186,93425,1,0,0:0:0:0:
394,223,93500,1,8,0:0:0:0:
409,270,93575,1,0,0:0:0:0:
399,319,93650,1,0,0:0:0:0:
370,360,93725,1,0,0:0:0:0:
323,379,93800,5,2,0:0:0:0:
289,341,93875,1,0,0:0:0:0:
270,294,93950,1,0,0:0:0:0:
227,260,94025,5,0,0:0:0:0:
205,305,94100,1,8,0:0:0:0:
170,340,94175,1,0,0:0:0:0:
129,317,94250,5,0,0:0:0:0:
125,267,94325,1,0,0:0:0:0:
139,219,94400,1,2,0:0:0:0:
145,173,94475,5,0,0:0:0:0:
99,194,94550,1,0,0:0:0:0:
49,199,94625,1,0,0:0:0:0:
16,157,94700,5,8,0:0:0:0:
26,105,94775,1,0,0:0:0:0:
66,75,94850,1,2,0:0:0:0:
115,77,94925,1,0,0:0:0:0:
158,101,95000,5,0,0:0:0:0:
207,108,95075,1,0,0:0:0:0:
256,103,95150,1,2,0:0:0:0:
300,80,95225,2,0,P|320:59|335:30,1,50,0|8,0:0|0:0,0:0:0:0:
480,105,95375,1,0,0:0:0:0:
431,116,95450,1,0,0:0:0:0:
388,143,95525,1,0,0:0:0:0:
353,179,95600,5,2,0:2:0:0:
356,193,95675,1,2,0:2:0:0:
359,207,95750,1,2,0:2:0:0:
362,221,95825,1,2,0:2:0:0:
365,235,95900,1,2,0:2:0:0:
368,249,95975,1,2,0:2:0:0:
371,263,96050,1,2,0:2:0:0:
374,277,96125,1,2,0:2:0:0:
380,291,96200,5,6,0:1:0:0:
338,327,96275,1,0,0:0:0:0:
285,344,96350,1,0,0:0:0:0:
230,340,96425,1,0,0:0:0:0:
178,319,96500,1,8,0:0:0:0:
145,274,96575,1,0,0:0:0:0:
132,220,96650,5,0,0:0:0:0:
174,185,96725,1,0,0:0:0:0:
194,134,96800,1,2,0:0:0:0:
190,79,96875,1,0,0:0:0:0:
152,38,96950,1,0,0:0:0:0:
101,17,97025,1,0,0:0:0:0:
46,18,97100,5,8,0:0:0:0:
85,56,97175,1,0,0:0:0:0:
136,74,97250,1,2,0:0:0:0:
190,79,97325,1,0,0:0:0:0:
240,57,97400,1,0,0:0:0:0:
294,47,97475,1,0,0:0:0:0:
348,53,97550,5,2,0:0:0:0:
305,88,97625,1,0,0:0:0:0:
279,136,97700,1,8,0:0:0:0:
280,190,97775,1,0,0:0:0:0:
304,239,97850,1,0,0:0:0:0:
346,274,97925,1,0,0:0:0:0:
398,290,98000,5,2,0:0:0:0:
346,274,98075,1,0,0:0:0:0:
291,279,98150,1,0,0:0:0:0:
243,306,98225,1,0,0:0:0:0:
201,342,98300,1,8,0:0:0:0:
146,349,98375,1,0,0:0:0:0:
92,336,98450,1,0,0:0:0:0:
51,299,98525,1,0,0:0:0:0:
43,244,98600,5,2,0:0:0:0:
50,231,98675,1,0,0:0:0:0:
93,181,98750,5,0,0:0:0:0:
106,179,98825,1,0,0:0:0:0:
165,187,98900,5,8,0:0:0:0:
178,192,98975,1,0,0:0:0:0:
218,231,99050,5,2,0:0:0:0:
257,248,99125,2,0,P|280:245|315:225,1,50
373,193,99275,1,0,0:0:0:0:
391,161,99350,1,2,0:0:0:0:
398,126,99425,1,0,0:0:0:0:
398,85,99500,1,8,0:0:0:0:
404,98,99575,1,0,0:0:0:0:
409,111,99650,1,0,0:0:0:0:
415,124,99725,1,0,0:0:0:0:
421,137,99800,5,2,0:0:0:0:
396,132,99875,1,0,0:0:0:0:
371,130,99950,1,0,0:0:0:0:
346,130,100025,1,0,0:0:0:0:
321,134,100100,1,8,0:0:0:0:
296,139,100175,1,0,0:0:0:0:
272,147,100250,1,0,0:0:0:0:
249,157,100325,1,0,0:0:0:0:
227,169,100400,6,0,L|231:109,1,50,2|0,0:0|0:0,0:0:0:0:
97,72,100550,2,0,L|100:121,1,50,2|0,0:0|0:0,0:0:0:0:
285,281,100700,6,0,L|289:221,1,50,8|0,0:0|0:0,0:0:0:0:
19,161,100850,2,0,L|22:210,1,50
169,323,101000,5,2,0:0:0:0:
214,353,101075,1,0,0:0:0:0:
267,363,101150,1,0,0:0:0:0:
321,356,101225,1,0,0:0:0:0:
365,323,101300,1,8,0:0:0:0:
391,274,101375,1,0,0:0:0:0:
433,239,101450,5,2,0:0:0:0:
381,219,101525,1,0,0:0:0:0:
338,184,101600,1,0,0:0:0:0:
302,141,101675,1,0,0:0:0:0:
261,103,101750,1,2,0:0:0:0:
208,86,101825,1,0,0:0:0:0:
153,93,101900,1,8,0:0:0:0:
153,93,101975,1,0,0:0:0:0:
153,93,102050,5,0,0:0:0:0:
139,146,102125,1,0,0:0:0:0:
111,193,102200,1,2,0:0:0:0:
68,227,102275,1,0,0:0:0:0:
16,246,102350,5,0,0:0:0:0:
68,227,102425,1,0,0:0:0:0:
121,238,102500,1,8,0:0:0:0:
165,269,102575,1,0,0:0:0:0:
198,313,102650,5,0,0:0:0:0:
247,336,102725,1,0,0:0:0:0:
301,344,102800,1,2,0:0:0:0:
354,333,102875,1,0,0:0:0:0:
401,305,102950,5,2,0:0:0:0:
361,266,103025,1,0,0:0:0:0:
342,214,103100,1,8,0:0:0:0:
348,159,103175,1,0,0:0:0:0:
381,115,103250,1,0,0:0:0:0:
429,88,103325,1,0,0:0:0:0:
483,83,103400,6,0,L|478:141,1,50,2|0,0:0|0:0,0:0:0:0:
288,76,103550,2,0,L|283:26,1,50
128,80,103700,5,8,0:0:0:0:
184,88,103775,2,0,P|204:100|224:136,1,50
164,268,103925,5,0,0:0:0:0:
143,216,104000,2,0,P|143:192|164:157,1,50,2|0,0:0|0:0,0:0:0:0:
314,151,104150,5,0,0:0:0:0:
280,196,104225,2,0,P|259:207|218:206,1,50,0|8,0:0|0:0,0:0:0:0:
76,96,104375,6,0,L|72:36,2,50,0|2|0,0:0|0:0|0:0,0:0:0:0:
68,184,104600,5,0,0:0:0:0:
41,231,104675,1,0,0:0:0:0:
29,284,104750,1,2,0:0:0:0:
38,338,104825,1,0,0:0:0:0:
70,382,104900,1,8,0:0:0:0:
112,347,104975,1,0,0:0:0:0:
165,332,105050,1,0,0:0:0:0:
219,341,105125,1,0,0:0:0:0:
267,367,105200,5,2,0:0:0:0:
321,375,105275,1,0,0:0:0:0:
374,362,105350,1,0,0:0:0:0:
423,337,105425,1,0,0:0:0:0:
461,297,105500,1,8,0:0:0:0:
472,243,105575,1,0,0:0:0:0:
467,188,105650,1,8,0:0:0:0:
442,138,105725,1,8,0:0:0:0:
402,99,105800,5,2,0:0:0:0:
361,136,105875,1,0,0:0:0:0:
338,186,105950,1,0,0:0:0:0:
333,240,106025,1,0,0:0:0:0:
346,293,106100,1,8,0:0:0:0:
157,152,106250,1,0,0:0:0:0:
186,146,106325,1,0,0:0:0:0:
215,140,106400,5,2,0:0:0:0:
187,187,106475,1,0,0:0:0:0:
140,216,106550,1,0,0:0:0:0:
85,206,106625,1,0,0:0:0:0:
40,173,106700,1,8,0:0:0:0:
390,59,106850,1,2,0:0:0:0:
366,51,106925,1,0,0:0:0:0:
342,43,107000,5,0,0:0:0:0:
353,96,107075,1,0,0:0:0:0:
392,133,107150,1,2,0:0:0:0:
441,156,107225,1,0,0:0:0:0:
495,159,107300,2,0,L|367:190,1,100,8|0,0:0|0:0,0:0:0:0:
313,244,107525,1,0,0:0:0:0:
355,242,107600,2,0,P|384:256|412:283,1,50,2|0,0:0|0:0,0:0:0:0:
338,375,107750,6,0,L|333:325,1,50
208,136,107900,2,0,L|203:186,1,50,8|0,0:0|0:0,0:0:0:0:
84,384,108050,2,0,L|79:334,1,50
28,240,108200,1,2,0:0:0:0:
76,228,108275,1,0,0:0:0:0:
124,240,108350,1,0,0:0:0:0:
164,272,108425,1,0,0:0:0:0:
216,280,108500,1,8,0:0:0:0:
336,112,108650,1,0,0:0:0:0:
256,28,108800,5,2,0:0:0:0:
292,224,108950,1,0,0:0:0:0:
292,224,109025,1,0,0:0:0:0:
292,224,109100,1,8,0:0:0:0:
448,104,109250,1,2,0:0:0:0:
160,80,109400,5,0,0:0:0:0:
140,84,109475,1,0,0:0:0:0:
120,88,109550,2,0,L|184:96,1,50,2|0,0:0|0:0,0:0:0:0:
404,176,109700,1,8,0:0:0:0:
424,180,109775,1,0,0:0:0:0:
444,184,109850,2,0,L|380:192,1,50
84,268,110000,1,2,0:0:0:0:
128,299,110075,1,0,0:0:0:0:
181,312,110150,1,0,0:0:0:0:
235,310,110225,1,0,0:0:0:0:
286,291,110300,1,8,0:0:0:0:
335,266,110375,1,0,0:0:0:0:
389,261,110450,1,0,0:0:0:0:
443,267,110525,1,0,0:0:0:0:
491,293,110600,5,8,0:0:0:0:
424,142,110750,1,2,0:0:0:0:
349,370,110900,1,8,0:0:0:0:
255,211,111050,1,2,0:0:0:0:
351,8,111200,5,8,0:0:0:0:
398,38,111275,1,0,0:0:0:0:
425,87,111350,1,2,0:0:0:0:
424,142,111425,1,0,0:0:0:0:
445,192,111500,5,8,0:0:0:0:
396,165,111575,1,0,0:0:0:0:
341,160,111650,1,2,0:0:0:0:
288,177,111725,1,0,0:0:0:0:
255,211,111800,5,8,0:0:0:0:
266,157,111875,1,0,0:0:0:0:
241,107,111950,1,2,0:0:0:0:
193,78,112025,1,0,0:0:0:0:
138,69,112100,5,8,0:0:0:0:
151,122,112175,1,0,0:0:0:0:
144,176,112250,1,2,0:0:0:0:
116,223,112325,1,0,0:0:0:0:
75,260,112400,5,8,0:0:0:0:
128,245,112475,1,0,0:0:0:0:
181,257,112550,1,2,0:0:0:0:
228,285,112625,1,0,0:0:0:0:
265,325,112700,1,8,0:0:0:0:
311,354,112775,1,0,0:0:0:0:
365,360,112850,1,2,0:0:0:0:
419,349,112925,1,0,0:0:0:0:
464,318,113000,5,10,0:0:0:0:
489,258,113075,2,0,P|493:228|487:185,1,50
443,42,113225,5,10,0:0:0:0:
388,75,113300,2,0,P|367:96|346:135,1,50
227,238,113450,5,10,0:0:0:0:
290,243,113525,2,0,P|315:239|339:231,1,50
482,134,113675,5,10,0:0:0:0:
434,92,113750,2,0,P|411:80|388:74,1,50
291,243,113900,5,10,0:0:0:0:
258,299,113975,1,0,0:0:0:0:
193,295,114050,1,10,0:0:0:0:
166,235,114125,1,0,0:0:0:0:
200,179,114200,5,8,0:0:0:0:
163,162,114275,1,8,0:0:0:0:
202,154,114350,1,8,0:0:0:0:
162,145,114425,1,8,0:0:0:0:
196,124,114500,1,8,0:0:0:0:
156,126,114575,1,8,0:0:0:0:
182,95,114650,1,8,0:0:0:0:
144,109,114725,1,8,0:0:0:0:
160,72,114800,1,8,0:0:0:0:
130,98,114875,1,8,0:0:0:0:
133,58,114950,1,8,0:0:0:0:
111,91,115025,1,8,0:0:0:0:
103,51,115100,1,8,0:0:0:0:
93,89,115175,1,8,0:0:0:0:
73,54,115250,1,8,0:0:0:0:
74,93,115325,1,8,0:0:0:0:
46,64,115400,1,12,1:1:0:0:
256,192,115475,12,0,120200,0:0:0:0:
256,192,125000,6,0,L|252:252,15,50
167,269,127400,2,0,L|164:220,7,50
104,144,128600,2,0,L|107:94,3,50
200,40,129200,2,0,L|203:89,3,50
300,128,129800,6,0,L|349:124,15,50
420,188,132200,2,0,L|469:191,7,50
512,268,133400,2,0,L|462:271,3,50
364,308,134000,2,0,L|314:304,3,50
224,256,134600,6,0,L|216:316,1,50
208,312,134900,2,0,L|210:262,1,50
208,252,135200,2,0,L|200:312,1,50
192,308,135500,2,0,L|194:258,1,50
148,168,135800,6,0,L|88:180,1,50
88,164,136100,2,0,L|148:164,1,50
144,144,136400,2,0,L|88:156,1,50
80,140,136700,2,0,L|132:136,1,50
292,88,137000,6,0,L|348:96,1,50
413,90,137300,2,0,L|364:100,1,50
328,240,137600,6,0,L|377:230,1,50
450,232,137900,2,0,L|400:232,1,50
240,344,138200,2,0,L|248:280,1,50
241,262,138500,2,0,L|248:312,1,50
52,348,138800,6,0,L|40:272,1,50
52,276,139100,2,0,L|59:325,1,50
120,176,139400,6,0,L|172:200,1,50
161,184,139700,2,0,L|116:164,1,50
112,152,140000,2,0,L|164:176,1,50
153,160,140300,2,0,L|108:140,1,50
104,124,140600,2,0,L|156:148,1,50
145,132,140900,2,0,L|100:112,1,50
96,100,141200,2,0,L|148:124,1,50
137,108,141500,2,0,L|92:88,1,50
236,88,141800,6,0,L|288:80,1,50
296,88,142100,2,0,L|232:104,1,50
240,120,142400,2,0,L|316:116,1,50
312,132,142700,2,0,L|236:152,1,50
240,304,143000,6,0,L|288:324,1,50
312,328,143300,2,0,L|260:272,1,50
416,248,143600,6,0,L|484:276,1,50
488,264,143900,2,0,L|448:208,1,50
394,85,144200,6,0,L|400:36,1,50
397,38,144500,2,0,L|392:88,1,50
392,92,144800,2,0,L|397:42,1,50
394,44,145100,2,0,L|389:94,1,50
280,140,145400,6,0,L|274:90,1,50
276,92,145700,2,0,L|281:141,1,50
282,146,146000,2,0,L|276:96,1,50
279,98,146300,2,0,L|284:147,1,50
176,200,146600,6,0,L|168:140,1,50
160,132,146900,2,0,L|152:192,1,50
136,208,147200,2,0,L|120:156,1,50
120,124,147500,2,0,L|108:196,1,50
80,320,147800,6,0,L|144:312,1,50
197,303,148100,2,0,L|148:296,1,50
288,252,148400,2,0,L|348:244,1,50
405,254,148700,2,0,L|356:248,1,50
256,192,149000,12,4,153200,1:0:0:0:
204,192,153800,6,0,B|224:160|236:108|236:108|264:144|268:176,1,150.000005722046,6|0,0:0|0:0,0:0:0:0:
208,280,154100,1,0,0:0:0:0:
184,176,154250,6,2,B|220:144|224:80|224:80|240:132|268:152,1,179.999994506836,0|0,0:0|0:0,0:0:0:0:
354,167,154550,6,0,L|280:160,1,75.0000028610231,2|0,0:0|0:0,0:0:0:0:
64,108,154700,2,0,L|138:100,1,75.0000028610231,2|0,0:0|0:0,0:0:0:0:
348,40,154850,1,2,0:0:0:0:
300,248,155000,6,0,L|304:336,1,75.0000028610231,2|0,0:0|0:0,0:0:0:0:
476,348,155150,2,0,L|472:273,1,75.0000028610231,2|0,0:0|0:0,0:0:0:0:
380,140,155300,2,0,L|488:136,1,75.0000028610231,2|0,0:0|0:0,0:0:0:0:
272,276,155450,2,0,L|197:278,1,75.0000028610231,2|0,0:0|0:0,0:0:0:0:
12,244,155600,6,0,B|116:260|116:260|84:264|44:304,1,150.000005722046,2|2,0:0|0:0,0:0:0:0:
12,332,155825,1,2,0:0:0:0:
92,356,155900,2,0,L|172:348,1,75.0000028610231,2|0,0:0|0:0,0:0:0:0:
92,180,156050,2,0,L|172:188,1,75.0000028610231,2|0,0:0|0:0,0:0:0:0:
296,128,156200,6,0,B|272:60|192:56|192:56|204:72|204:112,1,179.999994506836
132,92,156500,6,0,B|208:92|296:32|296:32|280:88,1,225.000008583069
320,160,156800,6,0,P|332:168|384:164,1,37.5000014305115,2|2,0:0|0:0,0:0:0:0:
376,172,156875,2,0,P|390:172|433:143,1,37.5000014305115,2|2,0:0|0:0,0:0:0:0:
367,99,156950,6,0,L|354:172,1,75.0000028610231,2|0,0:0|0:0,0:0:0:0:
424,344,157100,2,0,L|410:270,1,75.0000028610231,2|0,0:0|0:0,0:0:0:0:
464,36,157250,2,0,L|450:109,1,75.0000028610231,2|0,0:0|0:0,0:0:0:0:
344,384,157400,6,0,L|330:310,1,75.0000028610231,2|0,0:0|0:0,0:0:0:0:
156,136,157550,2,0,L|256:148,1,75.0000028610231,2|0,0:0|0:0,0:0:0:0:
120,268,157700,2,0,L|220:256,1,75.0000028610231,2|0,0:0|0:0,0:0:0:0:
72,96,157850,2,0,L|172:108,1,75.0000028610231,2|0,0:0|0:0,0:0:0:0:
0,336,158000,6,0,L|100:324,1,75.0000028610231,2|0,0:0|0:0,0:0:0:0:
264,220,158150,1,2,0:0:0:0:
340,236,158225,1,2,0:0:0:0:
416,256,158300,2,0,L|304:272,1,75.0000028610231,2|0,0:0|0:0,0:0:0:0:
188,196,158450,2,0,L|262:185,1,75.0000028610231,2|0,0:0|0:0,0:0:0:0:
480,128,158600,6,0,B|440:96|432:48|432:48|364:12|304:64|304:124|364:168|364:168|400:148|468:172,1,419.999987182618
480,128,159200,6,2,P|384:88|460:168,1,300,0|0,0:0|0:0,0:0:0:0:
480,128,159500,6,0,L|476:40,1,75.0000028610231,8|0,0:0|0:0,0:0:0:0:
320,36,159650,2,0,L|316:110,1,75.0000028610231,8|0,0:0|0:0,0:0:0:0:
224,300,159800,6,0,L|128:292,1,75.0000028610231,8|0,0:0|0:0,0:0:0:0:
24,196,159950,2,0,L|120:188,1,75.0000028610231,10|0,0:0|0:0,0:0:0:0:
296,352,160100,2,0,L|300:256,1,75.0000028610231,8|0,0:0|0:0,0:0:0:0:
124,96,160250,2,0,L|120:170,1,75.0000028610231,8|0,0:0|0:0,0:0:0:0:
61,321,160400,6,0,L|136:312,1,75.0000028610231,8|0,0:0|0:0,0:0:0:0:
376,312,160550,1,8,0:0:0:0:
296,352,160625,1,8,0:0:0:0:
224,300,160700,2,0,L|232:192,1,75.0000028610231,8|0,0:0|0:0,0:0:0:0:
372,8,160850,2,0,L|377:82,1,75.0000028610231,8|0,0:0|0:0,0:0:0:0:
448,352,161000,6,0,B|452:284|480:212|480:212|448:240|372:244,1,225.000008583069
260,156,161300,2,0,B|280:160|308:180|308:180|332:156|332:156|372:180|428:168|468:116,1,225.000008583069
484,52,161600,6,0,L|492:12,1,37.5000014305115,2|2,0:0|0:0,0:0:0:0:
464,56,161675,2,0,L|472:16,1,37.5000014305115,0|2,0:0|0:0,0:0:0:0:
444,60,161750,6,0,L|360:52,1,75.0000028610231,2|0,0:0|0:0,0:0:0:0:
212,56,161900,2,0,L|286:63,1,75.0000028610231,2|0,0:0|0:0,0:0:0:0:
53,56,162050,2,0,L|128:64,1,75.0000028610231,2|0,0:0|0:0,0:0:0:0:
40,200,162200,6,0,L|148:188,1,75.0000028610231,2|0,0:0|0:0,0:0:0:0:
332,244,162350,2,0,L|224:232,1,75.0000028610231,2|0,0:0|0:0,0:0:0:0:
16,216,162500,2,0,L|124:204,1,75.0000028610231,2|0,0:0|0:0,0:0:0:0:
356,268,162650,2,0,L|248:256,1,75.0000028610231,2|0,0:0|0:0,0:0:0:0:
68,176,162800,6,0,B|96:184|96:184|128:216,1,59.9999981689454
260,128,162950,2,0,B|232:137|232:137|187:130,1,59.9999981689454
132,279,163100,2,0,B|148:254|148:254|188:234,1,59.9999981689454
145,82,163250,2,0,B|146:111|146:111|125:151,1,59.9999981689454
236,344,163400,6,0,B|222:293|222:293|226:237|226:237|214:197,1,150.000005722046
306,63,163700,6,2,B|208:200|344:192|236:344,1,300,0|0,0:0|0:0,0:0:0:0:
236,343,164000,6,0,B|268:336|268:336|336:360,1,75.0000028610231
492,296,164150,2,0,B|460:303|460:303|392:279,1,75.0000028610231
144,192,164300,2,0,B|175:184|175:184|243:208,1,75.0000028610231
472,132,164450,2,0,B|440:139|440:139|372:115,1,75.0000028610231
188,36,164600,6,0,B|212:60|296:60|296:60|264:84|264:84|280:104|280:104|264:128|264:128|344:160|368:228|288:320,1,419.999987182618
200,280,165200,6,0,L|248:272,1,37.5000014305115,2|2,0:0|0:0,0:0:0:0:
184,272,165275,2,0,L|232:264,1,37.5000014305115,2|2,0:0|0:0,0:0:0:0:
168,264,165350,6,0,L|160:340,1,75.0000028610231,2|0,0:0|0:0,0:0:0:0:
48,248,165500,2,0,L|55:173,1,75.0000028610231,2|0,0:0|0:0,0:0:0:0:
328,176,165650,2,0,L|320:252,1,75.0000028610231,2|0,0:0|0:0,0:0:0:0:
264,76,165800,6,0,P|296:60|344:60,1,75.0000028610231,8|0,0:0|0:0,0:0:0:0:
384,348,165950,2,0,P|352:364|304:364,1,75.0000028610231,8|0,0:0|0:0,0:0:0:0:
188,208,166100,6,2,B|292:204|292:204|328:176|328:176|372:200|372:200|508:196,1,300,0|0,0:0|0:0,0:0:0:0:
472,197,166400,6,0,P|480:244|480:288,1,75.0000028610231,8|0,0:0|0:0,0:0:0:0:
255,150,166550,2,0,P|257:112|264:76,1,75.0000028610231,8|0,0:0|0:0,0:0:0:0:
396,4,166700,2,0,P|403:50|403:94,1,75.0000028610231,8|0,0:0|0:0,0:0:0:0:
336,288,166850,5,8,0:0:0:0:
264,256,166925,1,8,0:0:0:0:
200,300,167000,2,0,P|232:328|280:328,1,75.0000028610231,8|0,0:0|0:0,0:0:0:0:
328,180,167150,2,0,P|336:138|312:96,1,75.0000028610231,8|0,0:0|0:0,0:0:0:0:
160,129,167300,2,0,P|119:142|95:184,1,75.0000028610231,8|0,0:0|0:0,0:0:0:0:
240,364,167450,6,0,P|281:372|323:348,1,75.0000028610231,8|0,0:0|0:0,0:0:0:0:
372,112,167600,2,0,P|358:71|316:47,1,75.0000028610231,8|0,0:0|0:0,0:0:0:0:
84,136,167750,2,0,P|75:177|99:219,1,75.0000028610231,8|0,0:0|0:0,0:0:0:0:
400,296,167900,2,0,P|408:254|384:212,1,75.0000028610231,8|0,0:0|0:0,0:0:0:0:
188,72,168050,1,0,0:0:0:0:
248,120,168125,1,0,0:0:0:0:
216,192,168200,6,0,B|196:184|196:184|168:152,1,59.9999981689454
268,40,168350,2,0,B|288:48|288:48|316:80,1,59.9999981689454
233,324,168500,6,2,B|244:248|216:192|216:192|272:124|268:40,1,300,0|0,0:0|0:0,0:0:0:0:
344,72,168800,6,0,P|360:76|400:72,1,37.5000014305115,2|2,0:0|0:0,0:0:0:0:
372,92,168875,2,0,P|387:87|420:64,1,37.5000014305115,2|2,0:0|0:0,0:0:0:0:
408,96,168950,6,0,L|400:196,1,75.0000028610231,2|0,0:0|0:0,0:0:0:0:
328,328,169100,2,0,L|322:253,1,75.0000028610231,2|0,0:0|0:0,0:0:0:0:
440,60,169250,2,0,L|432:160,1,75.0000028610231,2|0,0:0|0:0,0:0:0:0:
304,360,169400,6,0,L|298:285,1,75.0000028610231,2|0,0:0|0:0,0:0:0:0:
88,144,169550,2,0,L|162:149,1,75.0000028610231,2|0,0:0|0:0,0:0:0:0:
428,296,169700,2,0,L|353:301,1,75.0000028610231,2|0,0:0|0:0,0:0:0:0:
120,240,169850,2,0,L|114:165,1,75.0000028610231,2|0,0:0|0:0,0:0:0:0:
320,32,170000,6,0,B|308:148|308:148|280:108,1,150.000005722046,2|2,0:0|0:0,0:0:0:0:
240,56,170225,1,0,0:0:0:0:
320,32,170300,2,0,L|416:28,1,75.0000028610231,2|0,0:0|0:0,0:0:0:0:
256,128,170450,2,0,L|160:132,1,75.0000028610231,2|0,0:0|0:0,0:0:0:0:
352,272,170600,6,0,B|360:256|360:256|348:216,1,59.9999981689454
164,216,170750,2,0,B|152:256|152:256|160:272,1,59.9999981689454
252,364,170900,6,2,B|268:296|268:296|248:228|268:148|268:148|256:128|256:128|240:208,1,300,0|0,0:0|0:0,0:0:0:0:
295,263,171200,6,0,B|304:272|304:272|352:272,1,59.9999981689454
216,96,171350,2,0,B|207:87|207:87|159:87,1,59.9999981689454
348,56,171500,1,0,0:0:0:0:
148,288,171650,1,0,0:0:0:0:
44,96,171800,6,0,B|72:52|144:36|144:36|128:84|128:84|192:68|220:124|220:124|260:156|308:168|368:136,1,419.999987182618
408,96,172400,6,0,L|404:40,1,37.5000014305115,2|2,0:0|0:0,0:0:0:0:
420,84,172475,2,0,L|416:28,1,37.5000014305115,2|2,0:0|0:0,0:0:0:0:
432,64,172550,6,0,L|424:144,1,75.0000028610231,2|0,0:0|0:0,0:0:0:0:
264,348,172700,2,0,L|256:273,1,75.0000028610231,2|0,0:0|0:0,0:0:0:0:
464,244,172850,1,2,0:0:0:0:
136,56,173000,5,0,0:0:0:0:
143,68,173075,1,0,0:0:0:0:
151,80,173150,1,0,0:0:0:0:
158,92,173225,1,0,0:0:0:0:
166,104,173300,5,0,0:0:0:0:
149,151,173375,1,0,0:0:0:0:
138,199,173450,1,0,0:0:0:0:
136,248,173525,1,0,0:0:0:0:
139,297,173600,6,0,L|192:290,1,37.5000014305115
163,282,173675,2,0,L|216:289,1,37.5000014305115
192,304,173750,6,0,L|284:291,1,75.0000028610231,2|0,0:0|0:0,0:0:0:0:
401,384,173900,2,0,L|343:310,1,75.0000028610231,2|0,0:0|0:0,0:0:0:0:
366,174,174050,2,0,L|331:260,1,75.0000028610231,2|0,0:0|0:0,0:0:0:0:
259,211,174200,5,0,0:0:0:0:
252,197,174275,1,0,0:0:0:0:
245,183,174350,1,0,0:0:0:0:
238,169,174425,1,0,0:0:0:0:
231,155,174500,5,0,0:0:0:0:
280,159,174575,1,0,0:0:0:0:
328,146,174650,1,0,0:0:0:0:
368,117,174725,1,0,0:0:0:0:
388,71,174800,6,0,L|382:25,1,37.5000014305115,2|2,0:0|0:0,0:0:0:0:
411,72,174875,2,0,L|415:34,1,37.5000014305115,2|2,0:0|0:0,0:0:0:0:
433,77,174950,6,0,L|507:96,1,75.0000028610231,2|0,0:0|0:0,0:0:0:0:
473,226,175100,2,0,L|399:245,1,75.0000028610231,2|0,0:0|0:0,0:0:0:0:
223,317,175250,2,0,L|297:336,1,75.0000028610231,2|0,0:0|0:0,0:0:0:0:
120,214,175400,5,0,0:0:0:0:
117,228,175475,1,0,0:0:0:0:
114,242,175550,1,0,0:0:0:0:
112,256,175625,1,0,0:0:0:0:
110,270,175700,5,0,0:0:0:0:
86,225,175775,1,0,0:0:0:0:
86,175,175850,1,0,0:0:0:0:
105,129,175925,1,0,0:0:0:0:
140,93,176000,6,0,L|184:97,1,37.5000014305115,2|2,0:0|0:0,0:0:0:0:
166,107,176075,2,0,L|210:103,1,37.5000014305115,2|2,0:0|0:0,0:0:0:0:
194,85,176150,6,0,L|285:94,1,75.0000028610231,2|0,0:0|0:0,0:0:0:0:
393,90,176300,2,0,L|355:173,1,75.0000028610231,2|0,0:0|0:0,0:0:0:0:
295,252,176450,2,0,L|241:177,1,75.0000028610231,2|0,0:0|0:0,0:0:0:0:
167,279,176600,5,0,0:0:0:0:
165,293,176675,1,0,0:0:0:0:
163,307,176750,1,0,0:0:0:0:
161,321,176825,1,0,0:0:0:0:
159,335,176900,5,0,0:0:0:0:
205,317,176975,1,0,0:0:0:0:
254,314,177050,1,0,0:0:0:0:
303,323,177125,1,0,0:0:0:0:
348,349,177200,6,0,L|389:342,1,37.5000014305115,2|2,0:0|0:0,0:0:0:0:
365,335,177275,2,0,L|401:341,1,37.5000014305115,2|2,0:0|0:0,0:0:0:0:
385,318,177350,6,0,L|395:237,1,75.0000028610231,2|0,0:0|0:0,0:0:0:0:
362,24,177500,2,0,L|371:98,1,75.0000028610231,2|0,0:0|0:0,0:0:0:0:
241,220,177650,2,0,L|251:139,1,75.0000028610231,2|0,0:0|0:0,0:0:0:0:
66,38,177800,6,0,B|50:51|50:51|64:59|86:77,1,59.9999981689454
228,43,177950,2,0,B|236:21|244:7|244:7|224:3,1,59.9999981689454
152,36,178100,6,2,B|140:88|112:108|112:108|184:120|184:120|176:144|176:144|188:160|188:160|160:184|192:192|184:276,1,300,0|0,0:0|0:0,0:0:0:0:
160,328,178400,6,0,B|128:328|128:328|104:356,1,59.9999981689454
98,182,178550,2,0,B|80:204|80:204|48:204,1,59.9999981689454
8,296,178700,6,2,B|88:264|184:252|184:252|192:264|192:264|208:228|208:228|204:264|236:296,1,300,0|0,0:0|0:0,0:0:0:0:
292,324,179000,6,0,B|328:332|328:332|376:312,1,59.9999981689454
484,240,179150,2,0,B|448:232|448:232|400:252,1,59.9999981689454
209,192,179300,6,2,B|248:216|276:176|276:176|296:216|296:216|352:196|352:196|320:256|368:312,1,300,0|0,0:0|0:0,0:0:0:0:
497,295,179600,6,0,P|498:265|484:240,1,59.9999981689454
332,120,179750,2,0,P|330:90|345:64,1,59.9999981689454
484,40,179900,6,2,B|416:92|344:64|344:64|344:24|344:24|312:52|228:44,1,300,0|0,0:0|0:0,0:0:0:0:
156,28,180200,5,0,0:0:0:0:
64,252,180350,2,2,P|100:224|128:172,1,100,0|0,0:0|0:0,0:0:0:0:
156,28,180500,5,0,0:0:0:0:
340,192,180650,2,2,P|294:185|244:154,1,100,0|0,0:0|0:0,0:0:0:0:
156,28,180800,5,0,0:0:0:0:
52,304,180950,2,2,P|94:286|134:243,1,100,0|0,0:0|0:0,0:0:0:0:
156,28,181100,5,0,0:0:0:0:
384,224,181250,2,2,P|338:229|282:212,1,100,0|0,0:0|0:0,0:0:0:0:
156,28,181400,5,0,0:0:0:0:
158,37,181475,1,0,0:0:0:0:
160,46,181550,1,0,0:0:0:0:
162,55,181625,1,0,0:0:0:0:
164,64,181700,1,0,0:0:0:0:
166,73,181775,1,0,0:0:0:0:
168,82,181850,1,0,0:0:0:0:
170,91,181925,1,0,0:0:0:0:
172,100,182000,1,0,0:0:0:0:
174,109,182075,1,0,0:0:0:0:
176,118,182150,1,0,0:0:0:0:
178,127,182225,1,0,0:0:0:0:
180,136,182300,1,0,0:0:0:0:
182,145,182375,1,0,0:0:0:0:
184,154,182450,1,0,0:0:0:0:
186,163,182525,1,0,0:0:0:0:
188,172,182600,1,0,0:0:0:0:
188,172,183200,5,2,3:2:0:0:
216,151,183275,1,2,3:2:0:0:
251,151,183350,1,2,3:2:0:0:
281,168,183425,1,2,3:2:0:0:
305,193,183500,1,2,3:2:0:0:
332,215,183575,1,2,3:2:0:0:
364,227,183650,1,2,3:2:0:0:
398,232,183725,1,2,3:2:0:0:
432,227,183800,5,6,1:1:0:0:
399,188,183875,1,0,0:0:0:0:
350,175,183950,1,0,0:0:0:0:
305,193,184025,1,0,0:0:0:0:
277,234,184100,1,8,0:0:0:0:
276,283,184175,1,0,0:0:0:0:
303,324,184250,5,0,0:0:0:0:
264,292,184325,1,0,0:0:0:0:
214,286,184400,1,2,0:0:0:0:
174,316,184475,1,0,0:0:0:0:
133,344,184550,1,0,0:0:0:0:
83,339,184625,1,0,0:0:0:0:
44,307,184700,5,8,0:0:0:0:
89,285,184775,1,0,0:0:0:0:
114,241,184850,1,2,0:0:0:0:
122,191,184925,1,0,0:0:0:0:
100,145,185000,1,0,0:0:0:0:
60,115,185075,1,0,0:0:0:0:
10,108,185150,5,2,0:0:0:0:
50,137,185225,1,0,0:0:0:0:
100,145,185300,1,8,0:0:0:0:
148,132,185375,1,0,0:0:0:0:
186,100,185450,1,0,0:0:0:0:
230,77,185525,1,0,0:0:0:0:
279,68,185600,5,2,0:0:0:0:
323,91,185675,1,0,0:0:0:0:
344,136,185750,1,0,0:0:0:0:
341,185,185825,1,0,0:0:0:0:
315,227,185900,6,0,P|302:232|260:233,1,50,8|0,0:0|0:0,0:0:0:0:
415,164,186050,2,0,P|428:159|470:158,1,50
480,316,186200,5,2,0:0:0:0:
464,320,186275,1,0,0:0:0:0:
420,348,186350,5,0,0:0:0:0:
404,344,186425,1,0,0:0:0:0:
352,296,186500,5,8,0:0:0:0:
336,300,186575,1,0,0:0:0:0:
272,344,186650,5,0,0:0:0:0:
252,344,186725,2,0,P|228:324|216:300,1,50,0|2,0:0|0:0,0:0:0:0:
208,208,186875,1,0,0:0:0:0:
216,196,186950,1,0,0:0:0:0:
224,184,187025,1,0,0:0:0:0:
232,172,187100,5,8,0:0:0:0:
226,206,187175,1,0,0:0:0:0:
202,231,187250,1,2,0:0:0:0:
172,249,187325,1,0,0:0:0:0:
137,254,187400,5,0,0:0:0:0:
152,234,187475,1,0,0:0:0:0:
164,212,187550,1,2,0:0:0:0:
169,187,187625,1,0,0:0:0:0:
172,162,187700,1,8,0:0:0:0:
171,137,187775,1,0,0:0:0:0:
163,113,187850,1,0,0:0:0:0:
149,91,187925,1,0,0:0:0:0:
130,74,188000,6,0,L|194:81,1,50,2|0,0:0|0:0,0:0:0:0:
382,127,188150,2,0,L|318:134,1,50
53,187,188300,1,8,0:0:0:0:
461,33,188450,1,8,0:0:0:0:
381,219,188600,5,2,0:0:0:0:
338,244,188675,1,0,0:0:0:0:
289,236,188750,1,0,0:0:0:0:
257,197,188825,1,0,0:0:0:0:
257,147,188900,1,8,0:0:0:0:
289,109,188975,1,0,0:0:0:0:
338,100,189050,5,0,0:0:0:0:
289,109,189125,1,0,0:0:0:0:
240,96,189200,1,2,0:0:0:0:
209,56,189275,1,0,0:0:0:0:
163,34,189350,1,0,0:0:0:0:
113,33,189425,1,0,0:0:0:0:
67,53,189500,5,8,0:0:0:0:
107,82,189575,1,0,0:0:0:0:
121,129,189650,1,2,0:0:0:0:
117,178,189725,1,0,0:0:0:0:
85,216,189800,1,0,0:0:0:0:
40,238,189875,1,0,0:0:0:0:
42,188,189950,5,2,0:0:0:0:
85,216,190025,1,0,0:0:0:0:
133,227,190100,1,8,0:0:0:0:
181,215,190175,1,0,0:0:0:0:
219,182,190250,1,0,0:0:0:0:
269,182,190325,1,0,0:0:0:0:
310,209,190400,5,2,0:0:0:0:
321,257,190475,1,0,0:0:0:0:
298,301,190550,1,0,0:0:0:0:
253,323,190625,1,0,0:0:0:0:
207,303,190700,2,0,L|218:229,1,50,8|0,0:0|0:0,0:0:0:0:
349,297,190850,2,0,L|356:346,1,50
491,291,191000,5,2,0:0:0:0:
484,272,191075,1,0,0:0:0:0:
476,252,191150,1,0,0:0:0:0:
468,232,191225,1,0,0:0:0:0:
460,212,191300,5,8,0:0:0:0:
488,168,191375,2,0,P|496:144|492:100,1,50
296,124,191525,5,0,0:0:0:0:
320,170,191600,2,0,P|336:188|376:207,1,50,2|0,0:0|0:0,0:0:0:0:
440,8,191750,5,0,0:0:0:0:
387,5,191825,2,0,P|362:10|326:35,1,50,0|8,0:0|0:0,0:0:0:0:
188,140,191975,5,0,0:0:0:0:
135,143,192050,2,0,P|110:137|74:112,1,50,2|0,0:0|0:0,0:0:0:0:
156,24,192200,5,0,0:0:0:0:
200,48,192275,1,0,0:0:0:0:
216,96,192350,1,2,0:0:0:0:
188,140,192425,1,0,0:0:0:0:
144,164,192500,1,8,0:0:0:0:
116,208,192575,1,0,0:0:0:0:
120,256,192650,1,0,0:0:0:0:
148,300,192725,1,0,0:0:0:0:
120,340,192800,5,2,0:0:0:0:
148,300,192875,1,0,0:0:0:0:
196,280,192950,1,2,0:0:0:0:
245,281,193025,1,0,0:0:0:0:
287,307,193100,1,8,0:0:0:0:
319,269,193175,1,0,0:0:0:0:
326,219,193250,1,0,0:0:0:0:
308,172,193325,1,0,0:0:0:0:
275,134,193400,5,2,0:0:0:0:
317,160,193475,1,0,0:0:0:0:
366,160,193550,1,0,0:0:0:0:
412,141,193625,1,0,0:0:0:0:
443,102,193700,1,8,0:0:0:0:
177,24,193850,1,0,0:0:0:0:
189,40,193925,1,0,0:0:0:0:
205,52,194000,5,2,0:0:0:0:
167,85,194075,1,0,0:0:0:0:
118,96,194150,1,0,0:0:0:0:
68,92,194225,1,0,0:0:0:0:
25,65,194300,1,8,0:0:0:0:
175,283,194450,1,2,0:0:0:0:
163,267,194525,1,0,0:0:0:0:
147,255,194600,5,0,0:0:0:0:
185,222,194675,1,0,0:0:0:0:
234,211,194750,1,2,0:0:0:0:
284,215,194825,1,0,0:0:0:0:
327,242,194900,2,0,L|341:349,1,100,8|0,0:0|0:0,0:0:0:0:
448,359,195125,2,0,L|441:309,1,50,0|2,0:0|0:0,0:0:0:0:
472,150,195275,1,0,0:0:0:0:
459,166,195350,2,0,L|390:176,1,50
294,36,195500,2,0,L|363:46,1,50,8|0,0:0|0:0,0:0:0:0:
234,211,195650,1,0,0:0:0:0:
211,222,195725,1,0,0:0:0:0:
185,222,195800,5,2,0:0:0:0:
189,172,195875,1,0,0:0:0:0:
177,123,195950,1,0,0:0:0:0:
148,82,196025,1,0,0:0:0:0:
101,63,196100,1,8,0:0:0:0:
44,195,196250,1,0,0:0:0:0:
264,144,196400,1,2,0:0:0:0:
92,324,196550,1,0,0:0:0:0:
92,324,196625,1,0,0:0:0:0:
92,324,196700,1,8,0:0:0:0:
185,222,196850,1,2,0:0:0:0:
283,336,197000,5,0,0:0:0:0:
92,324,197150,2,0,L|168:317,1,50,2|0,0:0|0:0,0:0:0:0:
348,292,197300,1,8,0:0:0:0:
348,292,197450,6,0,L|272:285,1,50
41,260,197600,1,2,0:0:0:0:
41,260,197750,2,0,L|117:253,1,50
200,268,197900,1,8,0:0:0:0:
252,84,198050,1,0,0:0:0:0:
461,147,198200,6,0,L|312:140,1,150,6|0,0:0|0:0,0:0:0:0:
252,84,198500,1,10,0:0:0:0:
80,152,198650,1,0,0:0:0:0:
178,47,198800,5,2,0:0:0:0:
171,96,198875,1,0,0:0:0:0:
164,145,198950,1,0,0:0:0:0:
158,194,199025,1,0,0:0:0:0:
129,234,199100,5,10,0:0:0:0:
177,220,199175,1,0,0:0:0:0:
225,206,199250,1,0,0:0:0:0:
273,192,199325,1,0,0:0:0:0:
306,154,199400,5,2,0:0:0:0:
297,203,199475,1,0,0:0:0:0:
288,252,199550,1,0,0:0:0:0:
280,301,199625,1,0,0:0:0:0:
243,334,199700,5,10,0:0:0:0:
292,327,199775,1,0,0:0:0:0:
341,320,199850,1,0,0:0:0:0:
390,313,199925,1,0,0:0:0:0:
432,339,200000,5,2,0:0:0:0:
413,292,200075,1,0,0:0:0:0:
426,243,200150,1,0,0:0:0:0:
453,201,200225,1,0,0:0:0:0:
458,151,200300,1,10,0:0:0:0:
446,102,200375,1,0,0:0:0:0:
412,64,200450,1,0,0:0:0:0:
367,42,200525,1,0,0:0:0:0:
317,40,200600,5,10,0:0:0:0:
296,85,200675,1,0,0:0:0:0:
287,134,200750,1,0,0:0:0:0:
302,181,200825,5,10,0:0:0:0:
260,153,200900,1,0,0:0:0:0:
212,136,200975,1,0,0:0:0:0:
180,97,201050,5,10,0:0:0:0:
167,145,201125,1,0,0:0:0:0:
138,185,201200,1,0,0:0:0:0:
164,227,201275,5,10,0:0:0:0:
114,229,201350,1,0,0:0:0:0:
68,250,201425,1,0,0:0:0:0:
18,244,201500,5,10,0:0:0:0:
63,264,201575,1,0,0:0:0:0:
98,299,201650,1,2,0:0:0:0:
130,337,201725,1,0,0:0:0:0:
153,381,201800,5,10,0:0:0:0:
182,340,201875,1,0,0:0:0:0:
227,318,201950,1,0,0:0:0:0:
276,319,202025,2,0,L|340:330,1,50,0|8,0:0|0:0,0:0:0:0:
489,221,202175,5,0,0:0:0:0:
443,241,202250,1,0,0:0:0:0:
393,235,202325,1,0,0:0:0:0:
348,211,202400,5,2,3:2:0:0:
349,191,202475,1,2,3:2:0:0:
350,171,202550,1,2,3:2:0:0:
351,151,202625,1,2,3:2:0:0:
352,131,202700,1,2,3:2:0:0:
354,111,202775,1,2,3:2:0:0:
356,91,202850,1,2,3:2:0:0:
358,71,202925,1,2,3:2:0:0:
360,51,203000,5,2,3:2:0:0:
