osu file format v14

[General]
AudioFilename: audio.mp3
AudioLeadIn: 0
PreviewTime: 131677
Countdown: 1
SampleSet: Soft
StackLeniency: 0.7
Mode: 0
LetterboxInBreaks: 0
WidescreenStoryboard: 0

[Editor]
Bookmarks: 24342,24514,24685,25371,25714,26057,26914,27085,27257,27428,28114,28800,29485,29828,30000,30171,30857,31200,31542,31885,32057,32228,32400,32571,32742,32914,199905,201277,201448,202305,202648,202991,203505
DistanceSpacing: 0.9
BeatDivisor: 4
GridSize: 8
TimelineZoom: 2.5

[Metadata]
Title:Illegal Gothic
TitleUnicode:Illegal Gothic
Artist:Team Grimoire
ArtistUnicode:Team Grimoire
Creator:-Moonbyul-
Version:Lolita
Source:
Tags:Cami is Cummie hardcore gothic japanese techno
BeatmapID:2126885
BeatmapSetID:1016222

[Difficulty]
HPDrainRate:5
CircleSize:4
OverallDifficulty:9
ApproachRate:9.3
SliderMultiplier:1
SliderTickRate:1

[Events]
//Background and Video events
0,0,"Illegal Gothic.jpg",0,0
//Break Periods
//Storyboard Layer 0 (Background)
//Storyboard Layer 1 (Fail)
//Storyboard Layer 2 (Pass)
//Storyboard Layer 3 (Foreground)
//Storyboard Layer 4 (Overlay)
//Storyboard Sound Samples

[TimingPoints]
10,342.857142857143,4,2,1,100,1,0
1885,-133.333333333333,4,2,1,100,0,0
10971,-100,4,2,1,100,0,0
12685,-133.333333333333,4,2,1,100,0,0
19220,342.857142857143,4,2,1,100,1,0
21942,-100,4,2,1,40,0,0
37724,-83.3333333333333,4,2,1,40,0,0
43895,-50,4,3,1,70,0,0
54181,-36.3636363636364,4,3,1,40,0,0
54867,-50,4,3,1,40,0,0
60010,-36.3636363636364,4,3,1,40,0,0
60352,-50,4,3,1,40,0,0
65152,-36.3636363636364,4,3,1,40,0,0
65838,-50,4,1,1,65,0,0
76467,-36.3636363636364,4,1,1,65,0,0
76810,-50,4,1,1,65,0,0
81610,-36.3636363636364,4,1,1,65,0,0
82295,-50,4,1,1,65,0,0
87781,-50,4,1,1,75,0,1
109724,-66.6666666666667,4,1,1,90,0,0
131667,-100,4,2,1,50,0,0
147438,-66.6666666666667,4,2,1,50,0,0
148134,-55.5555555555556,4,1,1,70,0,0
164591,-40,4,1,1,70,0,1
196734,-50,4,1,1,70,0,1
196991,-66.6666666666667,4,1,1,70,0,1
197505,-1000,4,1,1,70,0,0
198877,-40,4,1,1,70,0,1
203848,-1000,4,1,1,70,0,0
204362,-40,4,1,1,70,0,1
208477,-66.6666666666667,4,1,1,70,0,1
209848,-1000,4,1,1,70,0,0
211220,-40,4,1,1,70,0,1
212591,-1000,4,1,1,70,0,0
213962,-40,4,1,1,70,0,1
231791,-66.6666666666667,4,1,1,70,0,0
241391,-50,4,1,1,70,0,0
242762,-57.1428571428571,4,1,1,70,0,0
253734,-100,4,1,1,70,0,0
275677,-133.333333333333,4,2,1,50,0,0

[HitObjects]
110,69,10,6,0,L|167:52,1,50
222,98,267,1,0,0:0:0:0:
222,98,352,2,0,L|290:112,1,50
353,65,695,1,0,0:0:0:0:
470,208,1038,6,0,L|400:227,1,50
372,272,1295,1,0,0:0:0:0:
372,272,1381,2,0,L|309:261,1,50
250,210,1724,1,0,0:0:0:0:
47,133,2067,5,0,0:0:0:0:
47,133,2410,1,0,0:0:0:0:
179,269,2752,5,0,0:0:0:0:
31,221,3095,1,0,0:0:0:0:
179,269,3438,1,0,0:0:0:0:
31,221,3781,1,0,0:0:0:0:
58,57,4124,5,0,0:0:0:0:
247,117,4467,1,0,0:0:0:0:
58,57,4810,1,0,0:0:0:0:
285,26,5152,6,0,L|303:47,1,18.7500007152558
349,38,5324,2,0,L|361:59,1,18.7500007152558
420,155,5495,5,0,0:0:0:0:
237,256,5838,1,0,0:0:0:0:
420,155,6181,1,0,0:0:0:0:
237,256,6524,1,0,0:0:0:0:
411,337,6867,5,0,0:0:0:0:
237,256,7210,1,0,0:0:0:0:
411,337,7552,1,0,0:0:0:0:
237,256,7895,1,0,0:0:0:0:
87,239,8238,6,0,L|96:213,1,18.7500007152558
60,181,8410,2,0,L|81:163,1,18.7500007152558
189,64,8581,5,0,0:0:0:0:
397,88,8924,1,0,0:0:0:0:
189,64,9267,1,0,0:0:0:0:
397,88,9610,1,0,0:0:0:0:
453,232,9781,6,0,L|446:264,2,18.7500007152558
318,112,10124,1,0,0:0:0:0:
351,185,10295,1,0,0:0:0:0:
285,303,10638,6,0,L|250:296,1,18.7500007152558
231,317,10810,2,0,L|198:326,1,18.7500007152558
114,322,10981,6,0,L|97:270,1,50
42,221,11238,1,0,0:0:0:0:
42,221,11324,2,0,L|71:171,1,50
43,98,11667,1,0,0:0:0:0:
227,254,12010,6,0,L|281:225,1,50
313,179,12267,1,0,0:0:0:0:
313,179,12352,2,0,L|365:214,1,50
439,197,12695,1,0,0:0:0:0:
493,274,13038,5,0,0:0:0:0:
493,274,13381,1,0,0:0:0:0:
491,137,13724,5,0,0:0:0:0:
303,53,14067,1,0,0:0:0:0:
491,137,14410,1,0,0:0:0:0:
303,53,14752,1,0,0:0:0:0:
100,68,15095,5,0,0:0:0:0:
43,187,15438,1,0,0:0:0:0:
100,68,15781,1,0,0:0:0:0:
43,187,16124,2,0,L|53:217,1,18.7500007152558
25,247,16295,2,0,L|51:264,1,18.7500007152558
145,303,16467,5,0,0:0:0:0:
216,272,16638,1,0,0:0:0:0:
217,347,16810,1,0,0:0:0:0:
331,248,17152,5,0,0:0:0:0:
493,183,17495,1,0,0:0:0:0:
466,52,17838,5,0,0:0:0:0:
308,118,18181,1,0,0:0:0:0:
196,61,18352,6,0,L|187:46,3,9.37500035762788
204,92,18524,1,0,0:0:0:0:
200,110,18610,1,0,0:0:0:0:
189,125,18695,1,0,0:0:0:0:
174,136,18781,1,0,0:0:0:0:
157,145,18867,5,0,0:0:0:0:
51,170,19038,1,0,0:0:0:0:
132,244,19210,1,4,0:0:0:0:
214,170,21962,6,0,L|209:137,11,25,4|0|0|0|0|0|0|0|0|0|0|0,0:0|0:0|0:0|0:0|0:0|0:0|0:0|0:0|0:0|0:0|0:0|0:0,0:0:0:0:
289,199,22991,2,0,L|270:243,11,25
375,117,24020,6,0,L|387:140,3,25
402,210,24362,2,0,L|368:235,1,25
348,291,24534,2,0,L|308:273,1,25
204,218,24705,6,0,L|225:183,11,25
126,155,25734,2,0,L|112:126,11,25
70,40,26762,6,0,L|108:46,1,25
162,33,26934,2,0,L|194:28,1,25
254,38,27105,2,0,L|286:46,1,25
343,31,27277,2,0,L|381:26,1,25
451,115,27448,6,0,L|444:156,11,25
381,198,28477,2,0,L|392:243,11,25
349,290,29505,6,0,L|327:319,3,25
234,339,29848,2,0,L|191:331,1,25
156,282,30020,2,0,L|109:294,1,25
56,347,30191,6,0,L|41:321,7,25
69,249,30877,2,0,L|78:207,3,25
33,107,31220,2,0,L|38:144,5,25
123,75,31734,6,0,L|129:60,2,12.5,8|0|0,0:0|0:0|0:0,0:0:0:0:
231,52,31905,2,0,L|241:89,1,25,8|0,0:0|0:0,0:0:0:0:
357,60,32077,2,0,L|347:95,1,25,8|0,0:0|0:0,0:0:0:0:
215,139,32248,2,0,L|208:165,1,25,8|0,0:0|0:0,0:0:0:0:
318,142,32420,2,0,L|325:175,1,25,8|0,0:0|0:0,0:0:0:0:
225,231,32591,2,0,L|259:262,1,25,8|0,0:0|0:0,0:0:0:0:
387,238,32762,2,0,L|364:268,1,25,8|0,0:0|0:0,0:0:0:0:
313,343,32934,5,8,0:0:0:0:
292,334,33020,1,0,0:0:0:0:
269,332,33105,1,0,0:0:0:0:
248,341,33191,1,0,0:0:0:0:
230,355,33277,1,0,0:0:0:0:
207,357,33362,1,0,0:0:0:0:
184,352,33448,2,0,P|163:344|149:330,1,25
57,254,33620,1,0,0:0:0:0:
43,236,33705,1,0,0:0:0:0:
41,213,33791,1,0,0:0:0:0:
48,191,33877,1,0,0:0:0:0:
65,177,33962,1,0,0:0:0:0:
86,170,34048,1,0,0:0:0:0:
107,177,34134,2,0,P|144:185|150:184,1,25
248,172,34305,5,0,0:0:0:0:
275,158,34391,1,0,0:0:0:0:
294,134,34477,1,0,0:0:0:0:
299,104,34562,1,0,0:0:0:0:
302,74,34648,1,0,0:0:0:0:
316,47,34734,1,0,0:0:0:0:
343,35,34820,2,0,P|362:32|380:36,1,25
472,73,34991,5,0,0:0:0:0:
455,97,35077,1,0,0:0:0:0:
447,125,35162,1,0,0:0:0:0:
449,154,35248,1,0,0:0:0:0:
463,180,35334,1,0,0:0:0:0:
454,219,35420,1,0,0:0:0:0:
417,252,35505,1,0,0:0:0:0:
363,240,35591,1,0,0:0:0:0:
320,158,35677,5,0,0:0:0:0:
294,134,35762,1,0,0:0:0:0:
264,131,35848,1,0,0:0:0:0:
232,137,35934,1,0,0:0:0:0:
208,151,36020,1,0,0:0:0:0:
191,172,36105,1,0,0:0:0:0:
184,198,36191,1,0,0:0:0:0:
189,224,36277,1,0,0:0:0:0:
203,246,36362,1,0,0:0:0:0:
220,255,36448,1,0,0:0:0:0:
239,260,36534,1,0,0:0:0:0:
258,257,36620,1,0,0:0:0:0:
363,240,36705,5,0,0:0:0:0:
398,272,36791,1,0,0:0:0:0:
403,316,36877,1,0,0:0:0:0:
376,352,36962,1,0,0:0:0:0:
340,365,37048,1,0,0:0:0:0:
304,355,37134,1,0,0:0:0:0:
280,335,37220,1,0,0:0:0:0:
250,329,37305,1,0,0:0:0:0:
220,334,37391,1,0,0:0:0:0:
193,347,37477,1,0,0:0:0:0:
164,356,37562,1,0,0:0:0:0:
133,354,37648,1,0,0:0:0:0:
44,329,37734,6,0,L|29:290,1,29.9999990844727,8|0,0:0|0:0,0:0:0:0:
100,265,37905,2,0,L|112:224,1,29.9999990844727,8|0,0:0|0:0,0:0:0:0:
35,227,38077,2,0,L|19:188,1,29.9999990844727,8|0,0:0|0:0,0:0:0:0:
99,162,38248,2,0,L|122:137,1,29.9999990844727,8|0,0:0|0:0,0:0:0:0:
184,22,38420,5,8,3:2:0:0:
218,196,38591,1,0,3:0:0:0:
323,42,38762,1,0,3:0:0:0:
248,285,38934,1,0,3:0:0:0:
155,94,39105,1,0,3:0:0:0:
117,336,39277,1,0,3:0:0:0:
234,111,39448,1,0,3:0:0:0:
283,360,39620,1,0,3:0:0:0:
365,71,39791,5,0,3:0:0:0:
166,156,39962,1,0,3:0:0:0:
439,176,40134,1,0,3:0:0:0:
240,222,40305,1,0,3:0:0:0:
446,279,40477,1,0,3:0:0:0:
166,156,40648,1,0,3:0:0:0:
369,185,40820,1,0,3:0:0:0:
70,228,40991,1,0,3:0:0:0:
229,59,41162,5,0,3:0:0:0:
280,33,41248,1,0,3:0:0:0:
336,26,41334,1,0,3:0:0:0:
390,42,41420,1,0,3:0:0:0:
433,78,41505,1,0,3:0:0:0:
459,128,41591,1,0,3:0:0:0:
459,185,41677,1,0,3:0:0:0:
439,231,41762,1,0,3:0:0:0:
409,264,41848,1,0,3:0:0:0:
371,275,41934,1,0,3:0:0:0:
339,266,42020,1,0,3:0:0:0:
316,251,42105,1,0,3:0:0:0:
290,241,42191,1,0,3:0:0:0:
263,244,42277,1,0,3:0:0:0:
239,256,42362,1,0,3:0:0:0:
217,272,42448,1,0,3:0:0:0:
193,284,42534,5,0,3:0:0:0:
171,283,42620,1,0,3:0:0:0:
152,274,42705,1,0,3:0:0:0:
137,269,42791,1,0,3:0:0:0:
122,266,42877,1,0,3:0:0:0:
107,265,42962,1,0,3:0:0:0:
92,268,43048,1,0,3:0:0:0:
78,274,43134,1,0,3:0:0:0:
64,281,43220,5,0,1:0:0:0:
87,149,43391,1,0,1:0:0:0:
62,280,43562,1,0,1:0:0:0:
87,149,43734,1,0,1:0:0:0:
257,37,43905,6,0,B|282:98|282:98|266:186,1,150,8|0,0:0|0:0,0:0:0:0:
285,249,44248,2,0,B|269:166|269:166|294:105,1,150,8|0,0:0|0:0,0:0:0:0:
434,57,44591,2,0,B|410:116|410:116|419:134|419:134|402:207,1,150,8|0,0:0|0:0,0:0:0:0:
419,261,44934,2,0,B|403:196|403:196|412:178|412:178|388:119,1,150,8|0,0:0|0:0,0:0:0:0:
347,302,45277,6,0,B|271:323|271:323|182:298,1,150,8|0,0:0|0:0,0:0:0:0:
132,298,45620,2,0,B|200:278|200:278|276:299,1,150,8|0,0:0|0:0,0:0:0:0:
105,120,45962,2,0,L|31:264,1,150,8|0,0:0|0:0,0:0:0:0:
3,315,46305,2,0,L|77:177,1,150,8|0,0:0|0:0,0:0:0:0:
204,58,46648,6,0,B|257:65|257:65|289:55|289:55|380:70,1,150,8|0,0:0|0:0,0:0:0:0:
422,76,46991,2,0,B|369:83|369:83|337:73|337:73|274:83,1,150,8|0,0:0|0:0,0:0:0:0:
279,177,47334,2,0,B|358:206|358:206|434:163,1,150,8|0,0:0|0:0,0:0:0:0:
512,179,47677,2,0,B|445:156|445:156|376:196,1,150,8|0,0:0|0:0,0:0:0:0:
267,249,48020,6,0,B|189:238|189:238|173:316,1,150,8|0,0:0|0:0,0:0:0:0:
88,337,48362,2,0,B|166:348|166:348|180:278,1,150,8|0,0:0|0:0,0:0:0:0:
32,156,48705,2,0,B|60:160|60:160|84:152|84:152|108:160|108:160|128:152|128:152|152:160|152:160|184:156,1,150,8|0,0:0|0:0,0:0:0:0:
244,64,49048,6,0,B|262:88|262:88|266:116,1,50,8|0,0:0|0:0,0:0:0:0:
372,66,49220,2,0,B|354:88|354:88|350:118,1,50,8|0,0:0|0:0,0:0:0:0:
307,167,49391,6,0,L|287:322,1,150,8|0,0:0|0:0,0:0:0:0:
279,384,49734,2,0,L|298:235,1,150,8|0,0:0|0:0,0:0:0:0:
431,137,50077,2,0,B|397:191|397:191|427:273,1,150,8|0,0:0|0:0,0:0:0:0:
391,367,50420,2,0,B|432:289|432:289|407:224,1,150,8|0,0:0|0:0,0:0:0:0:
325,78,50762,6,0,B|280:91|280:91|237:78|237:78|179:93,1,150,8|0,0:0|0:0,0:0:0:0:
145,78,51105,2,0,B|190:91|190:91|233:78|233:78|291:93,1,150,8|0,0:0|0:0,0:0:0:0:
408,244,51448,2,0,B|396:180|396:180|424:100,1,150,8|0,0:0|0:0,0:0:0:0:
400,8,51791,2,0,B|432:76|432:76|400:168,1,150,8|0,0:0|0:0,0:0:0:0:
296,224,52134,6,0,B|304:200|304:200|304:160,1,50,8|0,0:0|0:0,0:0:0:0:
232,168,52305,2,0,B|224:192|224:192|224:224,1,50,8|0,0:0|0:0,0:0:0:0:
176,320,52477,2,0,B|152:312|152:312|128:320|128:320|104:304|104:304|80:320|80:320|56:312|56:312|32:320,1,150,8|0,0:0|0:0,0:0:0:0:
65,236,52820,2,0,B|38:168|38:168|57:88,1,150,8|0,0:0|0:0,0:0:0:0:
40,24,53162,2,0,B|22:98|22:98|49:166,1,150,8|0,0:0|0:0,0:0:0:0:
171,53,53505,6,0,B|253:67|253:67|332:54,1,150,8|0,0:0|0:0,0:0:0:0:
432,67,53848,2,0,B|356:49|356:49|282:62,1,150,8|0,0:0|0:0,0:0:0:0:
488,166,54191,6,0,B|457:210|394:192|394:192|382:252|299:300|290:213|290:213|260:238|260:238|248:188|211:144|211:144|196:193|127:187|94:228,1,550.000005245209
42,39,55048,6,0,L|107:42,1,50,8|0,0:0|0:0,0:0:0:0:
232,64,55220,2,0,B|256:72|256:72|280:64|280:64|304:80|304:80|328:64|328:64|352:72|352:72|376:64|376:64,1,150,8|0,0:0|0:0,0:0:0:0:
454,150,55562,2,0,B|441:198|441:198|455:310,1,150,8|0,0:0|0:0,0:0:0:0:
432,362,55905,2,0,B|422:260|422:260|384:184,1,150,8|0,0:0|0:0,0:0:0:0:
294,152,56248,6,0,B|277:206|277:206|291:243|291:243|264:312,1,150,8|0,0:0|0:0,0:0:0:0:
254,350,56591,2,0,B|273:299|273:299|259:262|259:262|276:208,1,150,8|0,0:0|0:0,0:0:0:0:
136,247,56934,2,0,B|63:229|63:229|106:161,1,150,8|0,0:0|0:0,0:0:0:0:
35,72,57277,1,8,0:0:0:0:
35,72,57362,1,0,0:0:0:0:
35,72,57448,2,0,B|58:85|58:85|100:85,1,50
210,69,57620,6,0,B|272:48|272:48|368:48,1,150,8|0,0:0|0:0,0:0:0:0:
421,68,57962,2,0,B|353:89|353:89|265:89,1,150,8|0,0:0|0:0,0:0:0:0:
356,182,58305,2,0,B|371:239|371:239|405:261|405:261|428:339,1,150,8|0,0:0|0:0,0:0:0:0:
467,360,58648,2,0,B|452:311|452:311|418:289|418:289|403:232,1,150,8|0,0:0|0:0,0:0:0:0:
143,211,58991,6,0,B|236:223|236:223|188:293,1,150,8|0,0:0|0:0,0:0:0:0:
279,309,59334,2,0,B|186:297|186:297|234:227,1,150,8|0,0:0|0:0,0:0:0:0:
277,142,59677,2,0,B|251:138|251:138|233:120|233:120|205:124|205:124|190:99|190:99|165:96|165:96|147:78|147:78,1,150,8|0,0:0|0:0,0:0:0:0:
253,32,60020,2,0,B|306:84|371:64|371:64|382:72|382:72|379:83|379:83|388:86|388:86|386:94|386:94|394:96|394:96|391:106|391:106|401:131,1,206.250001966953,8|0,0:0|0:0,0:0:0:0:
426,222,60362,6,0,P|371:199|300:226,1,100,8|0,0:0|0:0,0:0:0:0:
298,367,60705,2,0,P|342:337|360:289,1,100,8|0,0:0|0:0,0:0:0:0:
241,177,61048,2,0,P|243:241|279:280,1,100,8|0,0:0|0:0,0:0:0:0:
357,298,61391,1,8,0:0:0:0:
332,204,61562,1,0,0:0:0:0:
266,264,61734,6,0,L|160:295,1,100,8|0,0:0|0:0,0:0:0:0:
61,200,62077,2,0,L|158:222,1,100,8|0,0:0|0:0,0:0:0:0:
253,122,62420,2,0,L|138:143,1,100,8|0,0:0|0:0,0:0:0:0:
72,56,62762,2,0,L|184:65,1,100,8|0,0:0|0:0,0:0:0:0:
325,40,63105,5,8,0:0:0:0:
387,249,63277,1,8,0:0:0:0:
445,17,63448,1,8,0:0:0:0:
443,320,63620,1,8,0:0:0:0:
379,90,63791,1,8,0:0:0:0:
268,368,63962,1,8,0:0:0:0:
478,83,64134,1,8,0:0:0:0:
443,320,64305,1,8,0:0:0:0:
267,84,64477,5,8,0:0:0:0:
204,43,64562,1,8,0:0:0:0:
128,48,64648,1,8,0:0:0:0:
72,98,64734,1,8,0:0:0:0:
55,171,64820,1,8,0:0:0:0:
79,241,64905,1,8,0:0:0:0:
142,281,64991,1,8,0:0:0:0:
217,277,65077,1,8,0:0:0:0:
282,238,65162,2,0,B|321:225|316:159|316:159|351:122|408:154|408:154|415:75|444:43|491:46|522:82|499:134|475:170|475:170|491:237,1,481.250004589558,8|0,0:0|0:0,0:0:0:0:
481,300,65848,5,8,0:0:0:0:
392,246,66020,1,0,0:0:0:0:
392,246,66105,1,0,0:0:0:0:
392,246,66191,2,0,P|347:293|298:318,1,100,8|0,0:0|0:0,0:0:0:0:
209,277,66534,1,8,0:0:0:0:
165,263,66620,1,0,0:0:0:0:
121,274,66705,1,0,0:0:0:0:
90,307,66791,1,0,0:0:0:0:
75,349,66877,2,0,P|32:313|25:248,1,100,8|0,0:0|0:0,0:0:0:0:
27,153,67220,5,8,0:0:0:0:
43,111,67305,1,0,0:0:0:0:
32,67,67391,1,0,0:0:0:0:
156,37,67562,2,0,P|205:50|261:41,1,100,8|0,0:0|0:0,0:0:0:0:
373,16,67905,1,8,0:0:0:0:
413,35,67991,1,0,0:0:0:0:
414,80,68077,1,0,0:0:0:0:
377,106,68162,1,0,0:0:0:0:
344,137,68248,2,0,P|323:200|336:246,1,100,8|0,0:0|0:0,0:0:0:0:
271,345,68591,5,8,0:0:0:0:
214,221,68762,1,0,0:0:0:0:
156,325,68934,1,8,0:0:0:0:
174,125,69105,1,0,0:0:0:0:
291,265,69277,1,8,0:0:0:0:
315,74,69448,1,0,0:0:0:0:
214,221,69620,5,8,0:0:0:0:
103,166,69791,1,0,0:0:0:0:
250,132,69962,1,8,0:0:0:0:
35,101,70134,1,0,0:0:0:0:
176,32,70305,1,8,0:0:0:0:
100,249,70477,1,0,0:0:0:0:
250,132,70648,5,8,0:0:0:0:
290,253,70820,1,0,0:0:0:0:
324,171,70991,1,8,0:0:0:0:
234,318,71162,1,0,0:0:0:0:
401,338,71334,5,8,0:0:0:0:
452,249,71505,1,0,0:0:0:0:
464,205,71591,1,0,0:0:0:0:
445,163,71677,2,0,P|436:129|452:66,1,100,8|0,0:0|0:0,0:0:0:0:
345,32,72020,1,8,0:0:0:0:
300,24,72105,1,0,0:0:0:0:
256,34,72191,1,0,0:0:0:0:
217,58,72277,1,0,0:0:0:0:
191,94,72362,2,0,P|134:112|74:98,1,100,8|0,0:0|0:0,0:0:0:0:
23,139,72705,5,8,0:0:0:0:
44,177,72790,1,0,0:0:0:0:
37,221,72876,1,0,0:0:0:0:
134,311,73048,2,0,P|190:295|248:305,1,100,8|0,0:0|0:0,0:0:0:0:
346,337,73390,1,8,0:0:0:0:
388,351,73476,1,0,0:0:0:0:
430,336,73562,1,0,0:0:0:0:
451,296,73648,1,0,0:0:0:0:
428,257,73734,2,0,P|402:201|408:151,1,100,8|0,0:0|0:0,0:0:0:0:
343,45,74077,5,8,0:0:0:0:
291,171,74248,1,0,0:0:0:0:
264,71,74420,1,8,0:0:0:0:
225,259,74591,1,0,0:0:0:0:
187,29,74762,1,8,0:0:0:0:
291,171,74934,1,0,0:0:0:0:
62,61,75105,5,8,0:0:0:0:
202,105,75276,1,0,0:0:0:0:
61,165,75448,1,8,0:0:0:0:
39,221,75534,1,0,0:0:0:0:
53,279,75620,1,0,0:0:0:0:
100,315,75705,1,0,0:0:0:0:
160,313,75791,1,8,0:0:0:0:
162,199,75962,1,0,0:0:0:0:
160,313,76134,2,0,P|219:298|269:314,1,100,8|0,0:0|0:0,0:0:0:0:
405,364,76477,6,0,B|445:355|408:288|408:288|430:250|398:226|398:226|372:216|395:171,1,206.250001966953,8|0,0:0|0:0,0:0:0:0:
449,70,76820,5,8,0:0:0:0:
344,55,76991,1,0,0:0:0:0:
302,73,77077,1,0,0:0:0:0:
280,112,77162,2,0,P|237:136|169:125,1,100,8|0,0:0|0:0,0:0:0:0:
106,70,77505,1,8,0:0:0:0:
63,53,77591,1,0,0:0:0:0:
21,70,77677,1,0,0:0:0:0:
3,111,77762,1,0,0:0:0:0:
19,153,77848,2,0,P|36:204|29:256,1,100,8|0,0:0|0:0,0:0:0:0:
109,331,78191,5,8,0:0:0:0:
152,317,78277,1,0,0:0:0:0:
194,330,78362,1,0,0:0:0:0:
288,264,78534,2,0,P|334:281|393:268,1,100,8|0,0:0|0:0,0:0:0:0:
452,184,78877,1,8,0:0:0:0:
461,140,78962,1,0,0:0:0:0:
450,96,79048,1,0,0:0:0:0:
419,62,79134,1,0,0:0:0:0:
378,41,79220,2,0,P|323:67|278:67,1,100,8|0,0:0|0:0,0:0:0:0:
93,32,79562,5,8,0:0:0:0:
130,127,79734,1,0,0:0:0:0:
181,2,79905,1,8,0:0:0:0:
80,192,80077,1,0,0:0:0:0:
36,81,80248,1,8,0:0:0:0:
189,175,80420,1,0,0:0:0:0:
19,287,80591,5,8,0:0:0:0:
80,192,80762,1,0,0:0:0:0:
98,349,80934,1,8,0:0:0:0:
1,139,81105,1,0,0:0:0:0:
231,242,81277,1,8,0:0:0:0:
19,287,81448,1,0,0:0:0:0:
197,328,81620,6,0,B|252:348|312:309|312:309|347:344|316:253|316:253|342:228|264:207|372:218|372:218|437:202|433:140|433:140|477:204,1,481.250004589558,8|0,0:0|0:0,0:0:0:0:
401,285,82305,5,0,0:0:0:0:
361,145,82477,1,0,0:0:0:0:
331,111,82562,1,0,0:0:0:0:
331,65,82648,2,0,P|280:38|235:32,1,100
98,37,82991,1,0,0:0:0:0:
131,81,83077,1,0,0:0:0:0:
143,133,83162,1,0,0:0:0:0:
112,179,83248,1,0,0:0:0:0:
69,214,83334,2,0,P|30:261|43:340,1,100
138,355,83677,5,0,0:0:0:0:
187,331,83762,1,0,0:0:0:0:
239,349,83848,1,0,0:0:0:0:
248,218,84020,2,0,P|290:246|329:302,1,100
463,320,84362,1,0,0:0:0:0:
437,271,84448,1,0,0:0:0:0:
454,218,84534,1,0,0:0:0:0:
433,166,84620,1,0,0:0:0:0:
447,113,84705,2,0,P|433:72|382:35,1,100
230,57,85048,5,0,0:0:0:0:
262,231,85220,1,0,0:0:0:0:
296,14,85391,1,0,0:0:0:0:
206,286,85562,1,0,0:0:0:0:
121,37,85734,1,0,0:0:0:0:
350,160,85905,1,0,0:0:0:0:
36,125,86077,1,0,0:0:0:0:
300,92,86248,1,0,0:0:0:0:
127,183,86420,5,0,0:0:0:0:
87,240,86506,1,0,0:0:0:0:
95,309,86592,1,0,0:0:0:0:
150,351,86677,1,0,0:0:0:0:
219,358,86763,1,0,0:0:0:0:
277,319,86849,1,0,0:0:0:0:
340,288,86935,1,0,0:0:0:0:
408,300,87020,1,0,0:0:0:0:
463,341,87105,1,0,0:0:0:0:
256,192,87127,12,0,87705,0:0:0:0:
306,95,87791,5,0,0:0:0:0:
436,112,87962,1,0,0:0:0:0:
452,148,88048,1,0,0:0:0:0:
443,187,88134,2,0,P|413:242|411:297,1,100
296,237,88477,1,0,0:0:0:0:
256,233,88562,1,0,0:0:0:0:
219,250,88648,1,0,0:0:0:0:
144,343,88820,1,0,0:0:0:0:
219,250,88991,1,0,0:0:0:0:
36,209,89162,5,0,0:0:0:0:
55,180,89248,1,0,0:0:0:0:
61,145,89334,1,0,0:0:0:0:
51,111,89420,1,0,0:0:0:0:
124,57,89505,5,0,0:0:0:0:
118,91,89591,1,0,0:0:0:0:
132,122,89676,1,0,0:0:0:0:
164,135,89762,1,0,0:0:0:0:
210,60,89848,5,0,0:0:0:0:
243,48,89934,1,0,0:0:0:0:
278,49,90020,1,0,0:0:0:0:
307,67,90105,1,0,0:0:0:0:
344,139,90191,5,0,0:0:0:0:
340,163,90277,1,0,0:0:0:0:
349,186,90362,1,0,0:0:0:0:
324,276,90534,5,0,0:0:0:0:
216,227,90705,1,0,0:0:0:0:
176,219,90791,1,0,0:0:0:0:
139,235,90877,2,0,P|76:259|39:255,1,100
96,120,91220,1,0,0:0:0:0:
131,138,91305,1,0,0:0:0:0:
171,136,91391,1,0,0:0:0:0:
145,15,91562,1,0,0:0:0:0:
171,136,91734,1,0,0:0:0:0:
289,83,91905,5,0,0:0:0:0:
303,120,91991,1,0,0:0:0:0:
294,159,92077,1,0,0:0:0:0:
264,185,92162,1,0,0:0:0:0:
168,208,92248,5,0,0:0:0:0:
155,246,92334,1,0,0:0:0:0:
177,279,92420,1,0,0:0:0:0:
215,289,92505,1,0,0:0:0:0:
344,281,92591,5,0,0:0:0:0:
339,264,92648,1,0,0:0:0:0:
338,247,92705,1,0,0:0:0:0:
342,230,92762,1,0,0:0:0:0:
351,216,92820,2,0,P|362:197|366:177,1,33.3333333333333
384,104,92934,5,0,0:0:0:0:
352,56,93020,1,0,0:0:0:0:
400,24,93105,1,0,0:0:0:0:
432,72,93191,1,0,0:0:0:0:
392,64,93277,5,0,0:0:0:0:
254,35,93448,1,0,0:0:0:0:
217,51,93534,1,0,0:0:0:0:
190,81,93620,2,0,P|129:139|95:140,1,100
17,106,93962,1,0,0:0:0:0:
0,144,94048,1,0,0:0:0:0:
16,180,94134,1,0,0:0:0:0:
117,66,94305,1,0,0:0:0:0:
16,180,94477,1,0,0:0:0:0:
76,253,94648,5,0,0:0:0:0:
112,236,94734,1,0,0:0:0:0:
152,238,94820,1,0,0:0:0:0:
183,261,94905,1,0,0:0:0:0:
242,332,94991,5,0,0:0:0:0:
277,350,95077,1,0,0:0:0:0:
316,350,95162,1,0,0:0:0:0:
343,320,95248,1,0,0:0:0:0:
318,228,95334,5,0,0:0:0:0:
305,195,95420,1,0,0:0:0:0:
316,162,95505,1,0,0:0:0:0:
343,140,95591,1,0,0:0:0:0:
404,87,95677,5,0,0:0:0:0:
405,57,95762,1,0,0:0:0:0:
383,35,95848,1,0,0:0:0:0:
280,62,96020,5,0,0:0:0:0:
180,39,96191,1,0,0:0:0:0:
140,33,96277,1,0,0:0:0:0:
103,47,96362,2,0,P|54:87|32:125,1,100
140,209,96705,1,0,0:0:0:0:
164,240,96791,1,0,0:0:0:0:
165,280,96877,1,0,0:0:0:0:
27,244,97048,1,0,0:0:0:0:
165,280,97220,1,0,0:0:0:0:
271,263,97391,5,0,0:0:0:0:
309,250,97477,1,0,0:0:0:0:
346,261,97562,1,0,0:0:0:0:
376,286,97648,1,0,0:0:0:0:
412,354,97734,5,0,0:0:0:0:
449,368,97820,1,0,0:0:0:0:
480,343,97906,1,0,0:0:0:0:
483,303,97991,1,0,0:0:0:0:
494,177,98077,5,0,0:0:0:0:
471,183,98134,1,0,0:0:0:0:
447,180,98191,1,0,0:0:0:0:
427,167,98248,1,0,0:0:0:0:
410,150,98305,2,0,P|391:134|376:128,1,33.3333333333333
293,91,98420,5,0,0:0:0:0:
239,63,98505,1,0,0:0:0:0:
189,96,98591,1,0,0:0:0:0:
137,64,98677,1,0,0:0:0:0:
38,84,98762,5,0,0:0:0:0:
131,183,98934,1,0,0:0:0:0:
81,216,99020,1,0,0:0:0:0:
19,212,99105,2,0,P|35:260|87:278,1,100
211,249,99448,1,0,0:0:0:0:
270,239,99534,1,0,0:0:0:0:
325,261,99620,1,0,0:0:0:0:
408,366,99791,1,0,0:0:0:0:
450,323,99877,1,0,0:0:0:0:
456,263,99962,1,0,0:0:0:0:
447,107,100134,5,0,0:0:0:0:
426,135,100220,1,0,0:0:0:0:
302,62,100391,5,0,0:0:0:0:
315,94,100477,1,0,0:0:0:0:
199,98,100648,5,0,0:0:0:0:
221,71,100734,1,0,0:0:0:0:
189,55,100820,5,0,0:0:0:0:
208,26,100905,1,0,0:0:0:0:
178,6,100991,5,0,0:0:0:0:
161,36,101077,1,0,0:0:0:0:
138,9,101162,5,0,0:0:0:0:
129,42,101248,1,0,0:0:0:0:
101,19,101334,5,0,0:0:0:0:
104,53,101420,1,0,0:0:0:0:
83,81,101505,5,0,0:0:0:0:
170,288,101677,1,0,0:0:0:0:
222,315,101762,1,0,0:0:0:0:
276,289,101848,1,0,0:0:0:0:
386,255,102020,1,0,0:0:0:0:
441,277,102106,1,0,0:0:0:0:
494,250,102192,1,0,0:0:0:0:
508,192,102277,1,0,0:0:0:0:
471,144,102363,1,0,0:0:0:0:
370,72,102534,1,0,0:0:0:0:
188,23,102705,1,0,0:0:0:0:
40,100,102877,5,0,0:0:0:0:
75,126,102962,1,0,0:0:0:0:
196,194,103134,5,0,0:0:0:0:
156,216,103220,1,0,0:0:0:0:
31,286,103391,5,0,0:0:0:0:
64,319,103477,1,0,0:0:0:0:
112,312,103562,6,0,L|101:286,1,25
159,327,103648,2,0,L|133:360,1,25
208,312,103734,6,0,L|220:279,1,25
256,328,103820,2,0,L|273:361,1,25
304,312,103905,6,0,L|291:285,1,25
352,328,103991,2,0,L|333:368,1,25
400,312,104077,6,0,L|410:282,1,25
448,328,104162,2,0,L|463:370,1,25
472,279,104248,5,0,0:0:0:0:
428,156,104420,2,0,B|416:85,2,50
360,31,104762,2,0,B|306:84,2,50
218,83,105105,1,0,0:0:0:0:
181,100,105191,1,0,0:0:0:0:
140,98,105277,1,0,0:0:0:0:
111,70,105362,1,0,0:0:0:0:
69,51,105448,1,0,0:0:0:0:
24,74,105534,1,0,0:0:0:0:
3,125,105620,5,0,0:0:0:0:
20,160,105705,1,0,0:0:0:0:
146,185,105877,5,0,0:0:0:0:
134,222,105962,1,0,0:0:0:0:
39,294,106134,5,0,0:0:0:0:
51,337,106220,1,0,0:0:0:0:
79,302,106305,5,0,0:0:0:0:
92,344,106391,1,0,0:0:0:0:
119,308,106477,5,0,0:0:0:0:
135,349,106562,1,0,0:0:0:0:
165,315,106648,5,0,0:0:0:0:
176,358,106734,1,0,0:0:0:0:
201,320,106820,5,0,0:0:0:0:
212,363,106905,1,0,0:0:0:0:
240,328,106991,5,0,0:0:0:0:
365,172,107162,1,0,0:0:0:0:
431,344,107334,1,0,0:0:0:0:
497,73,107505,1,0,0:0:0:0:
385,282,107677,1,0,0:0:0:0:
378,23,107848,1,0,0:0:0:0:
431,344,108020,1,0,0:0:0:0:
338,110,108191,1,0,0:0:0:0:
269,290,108362,5,0,0:0:0:0:
218,257,108448,1,0,0:0:0:0:
158,263,108534,1,0,0:0:0:0:
111,300,108620,1,0,0:0:0:0:
51,295,108705,1,0,0:0:0:0:
16,245,108791,1,0,0:0:0:0:
22,185,108877,1,0,0:0:0:0:
63,141,108962,1,0,0:0:0:0:
116,127,109048,5,0,0:0:0:0:
192,176,109162,1,0,0:0:0:0:
280,208,109276,1,0,0:0:0:0:
368,160,109391,1,0,0:0:0:0:
368,64,109505,1,0,0:0:0:0:
280,16,109619,1,0,0:0:0:0:
192,64,109734,5,0,0:0:0:0:
192,64,109905,2,0,B|163:78|163:78|87:73,1,75.0000028610231
23,44,110248,1,0,0:0:0:0:
35,227,110591,1,0,0:0:0:0:
35,227,110762,2,0,B|58:203|58:203|181:204,1,150.000005722046
297,207,111277,5,0,0:0:0:0:
386,142,111448,2,0,L|369:220,1,75.0000028610231
441,221,111791,2,0,L|456:308,1,75.0000028610231
481,52,112134,2,0,L|453:139,1,75.0000028610231
345,41,112477,5,0,0:0:0:0:
345,41,112648,2,0,B|330:59|330:59|257:59,1,75.0000028610231
170,58,112991,1,0,0:0:0:0:
171,187,113334,1,0,0:0:0:0:
171,187,113505,2,0,B|195:187|195:187|224:167|224:167|265:167,1,75.0000028610231
296,241,113848,5,0,0:0:0:0:
296,241,114020,1,0,0:0:0:0:
160,325,114191,2,0,L|253:336,1,75.0000028610231
149,244,114534,2,0,L|60:262,1,75.0000028610231
0,311,114877,2,0,L|88:342,1,75.0000028610231
47,204,115220,5,0,0:0:0:0:
47,204,115391,2,0,B|48:150|48:150|81:127,1,75.0000028610231
168,80,115734,1,0,0:0:0:0:
355,79,116077,1,0,0:0:0:0:
355,79,116248,2,0,B|355:102|355:102|370:124|370:124|370:150,1,75.0000028610231
373,246,116591,6,0,B|373:286|373:286|340:327,1,75.0000028610231
236,333,116934,1,0,0:0:0:0:
193,252,117105,1,0,0:0:0:0:
103,252,117277,1,0,0:0:0:0:
56,173,117448,1,0,0:0:0:0:
100,98,117620,1,0,0:0:0:0:
189,98,117791,1,0,0:0:0:0:
396,98,118134,5,0,0:0:0:0:
394,209,118305,2,0,B|366:228|366:228|366:283,1,75.0000028610231
276,246,118648,2,0,L|268:328,1,75.0000028610231
189,262,118991,2,0,L|178:174,1,75.0000028610231
49,235,119334,6,0,P|32:219|51:207,2,50.0000019073487
122,171,119677,2,0,P|138:155|119:143,2,50.0000019073487
44,122,120020,2,0,P|27:106|46:94,2,50.0000019073487
128,58,120362,6,0,L|117:41,6,18.7500007152558
331,47,120705,6,0,B|317:65|317:65|317:129,1,75.0000028610231
318,224,121048,1,0,0:0:0:0:
318,224,121391,1,0,0:0:0:0:
180,222,121562,1,0,0:0:0:0:
102,314,121734,2,0,B|85:292|85:292|85:236,1,75.0000028610231
47,98,122077,6,0,L|70:182,1,75.0000028610231
127,47,122420,2,0,L|127:124,1,75.0000028610231
210,28,122762,2,0,L|199:108,1,75.0000028610231
285,64,123105,2,0,L|304:153,1,75.0000028610231
440,228,123448,6,0,B|385:228|385:228|357:242,1,75.0000028610231
277,293,123791,1,0,0:0:0:0:
277,293,124134,1,0,0:0:0:0:
141,293,124305,1,0,0:0:0:0:
142,201,124477,2,0,B|99:201|99:201|72:229,1,75.0000028610231
36,82,124820,6,0,P|74:114|106:123,1,75.0000028610231
216,136,125162,2,0,L|216:48,1,75.0000028610231
296,56,125505,2,0,L|296:144,1,75.0000028610231
389,148,125848,5,0,0:0:0:0:
401,287,126020,1,0,0:0:0:0:
456,88,126191,1,0,0:0:0:0:
334,205,126362,1,0,0:0:0:0:
296,56,126534,1,0,0:0:0:0:
88,72,126877,6,0,B|106:87|106:87|106:148,1,75.0000028610231
179,141,127220,2,0,B|179:192|179:192|197:207,1,75.0000028610231
303,270,127562,5,0,0:0:0:0:
303,270,127734,1,0,0:0:0:0:
411,206,127905,2,0,L|434:292,1,75.0000028610231
487,167,128248,2,0,L|510:84,1,75.0000028610231
388,73,128591,2,0,L|370:46,6,18.7500007152558
236,73,128934,5,0,0:0:0:0:
199,181,129105,1,0,0:0:0:0:
161,27,129277,1,0,0:0:0:0:
244,248,129448,1,0,0:0:0:0:
137,112,129620,1,0,0:0:0:0:
302,62,129791,1,0,0:0:0:0:
268,181,129962,1,0,0:0:0:0:
161,27,130134,1,0,0:0:0:0:
54,169,130305,5,0,0:0:0:0:
35,210,130391,1,0,0:0:0:0:
28,254,130477,1,0,0:0:0:0:
42,296,130562,1,0,0:0:0:0:
76,325,130648,1,0,0:0:0:0:
119,338,130734,1,0,0:0:0:0:
163,332,130820,1,0,0:0:0:0:
201,309,130905,1,0,0:0:0:0:
243,293,130991,1,0,0:0:0:0:
288,296,131077,1,0,0:0:0:0:
328,314,131162,1,0,0:0:0:0:
362,343,131248,1,0,0:0:0:0:
391,376,131334,2,0,L|406:400,6,18.7500007152558
426,290,131677,6,0,L|417:248,3,25
463,205,132020,2,0,L|470:160,3,25
401,131,132362,1,0,0:0:0:0:
397,106,132448,1,0,0:0:0:0:
404,81,132534,1,0,0:0:0:0:
418,60,132620,1,0,0:0:0:0:
438,46,132705,1,0,0:0:0:0:
319,18,132877,1,0,0:0:0:0:
294,15,132962,1,0,0:0:0:0:
272,27,133048,5,0,0:0:0:0:
198,123,133391,1,0,0:0:0:0:
150,43,133734,1,0,0:0:0:0:
115,13,133820,1,0,0:0:0:0:
70,19,133905,1,0,0:0:0:0:
47,58,133991,1,0,0:0:0:0:
59,96,134077,1,0,0:0:0:0:
77,130,134162,1,0,0:0:0:0:
79,165,134248,1,0,0:0:0:0:
72,194,134334,1,0,0:0:0:0:
58,224,134420,5,0,0:0:0:0:
38,246,134505,1,0,0:0:0:0:
27,274,134591,1,0,0:0:0:0:
29,304,134677,1,0,0:0:0:0:
50,324,134762,1,0,0:0:0:0:
170,300,134934,1,0,0:0:0:0:
198,290,135020,1,0,0:0:0:0:
227,296,135105,1,0,0:0:0:0:
332,351,135448,1,0,0:0:0:0:
474,252,135791,5,0,0:0:0:0:
428,239,135877,1,0,0:0:0:0:
390,227,135962,1,0,0:0:0:0:
352,216,136048,1,0,0:0:0:0:
323,206,136134,1,0,0:0:0:0:
351,196,136220,1,0,0:0:0:0:
379,186,136305,1,0,0:0:0:0:
407,176,136391,1,0,0:0:0:0:
435,166,136477,1,0,0:0:0:0:
406,156,136562,1,0,0:0:0:0:
376,148,136648,1,0,0:0:0:0:
347,139,136734,1,0,0:0:0:0:
317,131,136820,1,0,0:0:0:0:
246,47,136991,5,0,0:0:0:0:
231,42,137048,1,0,0:0:0:0:
216,40,137105,1,0,0:0:0:0:
201,42,137162,1,0,0:0:0:0:
130,86,137334,5,0,0:0:0:0:
154,182,137505,1,0,0:0:0:0:
97,7,137677,1,0,0:0:0:0:
32,80,137848,1,0,0:0:0:0:
47,111,137934,1,0,0:0:0:0:
59,143,138020,1,0,0:0:0:0:
74,174,138105,1,0,0:0:0:0:
97,200,138191,1,0,0:0:0:0:
111,231,138277,1,0,0:0:0:0:
102,264,138362,1,0,0:0:0:0:
70,279,138448,1,0,0:0:0:0:
36,268,138534,5,0,0:0:0:0:
25,234,138620,1,0,0:0:0:0:
45,206,138705,1,0,0:0:0:0:
79,199,138791,1,0,0:0:0:0:
111,212,138877,1,0,0:0:0:0:
139,231,138962,1,0,0:0:0:0:
173,234,139048,1,0,0:0:0:0:
281,205,139220,1,0,0:0:0:0:
281,205,139391,1,0,0:0:0:0:
297,94,139562,5,0,0:0:0:0:
317,81,139620,1,0,0:0:0:0:
339,76,139677,1,0,0:0:0:0:
361,82,139734,1,0,0:0:0:0:
445,160,139905,5,0,0:0:0:0:
466,193,139991,1,0,0:0:0:0:
472,232,140077,1,0,0:0:0:0:
453,266,140162,1,0,0:0:0:0:
415,281,140248,1,0,0:0:0:0:
379,262,140334,1,0,0:0:0:0:
374,222,140420,1,0,0:0:0:0:
390,185,140505,1,0,0:0:0:0:
378,146,140591,1,0,0:0:0:0:
343,125,140677,1,0,0:0:0:0:
304,132,140762,1,0,0:0:0:0:
278,163,140848,1,0,0:0:0:0:
271,202,140934,1,0,0:0:0:0:
248,304,141105,1,0,0:0:0:0:
212,323,141191,1,0,0:0:0:0:
172,316,141277,5,0,0:0:0:0:
92,238,141620,1,0,0:0:0:0:
36,38,141962,5,0,0:0:0:0:
82,46,142048,1,0,0:0:0:0:
118,77,142134,1,0,0:0:0:0:
157,93,142220,1,0,0:0:0:0:
198,80,142305,1,0,0:0:0:0:
235,65,142391,1,0,0:0:0:0:
272,50,142477,1,0,0:0:0:0:
308,64,142562,1,0,0:0:0:0:
343,81,142648,1,0,0:0:0:0:
378,99,142734,1,0,0:0:0:0:
413,81,142820,1,0,0:0:0:0:
449,64,142905,1,0,0:0:0:0:
485,46,142991,1,0,0:0:0:0:
465,172,143162,1,0,0:0:0:0:
449,209,143248,1,0,0:0:0:0:
469,243,143334,5,0,0:0:0:0:
469,243,143420,1,0,0:0:0:0:
469,243,143505,1,0,0:0:0:0:
378,306,143677,1,0,0:0:0:0:
309,274,143848,1,0,0:0:0:0:
209,316,144020,5,0,0:0:0:0:
179,339,144105,1,0,0:0:0:0:
143,350,144191,1,0,0:0:0:0:
105,344,144277,1,0,0:0:0:0:
73,323,144362,1,0,0:0:0:0:
58,288,144448,1,0,0:0:0:0:
59,250,144534,1,0,0:0:0:0:
74,215,144620,1,0,0:0:0:0:
102,191,144705,1,0,0:0:0:0:
137,179,144791,1,0,0:0:0:0:
173,188,144877,1,0,0:0:0:0:
200,212,144962,1,0,0:0:0:0:
212,247,145048,1,0,0:0:0:0:
322,147,145220,5,0,0:0:0:0:
317,161,145277,1,0,0:0:0:0:
317,175,145334,1,0,0:0:0:0:
322,188,145391,1,0,0:0:0:0:
357,275,145562,5,0,0:0:0:0:
405,141,145734,1,0,0:0:0:0:
410,119,145820,1,0,0:0:0:0:
404,97,145905,1,0,0:0:0:0:
317,38,146077,1,0,0:0:0:0:
276,62,146162,1,0,0:0:0:0:
229,72,146248,1,0,0:0:0:0:
183,57,146334,1,0,0:0:0:0:
145,27,146420,1,0,0:0:0:0:
98,19,146505,1,0,0:0:0:0:
53,36,146591,1,0,0:0:0:0:
30,78,146677,1,0,0:0:0:0:
41,123,146762,1,0,0:0:0:0:
82,146,146848,1,0,0:0:0:0:
129,151,146934,1,0,0:0:0:0:
174,137,147020,1,0,0:0:0:0:
215,115,147105,5,0,0:0:0:0:
224,128,147162,1,0,0:0:0:0:
232,142,147220,1,0,0:0:0:0:
241,155,147277,1,0,0:0:0:0:
251,168,147334,1,0,0:0:0:0:
260,181,147391,1,0,0:0:0:0:
272,202,147448,6,0,B|248:227|248:227|208:227,2,50.0000019073487
326,138,147791,2,0,B|340:120|340:120|370:120,2,50.0000019073487
383,224,148134,6,0,P|369:254|348:270,3,44.999998626709
263,277,148477,2,0,P|220:273|184:284,3,44.999998626709
140,309,148820,1,0,0:0:0:0:
104,336,148905,1,0,0:0:0:0:
59,342,148991,1,0,0:0:0:0:
18,322,149077,1,0,0:0:0:0:
9,278,149162,1,0,0:0:0:0:
46,154,149334,1,0,0:0:0:0:
38,109,149420,1,0,0:0:0:0:
84,129,149505,5,0,0:0:0:0:
223,172,149848,1,0,0:0:0:0:
254,47,150191,2,0,P|276:37|309:42,1,44.999998626709
423,63,150362,1,0,0:0:0:0:
421,108,150448,1,0,0:0:0:0:
392,143,150534,1,0,0:0:0:0:
352,165,150620,1,0,0:0:0:0:
322,198,150705,1,0,0:0:0:0:
313,242,150791,1,0,0:0:0:0:
322,286,150877,5,0,0:0:0:0:
357,313,150962,1,0,0:0:0:0:
402,316,151048,1,0,0:0:0:0:
437,288,151134,1,0,0:0:0:0:
447,244,151220,1,0,0:0:0:0:
392,143,151391,1,0,0:0:0:0:
349,127,151477,1,0,0:0:0:0:
319,93,151562,1,0,0:0:0:0:
189,122,151905,1,0,0:0:0:0:
32,236,152248,6,0,P|18:208|18:182,1,44.999998626709
74,24,152420,2,0,P|96:67|94:93,1,44.999998626709
92,166,152591,1,0,0:0:0:0:
101,210,152677,1,0,0:0:0:0:
120,249,152762,1,0,0:0:0:0:
157,273,152848,1,0,0:0:0:0:
201,281,152934,1,0,0:0:0:0:
242,264,153020,1,0,0:0:0:0:
284,249,153105,1,0,0:0:0:0:
328,258,153191,1,0,0:0:0:0:
364,284,153277,5,0,0:0:0:0:
364,284,153334,1,0,0:0:0:0:
364,284,153391,1,0,0:0:0:0:
364,284,153448,1,0,0:0:0:0:
258,155,153620,5,0,0:0:0:0:
327,109,153791,1,0,0:0:0:0:
358,21,153962,1,0,0:0:0:0:
411,213,154134,5,0,0:0:0:0:
399,89,154305,1,0,0:0:0:0:
286,34,154477,1,0,0:0:0:0:
188,33,154648,5,0,0:0:0:0:
149,56,154734,1,0,0:0:0:0:
103,55,154820,1,0,0:0:0:0:
60,67,154905,1,0,0:0:0:0:
38,106,154991,5,0,0:0:0:0:
45,150,155077,1,0,0:0:0:0:
74,183,155162,1,0,0:0:0:0:
86,226,155248,1,0,0:0:0:0:
56,259,155334,1,0,0:0:0:0:
52,303,155420,1,0,0:0:0:0:
88,328,155505,5,0,0:0:0:0:
116,318,155562,1,0,0:0:0:0:
146,313,155620,1,0,0:0:0:0:
174,320,155677,1,0,0:0:0:0:
162,145,155848,5,0,0:0:0:0:
239,227,156020,5,0,0:0:0:0:
266,238,156077,1,0,0:0:0:0:
295,238,156134,1,0,0:0:0:0:
322,227,156191,1,0,0:0:0:0:
426,180,156362,5,0,0:0:0:0:
439,156,156448,1,0,0:0:0:0:
421,135,156534,1,0,0:0:0:0:
437,113,156620,1,0,0:0:0:0:
415,97,156705,1,0,0:0:0:0:
433,77,156791,1,0,0:0:0:0:
410,62,156877,1,0,0:0:0:0:
383,55,156962,1,0,0:0:0:0:
359,68,157048,1,0,0:0:0:0:
322,85,157134,1,0,0:0:0:0:
272,85,157220,1,0,0:0:0:0:
231,57,157305,1,0,0:0:0:0:
180,26,157391,1,0,0:0:0:0:
56,62,157562,5,0,0:0:0:0:
40,123,157648,1,0,0:0:0:0:
60,182,157734,1,0,0:0:0:0:
119,203,157820,1,0,0:0:0:0:
180,177,157905,1,0,0:0:0:0:
251,188,157991,1,0,0:0:0:0:
314,231,158077,1,0,0:0:0:0:
387,249,158162,1,0,0:0:0:0:
460,228,158248,1,0,0:0:0:0:
492,158,158334,1,0,0:0:0:0:
465,85,158420,1,0,0:0:0:0:
395,333,158591,1,0,0:0:0:0:
367,154,158762,1,0,0:0:0:0:
247,278,158934,1,0,0:0:0:0:
339,78,159105,5,0,0:0:0:0:
477,257,159277,1,0,0:0:0:0:
367,154,159448,1,0,0:0:0:0:
247,278,159620,1,0,0:0:0:0:
195,314,159705,1,0,0:0:0:0:
133,301,159791,1,0,0:0:0:0:
183,160,159962,1,0,0:0:0:0:
67,57,160134,1,0,0:0:0:0:
84,103,160220,1,0,0:0:0:0:
69,149,160305,1,0,0:0:0:0:
34,185,160391,1,0,0:0:0:0:
0,203,160477,5,0,0:0:0:0:
18,228,160562,1,0,0:0:0:0:
49,229,160648,1,0,0:0:0:0:
79,222,160734,1,0,0:0:0:0:
108,210,160820,1,0,0:0:0:0:
143,212,160905,1,0,0:0:0:0:
178,231,160991,1,0,0:0:0:0:
203,268,161077,1,0,0:0:0:0:
238,302,161162,1,0,0:0:0:0:
291,311,161248,1,0,0:0:0:0:
341,291,161334,1,0,0:0:0:0:
372,241,161420,1,0,0:0:0:0:
364,179,161505,1,0,0:0:0:0:
335,32,161677,5,0,0:0:0:0:
314,49,161734,1,0,0:0:0:0:
288,58,161791,1,0,0:0:0:0:
261,56,161848,1,0,0:0:0:0:
286,210,162020,5,0,0:0:0:0:
398,78,162191,1,0,0:0:0:0:
341,291,162362,1,0,0:0:0:0:
201,240,162534,5,0,0:0:0:0:
157,272,162620,1,0,0:0:0:0:
133,319,162705,1,0,0:0:0:0:
83,341,162791,1,0,0:0:0:0:
29,330,162877,1,0,0:0:0:0:
62,287,162962,1,0,0:0:0:0:
68,233,163048,1,0,0:0:0:0:
45,183,163134,1,0,0:0:0:0:
42,128,163220,5,0,0:0:0:0:
93,144,163305,1,0,0:0:0:0:
147,146,163391,1,0,0:0:0:0:
194,119,163477,1,0,0:0:0:0:
197,65,163562,6,0,B|155:65|155:65|126:42,2,59.9999981689454
286,52,163905,1,0,0:0:0:0:
374,72,164020,1,0,0:0:0:0:
409,154,164134,1,0,0:0:0:0:
392,242,164248,5,0,0:0:0:0:
172,328,164420,1,0,0:0:0:0:
310,204,164591,5,0,0:0:0:0:
262,189,164677,1,0,0:0:0:0:
213,192,164762,1,0,0:0:0:0:
185,222,164848,1,0,0:0:0:0:
161,255,164934,1,0,0:0:0:0:
117,268,165020,1,0,0:0:0:0:
69,254,165105,1,0,0:0:0:0:
38,204,165191,1,0,0:0:0:0:
44,145,165277,1,0,0:0:0:0:
77,97,165362,1,0,0:0:0:0:
131,75,165448,1,0,0:0:0:0:
189,71,165534,1,0,0:0:0:0:
241,97,165620,1,0,0:0:0:0:
423,29,165791,1,0,0:0:0:0:
406,75,165877,1,0,0:0:0:0:
425,119,165962,5,0,0:0:0:0:
431,328,166134,1,0,0:0:0:0:
407,284,166220,1,0,0:0:0:0:
366,256,166305,1,0,0:0:0:0:
461,201,166477,1,0,0:0:0:0:
311,161,166648,1,0,0:0:0:0:
261,166,166734,1,0,0:0:0:0:
230,205,166820,1,0,0:0:0:0:
223,244,166905,1,0,0:0:0:0:
243,273,166991,1,0,0:0:0:0:
244,313,167077,1,0,0:0:0:0:
210,342,167162,1,0,0:0:0:0:
167,327,167248,1,0,0:0:0:0:
156,278,167334,5,0,0:0:0:0:
137,232,167420,1,0,0:0:0:0:
92,202,167505,1,0,0:0:0:0:
39,216,167591,1,0,0:0:0:0:
16,265,167677,1,0,0:0:0:0:
52,103,167848,1,0,0:0:0:0:
100,111,167934,1,0,0:0:0:0:
147,97,168020,1,0,0:0:0:0:
372,138,168191,1,0,0:0:0:0:
329,112,168277,1,0,0:0:0:0:
281,122,168362,1,0,0:0:0:0:
322,249,168534,1,0,0:0:0:0:
457,82,168705,5,0,0:0:0:0:
472,129,168791,1,0,0:0:0:0:
458,176,168877,1,0,0:0:0:0:
426,201,168962,1,0,0:0:0:0:
412,234,169048,1,0,0:0:0:0:
429,265,169134,1,0,0:0:0:0:
443,298,169220,1,0,0:0:0:0:
426,334,169305,1,0,0:0:0:0:
385,353,169391,1,0,0:0:0:0:
336,343,169477,1,0,0:0:0:0:
299,304,169562,1,0,0:0:0:0:
244,281,169648,1,0,0:0:0:0:
185,304,169734,1,0,0:0:0:0:
66,261,169905,5,0,0:0:0:0:
72,237,169962,1,0,0:0:0:0:
69,212,170020,1,0,0:0:0:0:
53,194,170077,1,0,0:0:0:0:
176,131,170248,5,0,0:0:0:0:
32,48,170420,6,0,B|64:48|64:48|80:40|80:40|104:48|104:48|120:40|120:40|192:40,1,125
283,67,170762,5,0,0:0:0:0:
311,80,170848,1,0,0:0:0:0:
342,84,170934,1,0,0:0:0:0:
370,69,171020,1,0,0:0:0:0:
386,42,171105,1,0,0:0:0:0:
418,72,171191,1,0,0:0:0:0:
431,120,171277,1,0,0:0:0:0:
409,164,171362,1,0,0:0:0:0:
427,210,171448,5,0,0:0:0:0:
364,202,171534,1,0,0:0:0:0:
298,224,171620,1,0,0:0:0:0:
243,274,171705,1,0,0:0:0:0:
209,348,171791,1,0,0:0:0:0:
90,294,171962,1,0,0:0:0:0:
106,227,172048,1,0,0:0:0:0:
77,164,172134,1,0,0:0:0:0:
172,33,172305,1,0,0:0:0:0:
172,89,172391,1,0,0:0:0:0:
209,131,172477,5,0,0:0:0:0:
238,145,172534,1,0,0:0:0:0:
271,147,172591,1,0,0:0:0:0:
302,136,172648,1,0,0:0:0:0:
393,236,172820,6,0,P|378:210|370:162,1,62.5
393,12,172991,2,0,P|432:40|453:84,1,62.5
482,185,173162,1,0,0:0:0:0:
490,221,173248,1,0,0:0:0:0:
489,258,173334,1,0,0:0:0:0:
471,298,173420,1,0,0:0:0:0:
431,328,173505,1,0,0:0:0:0:
375,320,173591,1,0,0:0:0:0:
330,284,173677,1,0,0:0:0:0:
275,270,173762,1,0,0:0:0:0:
221,288,173848,1,0,0:0:0:0:
25,211,174020,2,0,P|66:183|103:171,1,62.5
244,158,174191,5,0,0:0:0:0:
102,307,174362,1,0,0:0:0:0:
143,345,174448,1,0,0:0:0:0:
197,359,174534,1,0,0:0:0:0:
467,314,174705,2,0,P|430:299|381:301,1,62.5
189,222,174877,2,0,P|231:238|277:239,1,62.5
399,217,175048,1,0,0:0:0:0:
428,193,175134,1,0,0:0:0:0:
439,157,175220,1,0,0:0:0:0:
432,114,175305,1,0,0:0:0:0:
396,78,175391,1,0,0:0:0:0:
340,70,175477,1,0,0:0:0:0:
289,93,175562,5,0,0:0:0:0:
232,100,175648,1,0,0:0:0:0:
180,77,175734,1,0,0:0:0:0:
125,63,175820,1,0,0:0:0:0:
73,83,175905,1,0,0:0:0:0:
38,214,176077,1,0,0:0:0:0:
85,198,176162,1,0,0:0:0:0:
133,209,176248,1,0,0:0:0:0:
163,329,176420,1,0,0:0:0:0:
209,347,176505,1,0,0:0:0:0:
257,332,176591,6,0,B|280:294|280:294|277:283|277:283|288:281|288:281|301:261|301:261|312:258|312:258|310:247|310:247|323:227,1,125
348,137,176934,5,0,0:0:0:0:
368,105,177020,1,0,0:0:0:0:
403,94,177105,1,0,0:0:0:0:
436,110,177191,1,0,0:0:0:0:
466,103,177277,1,0,0:0:0:0:
476,73,177362,1,0,0:0:0:0:
459,46,177448,1,0,0:0:0:0:
424,31,177534,1,0,0:0:0:0:
380,27,177620,1,0,0:0:0:0:
335,49,177705,1,0,0:0:0:0:
280,64,177791,1,0,0:0:0:0:
226,47,177877,1,0,0:0:0:0:
170,53,177962,1,0,0:0:0:0:
48,95,178134,5,0,0:0:0:0:
66,127,178191,1,0,0:0:0:0:
63,164,178248,1,0,0:0:0:0:
39,193,178305,1,0,0:0:0:0:
147,205,178477,5,0,0:0:0:0:
1,259,178648,1,0,0:0:0:0:
278,293,178820,1,0,0:0:0:0:
194,132,178991,1,0,0:0:0:0:
236,158,179077,1,0,0:0:0:0:
287,136,179162,1,0,0:0:0:0:
327,175,179248,1,0,0:0:0:0:
379,153,179334,1,0,0:0:0:0:
424,186,179420,1,0,0:0:0:0:
450,235,179505,1,0,0:0:0:0:
444,291,179591,1,0,0:0:0:0:
402,337,179677,5,0,0:0:0:0:
334,347,179762,1,0,0:0:0:0:
267,311,179848,1,0,0:0:0:0:
197,281,179934,1,0,0:0:0:0:
123,297,180020,1,0,0:0:0:0:
112,310,180077,5,0,0:0:0:0:
102,323,180134,1,0,0:0:0:0:
92,336,180191,1,0,0:0:0:0:
82,349,180248,1,0,0:0:0:0:
71,361,180305,1,0,0:0:0:0:
64,371,180362,6,0,B|24:336|24:336|24:272,2,83.3333333333333
123,297,180705,2,0,B|152:272|152:272|152:216,2,83.3333333333333
57,170,181048,5,0,0:0:0:0:
49,146,181134,1,0,0:0:0:0:
51,114,181220,1,0,0:0:0:0:
70,82,181305,1,0,0:0:0:0:
103,64,181391,1,0,0:0:0:0:
140,67,181477,1,0,0:0:0:0:
178,86,181562,1,0,0:0:0:0:
221,89,181648,1,0,0:0:0:0:
269,74,181734,1,0,0:0:0:0:
313,50,181820,1,0,0:0:0:0:
361,38,181905,1,0,0:0:0:0:
416,50,181991,1,0,0:0:0:0:
449,103,182077,1,0,0:0:0:0:
402,208,182248,1,0,0:0:0:0:
389,262,182334,1,0,0:0:0:0:
414,312,182420,5,0,0:0:0:0:
270,259,182591,1,0,0:0:0:0:
284,204,182677,1,0,0:0:0:0:
266,150,182762,1,0,0:0:0:0:
131,102,182934,1,0,0:0:0:0:
98,121,183020,1,0,0:0:0:0:
67,126,183105,1,0,0:0:0:0:
44,114,183191,1,0,0:0:0:0:
35,90,183277,1,0,0:0:0:0:
42,59,183362,1,0,0:0:0:0:
71,35,183448,1,0,0:0:0:0:
114,27,183534,1,0,0:0:0:0:
161,42,183620,1,0,0:0:0:0:
215,51,183705,1,0,0:0:0:0:
272,26,183791,5,0,0:0:0:0:
325,8,183877,1,0,0:0:0:0:
378,25,183962,1,0,0:0:0:0:
407,73,184048,1,0,0:0:0:0:
399,128,184134,1,0,0:0:0:0:
337,245,184305,5,0,0:0:0:0:
340,183,184390,1,0,0:0:0:0:
302,132,184476,1,0,0:0:0:0:
215,51,184648,1,0,0:0:0:0:
189,101,184734,1,0,0:0:0:0:
200,156,184820,1,0,0:0:0:0:
71,35,184991,1,0,0:0:0:0:
54,144,185162,6,0,P|77:188|69:227,1,62.5
52,284,185334,1,0,0:0:0:0:
36,311,185420,1,0,0:0:0:0:
33,341,185505,1,0,0:0:0:0:
54,363,185591,1,0,0:0:0:0:
91,367,185677,1,0,0:0:0:0:
131,352,185762,1,0,0:0:0:0:
172,323,185848,1,0,0:0:0:0:
227,313,185934,1,0,0:0:0:0:
288,326,186020,1,0,0:0:0:0:
345,349,186105,1,0,0:0:0:0:
398,382,186191,5,0,0:0:0:0:
426,364,186248,1,0,0:0:0:0:
437,332,186305,1,0,0:0:0:0:
428,299,186362,1,0,0:0:0:0:
471,213,186534,1,0,0:0:0:0:
401,108,186705,1,0,0:0:0:0:
364,218,186877,5,0,0:0:0:0:
295,124,187049,1,0,0:0:0:0:
349,18,187220,1,0,0:0:0:0:
308,3,187305,1,0,0:0:0:0:
264,5,187391,1,0,0:0:0:0:
232,35,187477,1,0,0:0:0:0:
194,57,187562,1,0,0:0:0:0:
156,58,187648,1,0,0:0:0:0:
127,44,187734,1,0,0:0:0:0:
97,54,187820,1,0,0:0:0:0:
77,85,187905,5,0,0:0:0:0:
85,128,187991,1,0,0:0:0:0:
107,172,188077,1,0,0:0:0:0:
100,227,188162,1,0,0:0:0:0:
63,277,188248,1,0,0:0:0:0:
210,147,188420,1,0,0:0:0:0:
182,352,188591,5,0,0:0:0:0:
205,368,188648,1,0,0:0:0:0:
233,375,188705,1,0,0:0:0:0:
262,374,188762,1,0,0:0:0:0:
352,274,188934,5,0,0:0:0:0:
376,258,188991,1,0,0:0:0:0:
404,253,189048,1,0,0:0:0:0:
431,260,189105,1,0,0:0:0:0:
424,74,189277,6,0,P|392:112|348:131,1,62.5
272,164,189448,1,0,0:0:0:0:
228,170,189534,1,0,0:0:0:0:
185,160,189620,1,0,0:0:0:0:
157,135,189705,1,0,0:0:0:0:
145,105,189791,1,0,0:0:0:0:
119,87,189877,1,0,0:0:0:0:
88,87,189962,1,0,0:0:0:0:
66,110,190048,1,0,0:0:0:0:
55,146,190134,1,0,0:0:0:0:
67,188,190220,1,0,0:0:0:0:
112,207,190305,2,0,P|129:231|133:290,1,62.5
212,356,190477,2,0,P|211:330|232:288,1,62.5
306,233,190648,5,0,0:0:0:0:
347,204,190734,1,0,0:0:0:0:
403,205,190820,1,0,0:0:0:0:
441,245,190905,1,0,0:0:0:0:
429,300,190991,1,0,0:0:0:0:
475,266,191077,1,0,0:0:0:0:
491,206,191162,1,0,0:0:0:0:
473,145,191248,1,0,0:0:0:0:
424,96,191334,1,0,0:0:0:0:
281,115,191505,1,0,0:0:0:0:
215,135,191591,1,0,0:0:0:0:
148,116,191677,1,0,0:0:0:0:
209,295,191848,1,0,0:0:0:0:
63,131,192020,5,0,0:0:0:0:
105,329,192191,1,0,0:0:0:0:
152,221,192362,1,0,0:0:0:0:
199,204,192448,1,0,0:0:0:0:
248,210,192534,1,0,0:0:0:0:
285,243,192620,1,0,0:0:0:0:
298,290,192705,1,0,0:0:0:0:
290,339,192791,1,0,0:0:0:0:
324,374,192877,1,0,0:0:0:0:
373,375,192962,1,0,0:0:0:0:
415,348,193048,2,0,P|430:316|429:271,1,62.5
373,214,193220,2,0,P|354:180|356:147,1,62.5
383,59,193391,5,0,0:0:0:0:
363,26,193477,1,0,0:0:0:0:
333,15,193562,1,0,0:0:0:0:
309,23,193648,1,0,0:0:0:0:
294,43,193734,1,0,0:0:0:0:
276,61,193820,1,0,0:0:0:0:
253,71,193905,1,0,0:0:0:0:
221,72,193991,1,0,0:0:0:0:
184,63,194077,1,0,0:0:0:0:
144,44,194162,1,0,0:0:0:0:
93,45,194248,1,0,0:0:0:0:
52,84,194334,1,0,0:0:0:0:
35,137,194420,1,0,0:0:0:0:
116,226,194591,5,0,0:0:0:0:
127,243,194648,1,0,0:0:0:0:
130,263,194705,1,0,0:0:0:0:
121,282,194762,1,0,0:0:0:0:
275,162,194934,5,0,0:0:0:0:
256,337,195105,1,0,0:0:0:0:
200,90,195277,1,0,0:0:0:0:
425,175,195448,1,0,0:0:0:0:
403,197,195534,1,0,0:0:0:0:
393,233,195620,1,0,0:0:0:0:
416,261,195705,1,0,0:0:0:0:
414,304,195791,1,0,0:0:0:0:
382,334,195877,1,0,0:0:0:0:
333,343,195962,1,0,0:0:0:0:
282,317,196048,1,0,0:0:0:0:
226,307,196134,5,0,0:0:0:0:
171,337,196220,1,0,0:0:0:0:
111,353,196305,1,0,0:0:0:0:
47,326,196391,1,0,0:0:0:0:
31,265,196477,2,0,P|31:241|7:207,2,62.5
110,207,196734,2,0,P|115:181|137:147,2,50
43,123,196991,2,0,P|26:88|33:58,1,37.5000014305115
74,28,197162,2,0,P|121:18|160:37,1,75.0000028610231
255,108,197505,5,0,0:0:0:0:
295,326,198877,5,0,0:0:0:0:
311,80,199048,1,0,0:0:0:0:
231,374,199220,1,0,0:0:0:0:
125,44,199391,1,0,0:0:0:0:
284,246,199562,1,0,0:0:0:0:
422,12,199734,1,0,0:0:0:0:
496,311,199905,1,0,0:0:0:0:
496,311,199991,1,0,0:0:0:0:
496,311,200077,1,0,0:0:0:0:
316,79,200248,5,0,0:0:0:0:
365,357,200420,1,0,0:0:0:0:
455,123,200591,1,0,0:0:0:0:
173,293,200762,1,0,0:0:0:0:
211,30,200934,1,0,0:0:0:0:
263,360,201105,1,0,0:0:0:0:
122,80,201277,1,0,0:0:0:0:
96,98,201362,1,0,0:0:0:0:
77,123,201448,1,0,0:0:0:0:
67,152,201534,1,0,0:0:0:0:
68,183,201620,5,0,0:0:0:0:
186,360,201791,1,0,0:0:0:0:
277,72,201962,1,0,0:0:0:0:
414,324,202134,1,0,0:0:0:0:
425,16,202305,1,0,0:0:0:0:
425,16,202391,1,0,0:0:0:0:
425,16,202477,1,0,0:0:0:0:
222,253,202648,1,0,0:0:0:0:
222,253,202734,1,0,0:0:0:0:
222,253,202820,1,0,0:0:0:0:
138,11,202991,5,0,0:0:0:0:
138,11,203077,1,0,0:0:0:0:
138,11,203162,1,0,0:0:0:0:
139,332,203334,1,0,0:0:0:0:
268,97,203505,1,0,0:0:0:0:
268,97,203591,1,0,0:0:0:0:
268,97,203677,1,0,0:0:0:0:
347,382,203848,1,0,0:0:0:0:
355,40,204362,5,0,0:0:0:0:
162,324,204534,1,0,0:0:0:0:
72,105,204705,1,0,0:0:0:0:
345,265,204877,1,0,0:0:0:0:
457,14,205048,1,0,0:0:0:0:
205,168,205220,1,0,0:0:0:0:
495,276,205391,1,0,0:0:0:0:
495,276,205477,1,0,0:0:0:0:
495,276,205562,1,0,0:0:0:0:
301,23,205734,5,0,0:0:0:0:
336,354,205905,1,0,0:0:0:0:
413,75,206077,1,0,0:0:0:0:
180,317,206248,1,0,0:0:0:0:
111,7,206420,1,0,0:0:0:0:
24,364,206591,1,0,0:0:0:0:
56,143,206762,5,0,0:0:0:0:
83,108,206848,1,0,0:0:0:0:
127,84,206934,1,0,0:0:0:0:
182,91,207020,1,0,0:0:0:0:
212,137,207105,1,0,0:0:0:0:
236,100,207191,1,0,0:0:0:0:
269,82,207277,1,0,0:0:0:0:
306,78,207362,1,0,0:0:0:0:
339,95,207448,1,0,0:0:0:0:
361,125,207534,1,0,0:0:0:0:
369,161,207620,1,0,0:0:0:0:
351,194,207705,1,0,0:0:0:0:
348,231,207791,1,0,0:0:0:0:
367,263,207877,1,0,0:0:0:0:
373,299,207962,1,0,0:0:0:0:
359,334,208048,1,0,0:0:0:0:
332,350,208134,1,0,0:0:0:0:
308,357,208220,1,0,0:0:0:0:
283,355,208305,1,0,0:0:0:0:
267,344,208391,1,0,0:0:0:0:
248,339,208477,6,0,L|261:310,30,18.7500007152558
178,384,209848,5,0,0:0:0:0:
82,148,211220,5,0,0:0:0:0:
82,148,211305,1,0,0:0:0:0:
82,148,211391,1,0,0:0:0:0:
155,342,211562,1,0,0:0:0:0:
155,342,211648,1,0,0:0:0:0:
244,72,211820,1,0,0:0:0:0:
244,72,211905,1,0,0:0:0:0:
241,288,212077,1,0,0:0:0:0:
122,50,212248,1,0,0:0:0:0:
122,50,212334,1,0,0:0:0:0:
122,50,212420,1,0,0:0:0:0:
122,50,212505,1,0,0:0:0:0:
122,50,212591,1,0,0:0:0:0:
385,23,213962,5,0,0:0:0:0:
303,323,214134,1,0,0:0:0:0:
303,323,214220,1,0,0:0:0:0:
303,323,214305,2,0,L|282:242,1,83.3333333333333
203,141,214534,2,0,L|175:244,1,83.3333333333333
86,338,214762,2,0,L|59:231,1,83.3333333333333
77,119,214991,2,0,L|56:163,6,31.25
56,72,215334,5,0,0:0:0:0:
205,32,215505,1,0,0:0:0:0:
260,20,215591,1,0,0:0:0:0:
314,33,215677,2,0,P|365:65|405:140,1,125
406,284,216020,1,0,0:0:0:0:
351,270,216105,1,0,0:0:0:0:
296,284,216191,1,0,0:0:0:0:
398,114,216362,1,0,0:0:0:0:
296,284,216534,1,0,0:0:0:0:
205,216,216705,5,0,0:0:0:0:
166,248,216791,1,0,0:0:0:0:
116,258,216877,1,0,0:0:0:0:
70,237,216962,1,0,0:0:0:0:
24,134,217048,5,0,0:0:0:0:
49,90,217134,1,0,0:0:0:0:
97,78,217220,1,0,0:0:0:0:
141,100,217305,1,0,0:0:0:0:
259,140,217391,5,0,0:0:0:0:
297,160,217477,1,0,0:0:0:0:
340,156,217562,1,0,0:0:0:0:
369,123,217648,1,0,0:0:0:0:
330,30,217734,5,0,0:0:0:0:
298,26,217820,1,0,0:0:0:0:
271,9,217905,1,0,0:0:0:0:
141,100,218077,5,0,0:0:0:0:
297,160,218248,1,0,0:0:0:0:
324,209,218334,1,0,0:0:0:0:
314,264,218420,2,0,P|280:318|221:350,1,125
49,270,218762,1,0,0:0:0:0:
100,246,218848,1,0,0:0:0:0:
156,252,218934,1,0,0:0:0:0:
39,112,219105,1,0,0:0:0:0:
156,252,219277,1,0,0:0:0:0:
165,110,219448,5,0,0:0:0:0:
207,72,219534,1,0,0:0:0:0:
261,55,219620,1,0,0:0:0:0:
316,53,219705,1,0,0:0:0:0:
434,113,219791,5,0,0:0:0:0:
452,166,219877,1,0,0:0:0:0:
419,211,219962,1,0,0:0:0:0:
362,214,220048,1,0,0:0:0:0:
268,277,220134,5,0,0:0:0:0:
240,285,220191,1,0,0:0:0:0:
219,305,220248,1,0,0:0:0:0:
205,330,220305,1,0,0:0:0:0:
198,358,220362,2,0,P|176:352|158:335,1,41.6666666666667
75,235,220477,5,0,0:0:0:0:
37,170,220562,1,0,0:0:0:0:
51,96,220648,1,0,0:0:0:0:
109,48,220734,1,0,0:0:0:0:
234,54,220820,5,0,0:0:0:0:
263,218,220991,1,0,0:0:0:0:
263,218,221077,1,0,0:0:0:0:
263,218,221162,1,0,0:0:0:0:
380,4,221334,1,0,0:0:0:0:
444,162,221505,1,0,0:0:0:0:
463,228,221591,1,0,0:0:0:0:
432,290,221677,1,0,0:0:0:0:
165,181,221848,1,0,0:0:0:0:
226,149,221934,1,0,0:0:0:0:
294,160,222020,1,0,0:0:0:0:
277,315,222191,5,0,0:0:0:0:
247,363,222277,1,0,0:0:0:0:
102,356,222448,5,0,0:0:0:0:
76,305,222534,1,0,0:0:0:0:
135,167,222705,5,0,0:0:0:0:
135,210,222791,1,0,0:0:0:0:
165,181,222877,5,0,0:0:0:0:
165,224,222962,1,0,0:0:0:0:
191,187,223048,5,0,0:0:0:0:
195,230,223134,1,0,0:0:0:0:
222,192,223219,5,0,0:0:0:0:
234,234,223305,1,0,0:0:0:0:
251,190,223391,5,0,0:0:0:0:
270,229,223477,1,0,0:0:0:0:
278,185,223562,5,0,0:0:0:0:
439,91,223734,1,0,0:0:0:0:
455,144,223820,1,0,0:0:0:0:
450,199,223905,1,0,0:0:0:0:
384,317,224077,1,0,0:0:0:0:
340,293,224162,1,0,0:0:0:0:
314,250,224248,1,0,0:0:0:0:
302,201,224334,1,0,0:0:0:0:
316,153,224420,1,0,0:0:0:0:
222,65,224591,1,0,0:0:0:0:
256,333,224762,1,0,0:0:0:0:
166,157,224934,5,0,0:0:0:0:
145,104,225020,1,0,0:0:0:0:
36,178,225191,5,0,0:0:0:0:
20,232,225277,1,0,0:0:0:0:
71,332,225448,5,0,0:0:0:0:
111,302,225534,1,0,0:0:0:0:
159,287,225620,6,0,L|151:340,1,31.25
208,286,225705,2,0,L|204:243,1,31.25
251,305,225791,6,0,L|261:345,1,31.25
297,283,225877,2,0,L|310:245,1,31.25
336,312,225962,6,0,L|321:354,1,31.25
379,287,226048,2,0,L|373:248,1,31.25
420,314,226134,6,0,L|406:356,1,31.25
461,285,226220,2,0,L|471:254,1,31.25
500,315,226305,5,0,0:0:0:0:
444,167,226477,1,0,0:0:0:0:
435,118,226562,1,0,0:0:0:0:
452,70,226648,1,0,0:0:0:0:
326,31,226820,1,0,0:0:0:0:
299,72,226905,1,0,0:0:0:0:
252,91,226991,1,0,0:0:0:0:
202,84,227077,1,0,0:0:0:0:
155,67,227162,1,0,0:0:0:0:
105,73,227248,1,0,0:0:0:0:
69,108,227334,1,0,0:0:0:0:
52,155,227420,1,0,0:0:0:0:
67,202,227505,2,0,P|102:247|125:255,1,62.5
254,264,227677,5,0,0:0:0:0:
292,243,227762,1,0,0:0:0:0:
436,247,227934,5,0,0:0:0:0:
397,268,228020,1,0,0:0:0:0:
415,120,228191,5,0,0:0:0:0:
413,69,228277,1,0,0:0:0:0:
380,112,228363,5,0,0:0:0:0:
373,62,228448,1,0,0:0:0:0:
351,108,228534,5,0,0:0:0:0:
338,59,228620,1,0,0:0:0:0:
318,106,228706,5,0,0:0:0:0:
302,59,228791,1,0,0:0:0:0:
293,107,228877,5,0,0:0:0:0:
270,62,228963,1,0,0:0:0:0:
264,109,229048,5,0,0:0:0:0:
103,177,229220,1,0,0:0:0:0:
115,244,229305,1,0,0:0:0:0:
92,309,229391,1,0,0:0:0:0:
224,251,229562,1,0,0:0:0:0:
272,201,229648,1,0,0:0:0:0:
339,187,229734,1,0,0:0:0:0:
408,210,229820,1,0,0:0:0:0:
432,273,229905,1,0,0:0:0:0:
430,30,230077,1,0,0:0:0:0:
512,333,230248,1,0,0:0:0:0:
349,74,230420,5,0,0:0:0:0:
273,101,230505,1,0,0:0:0:0:
194,79,230591,1,0,0:0:0:0:
128,30,230677,1,0,0:0:0:0:
47,22,230762,1,0,0:0:0:0:
4,91,230848,1,0,0:0:0:0:
47,159,230934,1,0,0:0:0:0:
65,238,231020,1,0,0:0:0:0:
36,313,231105,5,0,0:0:0:0:
144,320,231220,1,0,0:0:0:0:
246,355,231334,1,0,0:0:0:0:
316,271,231448,1,0,0:0:0:0:
424,270,231562,1,0,0:0:0:0:
470,171,231677,1,0,0:0:0:0:
411,80,231791,5,0,0:0:0:0:
411,80,231962,2,0,B|379:93|379:93|313:93,1,75.0000028610231
163,92,232305,1,0,0:0:0:0:
168,198,232648,1,0,0:0:0:0:
168,198,232820,2,0,B|168:246|168:246|201:278|201:278|200:342,1,150.000005722046
372,293,233334,5,0,0:0:0:0:
372,293,233505,2,0,B|352:254|352:254|311:254,1,75.0000028610231
454,161,233848,2,0,B|436:191|436:191|386:191,1,75.0000028610231
338,124,234191,2,0,B|293:124|293:124|269:141,1,75.0000028610231
138,50,234534,5,0,0:0:0:0:
138,50,234705,2,0,L|103:142,1,75.0000028610231
31,276,235048,1,0,0:0:0:0:
199,276,235391,1,0,0:0:0:0:
199,276,235562,2,0,B|262:297|262:297|287:290|287:290|350:312,1,150.000005722046
432,217,236077,5,0,0:0:0:0:
371,90,236248,1,0,0:0:0:0:
350,170,236420,1,0,0:0:0:0:
321,28,236591,1,0,0:0:0:0:
455,99,236762,1,0,0:0:0:0:
350,170,236934,1,0,0:0:0:0:
432,217,237105,1,0,0:0:0:0:
386,333,237277,5,0,0:0:0:0:
386,333,237448,2,0,L|295:310,1,75.0000028610231
163,270,237791,1,0,0:0:0:0:
278,174,238134,1,0,0:0:0:0:
278,174,238305,2,0,B|221:173|221:173|186:153|186:153|131:153,1,150.000005722046
54,61,238820,5,0,0:0:0:0:
54,61,238991,2,0,L|18:151,1,75.0000028610231
144,47,239334,2,0,L|217:99,1,75.0000028610231
133,153,239677,2,0,L|102:237,1,75.0000028610231
233,326,240191,6,0,L|327:335,1,75.0000028610231
438,344,240534,1,0,0:0:0:0:
375,210,240877,1,0,0:0:0:0:
375,210,241048,2,0,B|388:165|388:165|372:129,1,75.0000028610231
228,60,241391,6,0,L|218:139,1,50
225,281,241562,2,0,L|213:206,1,50
74,56,241734,2,0,L|80:116,1,50
69,276,241905,2,0,L|88:206,1,50
147,47,242077,6,0,L|155:71,14,25
154,122,242762,6,0,P|158:184|140:224,1,87.500000834465
0,241,243105,2,0,P|45:189|92:176,1,87.500000834465
161,307,243448,2,0,P|108:289|79:256,1,87.500000834465
151,206,243791,1,0,0:0:0:0:
60,181,243962,1,0,0:0:0:0:
141,111,244134,6,0,L|123:14,1,87.500000834465
224,74,244477,2,0,L|243:-15,1,87.500000834465
334,170,244820,2,0,L|314:72,1,87.500000834465
437,23,245162,2,0,L|418:117,1,87.500000834465
434,256,245505,6,0,P|417:328|379:355,1,87.500000834465
342,284,245848,2,0,P|287:331|252:333,1,87.500000834465
251,249,246191,2,0,P|188:246|159:229,1,87.500000834465
125,136,246534,1,0,0:0:0:0:
232,147,246705,1,0,0:0:0:0:
322,60,246877,5,0,0:0:0:0:
377,138,247048,1,0,0:0:0:0:
400,17,247220,1,0,0:0:0:0:
481,226,247391,1,0,0:0:0:0:
469,98,247562,1,0,0:0:0:0:
397,226,247734,1,0,0:0:0:0:
481,22,247905,1,0,0:0:0:0:
322,60,248077,1,0,0:0:0:0:
181,88,248248,6,0,L|185:140,1,43.7500004172325
150,229,248420,2,0,L|136:155,1,43.7500004172325
67,136,248591,6,0,P|56:199|67:237,1,87.500000834465
225,197,248934,2,0,P|231:274|220:300,1,87.500000834465
322,60,249277,2,0,P|310:120|315:157,1,87.500000834465
415,177,249620,6,0,L|504:217,1,87.500000834465
325,272,249962,2,0,L|432:258,1,87.500000834465
412,333,250305,2,0,L|506:358,1,87.500000834465
352,368,250648,6,0,B|336:360|336:360|320:368|320:368|304:360|304:360|288:368|288:368|272:360|272:360|256:368|256:368|240:360|240:360|224:368|224:368|208:360|208:360|192:368|192:368|176:360|176:360|160:368,1,175.00000166893
148,198,251162,5,0,0:0:0:0:
121,343,251334,1,0,0:0:0:0:
61,171,251505,1,0,0:0:0:0:
230,245,251677,1,0,0:0:0:0:
189,79,251848,1,0,0:0:0:0:
148,198,252020,1,0,0:0:0:0:
86,38,252191,1,0,0:0:0:0:
277,85,252362,5,0,0:0:0:0:
321,233,252534,1,0,0:0:0:0:
321,233,252620,1,0,0:0:0:0:
321,233,252705,1,0,0:0:0:0:
365,24,252877,1,0,0:0:0:0:
411,105,253048,2,0,L|444:116,14,21.8750002086163
458,139,253734,6,0,L|450:209,1,50
430,314,254248,1,0,0:0:0:0:
358,219,254591,2,0,L|326:266,1,50
221,333,255105,6,0,L|211:277,1,50
115,288,255448,2,0,L|122:229,1,50
41,229,255791,2,0,L|31:174,1,50
170,179,256134,2,0,L|179:122,1,50
253,31,256477,6,0,L|322:37,1,50
400,29,256991,1,0,0:0:0:0:
339,137,257334,2,0,B|331:175|331:175|332:208,1,50
351,272,257677,1,0,0:0:0:0:
233,223,257848,5,0,0:0:0:0:
209,314,258020,1,0,0:0:0:0:
148,232,258191,1,0,0:0:0:0:
118,323,258362,1,0,0:0:0:0:
59,237,258534,1,0,0:0:0:0:
104,150,258705,1,0,0:0:0:0:
193,146,258877,1,0,0:0:0:0:
144,74,259048,1,0,0:0:0:0:
274,61,259220,6,0,B|299:73|299:73|345:73,1,50
432,73,259734,1,0,0:0:0:0:
376,162,260077,2,0,B|376:191|376:191|392:229,1,50
426,289,260420,1,0,0:0:0:0:
320,340,260591,6,0,L|329:283,1,50
250,295,260934,2,0,L|241:237,1,50
172,356,261277,2,0,L|182:300,1,50
107,297,261620,2,0,L|91:236,1,50
42,140,261962,6,0,B|61:150|61:150|108:150,1,50
200,149,262477,1,0,0:0:0:0:
135,54,262820,2,0,B|148:48|148:48|196:48,1,50
292,50,263162,1,0,0:0:0:0:
428,106,263334,6,0,L|423:146,1,25
362,152,263505,2,0,L|369:194,1,25
421,203,263677,2,0,L|413:240,1,25
367,253,263848,2,0,L|381:288,1,25
320,336,264020,6,0,L|284:329,1,25
288,283,264191,2,0,L|251:300,1,25
245,339,264362,2,0,L|203:326,1,25
203,301,264534,2,0,L|173:318,1,25
90,347,264705,6,0,B|105:318|105:318|105:288,1,50
102,198,265220,1,0,0:0:0:0:
22,254,265562,2,0,B|15:244|15:244|14:191,1,50
59,121,265905,1,0,0:0:0:0:
171,24,266077,6,0,L|164:78,1,50
250,65,266420,2,0,L|261:117,1,50
340,18,266762,2,0,L|330:76,1,50
417,77,267105,2,0,L|436:132,1,50
480,242,267448,6,0,B|458:234|458:234|425:234,1,50
341,234,267962,1,0,0:0:0:0:
396,320,268305,2,0,B|378:331|378:331|342:331,1,50
261,280,268648,1,0,0:0:0:0:
157,330,268820,5,0,0:0:0:0:
128,255,268991,1,0,0:0:0:0:
77,316,269162,1,0,0:0:0:0:
48,240,269334,1,0,0:0:0:0:
101,181,269505,1,0,0:0:0:0:
22,164,269677,1,0,0:0:0:0:
76,105,269848,1,0,0:0:0:0:
0,91,270020,1,0,0:0:0:0:
160,119,270191,6,0,B|182:127|182:127|218:127,1,50
304,126,270705,1,0,0:0:0:0:
265,217,271048,2,0,B|280:204|280:204|321:204,1,50
399,167,271391,1,0,0:0:0:0:
439,281,271562,6,0,L|459:341,1,50
367,257,271905,2,0,L|361:312,1,50
288,307,272248,2,0,L|309:361,1,50
222,255,272591,2,0,L|195:317,1,50
89,263,272934,6,0,B|77:247|77:247|78:211,1,50
79,132,273448,1,0,0:0:0:0:
167,176,273791,2,0,B|180:160|180:160|180:120,1,50
131,52,274134,1,0,0:0:0:0:
255,50,274305,5,0,0:0:0:0:
294,252,274477,1,0,0:0:0:0:
313,3,274648,1,0,0:0:0:0:
440,88,274991,6,0,B|432:104|432:104|440:120|440:120|448:136|448:136|440:152|440:152|432:168|432:168|440:184|440:184|448:200|448:200|440:216|440:216|432:232|432:232|440:248,1,175
413,287,275677,6,0,L|366:274,1,37.5000014305115
316,302,275934,1,0,0:0:0:0:
316,302,276020,2,0,L|266:318,1,37.5000014305115
211,275,276362,1,0,0:0:0:0:
100,281,276705,6,0,L|115:246,1,37.5000014305115
145,202,276963,1,0,0:0:0:0:
145,202,277048,2,0,L|119:162,1,37.5000014305115
151,95,277391,1,0,0:0:0:0:
255,29,277734,6,0,L|286:58,1,37.5000014305115
345,55,277991,1,0,0:0:0:0:
345,55,278077,2,0,L|365:96,1,37.5000014305115
352,205,278420,5,0,0:0:0:0:
352,205,278505,1,0,0:0:0:0:
352,205,278591,1,0,0:0:0:0:
352,205,278677,1,0,0:0:0:0:
352,205,278762,2,0,P|346:232|315:255,1,56.2500021457673
276,261,279105,2,0,P|243:264|227:272,1,37.5000014305115
99,323,279448,5,0,0:0:0:0:
99,323,279534,1,0,0:0:0:0:
99,323,279620,1,0,0:0:0:0:
99,323,279705,1,0,0:0:0:0:
99,323,279791,2,0,P|123:345|148:347,1,56.2500021457673
171,340,280134,2,0,P|158:308|168:282,1,56.2500021457673
211,247,280477,5,0,0:0:0:0:
182,162,280648,1,0,0:0:0:0:
172,155,280734,1,0,0:0:0:0:
160,154,280820,1,0,0:0:0:0:
84,183,280991,1,0,0:0:0:0:
58,87,281162,6,0,L|93:71,1,37.5000014305115
132,24,281420,1,0,0:0:0:0:
132,24,281505,2,0,L|180:45,1,37.5000014305115
253,21,281848,1,0,0:0:0:0:
414,42,282191,6,0,L|394:88,1,37.5000014305115
348,115,282448,1,0,0:0:0:0:
348,115,282534,2,0,L|359:160,1,37.5000014305115
414,217,282877,1,0,0:0:0:0:
399,345,283220,6,0,L|375:314,1,37.5000014305115
323,312,283477,1,0,0:0:0:0:
323,312,283563,2,0,L|333:261,1,37.5000014305115
300,192,283905,5,0,0:0:0:0:
223,96,284077,1,0,0:0:0:0:
300,192,284248,2,0,P|336:187|358:169,1,56.2500021457673
346,134,284591,2,0,P|371:111|402:107,1,56.2500021457673
428,115,284934,1,0,0:0:0:0:
428,115,285105,1,0,0:0:0:0:
311,32,285277,5,0,0:0:0:0:
228,62,285448,1,0,0:0:0:0:
217,65,285534,1,0,0:0:0:0:
205,64,285620,1,0,0:0:0:0:
116,34,285791,1,0,0:0:0:0:
38,113,285962,5,0,0:0:0:0:
49,125,286048,1,0,0:0:0:0:
55,140,286134,1,0,0:0:0:0:
55,156,286220,1,0,0:0:0:0:
50,172,286305,2,0,P|35:215|36:235,1,56.2500021457673
85,297,286648,5,0,0:0:0:0:
193,284,286991,1,0,0:0:0:0:
85,297,287334,1,0,0:0:0:0:
193,284,287677,1,0,0:0:0:0:
256,98,288020,5,0,0:0:0:0:
198,210,288362,1,0,0:0:0:0:
256,98,288705,1,0,0:0:0:0:
198,210,289048,1,0,0:0:0:0:
339,238,289391,5,0,0:0:0:0:
386,356,289734,1,0,0:0:0:0:
339,238,290077,1,0,0:0:0:0:
386,356,290420,1,0,0:0:0:0:
445,176,290762,5,0,0:0:0:0:
421,53,291105,1,0,0:0:0:0:
445,176,291448,1,0,0:0:0:0:
310,52,291791,6,0,L|282:58,1,18.7500007152558
246,30,291962,2,0,L|215:26,1,18.7500007152558
165,91,292134,1,0,0:0:0:0:
251,121,292305,1,0,0:0:0:0:
178,171,292477,1,0,0:0:0:0:
81,293,292820,5,0,0:0:0:0:
241,311,293162,1,0,0:0:0:0:
313,181,293505,5,0,0:0:0:0:
335,339,293848,1,0,0:0:0:0:
413,272,294020,6,0,L|423:283,2,9.37500035762788
406,256,294191,1,0,0:0:0:0:
405,239,294277,1,0,0:0:0:0:
413,224,294362,1,0,0:0:0:0:
427,214,294448,1,0,0:0:0:0:
438,201,294534,1,0,0:0:0:0:
398,106,294705,1,0,0:0:0:0:
484,25,294877,1,0,0:0:0:0:
256,192,294898,12,0,297598,0:0:0:0:
256,192,297620,12,0,300877,0:0:0:0:
