osu file format v14

[General]
AudioFilename: Grimoire of Crimson.mp3
AudioLeadIn: 0
PreviewTime: 297155
Countdown: 0
SampleSet: Soft
StackLeniency: 0.7
Mode: 0
LetterboxInBreaks: 0
StoryFireInFront: 0
EpilepsyWarning: 1
WidescreenStoryboard: 1
SamplesMatchPlaybackRate: 1

[Editor]
Bookmarks: 168,2880,5592,8304,11072,12427,13783,15139,16156,16326,16495,16834,17004,17173,17512,17851,18190,18529,18868,19207,22243,22258,22936,23275,23953,24122,24292,24461,24631,25309,25648,26326,26665,27004,27173,27343,28360,29716,30055,30394,30733,31072,31241,33105,34461,35139,35817,36495,37173,37851,38190,38360,38529,38699,38868,39038,39207,39377,39546,39716,39885,40055,40224,40394,40563,40733,40902,40959,41015,41072,41128,41184,41241,41326,41410,41495,41580,41608,41636,41665,41693,41721,41749,41778,41806,41834,41862,41891,41919,41947,41975,42004,42032,42060,42088,42117,42145,42173,42201,42230,42258,42921,43614,43952,44291,44630,44969,45308,45647,45986,46325,46664,47003,47342,47681,48020,48359,48698,48868,49037,49376,49715,50054,50393,50732,51071,51410,51749,52088,52427,52766,53105,53444,53783,54122,54150,54178,54207,54235,54263,54291,54320,54348,54376,54404,54433,54461,54800,55139,55478,55817,56156,56495,56834,57173,57512,57851,58190,58529,58868,59207,59546,59715,59885,60224,60563,60902,61241,61580,61919,62258,62597,62936,63275,63614,63952,64291,64630,64659,64687,64715,64743,64772,64800,64828,64856,64885,64913,64941,64969,64998,65026,65054,65082,65111,65139,65167,65195,65224,65252,65280,65308,65478,65647,65817,65986,66156,66325,66495,66664,66834,67003,67173,67342,67512,67681,67851,68020,68359,68698,69037,69376,69715,70054,70082,70111,70139,70167,70195,70224,70393,70563,70732,71071,71410,71749,72088,72427,72766,73105,73444,73783,74122,74461,74800,74969,75139,75308,75478,75647,75817,75845,75873,75902,75930,75958,75986,76156,76325,76495,76834,77173,77512,77851,78190,78529,78868,79207,79546,79885,80224,80563,80902,81241,81410,81580,81919,82258,82597,82936,83275,83614,83952,84291,84630,84969,85308,85647,85817,85986,86156,86325,86495,86664,86693,86721,86749,86777,86806,86834,86862,86890,86919,86947,86975,87002,87340,87679,88018,88357,88696,89035,89374,89713,90052,90391,90730,91069,91408,91747,92086,92114,92143,92171,92199,92227,92256,92284,92312,92340,92369,92397,92425,92934,93103,93442,93781,94120,94459,94798,95137,95476,95815,96154,96493,96663,96832,97002,97171,97199,97227,97256,97284,97312,97340,97369,97397,97425,97453,97482,97510,97538,97566,97595,97623,97651,97679,97851,98190,98527,98866,99205,99544,99883,100222,100250,100278,100307,100335,100363,100391,100420,100448,100476,100504,100533,100561,100900,101239,101578,101606,101634,101663,101691,101719,101747,101776,101804,101832,101860,101889,101917,102256,102595,102934,102976,103018,103061,103103,103146,103188,103230,103273,103612,103951,104290,104629,104968,105307,105646,105985,106154,106324,106493,106663,106832,107002,107171,107340,107510,107679,107849,108018,108188,108357,108527,108684,125294,149828,151396,152074,156495,200210,206480,211732,244274,254447,255125,297837,298515,341226,341904,393426,396138
DistanceSpacing: 1.2
BeatDivisor: 1
GridSize: 4
TimelineZoom: 3.700004

[Metadata]
Title:Grimoire of Crimson
TitleUnicode:Grimoire of Crimson
Artist:Team Grimoire
ArtistUnicode:Team Grimoire
Creator:iaport
Version:Hard: Rhyfel
Source:Bemani
Tags:hard core hardcore j-core xfd crossfade
BeatmapID:2313043
BeatmapSetID:844098

[Difficulty]
HPDrainRate:4
CircleSize:3.4
OverallDifficulty:8.6
ApproachRate:9
SliderMultiplier:1.79999990463257
SliderTickRate:1

[Events]
//Background and Video events
0,0,"Crypt.jpg",0,0
//Break Periods
//Storyboard Layer 0 (Background)
//Storyboard Layer 1 (Fail)
//Storyboard Layer 2 (Pass)
//Storyboard Layer 3 (Foreground)
//Storyboard Layer 4 (Overlay)
//Storyboard Sound Samples

[TimingPoints]
168,338.983050847458,4,2,1,40,1,0
11072,338.983050847458,4,2,1,60,1,0
11072,-100,4,2,1,50,0,0
21919,-100,4,2,1,50,0,0
42258,1764.70588235294,4,2,0,100,1,0
43614,338.983050847458,4,2,1,100,1,0
43614,-100,4,2,1,80,0,1
64630,-100,4,2,1,100,0,0
65308,-100,4,2,1,100,0,1
85647,-100,4,2,1,100,0,0
87002,338.983050847458,4,2,1,60,1,0
87002,-100,4,2,1,60,0,1
106663,-100,4,2,1,50,0,1
107340,-100,4,2,1,75,0,1
108018,-100,4,2,1,100,0,1
108696,-83.3333333333333,4,2,1,100,0,0
116154,-83.3333333333333,4,2,1,100,0,0
116832,-83.3333333333333,4,2,1,100,0,0
127340,-83.3333333333333,4,2,1,100,0,0
127679,-83.3333333333333,4,2,1,100,0,0
130054,2033.89830508475,4,2,1,60,1,0
130393,338.983050847458,4,2,1,60,1,0
138189,-83.3333333333333,4,2,1,80,0,0
138528,-83.3333333333333,4,2,1,60,0,0
140223,-83.3333333333333,4,3,0,30,0,0
140901,-83.3333333333333,4,2,1,30,0,0
146155,1355.93220338983,4,2,1,30,1,0
146664,338.983050847458,4,2,1,60,1,0
146833,338.983050847458,4,2,1,40,1,0
146833,-83.3333333333333,4,2,1,40,0,0
152074,677.966101694915,4,2,0,50,1,0
152074,-133.333333333333,4,3,0,50,0,0
154785,-133.333333333333,4,3,2,50,0,0
165648,-133.333333333333,4,2,0,50,0,0
168360,1355.93220338983,4,2,0,50,1,0
171071,2711.86440677966,4,2,0,60,1,0
173783,338.983050847458,4,2,0,40,1,0
173783,-100,4,2,0,60,0,0
195138,-100,4,2,1,60,0,0
195479,1764.70588235294,4,2,0,50,1,0
195479,-100,4,2,0,50,0,0
200901,338.983050847458,4,2,0,100,1,0
200902,338.983050847458,4,2,0,100,1,0
200902,-83.3333333333333,4,2,1,100,0,0
206325,169.014084507042,4,2,0,100,1,0
206325,-125,4,2,1,100,0,1
207677,-125,4,2,1,50,0,1
210381,1764.70588235294,4,2,0,100,1,0
211732,338.983050847458,4,2,1,100,1,0
211732,-100,4,2,1,100,0,1
217155,-66.6666666666667,4,2,1,100,0,1
222240,-66.6666666666667,4,2,1,100,0,1
222579,-66.6666666666667,4,2,1,100,0,1
231393,-50,4,2,1,100,0,1
232748,-66.6666666666667,4,2,1,100,0,1
243935,-66.6666666666667,4,2,1,100,0,1
255121,-66.6666666666667,4,2,1,100,0,0
260206,-66.6666666666667,4,2,1,100,0,0
260545,-66.6666666666667,4,2,1,100,0,0
268342,-100,4,2,1,100,0,0
268681,-66.6666666666667,4,2,1,100,0,0
270037,-66.6666666666667,4,2,1,100,0,0
271053,-66.6666666666667,4,2,1,100,0,0
276816,-66.6666666666667,4,2,1,100,0,0
284613,-66.6666666666667,4,2,1,100,0,0
298511,-66.6666666666667,4,2,1,70,0,1
309020,-66.6666666666667,4,2,1,100,0,1
309359,-66.6666666666667,4,2,1,75,0,1
313087,-50,4,2,1,70,0,1
313426,-66.6666666666667,4,2,1,50,0,1
314443,-50,4,2,1,70,0,1
314782,-66.6666666666667,4,2,1,70,0,1
319867,-66.6666666666667,4,2,1,60,0,0
320206,-100,4,2,1,60,0,1
325291,-66.6666666666667,4,2,1,60,0,0
325630,-66.6666666666667,4,2,1,60,0,1
329359,-66.6666666666667,4,2,1,100,0,1
341901,-100,4,2,1,100,0,0
352748,-100,4,2,1,100,0,0
363596,677.966101694915,4,2,1,15,1,0
363596,-200,4,2,1,15,0,0
368680,-1000,4,2,1,15,0,0
369019,-200,4,2,1,15,0,0
374104,-1000,4,2,1,15,0,0
374443,-200,4,2,1,15,0,0
379528,-1000,4,2,1,15,0,0
379867,-200,4,2,1,15,0,0
384951,-1000,4,2,1,15,0,0
385290,-200,4,2,1,15,0,0
387663,-1000,4,2,1,15,0,0
388002,-200,4,2,1,15,0,0
390375,-1000,4,2,1,15,0,0
390714,-200,4,2,1,15,0,0
393483,-200,4,2,1,5,0,0

[Colours]
Combo1 : 100,0,0
Combo2 : 170,0,0
Combo3 : 0,125,0
Combo4 : 145,145,0
Combo5 : 170,47,0
Combo6 : 173,173,173
Combo7 : 68,68,68
Combo8 : 111,55,0

[HitObjects]
256,192,168,12,2,2710,0:0:0:0:
256,192,2922,12,8,5464,0:0:0:0:
256,192,5676,12,2,8219,0:0:0:0:
256,192,8303,12,0,11015,0:0:0:0:
434,188,11072,6,0,B|345:175|285:122|285:122|193:202|100:160,1,359.999980926514
238,40,12088,1,0,0:0:0:0:
245,219,12427,6,0,B|188:266|91:243|91:243|113:324|172:349|251:335,1,359.999980926514
387,229,13444,1,0,0:0:0:0:
208,203,13783,6,0,B|175:191|204:114|79:108|79:108|206:103|181:14|227:9,1,359.999980926514
376,106,14800,1,0,0:0:0:0:
207,172,15139,6,0,P|204:233|268:178,2,179.999990463257
302,51,16156,1,0,0:0:0:0:
302,51,16326,1,0,0:0:0:0:
302,51,16495,6,0,P|374:91|397:185,1,179.999990463257
230,249,17173,1,0,0:0:0:0:
328,47,17512,1,0,0:0:0:0:
348,225,17851,6,0,P|322:311|237:324,1,179.999990463257
162,163,18529,1,0,0:0:0:0:
328,230,18868,1,0,0:0:0:0:
161,299,19207,6,0,P|118:248|121:140,3,179.999990463257
298,174,20563,5,0,0:0:0:0:
256,192,20605,12,0,21749,0:0:0:0:
403,133,21919,6,0,B|359:183|350:300|350:300|305:219|188:198,1,359.999980926514
248,29,22936,1,0,0:0:0:0:
383,148,23275,6,0,B|397:200|397:200|343:230|343:230|339:298|339:298|282:321|282:321|246:299|246:299|239:262|239:262|266:215,1,359.999980926514
187,303,24292,1,0,0:0:0:0:
187,303,24631,6,0,L|197:74,2,179.999990463257
331,194,25648,1,0,0:0:0:0:
400,27,25987,6,0,B|458:144|458:144|454:195|454:195|395:288|395:288|332:258,1,359.999980926514
203,133,27004,1,0,0:0:0:0:
203,133,27173,1,0,0:0:0:0:
203,133,27343,6,0,B|205:193|205:193|246:220|246:220|234:303,1,179.999990463257
376,322,28021,2,0,B|416:235|295:270|325:157,1,179.999990463257
207,80,28699,5,0,0:0:0:0:
207,83,29038,1,0,0:0:0:0:
207,80,29377,1,0,0:0:0:0:
207,83,29716,1,0,0:0:0:0:
207,80,30055,6,0,P|174:172|198:249,1,179.999990463257
341,256,30733,1,0,0:0:0:0:
273,128,31072,5,0,0:0:0:0:
256,192,31241,12,0,32597,0:0:0:0:
133,231,32766,6,0,P|94:176|145:68,1,179.999990463257
254,150,33444,2,0,B|331:134|245:301|316:290,1,179.999990463257
127,167,34122,6,0,P|194:178|290:117,1,179.999990463257
69,129,34800,2,0,P|67:242|134:262,1,179.999990463257
271,113,35478,6,0,P|314:109|393:217,1,179.999990463257
177,197,36156,1,0,0:0:0:0:
322,37,36495,1,0,0:0:0:0:
341,252,36834,6,0,P|321:331|228:344,1,179.999990463257
230,130,37512,1,0,0:0:0:0:
333,319,37851,1,0,0:0:0:0:
227,341,38021,1,0,0:0:0:0:
125,304,38190,6,0,P|125:253|157:218,1,89.9999952316285
256,222,38529,2,0,P|320:212|337:190,1,89.9999952316285
391,103,38868,2,0,P|375:69|323:38,1,89.9999952316285
266,126,39207,2,0,P|228:155|183:149,1,89.9999952316285
109,77,39546,6,0,P|70:110|60:156,1,89.9999952316285
93,249,39885,2,0,P|132:269|179:264,1,89.9999952316285
254,189,40224,2,0,P|292:189|336:219,1,89.9999952316285
441,199,40563,2,0,P|442:248|424:296,1,89.9999952316285
353,317,40860,6,0,B|287:326|287:326|214:289|214:289|146:283|146:283|99:235|99:235|95:185|95:185|133:152|133:152|188:153|188:153|217:171|217:171|281:149|281:149|320:185|320:185|361:182|361:182|391:197,1,652.499965429307
376,289,42258,5,0,0:0:0:0:
243,337,43614,6,0,P|237:298|256:248,1,89.9999952316285
224,147,43952,2,0,P|260:161|294:202,1,89.9999952316285
396,229,44291,2,0,P|365:253|312:262,1,89.9999952316285
220,211,44630,2,0,P|175:217|140:244,1,89.9999952316285
245,268,44969,6,0,P|276:231|281:187,1,89.9999952316285
186,138,45308,2,0,P|193:94|222:60,1,89.9999952316285
324,96,45647,2,0,P|379:91|403:124,1,89.9999952316285
411,221,45986,1,0,0:0:0:0:
314,270,46156,1,0,0:0:0:0:
221,215,46325,6,0,P|219:171|249:120,1,89.9999952316285
346,127,46664,2,0,P|360:167|348:213,1,89.9999952316285
247,173,47003,2,0,P|270:132|319:120,1,89.9999952316285
395,184,47342,2,0,P|372:225|323:237,1,89.9999952316285
262,155,47681,6,0,P|219:116|170:104,1,89.9999952316285
81,112,48020,2,0,P|50:140|53:195,1,89.9999952316285
147,229,48359,2,0,P|150:278|181:308,1,89.9999952316285
269,249,48698,1,0,0:0:0:0:
287,142,48868,1,0,0:0:0:0:
380,88,49037,6,0,P|406:116|412:181,1,89.9999952316285
339,243,49376,2,0,P|306:220|271:174,1,89.9999952316285
239,79,49715,2,0,P|185:51|139:56,1,89.9999952316285
90,136,50054,2,0,P|88:185|125:221,1,89.9999952316285
195,284,50393,6,0,P|250:290|300:271,1,89.9999952316285
287,172,50732,2,0,P|326:141|339:99,1,89.9999952316285
237,64,51071,2,0,P|208:16|175:-2,1,89.9999952316285
141,100,51410,2,0,P|136:131|163:194,1,89.9999952316285
241,250,51749,6,0,P|268:226|281:173,1,89.9999952316285
343,86,52088,2,0,P|377:101|407:163,1,89.9999952316285
405,252,52427,2,0,P|368:298|317:297,1,89.9999952316285
234,279,52766,2,0,P|217:226|229:185,1,89.9999952316285
273,96,53105,2,0,P|219:67|185:64,1,89.9999952316285
104,129,53444,2,0,P|94:178|109:217,1,89.9999952316285
211,245,53783,2,0,P|255:218|305:217,1,89.9999952316285
384,271,54122,2,0,L|380:305,6,22.4999988079071
432,247,54461,6,0,P|449:208|424:149,1,89.9999952316285
329,169,54800,2,0,P|330:108|297:77,1,89.9999952316285
