osu file format v14

[General]
AudioFilename: Grimoire of Crimson.mp3
AudioLeadIn: 0
PreviewTime: 297155
Countdown: 0
SampleSet: Soft
StackLeniency: 0.7
Mode: 0
LetterboxInBreaks: 0
StoryFireInFront: 0
EpilepsyWarning: 1
WidescreenStoryboard: 1
SamplesMatchPlaybackRate: 1

[Editor]
Bookmarks: 168,2880,5592,8304,11072,12427,13783,15139,16156,16326,16495,16834,17004,17173,17512,17851,18190,18529,18756,18868,19207,22243,22258,22936,23275,23953,24122,24292,24461,24631,25309,25648,26326,26665,27004,27173,27343,28360,29716,30055,30394,30733,31072,31241,33105,34461,35139,35817,36495,37173,37851,38190,38529,38868,39207,39377,39546,39716,39885,40055,40224,40394,40563,40620,40676,40733,40789,40846,40902,40959,41015,41072,41128,41184,41241,41326,41410,41495,41580,41608,41636,41665,41693,41721,41749,41806,41834,41862,41891,41919,41947,41975,42004,42032,42060,42088,42117,42145,42173,42201,42230,42258,42921,43614,43952,44291,44630,44969,45308,45647,45986,46325,46664,47003,47342,47681,48020,48359,48698,48868,49037,49376,49715,50054,50393,50732,51071,51410,51749,52088,52427,52766,53105,53444,53783,54122,54150,54178,54207,54235,54263,54291,54320,54348,54376,54404,54433,54461,54800,55139,55478,55817,56156,56495,56834,57173,57512,57851,58190,58529,58868,59207,59546,59715,59885,60224,60563,60902,61241,61580,61919,62258,62597,62936,63275,63614,63952,64291,64630,64659,64687,64715,64743,64772,64800,64828,64856,64885,64913,64941,64969,64998,65026,65054,65082,65111,65139,65167,65195,65224,65252,65280,65308,65478,65647,65817,65986,66156,66325,66495,66664,66834,67003,67173,67342,67512,67681,67851,68020,68359,68698,69037,69376,69715,70054,70082,70111,70139,70167,70195,70224,70393,70563,70732,71071,71410,71749,72088,72427,72766,73105,73444,73783,74122,74461,74800,74969,75139,75308,75478,75647,75817,75845,75873,75902,75930,75958,75986,76156,76325,76495,76834,77173,77512,77851,78190,78529,78868,79207,79546,79885,80224,80563,80902,81241,81410,81580,81919,82258,82597,82936,83275,83614,83952,84291,84630,84969,85308,85647,85817,85986,86156,86325,86495,86664,86693,86721,86749,86777,86806,86834,86862,86890,86919,86947,86975,87002,87340,87679,88018,88357,88696,89035,89374,89713,90052,90391,90730,91069,91408,91747,92086,92114,92143,92171,92199,92227,92256,92284,92312,92340,92369,92397,92425,92934,93103,93442,93781,94120,94459,94798,95137,95476,95815,96154,96493,96663,96832,97002,97171,97199,97227,97256,97284,97312,97340,97369,97397,97425,97453,97482,97510,97538,97566,97595,97623,97651,97679,97851,98190,98527,98866,99205,99544,99883,100222,100250,100278,100307,100335,100363,100391,100420,100448,100476,100504,100533,100561,100900,101239,101578,101606,101634,101663,101691,101719,101747,101776,101804,101832,101860,101889,101917,102256,102595,102934,102976,103018,103061,103103,103146,103188,103230,103273,103612,103951,104290,104629,104968,105307,105646,105985,106154,106324,106493,106663,106832,107002,107171,107340,107510,107679,107849,108018,108188,108357,108527,108684,125294,149828,151396,152074,156495,200210,206480,211732,244274,254447,255125,297837,298515,341226,341904,393426,396138
DistanceSpacing: 1.3
BeatDivisor: 4
GridSize: 4
TimelineZoom: 3.700004

[Metadata]
Title:Grimoire of Crimson
TitleUnicode:Grimoire of Crimson
Artist:Team Grimoire
ArtistUnicode:Team Grimoire
Creator:iaport
Version:Bleedout: Extra
Source:Bemani
Tags:hard core hardcore j-core xfd crossfade
BeatmapID:2163752
BeatmapSetID:844098

[Difficulty]
HPDrainRate:6
CircleSize:3.9
OverallDifficulty:9.4
ApproachRate:9.9
SliderMultiplier:1.79999990463257
SliderTickRate:1

[Events]
//Background and Video events
0,0,"Crypt.jpg",0,0
//Break Periods
2,31610,32287
2,195677,197647
2,198326,200423
//Storyboard Layer 0 (Background)
//Storyboard Layer 1 (Fail)
//Storyboard Layer 2 (Pass)
//Storyboard Layer 3 (Foreground)
//Storyboard Layer 4 (Overlay)
//Storyboard Sound Samples

[TimingPoints]
168,338.983050847458,4,2,1,40,1,0
11072,338.983050847458,4,2,1,60,1,0
11072,-100,4,2,1,50,0,0
17682,-100,4,2,1,70,0,0
22243,-100,4,2,1,80,0,0
25648,-100,4,2,1,60,0,0
26326,-100,4,2,1,60,0,0
27004,-100,4,2,1,60,0,0
33091,-100,4,2,1,90,0,0
35139,-100,4,2,1,90,0,0
35478,-100,4,2,1,90,0,0
35817,-100,4,2,1,90,0,0
37851,-100,4,2,1,40,0,0
42258,1764.70588235294,4,2,0,100,1,0
43614,338.983050847458,4,2,1,100,1,0
43614,-66.6666666666667,4,2,1,80,0,1
64630,-66.6666666666667,4,2,1,100,0,0
65308,-66.6666666666667,4,2,1,100,0,1
85647,-33.3333333333333,4,2,1,100,0,0
87002,338.983050847458,4,2,1,60,1,0
87002,-66.6666666666667,4,2,1,100,0,1
106663,-66.6666666666667,4,2,1,50,0,1
107340,-66.6666666666667,4,2,1,75,0,1
108018,-66.6666666666667,4,2,1,100,0,1
108696,-83.3333333333333,4,2,1,100,0,0
116154,-83.3333333333333,4,2,1,100,0,0
116832,-83.3333333333333,4,2,1,100,0,0
127340,-83.3333333333333,4,2,1,100,0,0
127679,-83.3333333333333,4,2,1,100,0,0
130054,2033.89830508475,4,2,1,60,1,0
130393,338.983050847458,4,2,1,60,1,0
138189,-83.3333333333333,4,2,1,80,0,0
138528,-83.3333333333333,4,2,1,60,0,0
140223,-83.3333333333333,4,3,0,30,0,0
140901,-83.3333333333333,4,2,1,30,0,0
146155,1355.93220338983,4,2,1,30,1,0
146664,338.983050847458,4,2,1,60,1,0
146833,338.983050847458,4,2,1,40,1,0
146833,-83.3333333333333,4,2,1,40,0,0
152074,677.966101694915,4,2,0,50,1,0
152074,-133.333333333333,4,3,0,50,0,0
154785,-133.333333333333,4,3,2,50,0,0
165648,-133.333333333333,4,2,0,50,0,0
168360,1355.93220338983,4,2,0,50,1,0
171071,2711.86440677966,4,2,0,60,1,0
173783,338.983050847458,4,2,0,40,1,0
173783,-100,4,2,0,60,0,0
195138,-100,4,2,1,60,0,0
195479,1764.70588235294,4,2,0,50,1,0
195479,-100,4,2,0,50,0,0
200901,338.983050847458,4,2,0,100,1,0
200902,338.983050847458,4,2,0,100,1,0
200902,-83.3333333333333,4,2,1,100,0,0
206325,169.014084507042,4,2,0,100,1,0
206325,-125,4,2,1,100,0,1
207677,-125,4,2,1,50,0,1
210381,1764.70588235294,4,2,0,100,1,0
211732,338.983050847458,4,2,1,100,1,0
211732,-100,4,2,1,100,0,1
217155,-66.6666666666667,4,2,1,100,0,1
222240,-66.6666666666667,4,2,1,100,0,1
222579,-66.6666666666667,4,2,1,100,0,1
231393,-50,4,2,1,100,0,1
232748,-66.6666666666667,4,2,1,100,0,1
243935,-66.6666666666667,4,2,1,100,0,1
255121,-66.6666666666667,4,2,1,100,0,0
260206,-66.6666666666667,4,2,1,100,0,0
260545,-66.6666666666667,4,2,1,100,0,0
268342,-100,4,2,1,100,0,0
268681,-66.6666666666667,4,2,1,100,0,0
270037,-66.6666666666667,4,2,1,100,0,0
271053,-66.6666666666667,4,2,1,100,0,0
276816,-66.6666666666667,4,2,1,100,0,0
284613,-66.6666666666667,4,2,1,100,0,0
298511,-66.6666666666667,4,2,1,70,0,1
309020,-66.6666666666667,4,2,1,100,0,1
309359,-66.6666666666667,4,2,1,75,0,1
313087,-50,4,2,1,70,0,1
313426,-66.6666666666667,4,2,1,50,0,1
314443,-50,4,2,1,70,0,1
314782,-66.6666666666667,4,2,1,70,0,1
319867,-66.6666666666667,4,2,1,60,0,0
320206,-100,4,2,1,60,0,1
325291,-66.6666666666667,4,2,1,60,0,0
325630,-66.6666666666667,4,2,1,60,0,1
329359,-66.6666666666667,4,2,1,100,0,1
341901,-100,4,2,1,100,0,0
352748,-100,4,2,1,100,0,0
363596,677.966101694915,4,2,1,15,1,0
363596,-200,4,2,1,15,0,0
368680,-1000,4,2,1,15,0,0
369019,-200,4,2,1,15,0,0
374104,-1000,4,2,1,15,0,0
374443,-200,4,2,1,15,0,0
379528,-1000,4,2,1,15,0,0
379867,-200,4,2,1,15,0,0
384951,-1000,4,2,1,15,0,0
385290,-200,4,2,1,15,0,0
387663,-1000,4,2,1,15,0,0
388002,-200,4,2,1,15,0,0
390375,-1000,4,2,1,15,0,0
390714,-200,4,2,1,15,0,0
393483,-200,4,2,1,5,0,0

[Colours]
Combo1 : 191,0,96
Combo2 : 170,0,0
Combo3 : 0,125,0
Combo4 : 145,145,0
Combo5 : 170,47,0
Combo6 : 173,173,173
Combo7 : 68,68,68
Combo8 : 0,0,125

[HitObjects]
256,192,168,12,2,2710,0:0:0:0:
256,192,2922,12,8,5464,0:0:0:0:
256,192,5676,12,2,8219,0:0:0:0:
256,192,8303,12,0,11015,0:0:0:0:
190,160,11072,6,2,L|382:163,3,179.999990463257,2|8|2|8,0:0|0:0|0:0|0:0,0:0:0:0:
235,282,12427,2,0,L|115:137,3,179.999990463257,2|8|2|8,0:0|0:0|0:0|0:0,0:0:0:0:
284,68,13783,6,2,P|322:88|341:222,1,179.999990463257,2|8,0:0|0:0,0:0:0:0:
179,279,14461,2,2,P|138:195|154:96,1,179.999990463257,2|8,0:0|0:0,0:0:0:0:
323,72,15139,2,2,P|394:117|418:212,1,179.999990463257,2|8,0:0|0:0,0:0:0:0:
259,290,15817,1,2,0:0:0:0:
79,303,16156,2,8,L|77:203,1,89.9999952316285
139,147,16495,6,0,P|192:143|312:206,1,179.999990463257,0|8,0:0|0:0,0:0:0:0:
151,293,17173,1,2,0:0:0:0:
159,113,17512,1,8,0:0:0:0:
272,253,17851,2,0,P|215:243|233:132,1,179.999990463257,0|8,0:0|0:0,0:0:0:0:
395,167,18529,1,2,0:0:0:0:
257,283,18868,1,8,0:0:0:0:
96,201,19207,6,2,L|132:107,3,89.9999952316285,2|2|2|10,0:0|0:0|0:0|0:0,0:0:0:0:
211,152,19885,2,2,L|272:80,3,89.9999952316285,2|2|2|10,0:0|0:0|0:0|0:0,0:0:0:0:
326,152,20563,2,2,L|413:195,3,89.9999952316285,2|2|2|10,0:0|0:0|0:0|0:0,0:0:0:0:
346,259,21241,1,2,0:0:0:0:
261,288,21410,1,2,0:0:0:0:
172,268,21580,1,2,0:0:0:0:
112,200,21749,1,10,0:0:0:0:
132,112,21919,6,2,P|170:66|316:62,1,179.999990463257,2|10,0:0|0:0,0:0:0:0:
320,223,22597,2,2,P|257:247|150:190,1,179.999990463257,2|10,0:0|0:0,0:0:0:0:
294,83,23275,1,2,0:0:0:0:
215,244,23614,1,10,0:0:0:0:
370,153,23953,1,2,0:0:0:0:
195,110,24292,1,10,0:0:0:0:
144,282,24631,6,2,P|207:304|346:278,1,179.999990463257,2|10,0:0|0:0,0:0:0:0:
178,176,25309,2,2,P|277:151|372:197,1,179.999990463257,2|10,0:0|0:0,0:0:0:0:
214,297,25987,1,2,0:0:0:0:
194,118,26326,1,2,0:0:0:0:
357,192,26665,1,2,0:0:0:0:
182,235,27004,2,2,L|119:251,1,44.9999976158143,2|0,0:0|0:0,0:0:0:0:
98,266,27173,2,2,L|162:294,1,44.9999976158143,2|0,0:0|0:0,0:0:0:0:
182,299,27343,6,2,P|258:281|271:179,1,179.999990463257
96,188,28021,2,2,P|132:124|261:99,1,179.999990463257,2|10,0:0|0:0,0:0:0:0:
401,142,28699,1,2,0:0:0:0:
266,261,29038,1,10,0:0:0:0:
168,109,29377,1,2,0:0:0:0:
174,288,29716,1,10,0:0:0:0:
353,284,30055,6,2,L|347:88,3,179.999990463257
190,192,31410,1,4,0:0:0:0:
230,140,32766,6,2,P|306:140|389:222,1,179.999990463257,2|10,0:0|0:0,0:0:0:0:
256,334,33444,2,2,P|204:308|146:167,1,179.999990463257,2|10,0:0|0:0,0:0:0:0:
314,139,34122,1,2,0:0:0:0:
195,274,34461,1,10,0:0:0:0:
183,94,34800,1,2,0:0:0:0:
299,230,35139,1,10,0:0:0:0:
118,229,35478,6,2,P|127:162|210:56,1,179.999990463257,2|10,0:0|0:0,0:0:0:0:
367,41,36156,2,2,P|398:98|375:226,1,179.999990463257,2|10,0:0|0:0,0:0:0:0:
222,286,36834,2,2,P|127:252|96:162,1,179.999990463257,2|10,0:0|0:0,0:0:0:0:
222,55,37512,1,2,0:0:0:0:
203,234,37851,1,2,0:0:0:0:
126,185,38021,1,2,0:0:0:0:
116,94,38190,6,2,P|135:54|175:35,3,89.9999952316285
265,38,38868,2,2,P|314:64|321:100,3,89.9999952316285
262,163,39546,2,2,P|217:194|232:224,3,89.9999952316285
310,250,40224,1,2,0:0:0:0:
389,207,40394,1,2,0:0:0:0:
385,117,40563,1,2,0:0:0:0:
302,81,40733,1,2,0:0:0:0:
219,115,40902,5,2,0:0:0:0:
210,204,41072,1,2,0:0:0:0:
281,257,41241,1,2,0:0:0:0:
369,244,41410,1,2,0:0:0:0:
408,162,41580,1,2,0:0:0:0:
387,74,41749,1,2,0:0:0:0:
302,41,41919,1,2,0:0:0:0:
213,57,42088,1,2,0:0:0:0:
175,144,42258,1,4,0:0:0:0:
408,78,43614,6,2,P|423:135|410:217,1,134.999997997284,2|0,0:0|0:0,0:0:0:0:
278,208,43952,2,2,P|294:151|274:67,1,134.999997997284,2|0,0:0|0:0,0:0:0:0:
147,105,44291,1,2,0:0:0:0:
100,232,44461,1,0,0:0:0:0:
211,308,44630,2,2,P|292:300|352:265,1,134.999997997284,2|0,0:0|0:0,0:0:0:0:
397,153,44969,6,2,P|328:97|245:86,1,134.999997997284,2|0,0:0|0:0,0:0:0:0:
172,161,45308,1,2,0:0:0:0:
212,290,45478,1,0,0:0:0:0:
345,269,45647,2,2,P|332:185|301:124,1,134.999997997284,2|0,0:0|0:0,0:0:0:0:
183,186,45986,1,2,0:0:0:0:
275,284,46156,1,0,0:0:0:0:
367,185,46325,6,2,P|350:89|291:40,1,134.999997997284,2|0,0:0|0:0,0:0:0:0:
193,80,46664,2,2,P|110:129|91:180,1,134.999997997284,2|0,0:0|0:0,0:0:0:0:
177,268,47003,2,2,P|255:244|299:181,1,134.999997997284,2|0,0:0|0:0,0:0:0:0:
179,124,47342,2,2,P|130:170|119:235,1,134.999997997284,2|0,0:0|0:0,0:0:0:0:
242,292,47681,6,2,P|300:262|334:181,1,134.999997997284,2|0,0:0|0:0,0:0:0:0:
229,113,48020,2,2,P|287:62|370:50,1,134.999997997284,2|0,0:0|0:0,0:0:0:0:
456,120,48359,1,2,0:0:0:0:
361,217,48529,1,0,0:0:0:0:
238,160,48698,2,2,L|226:232,1,67.499998998642,2|0,0:0|0:0,0:0:0:0:
273,277,48868,2,2,L|253:346,1,67.499998998642,2|0,0:0|0:0,0:0:0:0:
187,354,49037,6,2,P|119:322|90:254,1,134.999997997284,2|0,0:0|0:0,0:0:0:0:
31,149,49376,2,2,P|104:102|194:102,1,134.999997997284,2|0,0:0|0:0,0:0:0:0:
273,38,49715,1,2,0:0:0:0:
285,172,49885,1,0,0:0:0:0:
415,203,50054,2,2,P|390:289|306:335,1,134.999997997284,2|0,0:0|0:0,0:0:0:0:
226,283,50393,6,2,P|125:238|90:182,1,134.999997997284,2|0,0:0|0:0,0:0:0:0:
153,92,50732,1,2,0:0:0:0:
288,95,50902,1,0,0:0:0:0:
371,200,51071,2,2,P|279:215|201:194,1,134.999997997284,2|0,0:0|0:0,0:0:0:0:
263,75,51410,1,2,0:0:0:0:
397,89,51580,1,0,0:0:0:0:
356,217,51749,6,2,P|316:280|250:318,1,134.999997997284,2|0,0:0|0:0,0:0:0:0:
144,253,52088,2,2,P|110:180|140:98,1,134.999997997284,2|0,0:0|0:0,0:0:0:0:
253,112,52427,2,2,P|294:170|305:262,1,134.999997997284,2|0,0:0|0:0,0:0:0:0:
182,178,52766,2,2,P|217:106|300:62,1,134.999997997284,2|0,0:0|0:0,0:0:0:0:
392,100,53105,6,2,P|426:174|420:255,1,134.999997997284,2|0,0:0|0:0,0:0:0:0:
325,315,53444,2,2,P|246:317|180:270,1,134.999997997284,2|0,0:0|0:0,0:0:0:0:
200,155,53783,1,2,0:0:0:0:
315,86,53952,1,0,0:0:0:0:
432,153,54122,2,2,L|425:208,6,33.749999499321
427,186,54461,6,2,P|450:227|425:312,1,134.999997997284
307,246,54800,2,2,P|311:158|271:97,1,134.999997997284
156,98,55139,1,2,0:0:0:0:
106,223,55308,1,2,0:0:0:0:
206,311,55478,2,2,P|274:310|339:295,1,134.999997997284
430,194,55817,6,2,P|432:114|395:61,1,134.999997997284
270,89,56156,1,2,0:0:0:0:
179,188,56325,1,2,0:0:0:0:
280,277,56495,2,2,P|310:198|296:121,1,134.999997997284
190,78,56834,1,2,0:0:0:0:
106,183,57003,1,2,0:0:0:0:
217,260,57173,6,2,P|292:221|332:139,1,134.999997997284
193,132,57512,2,2,P|151:191|155:277,1,134.999997997284
280,277,57851,2,2,P|368:266|430:222,1,134.999997997284
443,112,58190,2,2,P|393:51|328:26,1,134.999997997284
207,36,58529,6,2,P|145:96|150:165,1,134.999997997284
53,243,58868,2,2,P|119:295|203:296,1,134.999997997284
302,315,59207,2,2,P|347:255|350:184,1,134.999997997284
282,81,59546,1,2,0:0:0:0:
168,153,59715,1,2,0:0:0:0:
149,287,59885,6,2,L|315:308,1,134.999997997284
416,280,60224,2,2,P|434:199|405:133,1,134.999997997284
304,77,60563,1,2,0:0:0:0:
182,135,60732,1,2,0:0:0:0:
46,138,60902,2,2,P|83:216|168:250,1,134.999997997284
247,291,61241,6,2,P|320:240|355:169,1,134.999997997284
237,118,61580,1,2,0:0:0:0:
224,252,61749,1,2,0:0:0:0:
358,267,61919,2,2,P|426:215|434:120,1,134.999997997284
353,66,62258,1,2,0:0:0:0:
218,75,62427,1,2,0:0:0:0:
177,204,62597,6,2,P|239:277|337:284,1,134.999997997284
405,257,62936,2,2,P|425:180|410:120,1,134.999997997284
277,128,63275,2,2,P|197:88|111:100,1,134.999997997284
126,220,63614,2,2,P|170:300|230:318,1,134.999997997284
335,277,63952,5,2,0:0:0:0:
374,147,64122,1,2,0:0:0:0:
250,201,64291,1,2,0:0:0:0:
242,65,64461,1,2,0:0:0:0:
141,154,64630,6,2,L|126:208,3,33.749999499321
165,192,64800,2,2,L|181:243,3,33.749999499321
144,238,64969,2,0,L|146:271,7,33.749999499321,2|0|0|0|0|0|0|0,0:0|0:0|0:0|0:0|0:0|0:0|0:0|0:0,0:0:0:0:
166,282,65308,6,2,P|241:300|297:293,1,134.999997997284,2|0,0:0|0:0,0:0:0:0:
407,213,65647,2,2,P|364:129|316:90,1,134.999997997284,2|0,0:0|0:0,0:0:0:0:
199,97,65986,1,2,0:0:0:0:
263,215,66156,1,0,0:0:0:0:
132,182,66325,1,2,0:0:0:0:
256,235,66495,1,0,0:0:0:0:
143,308,66664,6,2,P|214:326|296:311,1,134.999997997284,2|0,0:0|0:0,0:0:0:0:
409,333,67003,2,2,P|406:273|357:188,1,134.999997997284,2|0,0:0|0:0,0:0:0:0:
351,72,67342,2,2,P|299:111|274:200,1,134.999997997284,2|0,0:0|0:0,0:0:0:0:
139,191,67681,1,2,0:0:0:0:
233,287,67851,1,0,0:0:0:0:
367,287,68020,6,2,P|406:256|419:158,1,134.999997997284,2|0,0:0|0:0,0:0:0:0:
295,216,68359,2,2,P|262:158|179:124,1,134.999997997284,2|0,0:0|0:0,0:0:0:0:
184,260,68698,2,2,P|150:277|146:367,1,134.999997997284,2|0,0:0|0:0,0:0:0:0:
271,317,69037,2,2,P|314:284|318:197,1,134.999997997284,2|0,0:0|0:0,0:0:0:0:
189,186,69376,6,2,P|217:125|279:104,1,134.999997997284,2|0,0:0|0:0,0:0:0:0:
401,157,69715,1,2,0:0:0:0:
340,277,69885,1,0,0:0:0:0:
205,286,70054,2,2,L|160:257,6,33.749999499321
144,257,70393,2,2,L|74:240,1,67.499998998642,2|0,0:0|0:0,0:0:0:0:
14,218,70563,2,2,L|91:188,1,67.499998998642,2|0,0:0|0:0,0:0:0:0:
138,163,70732,6,2,P|197:148|250:218,1,134.999997997284
334,297,71071,2,2,P|381:270|412:175,1,134.999997997284
386,65,71410,2,2,P|321:87|277:146,1,134.999997997284
145,136,71749,2,2,P|161:209|216:240,1,134.999997997284
333,184,72088,5,2,0:0:0:0:
227,98,72258,1,2,0:0:0:0:
303,208,72427,1,2,0:0:0:0:
201,117,72597,1,2,0:0:0:0:
282,224,72766,1,2,0:0:0:0:
169,149,72936,1,2,0:0:0:0:
258,249,73105,1,2,0:0:0:0:
137,186,73275,1,2,0:0:0:0:
164,317,73444,6,2,P|226:323|307:311,1,134.999997997284
433,307,73783,2,2,P|448:235|413:183,1,134.999997997284
330,82,74122,1,2,0:0:0:0:
204,130,74291,1,2,0:0:0:0:
159,257,74461,1,2,0:0:0:0:
292,239,74630,1,2,0:0:0:0:
404,164,74800,6,2,P|340:151|265:174,1,134.999997997284
141,138,75139,2,2,P|126:217|146:289,1,134.999997997284
249,345,75478,2,2,P|314:337|376:300,1,134.999997997284
322,177,75817,2,2,L|312:127,3,33.749999499321
309,110,75986,6,2,P|259:64|186:52,1,134.999997997284
130,170,76325,1,2,0:0:0:0:
225,266,76495,1,2,0:0:0:0:
354,230,76664,1,0,0:0:0:0:
418,110,76834,2,2,P|361:57|282:38,1,134.999997997284,2|0,0:0|0:0,0:0:0:0:
188,103,77173,2,2,P|170:169|198:250,1,134.999997997284,2|0,0:0|0:0,0:0:0:0:
314,276,77512,6,2,P|386:275|448:248,1,134.999997997284,2|0,0:0|0:0,0:0:0:0:
337,166,77851,2,2,P|329:82|289:43,1,134.999997997284,2|0,0:0|0:0,0:0:0:0:
180,117,78190,1,2,0:0:0:0:
261,223,78359,1,0,0:0:0:0:
128,250,78529,1,2,0:0:0:0:
241,322,78698,1,0,0:0:0:0:
369,279,78868,6,2,P|405:237|408:153,1,134.999997997284,2|0,0:0|0:0,0:0:0:0:
278,191,79207,2,2,P|253:134|186:93,1,134.999997997284,2|0,0:0|0:0,0:0:0:0:
97,190,79546,2,2,P|97:249|171:313,1,134.999997997284,2|0,0:0|0:0,0:0:0:0:
207,184,79885,2,2,P|227:125|319:93,1,134.999997997284,2|0,0:0|0:0,0:0:0:0:
407,155,80224,6,2,P|434:222|423:289,1,134.999997997284,2|0,0:0|0:0,0:0:0:0:
320,197,80563,1,2,0:0:0:0:
201,132,80732,1,0,0:0:0:0:
100,222,80902,2,0,P|159:256|244:244,1,134.999997997284,2|0,0:0|0:0,0:0:0:0:
369,236,81241,2,2,L|447:216,1,67.499998998642,2|0,0:0|0:0,0:0:0:0:
499,199,81410,2,2,L|435:169,1,67.499998998642,2|0,0:0|0:0,0:0:0:0:
374,143,81580,6,2,P|317:137|240:166,1,134.999997997284,2|0,0:0|0:0,0:0:0:0:
115,122,81919,2,2,P|95:204|125:269,1,134.999997997284,2|0,0:0|0:0,0:0:0:0:
243,275,82258,1,2,0:0:0:0:
336,178,82427,1,0,0:0:0:0:
232,90,82597,2,2,P|196:137|180:218,1,134.999997997284,2|0,0:0|0:0,0:0:0:0:
308,250,82936,6,2,P|402:250|448:220,1,134.999997997284,2|0,0:0|0:0,0:0:0:0:
360,118,83275,1,2,0:0:0:0:
235,168,83444,1,0,0:0:0:0:
236,303,83614,2,2,P|316:325|390:300,1,134.999997997284,2|0,0:0|0:0,0:0:0:0:
334,182,83952,1,2,0:0:0:0:
208,232,84122,1,0,0:0:0:0:
294,334,84291,6,2,P|356:312|408:249,1,134.999997997284,2|0,0:0|0:0,0:0:0:0:
331,145,84630,2,2,P|298:73|241:53,1,134.999997997284,2|0,0:0|0:0,0:0:0:0:
115,73,84969,2,2,P|112:134|151:212,1,134.999997997284,2|0,0:0|0:0,0:0:0:0:
184,328,85308,2,2,P|257:339|334:315,1,134.999997997284,2|0,0:0|0:0,0:0:0:0:
293,54,85647,5,2,0:0:0:0:
135,274,85817,1,2,0:0:0:0:
377,156,85986,1,2,0:0:0:0:
106,168,86156,1,2,0:0:0:0:
347,286,86325,1,2,0:0:0:0:
184,69,86495,1,2,0:0:0:0:
219,330,86664,1,6,0:0:0:0:
381,247,87002,6,2,P|393:192|333:118,1,134.999997997284,2|0,0:0|0:0,0:0:0:0:
246,46,87340,2,2,P|203:80|202:164,1,134.999997997284,2|0,0:0|0:0,0:0:0:0:
132,274,87679,1,2,0:0:0:0:
266,286,87849,1,0,0:0:0:0:
349,180,88018,2,2,P|313:135|221:98,1,134.999997997284,2|0,0:0|0:0,0:0:0:0:
113,133,88357,6,2,P|97:189|143:282,1,134.999997997284,2|0,0:0|0:0,0:0:0:0:
255,249,88696,2,2,P|235:201|259:118,1,134.999997997284,2|0,0:0|0:0,0:0:0:0:
390,125,89035,2,2,P|411:174|396:259,1,134.999997997284,2|0,0:0|0:0,0:0:0:0:
264,247,89374,2,2,P|221:208|124:209,1,134.999997997284,2|0,0:0|0:0,0:0:0:0:
209,320,89713,6,2,P|265:315|326:244,1,134.999997997284,2|0,0:0|0:0,0:0:0:0:
212,180,90052,2,2,P|228:131|311:98,1,134.999997997284,2|0,0:0|0:0,0:0:0:0:
413,169,90391,1,2,0:0:0:0:
446,300,90561,1,0,0:0:0:0:
323,355,90730,2,2,P|238:344|186:306,1,134.999997997284,2|0,0:0|0:0,0:0:0:0:
69,275,91069,6,2,P|101:206|174:188,1,134.999997997284,2|0,0:0|0:0,0:0:0:0:
288,190,91408,2,2,P|315:141|295:49,1,134.999997997284,2|0,0:0|0:0,0:0:0:0:
197,146,91747,2,2,P|204:226|257:277,1,134.999997997284,2|0,0:0|0:0,0:0:0:0:
373,268,92086,2,2,L|412:226,3,33.749999499321
428,232,92256,2,0,L|421:189,3,33.749999499321,0|2|0|2,0:0|0:0|0:0|0:0,0:0:0:0:
394,179,92425,6,2,P|375:122|290:80,1,134.999997997284,2|0,0:0|0:0,0:0:0:0:
179,84,92764,2,2,P|150:146|158:238,1,134.999997997284,2|0,0:0|0:0,0:0:0:0:
284,220,93103,1,2,0:0:0:0:
331,93,93273,1,0,0:0:0:0:
203,136,93442,2,2,P|174:192|180:266,1,134.999997997284,2|0,0:0|0:0,0:0:0:0:
312,281,93781,6,2,P|370:274|421:207,1,134.999997997284,2|0,0:0|0:0,0:0:0:0:
288,180,94120,2,2,P|233:131|147:131,1,134.999997997284,2|0,0:0|0:0,0:0:0:0:
186,258,94459,1,2,0:0:0:0:
315,217,94629,1,0,0:0:0:0:
253,336,94798,1,2,0:0:0:0:
241,201,94968,1,0,0:0:0:0:
340,291,95137,6,2,B|317:282|317:282|388:241|355:163,1,134.999997997284,2|0,0:0|0:0,0:0:0:0:
288,78,95476,2,2,P|226:77|170:131,1,134.999997997284,2|0,0:0|0:0,0:0:0:0:
58,194,95815,2,2,P|121:258|185:266,1,134.999997997284,2|0,0:0|0:0,0:0:0:0:
252,166,96154,2,2,P|326:148|390:172,1,134.999997997284,2|0,0:0|0:0,0:0:0:0:
389,300,96493,5,2,0:0:0:0:
270,234,96663,1,2,0:0:0:0:
149,294,96832,1,2,0:0:0:0:
200,168,97002,1,2,0:0:0:0:
332,143,97171,2,2,L|375:141,1,33.749999499321
397,155,97256,2,2,L|392:196,2,33.749999499321
370,177,97383,2,2,L|361:217,7,33.749999499321
232,171,97849,6,2,B|205:131|205:131|246:84,2,101.249998497963,2|0|0,0:0|0:0|0:0,0:0:0:0:
263,230,98188,2,2,P|299:204|323:114,1,134.999997997284,2|0,0:0|0:0,0:0:0:0:
198,70,98527,2,2,P|147:106|135:197,1,134.999997997284,2|0,0:0|0:0,0:0:0:0:
234,259,98866,2,2,P|322:279|374:265,1,134.999997997284,2|0,0:0|0:0,0:0:0:0:
299,150,99205,6,2,P|267:96|183:77,1,134.999997997284,2|0,0:0|0:0,0:0:0:0:
93,157,99544,1,2,0:0:0:0:
222,193,99713,1,0,0:0:0:0:
112,273,99883,1,2,0:0:0:0:
244,296,100052,1,0,0:0:0:0:
358,223,100222,2,2,L|367:267,7,33.749999499321
395,240,100561,6,2,P|429:177|406:94,1,134.999997997284,2|0,0:0|0:0,0:0:0:0:
286,94,100900,2,2,P|223:68|129:79,1,134.999997997284,2|0,0:0|0:0,0:0:0:0:
60,164,101239,2,2,P|70:226|130:276,1,134.999997997284,2|0,0:0|0:0,0:0:0:0:
253,243,101578,2,2,L|300:242,1,33.749999499321
278,209,101663,2,2,L|319:210,5,33.749999499321
340,227,101917,6,2,P|359:194|333:104,1,134.999997997284
199,97,102256,2,2,P|129:102|81:163,1,134.999997997284
214,190,102595,2,2,P|213:248|273:317,1,134.999997997284
360,221,102934,2,2,L|383:188,1,33.749999499321
367,161,103018,2,2,L|332:113,5,33.749999499321
321,109,103273,6,2,B|270:80|191:118,1,134.999997997284
61,153,103612,2,2,P|76:239|132:287,1,134.999997997284
241,264,103951,1,2,0:0:0:0:
346,180,104120,1,2,0:0:0:0:
337,44,104290,2,2,P|262:75|214:120,1,134.999997997284
120,199,104629,6,2,P|171:231|248:231,1,134.999997997284
278,101,104968,1,2,0:0:0:0:
163,172,105137,1,2,0:0:0:0:
276,246,105307,2,2,P|348:245|419:218,1,134.999997997284
296,105,105646,1,2,0:0:0:0:
145,163,105815,1,2,0:0:0:0:
226,303,105985,5,2,0:0:0:0:
322,255,106154,1,2,0:0:0:0:
369,157,106324,1,2,0:0:0:0:
321,61,106493,1,2,0:0:0:0:
228,4,106663,1,2,0:0:0:0:
132,52,106832,1,2,0:0:0:0:
85,150,107002,1,2,0:0:0:0:
133,246,107171,1,2,0:0:0:0:
227,297,107340,5,2,0:0:0:0:
355,122,107510,1,0,0:0:0:0:
364,337,107679,5,2,0:0:0:0:
259,146,107849,1,0,0:0:0:0:
182,347,108018,5,2,0:0:0:0:
74,158,108188,1,0,0:0:0:0:
71,373,108357,5,2,0:0:0:0:
159,175,108527,1,2,0:0:0:0:
239,355,108696,6,0,P|311:349|351:324,1,107.999990982056,2|0,0:0|0:0,0:0:0:0:
444,299,109035,2,2,P|444:260|403:193,1,107.999990982056,2|0,0:0|0:0,0:0:0:0:
379,97,109374,2,2,P|312:119|286:163,1,107.999990982056,2|0,0:0|0:0,0:0:0:0:
188,112,109713,2,2,P|177:159|200:217,1,107.999990982056,2|0,0:0|0:0,0:0:0:0:
304,228,110052,6,2,P|320:195|304:109,1,107.999990982056,2|0,0:0|0:0,0:0:0:0:
206,140,110391,2,2,P|139:156|112:205,1,107.999990982056,2|0,0:0|0:0,0:0:0:0:
185,269,110730,2,2,P|235:309|296:311,1,107.999990982056,2|0,0:0|0:0,0:0:0:0:
384,297,111069,2,2,P|419:255|435:186,1,107.999990982056
385,108,111408,5,2,0:0:0:0:
286,62,111578,1,0,0:0:0:0:
181,86,111747,1,2,0:0:0:0:
127,180,111917,1,0,0:0:0:0:
149,285,112086,1,2,0:0:0:0:
247,331,112256,1,0,0:0:0:0:
351,306,112425,1,2,0:0:0:0:
414,218,112595,1,0,0:0:0:0:
365,121,112764,6,2,P|319:122|244:164,1,107.999990982056,2|0,0:0|0:0,0:0:0:0:
156,167,113103,2,2,P|183:197|253:222,1,107.999990982056,2|0,0:0|0:0,0:0:0:0:
314,138,113442,1,2,0:0:0:0:
229,69,113612,1,0,0:0:0:0:
131,115,113781,2,2,L|75:144,1,53.999995491028,2|0,0:0|0:0,0:0:0:0:
35,166,113951,2,2,L|95:207,1,53.999995491028,2|0,0:0|0:0,0:0:0:0:
126,224,114120,6,2,P|208:254|249:241,1,107.999990982056,2|0,0:0|0:0,0:0:0:0:
331,274,114459,2,2,P|332:236|287:173,1,107.999990982056,2|0,0:0|0:0,0:0:0:0:
211,110,114798,1,2,0:0:0:0:
316,83,114968,1,0,0:0:0:0:
397,153,115137,2,2,P|414:206|413:265,1,107.999990982056,2|0,0:0|0:0,0:0:0:0:
305,255,115476,6,2,P|266:246|194:264,1,107.999990982056,2|0,0:0|0:0,0:0:0:0:
93,243,115815,2,2,P|72:208|92:134,1,107.999990982056,2|0,0:0|0:0,0:0:0:0:
172,82,116154,1,2,0:0:0:0:
328,125,116324,1,0,0:0:0:0:
176,181,116493,1,2,0:0:0:0:
267,46,116663,1,2,0:0:0:0:
279,207,116832,6,2,L|345:224,1,53.999995491028,2|0,0:0|0:0,0:0:0:0:
384,234,117002,2,0,L|321:257,1,53.999995491028,2|0,0:0|0:0,0:0:0:0:
280,266,117171,2,2,P|230:271|179:228,1,107.999990982056,2|0,0:0|0:0,0:0:0:0:
84,279,117510,1,2,0:0:0:0:
86,171,117679,1,0,0:0:0:0:
187,132,117849,2,2,P|225:135|288:182,1,107.999990982056,2|0,0:0|0:0,0:0:0:0:
388,152,118188,6,2,P|427:115|425:53,1,107.999990982056,2|0,0:0|0:0,0:0:0:0:
324,91,118527,1,2,0:0:0:0:
221,56,118696,1,2,0:0:0:0:
124,104,118866,2,2,P|64:127|28:169,1,107.999990982056,2|0,0:0|0:0,0:0:0:0:
48,265,119205,2,2,L|51:301,4,26.999997745514
151,291,119544,6,2,P|217:304|274:295,1,107.999990982056,2|0,0:0|0:0,0:0:0:0:
364,314,119883,2,2,P|383:273|366:197,1,107.999990982056,2|0,0:0|0:0,0:0:0:0:
267,222,120222,2,2,P|222:233|162:208,1,107.999990982056,2|0,0:0|0:0,0:0:0:0:
59,230,120561,2,2,P|59:159|83:121,1,107.999990982056,2|0,0:0|0:0,0:0:0:0:
134,37,120900,6,2,P|165:50|196:120,1,107.999990982056,2|0,0:0|0:0,0:0:0:0:
281,180,121239,2,2,P|306:161|318:84,1,107.999990982056,2|0,0:0|0:0,0:0:0:0:
422,53,121578,1,2,0:0:0:0:
453,155,121747,1,0,0:0:0:0:
384,238,121917,2,2,L|381:275,3,26.999997745514
357,275,122086,2,2,L|354:308,3,26.999997745514
335,321,122256,6,2,P|291:340|216:331,1,107.999990982056,2|0,0:0|0:0,0:0:0:0:
144,272,122595,1,2,0:0:0:0:
151,164,122764,1,0,0:0:0:0:
245,111,122934,2,2,P|286:109|345:153,1,107.999990982056,2|0,0:0|0:0,0:0:0:0:
260,218,123273,2,2,L|239:237,7,26.999997745514
231,262,123612,6,2,P|201:278|119:253,1,107.999990982056,2|0,0:0|0:0,0:0:0:0:
190,174,123951,2,2,P|165:148|161:69,1,107.999990982056,2|0,0:0|0:0,0:0:0:0:
263,98,124290,2,2,P|303:60|363:65,1,107.999990982056,2|0,0:0|0:0,0:0:0:0:
356,168,124629,2,2,L|391:186,3,26.999997745514
404,192,124798,2,2,L|379:209,3,26.999997745514
359,223,124968,6,2,P|299:226|234:198,1,107.999990982056,2|0,0:0|0:0,0:0:0:0:
145,210,125307,2,2,P|138:155|172:105,1,107.999990982056,2|0,0:0|0:0,0:0:0:0:
237,32,125646,2,2,P|299:69|323:109,1,107.999990982056,2|0,0:0|0:0,0:0:0:0:
342,203,125985,1,2,0:0:0:0:
235,187,126154,1,0,0:0:0:0:
142,242,126324,6,2,P|155:278|229:309,1,107.999990982056,2|0,0:0|0:0,0:0:0:0:
305,253,126663,2,2,P|365:240|397:195,1,107.999990982056,2|0,0:0|0:0,0:0:0:0:
352,105,127002,1,2,0:0:0:0:
251,143,127171,1,0,0:0:0:0:
156,90,127340,2,2,P|121:122|102:188,1,107.999990982056
90,285,127679,6,2,P|127:302|208:307,1,107.999990982056,2|0,0:0|0:0,0:0:0:0:
287,362,128018,2,2,P|313:346|339:264,1,107.999990982056,2|0,0:0|0:0,0:0:0:0:
240,235,128357,2,2,P|232:200|272:118,1,107.999990982056,2|0,0:0|0:0,0:0:0:0:
352,86,128696,2,2,L|422:91,1,53.999995491028,2|0,0:0|0:0,0:0:0:0:
446,126,128866,2,2,L|376:128,1,53.999995491028,2|0,0:0|0:0,0:0:0:0:
351,163,129035,6,2,L|349:220,1,53.999995491028,2|0,0:0|0:0,0:0:0:0:
303,186,129205,2,2,L|303:244,1,53.999995491028,2|0,0:0|0:0,0:0:0:0:
263,162,129374,6,2,L|261:219,1,53.999995491028,2|0,0:0|0:0,0:0:0:0:
215,185,129544,2,2,L|215:243,1,53.999995491028,2|0,0:0|0:0,0:0:0:0:
156,174,129713,6,0,L|105:145,1,53.999995491028,2|0,0:0|0:0,0:0:0:0:
170,84,129883,2,2,L|220:55,1,53.999995491028,2|0,0:0|0:0,0:0:0:0:
297,37,130054,2,4,L|332:37,1,22.4999988079071,4|0,0:0|0:0,0:0:0:0:
408,65,130393,6,2,P|426:98|419:166,1,89.9999952316285,2|0,0:0|0:0,0:0:0:0:
336,139,130731,2,2,P|285:113|245:114,1,89.9999952316285,2|0,0:0|0:0,0:0:0:0:
165,132,131070,1,2,0:0:0:0:
204,213,131240,1,0,0:0:0:0:
121,247,131409,2,2,P|139:280|188:315,1,89.9999952316285,2|0,0:0|0:0,0:0:0:0:
269,301,131748,6,2,P|321:287|359:251,1,89.9999952316285,2|0,0:0|0:0,0:0:0:0:
321,178,132087,1,2,0:0:0:0:
394,126,132257,1,0,0:0:0:0:
338,55,132426,2,2,P|283:45|235:52,1,89.9999952316285,2|0,0:0|0:0,0:0:0:0:
159,38,132765,1,2,0:0:0:0:
123,120,132935,1,2,0:0:0:0:
165,198,133104,6,2,P|200:202|265:186,1,89.9999952316285,2|0,0:0|0:0,0:0:0:0:
330,144,133443,2,2,P|364:150|401:199,1,89.9999952316285,2|0,0:0|0:0,0:0:0:0:
378,278,133782,1,2,0:0:0:0:
291,252,133952,1,0,0:0:0:0:
213,297,134121,1,2,0:0:0:0:
134,253,134291,1,2,0:0:0:0:
116,164,134460,6,2,P|140:137|203:119,1,89.9999952316285,2|0,0:0|0:0,0:0:0:0:
235,196,134799,1,2,0:0:0:0:
301,134,134969,1,0,0:0:0:0:
273,219,135138,2,2,P|277:251|334:291,1,89.9999952316285,2|0,0:0|0:0,0:0:0:0:
385,228,135477,2,2,L|434:204,1,44.9999976158143,2|0,0:0|0:0,0:0:0:0:
466,187,135647,2,2,L|432:159,1,44.9999976158143,2|0,0:0|0:0,0:0:0:0:
394,132,135816,6,2,P|357:129|290:137,1,89.9999952316285,2|0,0:0|0:0,0:0:0:0:
219,66,136155,2,2,P|217:105|237:160,1,89.9999952316285,2|0,0:0|0:0,0:0:0:0:
127,177,136494,2,2,P|154:224|191:249,1,89.9999952316285,2|0,0:0|0:0,0:0:0:0:
195,352,136833,1,2,0:0:0:0:
302,338,137003,1,0,0:0:0:0:
363,249,137172,6,2,P|336:220|286:198,1,89.9999952316285,2|0,0:0|0:0,0:0:0:0:
183,183,137511,1,2,0:0:0:0:
260,107,137681,1,0,0:0:0:0:
358,150,137850,1,2,0:0:0:0:
370,257,138020,1,0,0:0:0:0:
244,289,138189,2,2,L|222:318,7,26.999997745514
194,310,138528,6,0,P|156:272|154:206,1,107.999990982056,0|2,0:0|0:0,0:0:0:0:
58,127,138867,2,0,P|109:76|157:61,1,107.999990982056,0|2,0:0|0:0,0:0:0:0:
264,21,139206,2,0,P|304:37|347:89,1,107.999990982056,0|2,0:0|0:0,0:0:0:0:
396,204,139545,2,0,P|365:235|296:251,1,107.999990982056,0|2,0:0|0:0,0:0:0:0:
194,182,139884,5,0,0:0:0:0:
234,58,140054,1,2,0:0:0:0:
361,78,140223,2,0,B|378:73|378:73|337:133,1,80.999993236542,2|2,0:0|0:0,0:0:0:0:
309,130,140393,2,8,B|290:145|290:145|358:155,1,80.999993236542
376,163,140562,2,6,B|399:167|399:167|383:174|383:174|378:181|378:181|369:181|369:181|364:192|364:192|353:191|353:191|355:202|355:202|339:202|339:202|337:213|337:213|334:239|334:239|303:259,1,161.999986473084,4|4,0:0|0:0,0:0:0:0:
262,275,140901,1,0,0:0:0:0:
163,191,141070,1,0,0:0:0:0:
271,118,141240,6,2,P|345:116|385:127,1,107.999990982056,2|0,0:0|0:0,0:0:0:0:
266,191,141579,2,2,P|221:194|163:155,1,107.999990982056,2|0,0:0|0:0,0:0:0:0:
41,192,141918,1,2,0:0:0:0:
108,302,142087,1,0,0:0:0:0:
188,200,142257,1,2,0:0:0:0:
278,291,142426,1,0,0:0:0:0:
369,198,142596,6,2,P|385:157|360:88,1,107.999990982056,2|0,0:0|0:0,0:0:0:0:
242,132,142935,2,2,P|197:106|126:113,1,107.999990982056,2|0,0:0|0:0,0:0:0:0:
117,234,143274,2,2,L|148:242,3,26.999997745514
171,225,143443,2,2,L|206:217,3,26.999997745514
223,239,143613,2,2,L|254:247,3,26.999997745514
277,230,143782,2,2,L|312:222,3,26.999997745514
331,240,143952,6,2,P|368:235|412:161,1,107.999990982056,2|0,0:0|0:0,0:0:0:0:
316,93,144291,2,2,P|257:73|212:98,1,107.999990982056,2|0,0:0|0:0,0:0:0:0:
94,130,144630,2,2,P|103:171|161:216,1,107.999990982056,2|0,0:0|0:0,0:0:0:0:
264,149,144969,1,2,0:0:0:0:
375,214,145138,1,0,0:0:0:0:
285,308,145308,6,2,P|225:314|167:295,1,107.999990982056,2|0,0:0|0:0,0:0:0:0:
112,190,145647,1,2,0:0:0:0:
196,92,145816,1,2,0:0:0:0:
325,96,145986,1,0,0:0:0:0:
400,207,146155,2,0,L|361:250,1,44.9999976158143,2|2,0:0|0:0,0:0:0:0:
261,247,146664,1,2,0:0:0:0:
261,247,146833,6,2,P|200:214|179:162,1,107.999990982056
86,95,147171,2,2,P|139:67|192:68,1,107.999990982056
310,28,147510,2,2,P|353:68|377:115,1,107.999990982056
373,241,147849,1,2,0:0:0:0:
275,326,148019,1,2,0:0:0:0:
154,278,148188,6,2,P|128:234|112:174,1,107.999990982056
117,49,148527,2,2,P|150:73|175:151,1,107.999990982056
303,108,148866,1,2,0:0:0:0:
431,126,149036,1,2,0:0:0:0:
380,244,149205,2,2,P|327:273|257:278,1,107.999990982056
164,220,149544,6,2,P|139:184|146:120,1,107.999990982056
273,137,149883,2,2,P|305:102|379:100,1,107.999990982056
411,214,150222,1,2,0:0:0:0:
308,294,150392,1,2,0:0:0:0:
178,294,150561,1,2,0:0:0:0:
279,55,150900,6,2,L|394:55,1,107.999990982056,2|0,0:0|0:0,0:0:0:0:
293,145,151239,2,2,L|183:182,1,107.999990982056,2|0,0:0|0:0,0:0:0:0:
103,82,151578,1,2,0:0:0:0:
170,264,151748,1,0,0:0:0:0:
362,145,151917,1,2,0:0:0:0:
265,47,152074,6,0,B|192:98|238:153|311:120|270:89|230:101|226:107|205:138|196:188|286:237,1,269.999995994568,2|4,0:0|0:0,0:0:0:0:
356,242,153599,2,0,B|406:193|343:138|310:200|272:73,1,202.499996995926,2|4,0:0|0:0,0:0:0:0:
239,68,154785,2,0,B|170:76|122:120|122:120|132:129|132:129|118:135|118:135|134:146|134:146|119:156|119:156|130:164|130:164|118:177|118:177|129:189|129:189|117:206|117:206|141:222|141:222|105:233|105:233|93:271,1,371.249994492531,2|4,0:0|0:0,0:0:0:0:
128,290,156819,2,0,P|195:304|234:296,1,101.249998497963
251,266,157497,6,0,B|277:277|301:308|298:333|298:333|358:344|403:329|389:257,1,236.249996495247,2|8,0:0|0:0,0:0:0:0:
422,235,158853,2,0,B|395:218|347:224|336:258|336:258|241:206|339:152,1,236.249996495247,2|8,0:0|0:0,0:0:0:0:
353,129,160209,2,0,P|334:114|182:208,1,236.249996495247,2|8,0:0|0:0,0:0:0:0:
222,205,161565,2,0,B|159:221|143:259|276:234|266:185|286:169|303:175|308:177|313:260,1,236.249996495247,2|8,0:0|0:0,0:0:0:0:
292,283,162921,5,2,0:0:0:0:
252,292,163090,1,8,0:0:0:0:
211,286,163260,2,0,P|176:270|206:104,1,236.249996495247
211,145,164616,2,0,P|238:123|375:135,1,168.749997496605
379,89,165633,2,0,B|423:84|461:110|472:154|449:192|396:148|396:148|383:210,1,236.249996495247
412,232,166989,2,0,B|403:256|404:274|415:296|434:312|455:318|455:318|328:317,1,236.249996495247
307,295,168360,6,0,B|255:262|214:288|214:288|179:258,1,134.999992847443
127,208,169715,2,0,B|118:198|119:184|133:178|143:184|141:197|135:205|135:205|219:166,1,134.999992847443
389,211,171071,2,0,B|407:190|407:190|402:243,2,67.4999964237214
120,282,173783,6,2,P|87:257|126:129,1,179.999990463257,2|0,0:0|0:0,0:0:0:0:
239,75,174460,2,2,P|287:67|408:121,1,179.999990463257,2|0,0:0|0:0,0:0:0:0:
409,261,175138,2,2,P|379:284|234:280,1,179.999990463257
98,279,175816,2,2,P|125:241|256:203,1,179.999990463257
376,137,176494,5,2,0:0:0:0:
239,90,176833,1,0,0:0:0:0:
373,37,177172,1,2,0:0:0:0:
316,169,177511,1,0,0:0:0:0:
177,128,177850,2,2,B|116:147|116:147|72:137|48:173|48:173|12:197|12:197|52:213|52:213|76:245|121:229|121:229|182:251,1,359.999980926514,10|0,0:0|0:0,0:0:0:0:
315,270,178867,2,2,L|367:240,1,44.9999976158143,2|0,0:0|0:0,0:0:0:0:
386,231,179037,2,2,L|430:205,1,44.9999976158143,2|0,0:0|0:0,0:0:0:0:
455,188,179206,6,2,P|459:164|336:107,1,179.999990463257
223,24,179884,2,2,B|198:51|196:133|269:176|299:150|295:87|245:64|133:104|127:117|127:117|126:182,1,359.999980926514
222,285,180901,1,2,0:0:0:0:
351,221,181240,1,2,0:0:0:0:
281,95,181579,1,2,0:0:0:0:
149,152,181918,6,2,P|153:198|270:269,1,179.999990463257
395,238,182596,2,2,P|377:199|266:106,1,179.999990463257
131,116,183274,1,2,0:0:0:0:
169,254,183613,1,2,0:0:0:0:
312,244,183952,1,2,0:0:0:0:
381,117,184291,2,2,L|280:119,1,89.9999952316285
381,117,184630,6,2,P|354:71|229:69,1,179.999990463257
124,151,185308,1,2,0:0:0:0:
203,270,185647,1,2,0:0:0:0:
344,241,185986,2,2,P|339:202|228:112,1,179.999990463257
128,206,186664,1,2,0:0:0:0:
271,204,187003,2,2,P|299:200|361:160,1,89.9999952316285
297,122,187342,6,2,P|283:75|165:30,1,179.999990463257
69,131,188020,2,2,P|74:177|170:266,1,179.999990463257
204,125,188698,2,2,P|261:116|337:213,1,179.999990463257
203,254,189376,1,2,0:0:0:0:
101,152,189715,2,2,L|57:124,1,44.9999976158143,2|0,0:0|0:0,0:0:0:0:
33,107,189884,2,2,L|78:76,1,44.9999976158143,2|0,0:0|0:0,0:0:0:0:
103,66,190054,6,2,L|235:163,1,157.49999165535
118,277,190732,2,2,P|192:291|303:276,1,179.999990463257
341,141,191410,1,2,0:0:0:0:
205,188,191749,1,2,0:0:0:0:
323,106,192088,1,2,0:0:0:0:
183,69,192427,1,2,0:0:0:0:
53,131,192766,6,2,P|38:189|116:274,1,179.999990463257
210,168,193444,1,2,0:0:0:0:
316,264,193783,1,2,0:0:0:0:
414,160,194121,2,2,P|393:104|288:48,1,179.999990463257
151,79,194799,1,2,0:0:0:0:
253,181,194969,1,2,0:0:0:0:
110,166,195138,1,2,0:0:0:0:
243,111,195308,1,8,0:0:0:0:
176,238,195477,5,6,0:0:0:0:
175,160,198126,5,2,0:0:0:0:
175,86,200902,6,2,P|240:67|336:120,1,161.999986473084,2|2,0:0|0:0,0:0:0:0:
162,306,201410,1,2,0:0:0:0:
162,306,201579,2,2,P|120:266|108:157,1,161.999986473084
335,47,202088,1,2,0:0:0:0:
335,47,202257,6,2,P|363:86|356:210,1,161.999986473084
104,219,202766,1,2,0:0:0:0:
104,219,202935,2,2,P|105:142|164:80,1,161.999986473084
407,163,203444,2,2,L|377:208,1,53.999995491028,2|0,0:0|0:0,0:0:0:0:
290,214,203613,5,2,0:0:0:0:
240,256,203698,1,0,0:0:0:0:
176,240,203783,1,0,0:0:0:0:
133,190,203868,1,2,0:0:0:0:
137,131,203952,2,0,P|165:107|254:90,1,107.999990982056,0|2,0:0|0:0,0:0:0:0:
359,59,204291,1,2,0:0:0:0:
303,92,204376,1,0,0:0:0:0:
273,150,204461,1,0,0:0:0:0:
312,201,204546,1,2,0:0:0:0:
375,213,204630,2,2,P|402:252|402:331,1,107.999990982056
220,181,204969,5,2,0:0:0:0:
189,150,205054,1,2,0:0:0:0:
180,107,205139,1,2,0:0:0:0:
264,122,205308,2,2,P|297:97|377:88,1,107.999990982056,0|2,0:0|0:0,0:0:0:0:
397,164,205647,1,2,0:0:0:0:
400,207,205732,1,2,0:0:0:0:
377,243,205817,1,2,0:0:0:0:
310,188,205986,2,2,P|240:216|205:257,1,107.999990982056,0|2,0:0|0:0,0:0:0:0:
157,139,206325,5,2,0:0:0:0:
262,92,206494,1,2,0:0:0:0:
376,108,206663,1,2,0:0:0:0:
429,210,206832,1,2,0:0:0:0:
321,250,207001,5,2,0:0:0:0:
282,111,207170,1,2,0:0:0:0:
154,178,207339,1,2,0:0:0:0:
220,305,207508,1,2,0:0:0:0:
362,285,207677,6,2,L|390:118,3,143.999992370606
265,63,208353,2,2,L|181:63,3,71.9999961853028,2|0|2|0,0:0|0:0|0:0|0:0,0:0:0:0:
124,87,208691,2,2,L|70:163,3,71.9999961853028,2|0|2|0,0:0|0:0|0:0|0:0,0:0:0:0:
88,217,209029,5,2,0:0:0:0:
127,276,209113,1,2,0:0:0:0:
199,273,209198,1,2,0:0:0:0:
247,220,209282,1,2,0:0:0:0:
265,149,209367,1,2,0:0:0:0:
327,113,209451,1,2,0:0:0:0:
386,154,209536,1,2,0:0:0:0:
384,225,209620,1,2,0:0:0:0:
334,277,209705,5,2,0:0:0:0:
265,299,209789,1,2,0:0:0:0:
200,265,209874,1,2,0:0:0:0:
159,206,209958,1,2,0:0:0:0:
157,133,210043,1,2,0:0:0:0:
205,80,210127,1,2,0:0:0:0:
270,49,210212,1,2,0:0:0:0:
341,42,210296,1,2,0:0:0:0:
413,47,210381,5,4,0:0:0:0:
199,58,211732,5,2,0:0:0:0:
249,230,211901,1,10,0:0:0:0:
321,65,212070,5,2,0:0:0:0:
372,238,212240,1,10,0:0:0:0:
224,135,212409,5,2,0:0:0:0:
159,303,212579,1,10,0:0:0:0:
289,179,212748,5,2,0:0:0:0:
371,339,212918,1,10,0:0:0:0:
418,165,213087,5,2,0:0:0:0:
242,121,213257,1,10,0:0:0:0:
418,86,213426,5,2,0:0:0:0:
253,160,213596,1,10,0:0:0:0:
84,221,213765,5,2,0:0:0:0:
258,267,213935,1,10,0:0:0:0:
85,317,214104,5,2,0:0:0:0:
239,222,214274,1,10,0:0:0:0:
92,117,214443,6,0,P|168:82|206:89,1,89.9999952316285,2|8,0:0|0:0,0:0:0:0:
347,125,214782,1,2,0:0:0:0:
347,125,214867,1,0,0:0:0:0:
347,125,214952,1,8,0:0:0:0:
179,189,215121,2,0,P|148:208|131:242,2,44.9999976158143,2|0|8,0:0|0:0|0:0,0:0:0:0:
350,245,215460,2,0,P|361:268|360:288,2,44.9999976158143,2|0|8,0:0|0:0|0:0,0:0:0:0:
241,100,215799,5,2,0:0:0:0:
399,186,215969,1,8,0:0:0:0:
223,223,216138,5,2,0:0:0:0:
350,95,216308,1,8,0:0:0:0:
321,272,216477,5,2,0:0:0:0:
247,107,216647,1,8,0:0:0:0:
394,209,216816,6,0,L|340:206,1,44.9999976158143,2|0,0:0|0:0,0:0:0:0:
157,191,216986,2,0,L|202:193,1,44.9999976158143,8|0,0:0|0:0,0:0:0:0:
251,194,217155,6,0,P|295:169|413:159,1,134.999997997284,2|8,0:0|0:0,0:0:0:0:
207,238,217494,1,2,0:0:0:0:
135,62,217664,1,8,0:0:0:0:
323,62,217833,5,2,0:0:0:0:
428,219,218003,1,8,0:0:0:0:
262,128,218172,5,2,0:0:0:0:
268,317,218342,1,8,0:0:0:0:
203,139,218511,5,2,0:0:0:0:
392,131,218681,1,8,0:0:0:0:
225,218,218850,5,2,0:0:0:0:
326,57,219020,1,8,0:0:0:0:
375,238,219189,5,2,0:0:0:0:
241,103,219359,1,8,0:0:0:0:
131,256,219528,5,2,0:0:0:0:
298,167,219698,1,8,0:0:0:0:
122,97,219867,6,0,L|288:88,1,134.999997997284,2|8,0:0|0:0,0:0:0:0:
390,223,220206,1,2,0:0:0:0:
200,228,220376,1,8,0:0:0:0:
316,79,220545,6,0,L|448:193,1,134.999997997284,2|8,0:0|0:0,0:0:0:0:
265,280,220884,1,2,0:0:0:0:
147,130,221054,1,8,0:0:0:0:
330,88,221223,6,0,P|396:127|409:213,1,134.999997997284,2|8,0:0|0:0,0:0:0:0:
246,89,221562,1,2,0:0:0:0:
134,242,221732,1,8,0:0:0:0:
314,296,221901,5,2,0:0:0:0:
307,107,222070,1,8,0:0:0:0:
126,47,222240,2,2,L|150:93,6,33.749999499321
219,29,222579,6,0,P|272:20|370:54,1,134.999997997284,2|8,0:0|0:0,0:0:0:0:
172,108,222918,1,2,0:0:0:0:
348,174,223087,1,8,0:0:0:0:
163,216,223257,5,2,0:0:0:0:
280,68,223426,1,8,0:0:0:0:
327,251,223596,5,2,0:0:0:0:
212,101,223765,1,8,0:0:0:0:
398,66,223935,5,2,0:0:0:0:
240,170,224104,1,8,0:0:0:0:
340,9,224274,5,2,0:0:0:0:
348,197,224443,1,8,0:0:0:0:
226,51,224613,5,2,0:0:0:0:
370,172,224782,1,8,0:0:0:0:
206,267,224952,5,2,0:0:0:0:
255,85,225121,1,8,0:0:0:0:
70,130,225291,6,0,P|139:160|202:165,1,134.999997997284,2|8,0:0|0:0,0:0:0:0:
387,164,225630,1,2,0:0:0:0:
342,179,225715,1,0,0:0:0:0:
294,186,225799,1,8,0:0:0:0:
179,35,225969,5,2,0:0:0:0:
142,219,226138,1,8,0:0:0:0:
210,42,226308,5,2,0:0:0:0:
267,221,226477,1,8,0:0:0:0:
90,150,226647,5,2,0:0:0:0:
277,170,226816,1,8,0:0:0:0:
137,297,226986,5,2,0:0:0:0:
322,261,227155,1,8,0:0:0:0:
247,86,227325,5,2,0:0:0:0:
388,210,227494,1,8,0:0:0:0:
213,136,227664,2,0,L|132:104,1,67.499998998642,2|0,0:0|0:0,0:0:0:0:
62,75,227833,2,0,L|133:106,1,67.499998998642,8|0,0:0|0:0,0:0:0:0:
109,196,228003,6,0,P|117:251|188:312,1,134.999997997284,2|8,0:0|0:0,0:0:0:0:
306,172,228342,1,2,0:0:0:0:
177,34,228511,1,8,0:0:0:0:
148,221,228681,1,2,0:0:0:0:
286,93,228850,1,8,0:0:0:0:
97,115,229020,1,2,0:0:0:0:
262,205,229189,1,8,0:0:0:0:
175,36,229359,6,0,P|170:82|213:180,1,134.999997997284,2|8,0:0|0:0,0:0:0:0:
272,277,229698,1,2,0:0:0:0:
406,282,229867,1,8,0:0:0:0:
455,156,230037,6,0,P|443:113|359:60,1,134.999997997284,2|8,0:0|0:0,0:0:0:0:
241,28,230376,2,0,P|237:68|298:162,1,134.999997997284,2|8,0:0|0:0,0:0:0:0:
144,152,230715,2,0,P|210:260|334:232,1,269.999995994568,2|10,0:0|0:0,0:0:0:0:
343,69,231393,5,2,0:0:0:0:
202,277,231562,1,10,0:0:0:0:
438,187,231732,1,2,0:0:0:0:
187,164,231901,1,10,0:0:0:0:
410,279,232070,1,2,0:0:0:0:
239,92,232240,1,10,0:0:0:0:
282,339,232409,6,2,B|308:320|308:320|265:289|265:289|319:257|319:257|263:218|263:218|316:178,1,269.999985694885,2|0,0:0|0:0,0:0:0:0:
397,162,232748,2,2,L|413:118,3,33.749999499321,2|2|2|0,0:0|0:0|0:0|0:0,0:0:0:0:
372,100,232918,2,0,L|347:63,3,33.749999499321,2|0|2|0,0:0|0:0|0:0|0:0,0:0:0:0:
306,70,233087,2,2,L|250:68,6,33.749999499321
220,29,233426,6,0,P|181:51|145:153,1,134.999997997284,2|8,0:0|0:0,0:0:0:0:
326,180,233765,1,2,0:0:0:0:
326,180,233850,1,0,0:0:0:0:
326,180,233935,1,8,0:0:0:0:
140,215,234104,2,0,P|190:262|270:273,1,134.999997997284,2|8,0:0|0:0,0:0:0:0:
425,195,234443,2,0,P|410:126|337:85,1,134.999997997284,2|8,0:0|0:0,0:0:0:0:
177,42,234782,5,2,0:0:0:0:
226,225,234952,1,8,0:0:0:0:
107,78,235121,5,2,0:0:0:0:
262,186,235291,1,8,0:0:0:0:
77,224,235460,5,2,0:0:0:0:
256,162,235630,1,8,0:0:0:0:
298,345,235799,5,2,0:0:0:0:
208,178,235969,1,8,0:0:0:0:
74,44,236138,6,0,P|78:102|137:179,1,134.999997997284,2|8,0:0|0:0,0:0:0:0:
287,80,236477,1,2,0:0:0:0:
376,247,236647,1,8,0:0:0:0:
193,293,236816,2,0,P|179:252|240:181,1,134.999997997284,2|8,0:0|0:0,0:0:0:0:
48,125,237155,2,0,P|131:127|175:169,1,134.999997997284,2|8,0:0|0:0,0:0:0:0:
308,31,237494,6,0,P|262:79|243:153,1,134.999997997284,2|8,0:0|0:0,0:0:0:0:
432,152,237833,2,0,P|375:133|280:142,1,134.999997997284,2|8,0:0|0:0,0:0:0:0:
258,320,238172,2,0,P|299:337|343:336,2,67.499998998642,2|0|8,0:0|0:0|0:0,0:0:0:0:
140,171,238511,1,2,0:0:0:0:
140,171,238596,1,0,0:0:0:0:
140,171,238681,1,8,0:0:0:0:
296,66,238850,6,0,P|339:97|379:180,1,134.999997997284,2|8,0:0|0:0,0:0:0:0:
190,131,239189,1,2,0:0:0:0:
366,61,239359,1,8,0:0:0:0:
337,247,239528,2,0,P|291:294|215:311,1,134.999997997284,2|8,0:0|0:0,0:0:0:0:
78,191,239867,2,0,P|138:180|208:219,1,134.999997997284,2|8,0:0|0:0,0:0:0:0:
23,274,240206,6,0,P|25:198|79:134,1,134.999997997284,2|8,0:0|0:0,0:0:0:0:
233,83,240545,1,2,0:0:0:0:
418,121,240715,1,8,0:0:0:0:
252,210,240884,5,2,0:0:0:0:
106,88,241054,1,8,0:0:0:0:
112,276,241223,5,2,0:0:0:0:
191,104,241393,1,8,0:0:0:0:
276,271,241562,6,0,P|323:255|383:187,1,134.999997997284,2|8,0:0|0:0,0:0:0:0:
262,44,241901,1,2,0:0:0:0:
284,231,242070,1,8,0:0:0:0:
394,76,242240,5,2,0:0:0:0:
206,53,242409,1,8,0:0:0:0:
358,166,242579,5,2,0:0:0:0:
494,295,242748,1,8,0:0:0:0:
472,106,242918,6,0,P|415:115|327:148,1,134.999997997284,2|8,0:0|0:0,0:0:0:0:
164,75,243257,2,0,P|220:88|281:151,1,134.999997997284,2|8,0:0|0:0,0:0:0:0:
291,328,243596,2,0,B|259:260|363:248|305:179,1,134.999997997284,2|8,0:0|0:0,0:0:0:0:
131,195,243935,6,0,L|167:158,1,33.749999499321,2|0,0:0|0:0,0:0:0:0:
191,139,244020,2,2,L|218:110,6,33.749999499321,2|0|2|2|2|2|2,0:0|0:0|0:0|0:0|0:0|0:0|0:0,0:0:0:0:
378,160,244443,5,8,0:0:0:0:
287,326,244613,2,0,P|215:324|138:280,1,134.999997997284,2|8,0:0|0:0,0:0:0:0:
210,115,244952,2,0,P|262:69|354:54,1,134.999997997284,2|8,0:0|0:0,0:0:0:0:
457,187,245291,5,2,0:0:0:0:
275,239,245460,1,8,0:0:0:0:
169,81,245630,5,2,0:0:0:0:
133,266,245799,1,8,0:0:0:0:
260,125,245969,5,2,0:0:0:0:
366,280,246138,1,8,0:0:0:0:
208,174,246308,5,2,0:0:0:0:
177,359,246477,1,8,0:0:0:0:
155,170,246647,5,2,0:0:0:0:
342,189,246816,1,8,0:0:0:0:
179,286,246986,6,0,P|177:224|234:148,1,134.999997997284,2|8,0:0|0:0,0:0:0:0:
334,308,247325,1,2,0:0:0:0:
334,308,247409,1,0,0:0:0:0:
334,308,247494,1,8,0:0:0:0:
164,223,247664,2,0,P|141:160|168:86,1,134.999997997284,2|8,0:0|0:0,0:0:0:0:
348,88,248003,1,2,0:0:0:0:
296,269,248172,1,8,0:0:0:0:
147,150,248342,6,0,P|203:136|298:148,1,134.999997997284,2|8,0:0|0:0,0:0:0:0:
434,251,248681,1,2,0:0:0:0:
255,312,248850,1,8,0:0:0:0:
242,122,249020,5,2,0:0:0:0:
133,275,249189,1,8,0:0:0:0:
309,205,249359,5,2,0:0:0:0:
123,171,249528,1,8,0:0:0:0:
268,291,249698,6,0,P|230:235|237:156,1,134.999997997284,2|8,0:0|0:0,0:0:0:0:
409,104,250037,1,2,0:0:0:0:
259,219,250206,1,8,0:0:0:0:
252,29,250376,5,2,0:0:0:0:
384,162,250545,1,8,0:0:0:0:
208,232,250715,5,2,0:0:0:0:
334,92,250884,1,8,0:0:0:0:
354,280,251054,5,2,0:0:0:0:
231,137,251223,1,8,0:0:0:0:
52,200,251393,5,2,0:0:0:0:
184,66,251562,1,8,0:0:0:0:
373,77,251732,6,0,B|420:84|420:84|294:192,1,202.499996995926,2|2,0:0|0:0,0:0:0:0:
268,272,252070,1,8,0:0:0:0:
149,123,252240,1,0,0:0:0:0:
324,54,252409,6,0,P|386:99|432:172,1,134.999997997284,2|8,0:0|0:0,0:0:0:0:
236,96,252748,2,0,P|241:137|199:223,1,134.999997997284,2|8,0:0|0:0,0:0:0:0:
117,50,253087,5,2,0:0:0:0:
258,0,253257,1,8,0:0:0:0:
398,53,253426,1,2,0:0:0:0:
454,194,253596,1,8,0:0:0:0:
395,334,253765,1,2,0:0:0:0:
253,390,253935,1,8,0:0:0:0:
114,331,254104,1,2,0:0:0:0:
57,189,254274,1,8,0:0:0:0:
117,50,254443,6,0,P|160:78|200:165,1,134.999997997284,8|0,0:0|0:0,0:0:0:0:
387,146,254782,2,0,L|427:214,1,67.499998998642,8|0,0:0|0:0,0:0:0:0:
329,233,254952,2,0,L|394:292,1,67.499998998642,8|0,0:0|0:0,0:0:0:0:
469,302,255121,6,8,P|344:346|214:318,1,269.999995994568,10|8,0:0|0:0,0:0:0:0:
271,136,255630,1,0,0:0:0:0:
455,98,255799,2,0,P|447:159|314:320,1,269.999995994568,2|8,0:0|0:0,0:0:0:0:
137,264,256308,1,0,0:0:0:0:
82,83,256477,6,0,L|241:96,1,134.999997997284,2|0,0:0|0:0,0:0:0:0:
404,120,256816,2,0,L|245:142,1,134.999997997284,10|0,0:0|0:0,0:0:0:0:
94,211,257155,2,0,L|252:222,1,134.999997997284,2|0,0:0|0:0,0:0:0:0:
411,170,257494,2,0,L|251:181,1,134.999997997284,10|0,0:0|0:0,0:0:0:0:
98,112,257833,6,0,B|94:198|181:239|181:239|181:348,1,269.999995994568,0|8,0:0|0:0,0:0:0:0:
256,171,258342,1,0,0:0:0:0:
331,346,258511,2,0,B|330:238|330:238|417:197|413:111,1,269.999995994568,2|10,0:0|0:0,0:0:0:0:
256,218,259020,1,0,0:0:0:0:
252,29,259189,6,0,B|294:98|295:97|256:149|256:208|256:149|218:98|218:97|256:29,1,269.999995994568,2|10,0:0|0:0,0:0:0:0:
160,192,259698,1,0,0:0:0:0:
256,353,259867,2,0,B|218:284|217:285|256:236|294:284|294:285|256:353,1,202.499996995926,2|0,0:0|0:0,0:0:0:0:
256,258,260206,2,0,L|256:222,6,33.749999499321,2|0|0|0|10|0|0,0:0|0:0|0:0|0:0|0:0|0:0|0:0,0:0:0:0:
188,189,260545,6,0,P|248:216|307:188,1,134.999997997284,2|0,0:0|0:0,0:0:0:0:
381,154,260884,2,0,P|303:127|257:154,1,134.999997997284,10|0,0:0|0:0,0:0:0:0:
140,145,261223,2,0,P|199:173|260:149,1,134.999997997284,2|0,0:0|0:0,0:0:0:0:
180,75,261562,2,0,P|114:76|70:125,1,134.999997997284,10|0,0:0|0:0,0:0:0:0:
66,234,261901,6,0,P|97:278|187:291,1,134.999997997284,2|0,0:0|0:0,0:0:0:0:
169,186,262240,2,0,P|247:225|271:285,1,134.999997997284,10|0,0:0|0:0,0:0:0:0:
246,371,262579,2,0,P|300:364|375:300,1,134.999997997284,2|0,0:0|0:0,0:0:0:0:
472,320,262918,2,0,P|442:260|357:233,1,134.999997997284,10|0,0:0|0:0,0:0:0:0:
279,264,263257,6,0,P|290:207|363:171,1,134.999997997284,2|0,0:0|0:0,0:0:0:0:
459,189,263596,2,0,P|447:135|372:99,1,134.999997997284,10|0,0:0|0:0,0:0:0:0:
274,77,263935,2,0,P|220:80|194:153,1,134.999997997284,2|0,0:0|0:0,0:0:0:0:
97,198,264274,2,0,P|119:260|181:280,1,134.999997997284,10|0,0:0|0:0,0:0:0:0:
182,198,264613,6,0,P|201:153|290:132,1,134.999997997284,2|0,0:0|0:0,0:0:0:0:
263,208,264952,2,0,P|316:193|358:107,1,134.999997997284,10|0,0:0|0:0,0:0:0:0:
276,129,265291,2,2,L|246:91,6,33.749999499321
238,145,265630,2,4,B|223:169|223:169|201:154|201:154|181:178|181:178|157:168|157:168|135:189|135:189|104:182|104:182|86:206,1,202.499996995926,4|0,0:0|0:0,0:0:0:0:
55,229,265969,6,0,P|68:267|93:292,1,67.499998998642,2|0,0:0|0:0,0:0:0:0:
64,321,266138,2,0,P|99:331|148:323,1,67.499998998642,2|0,0:0|0:0,0:0:0:0:
195,310,266308,2,0,P|231:269|263:175,1,134.999997997284,10|0,0:0|0:0,0:0:0:0:
159,104,266647,2,0,P|250:86|308:106,1,134.999997997284,2|0,0:0|0:0,0:0:0:0:
417,141,266986,2,0,P|435:197|402:278,1,134.999997997284,10|0,0:0|0:0,0:0:0:0:
282,307,267325,6,0,P|199:291|144:246,1,134.999997997284,2|0,0:0|0:0,0:0:0:0:
165,127,267664,2,0,P|226:107|318:123,1,134.999997997284,10|0,0:0|0:0,0:0:0:0:
263,245,268003,1,2,0:0:0:0:
215,119,268172,1,0,0:0:0:0:
290,168,268342,2,2,L|323:165,6,22.4999988079071,10|2|2|2|2|2|2,0:0|0:0|0:0|0:0|0:0|0:0|0:0,0:0:0:0:
222,175,268681,6,0,P|180:158|92:213,1,134.999997997284,2|0,0:0|0:0,0:0:0:0:
66,323,269020,2,0,P|148:340|207:302,1,134.999997997284,8|0,0:0|0:0,0:0:0:0:
309,252,269359,2,0,B|318:211|399:231|406:160,1,134.999997997284,2|0,0:0|0:0,0:0:0:0:
313,67,269698,2,2,B|321:80|302:48|302:48|270:78|270:78|254:48|254:48|231:78|231:78|212:52|212:52|190:77|190:77,1,202.499996995926,10|0,0:0|0:0,0:0:0:0:
137,104,270037,6,0,P|106:175|121:255,1,134.999997997284,2|0,0:0|0:0,0:0:0:0:
222,308,270376,2,0,P|233:240|243:153,1,134.999997997284,10|0,0:0|0:0,0:0:0:0:
246,39,270715,2,0,P|315:104|332:162,1,134.999997997284,2|0,0:0|0:0,0:0:0:0:
431,227,271054,2,0,B|327:241|327:241|309:224|309:224|292:244|292:244|273:224|273:224|242:233,1,202.499996995926,10|0,0:0|0:0,0:0:0:0:
197,265,271393,6,0,P|146:224|149:146,1,134.999997997284,2|0,0:0|0:0,0:0:0:0:
287,83,271732,2,0,P|266:128|179:150,1,134.999997997284,10|0,0:0|0:0,0:0:0:0:
339,210,272070,2,0,P|248:206|197:172,1,134.999997997284,2|0,0:0|0:0,0:0:0:0:
99,66,272409,2,0,P|139:87|155:120,1,67.499998998642,10|0,0:0|0:0,0:0:0:0:
212,51,272579,2,0,P|227:89|221:125,1,67.499998998642,10|0,0:0|0:0,0:0:0:0:
304,98,272748,6,0,B|292:139|237:168|237:168|261:206,1,134.999997997284,2|0,0:0|0:0,0:0:0:0:
400,272,273087,2,0,P|362:318|272:320,1,134.999997997284,10|0,0:0|0:0,0:0:0:0:
133,285,273426,1,2,0:0:0:0:
103,125,273596,1,0,0:0:0:0:
246,50,273765,2,0,B|327:40|394:80|394:80|377:129,1,202.499996995926,10|0,0:0|0:0,0:0:0:0:
376,207,274104,6,0,P|346:270|278:309,3,134.999997997284,2|2|2|2,0:0|0:0|0:0|0:0,0:0:0:0:
134,273,274782,2,2,P|127:209|182:133,1,134.999997997284
303,73,275121,2,0,P|371:97|414:166,1,134.999997997284,8|0,0:0|0:0,0:0:0:0:
375,304,275460,5,2,0:0:0:0:
295,318,275630,1,2,0:0:0:0:
217,293,275799,1,10,0:0:0:0:
171,225,275969,1,2,0:0:0:0:
168,144,276138,2,0,L|244:148,1,67.499998998642,2|0,0:0|0:0,0:0:0:0:
182,103,276308,2,0,L|239:149,1,67.499998998642,2|0,0:0|0:0,0:0:0:0:
231,80,276477,2,0,L|236:161,1,67.499998998642,10|0,0:0|0:0,0:0:0:0:
277,93,276647,2,0,L|232:145,1,67.499998998642,2|0,0:0|0:0,0:0:0:0:
301,147,276816,6,0,P|316:189|243:268,1,134.999997997284,2|0,0:0|0:0,0:0:0:0:
157,188,277155,2,0,P|163:86|206:53,1,134.999997997284,10|0,0:0|0:0,0:0:0:0:
316,84,277494,1,2,0:0:0:0:
401,188,277664,1,2,0:0:0:0:
277,241,277833,2,0,P|239:203|246:108,1,134.999997997284,10|0,0:0|0:0,0:0:0:0:
369,149,278172,6,0,P|395:213|374:295,1,134.999997997284,2|0,0:0|0:0,0:0:0:0:
249,283,278511,1,10,0:0:0:0:
147,193,278681,1,0,0:0:0:0:
161,59,278850,2,2,P|234:38|316:49,1,134.999997997284
382,143,279189,1,10,0:0:0:0:
309,257,279359,1,0,0:0:0:0:
175,273,279528,6,0,P|135:246|116:143,1,134.999997997284,2|0,0:0|0:0,0:0:0:0:
203,68,279867,2,0,P|221:120|225:205,1,134.999997997284,10|0,0:0|0:0,0:0:0:0:
192,330,280206,2,2,P|283:355|343:331,1,134.999997997284
398,234,280545,2,0,P|417:188|418:82,1,134.999997997284,10|0,0:0|0:0,0:0:0:0:
293,143,280884,6,0,P|264:101|184:61,1,134.999997997284,2|0,0:0|0:0,0:0:0:0:
105,167,281223,2,0,P|94:218|131:302,1,134.999997997284,8|0,0:0|0:0,0:0:0:0:
258,286,281562,1,2,0:0:0:0:
366,205,281732,1,2,0:0:0:0:
260,121,281901,2,0,L|310:188,1,67.499998998642,10|0,0:0|0:0,0:0:0:0:
246,216,282070,2,0,L|294:276,1,67.499998998642
256,329,282240,6,0,P|341:335|405:305,1,134.999997997284,2|0,0:0|0:0,0:0:0:0:
447,196,282579,2,0,P|457:120|439:52,1,134.999997997284,10|0,0:0|0:0,0:0:0:0:
325,128,282918,1,2,0:0:0:0:
202,71,283087,1,2,0:0:0:0:
76,122,283257,2,0,P|51:178|53:267,1,134.999997997284,10|0,0:0|0:0,0:0:0:0:
128,360,283596,6,0,P|188:362|281:331,1,134.999997997284,2|0,0:0|0:0,0:0:0:0:
395,339,283935,2,0,P|423:282|423:197,1,134.999997997284,10|0,0:0|0:0,0:0:0:0:
290,204,284274,1,2,0:0:0:0:
224,86,284443,1,2,0:0:0:0:
129,183,284613,2,0,L|183:204,6,33.749999499321,10|0|0|0|10|0|0,0:0|0:0|0:0|0:0|0:0|0:0|0:0,0:0:0:0:
189,212,284952,6,0,P|237:238|274:325,1,134.999997997284,2|0,0:0|0:0,0:0:0:0:
318,179,285291,2,0,P|345:229|308:295,1,134.999997997284,10|0,0:0|0:0,0:0:0:0:
443,322,285630,2,0,P|403:353|319:333,1,134.999997997284,2|0,0:0|0:0,0:0:0:0:
233,237,285969,2,0,P|224:180|271:103,1,134.999997997284,10|0,0:0|0:0,0:0:0:0:
391,137,286308,6,0,P|362:204|297:228,1,134.999997997284,2|0,0:0|0:0,0:0:0:0:
228,118,286647,2,0,L|261:100,3,33.749999499321,2|0|0|0,0:0|0:0|0:0|0:0,0:0:0:0:
291,104,286816,2,0,L|336:128,3,33.749999499321,8|0|0|0,0:0|0:0|0:0|0:0,0:0:0:0:
291,137,286986,2,2,L|253:137,6,33.749999499321
285,204,287325,2,0,P|289:239|281:272,1,67.499998998642,2|0,0:0|0:0,0:0:0:0:
288,337,287494,2,0,P|238:323|217:306,1,67.499998998642,10|0,0:0|0:0,0:0:0:0:
160,333,287664,6,0,P|155:286|171:189,1,134.999997997284,2|0,0:0|0:0,0:0:0:0:
295,154,288003,2,0,P|347:117|368:44,1,134.999997997284,10|0,0:0|0:0,0:0:0:0:
235,76,288342,1,2,0:0:0:0:
187,202,288511,1,2,0:0:0:0:
321,183,288681,1,10,0:0:0:0:
271,308,288850,1,2,0:0:0:0:
405,289,289020,6,0,P|434:249|427:157,1,134.999997997284,2|0,0:0|0:0,0:0:0:0:
296,171,289359,1,10,0:0:0:0:
229,54,289528,1,0,0:0:0:0:
133,149,289698,2,0,B|112:229|228:229|226:323,1,202.499996995926,2|0,0:0|0:0,0:0:0:0:
259,375,290037,2,0,B|308:371|330:285|330:285|316:261|311:229|326:191,1,202.499996995926,10|0,0:0|0:0,0:0:0:0:
364,155,290376,6,0,P|364:113|345:82,1,67.499998998642,2|0,0:0|0:0,0:0:0:0:
301,135,290545,2,0,P|259:135|228:154,1,67.499998998642,2|0,0:0|0:0,0:0:0:0:
282,197,290715,2,0,P|282:239|301:270,1,67.499998998642,10|0,0:0|0:0,0:0:0:0:
357,238,290884,2,0,P|399:238|430:219,1,67.499998998642,2|0,0:0|0:0,0:0:0:0:
385,168,291054,6,0,P|385:126|366:95,1,67.499998998642,2|0,0:0|0:0,0:0:0:0:
328,53,291223,2,0,P|286:53|255:72,1,67.499998998642,2|0,0:0|0:0,0:0:0:0:
232,125,291393,2,0,P|232:167|251:198,1,67.499998998642,10|0,0:0|0:0,0:0:0:0:
290,237,291562,2,0,P|332:237|363:218,1,67.499998998642,2|0,0:0|0:0,0:0:0:0:
361,157,291732,5,2,0:0:0:0:
248,83,291901,1,2,0:0:0:0:
271,215,292070,1,10,0:0:0:0:
135,213,292240,1,2,0:0:0:0:
218,318,292409,2,0,B|268:335|332:300|332:300|399:321|337:288|337:288|405:292|341:273|341:273|410:268|342:258|342:258|407:246|340:243|340:243|337:211|316:138|228:178,1,539.999991989136,6|2,0:0|0:0,0:0:0:0:
111,165,293257,5,2,0:0:0:0:
179,280,293426,2,0,P|244:289|313:249,1,134.999997997284,2|0,0:0|0:0,0:0:0:0:
223,149,293765,2,0,P|304:146|369:175,1,134.999997997284,2|0,0:0|0:0,0:0:0:0:
396,293,294104,2,0,P|302:307|242:301,1,134.999997997284,2|0,0:0|0:0,0:0:0:0:
161,214,294443,6,0,P|143:163|189:88,1,134.999997997284,2|0,0:0|0:0,0:0:0:0:
294,163,294782,1,2,0:0:0:0:
429,170,294952,1,2,0:0:0:0:
362,287,295121,2,0,P|300:280|230:237,1,134.999997997284,2|0,0:0|0:0,0:0:0:0:
326,142,295460,1,2,0:0:0:0:
335,277,295630,1,2,0:0:0:0:
204,308,295799,6,0,L|87:215,1,134.999997997284,2|0,0:0|0:0,0:0:0:0:
131,92,296138,2,0,L|297:91,1,134.999997997284,2|0,0:0|0:0,0:0:0:0:
271,226,296477,1,2,0:0:0:0:
337,215,296562,1,0,0:0:0:0:
387,170,296647,1,2,0:0:0:0:
385,102,296732,1,0,0:0:0:0:
335,56,296816,1,2,0:0:0:0:
269,71,296901,1,0,0:0:0:0:
255,137,296986,1,2,0:0:0:0:
293,191,297070,1,0,0:0:0:0:
358,208,297155,6,0,P|403:227|460:293,1,134.999997997284,2|0,0:0|0:0,0:0:0:0:
260,248,297494,2,0,P|241:293|175:350,1,134.999997997284,2|0,0:0|0:0,0:0:0:0:
115,155,297833,2,0,P|106:115|121:78,1,67.499998998642,2|0,0:0|0:0,0:0:0:0:
215,101,298003,2,0,P|224:133|216:165,1,67.499998998642,2|0,0:0|0:0,0:0:0:0:
127,214,298172,2,0,P|117:181|125:149,1,67.499998998642,2|0,0:0|0:0,0:0:0:0:
224,65,298342,2,0,P|233:97|226:130,1,67.499998998642,2|0,0:0|0:0,0:0:0:0:
142,188,298511,6,0,P|135:237|125:282,1,67.499998998642,6|0,0:0|0:0,0:0:0:0:
233,262,298681,1,0,0:0:0:0:
305,192,298765,1,0,0:0:0:0:
239,114,298850,2,0,L|309:81,1,67.499998998642,10|0,0:0|0:0,0:0:0:0:
395,122,299020,1,0,0:0:0:0:
418,219,299104,1,0,0:0:0:0:
353,297,299189,2,0,L|325:225,1,67.499998998642,2|0,0:0|0:0,0:0:0:0:
226,225,299359,2,0,L|283:164,1,67.499998998642,2|0,0:0|0:0,0:0:0:0:
194,109,299528,2,0,L|272:69,1,67.499998998642,10|0,0:0|0:0,0:0:0:0:
354,57,299698,2,0,L|331:137,1,67.499998998642,2|0,0:0|0:0,0:0:0:0:
287,211,299867,6,0,P|248:241|230:279,1,67.499998998642,2|0,0:0|0:0,0:0:0:0:
212,355,300037,2,0,P|185:314|145:285,1,67.499998998642
83,250,300206,2,0,P|110:208|147:189,1,67.499998998642
133,95,300376,2,0,P|176:120|206:158,1,67.499998998642
253,210,300545,2,0,P|274:258|301:277,1,67.499998998642
386,276,300715,2,0,P|417:249|423:213,1,67.499998998642
428,123,300884,2,0,P|396:100|357:97,1,67.499998998642
270,65,301054,2,0,P|254:104|255:137,1,67.499998998642
266,229,301223,6,0,P|261:263|282:311,1,67.499998998642
363,251,301393,2,0,P|381:213|378:175,1,67.499998998642
285,153,301562,2,0,L|247:173,1,33.749999499321
122,243,301732,2,0,L|138:200,1,33.749999499321
229,93,301901,2,0,P|252:56|293:49,1,67.499998998642
370,20,302070,2,0,P|383:62|380:98,1,67.499998998642
460,152,302240,2,0,P|399:175|367:174,1,67.499998998642
377,274,302409,2,0,P|337:231|325:193,1,67.499998998642
301,125,302579,5,0,0:0:0:0:
260,70,302664,1,0,0:0:0:0:
198,43,302748,1,0,0:0:0:0:
133,62,302833,1,0,0:0:0:0:
98,120,302918,1,0,0:0:0:0:
114,185,303003,1,0,0:0:0:0:
168,224,303087,1,0,0:0:0:0:
235,224,303172,1,0,0:0:0:0:
288,182,303257,5,0,0:0:0:0:
355,183,303342,1,0,0:0:0:0:
409,221,303426,1,0,0:0:0:0:
423,287,303511,1,0,0:0:0:0:
384,342,303596,5,0,0:0:0:0:
316,348,303681,1,0,0:0:0:0:
262,307,303765,5,0,0:0:0:0:
256,239,303850,1,0,0:0:0:0:
237,173,303935,6,0,P|188:118|129:106,1,134.999997997284
84,233,304274,1,0,0:0:0:0:
142,289,304359,1,0,0:0:0:0:
221,296,304443,1,0,0:0:0:0:
327,173,304613,1,0,0:0:0:0:
201,71,304782,1,0,0:0:0:0:
256,223,304952,1,0,0:0:0:0:
314,72,305121,1,0,0:0:0:0:
463,135,305291,6,0,P|467:201|431:256,1,134.999997997284
269,248,305630,2,0,P|319:217|397:237,1,134.999997997284
314,72,305969,1,0,0:0:0:0:
254,222,306138,1,0,0:0:0:0:
175,79,306308,2,0,B|43:147|240:213|124:262|124:262|139:211|139:211,1,269.999995994568
275,143,306816,5,0,0:0:0:0:
335,293,306986,2,0,B|359:249|410:255|410:255|415:197,1,134.999997997284,8|0,0:0|0:0,0:0:0:0:
478,60,307325,2,0,P|447:102|376:148,1,134.999997997284
221,105,307664,2,0,B|194:82|204:22|232:55|232:149,1,134.999997997284
76,183,308003,5,0,0:0:0:0:
228,236,308172,1,0,0:0:0:0:
350,129,308342,1,0,0:0:0:0:
195,176,308511,1,0,0:0:0:0:
212,337,308681,1,0,0:0:0:0:
351,256,308850,1,0,0:0:0:0:
273,113,309020,2,0,B|273:142|273:142|268:140,6,33.749999499321
343,154,309359,6,0,P|410:164|476:117,1,134.999997997284
321,56,309698,1,0,0:0:0:0:
163,91,309867,1,0,0:0:0:0:
222,242,310037,1,0,0:0:0:0:
299,100,310206,1,0,0:0:0:0:
149,163,310376,1,0,0:0:0:0:
309,184,310545,1,0,0:0:0:0:
271,25,310715,6,0,P|243:86|248:160,1,134.999997997284
179,300,311054,2,0,P|232:262|269:201,1,134.999997997284
382,88,311393,1,0,0:0:0:0:
468,224,311562,1,0,0:0:0:0:
309,261,311732,2,0,B|310:288|310:288|317:287,3,33.749999499321
277,293,311901,2,0,B|264:268|264:268|265:254,3,33.749999499321
279,225,312070,6,0,P|293:186|257:88,1,134.999997997284
114,153,312409,2,0,P|194:206|263:214,1,134.999997997284
342,95,312748,1,0,0:0:0:0:
189,149,312918,1,0,0:0:0:0:
349,292,313087,2,0,P|335:286|352:286,6,44.9999976158143
331,212,313426,6,0,P|341:164|273:91,1,134.999997997284
131,99,313765,2,0,P|170:160|229:209,1,134.999997997284
173,357,314104,2,0,P|224:291|233:232,1,134.999997997284
255,26,314443,2,0,L|261:86,3,44.9999976158143
311,88,314613,2,0,L|308:137,3,44.9999976158143
272,150,314782,6,0,P|264:173|290:207,1,67.499998998642
284,287,314952,2,0,P|304:246|301:210,1,67.499998998642
385,220,315121,2,0,B|347:218|319:184|319:184|241:176,1,134.999997997284
131,275,315460,2,0,B|166:278|166:278|206:300|206:300|274:297,1,134.999997997284
359,169,315799,2,0,B|305:113|302:142|303:144|283:93|283:93|239:76,1,134.999997997284
103,56,316138,6,0,P|136:104|208:114,1,134.999997997284
345,26,316477,2,0,P|395:37|457:125,1,134.999997997284
454,259,316816,1,0,0:0:0:0:
302,318,316986,1,0,0:0:0:0:
177,215,317155,1,0,0:0:0:0:
255,72,317325,1,0,0:0:0:0:
413,101,317494,6,0,P|405:160|354:226,1,134.999997997284
221,137,317833,2,0,P|157:176|113:238,1,134.999997997284
166,378,318172,2,0,P|217:352|224:327,1,67.499998998642
208,264,318342,2,0,P|256:301|266:322,1,67.499998998642
319,359,318511,2,0,P|349:332|354:293,1,67.499998998642
371,226,318681,2,0,P|376:188|407:167,1,67.499998998642
475,148,318850,5,0,0:0:0:0:
296,24,319020,1,0,0:0:0:0:
267,237,319189,5,0,0:0:0:0:
404,69,319359,1,0,0:0:0:0:
190,97,319528,5,0,0:0:0:0:
369,218,319698,1,0,0:0:0:0:
275,24,319867,6,0,B|248:61|285:118|236:171,1,134.999997997284
110,196,320206,6,0,P|149:209|194:260,1,89.9999952316285
251,326,320545,1,0,0:0:0:0:
359,332,320715,1,0,0:0:0:0:
406,235,320884,2,0,P|387:170|367:154,1,89.9999952316285
263,163,321223,2,0,P|206:178|171:209,1,89.9999952316285
281,238,321562,5,0,0:0:0:0:
315,135,321732,1,0,0:0:0:0:
207,138,321901,1,0,0:0:0:0:
307,177,322070,1,0,0:0:0:0:
373,91,322240,1,0,0:0:0:0:
265,98,322409,1,0,0:0:0:0:
157,114,322579,2,0,B|132:118|132:118|206:128,1,89.9999952316285
261,212,322918,6,0,P|304:197|337:158,1,89.9999952316285
225,160,323257,2,0,P|210:117|171:84,1,89.9999952316285
170,195,323596,2,0,P|127:210|94:249,1,89.9999952316285
205,252,323935,2,0,P|220:295|259:328,1,89.9999952316285
342,264,324274,6,0,P|366:225|356:179,1,89.9999952316285
422,95,324613,2,0,P|349:73|332:86,1,89.9999952316285
235,84,324952,1,0,0:0:0:0:
185,105,325037,1,0,0:0:0:0:
148,144,325121,1,0,0:0:0:0:
135,196,325206,1,0,0:0:0:0:
153,246,325291,2,0,L|195:246,6,33.749999499321
206,255,325630,6,0,P|250:271|342:240,1,134.999997997284
447,134,325969,2,0,P|368:141|317:194,1,134.999997997284
185,97,326308,2,0,P|210:173|253:218,1,134.999997997284
380,305,326647,2,0,P|408:268|401:178,1,134.999997997284
301,56,326986,5,0,0:0:0:0:
151,118,327155,1,0,0:0:0:0:
313,129,327325,1,0,0:0:0:0:
173,48,327494,1,0,0:0:0:0:
222,202,327664,5,0,0:0:0:0:
359,286,327833,1,0,0:0:0:0:
373,124,328003,2,0,P|326:182|314:251,1,134.999997997284
475,232,328342,6,0,P|483:177|434:90,1,134.999997997284
292,140,328681,2,0,P|240:97|150:102,1,134.999997997284
13,115,329020,1,0,0:0:0:0:
24,194,329104,1,0,0:0:0:0:
84,248,329189,1,0,0:0:0:0:
165,254,329274,1,0,0:0:0:0:
237,217,329359,2,0,L|252:184,3,33.749999499321
288,171,329528,2,0,L|271:132,3,33.749999499321
245,111,329698,6,0,P|278:62|363:70,1,134.999997997284
509,86,330037,2,0,P|494:142|412:182,1,134.999997997284
304,281,330376,2,0,L|283:244,3,33.749999499321
247,254,330545,2,0,B|240:233|240:233|248:216|248:216|242:197,3,33.749999499321
205,206,330715,2,0,B|213:196|213:196|200:191|200:191|207:171,6,33.749999499321
124,199,331054,6,0,P|146:136|210:104,1,134.999997997284
345,26,331393,2,0,P|379:69|385:166,1,134.999997997284
340,301,331732,1,0,0:0:0:0:
199,221,331901,1,0,0:0:0:0:
339,141,332070,1,0,0:0:0:0:
268,287,332240,1,0,0:0:0:0:
111,247,332409,6,0,P|80:204|102:104,1,134.999997997284
206,15,332748,2,0,P|226:76|203:150,1,134.999997997284
106,269,333087,2,0,P|148:326|217:333,1,134.999997997284
365,295,333426,2,0,B|365:275|365:275|376:278|364:262|364:262|348:265|364:247|364:247|375:244|365:228|365:228|361:197|382:202|383:185|383:185|386:165|348:180|348:180|339:200,1,202.499996995926
268,240,333765,6,0,P|214:245|135:208,1,134.999997997284
222,72,334104,2,0,P|306:69|365:95,1,134.999997997284
456,211,334443,2,0,P|422:254|333:290,1,134.999997997284
188,298,334782,2,0,P|197:245|273:166,1,134.999997997284
381,92,335121,5,0,0:0:0:0:
310,238,335291,1,0,0:0:0:0:
229,97,335460,5,0,0:0:0:0:
375,166,335630,1,0,0:0:0:0:
245,262,335799,5,0,0:0:0:0:
302,110,335969,1,0,0:0:0:0:
390,245,336138,2,0,P|392:264|405:276,6,33.749999499321
418,168,336477,6,0,P|417:130|317:88,1,134.999997997284
190,23,336816,2,0,P|178:70|215:149,1,134.999997997284
354,224,337155,1,0,0:0:0:0:
324,64,337325,1,0,0:0:0:0:
261,213,337494,2,0,L|260:260,6,33.749999499321
291,137,337833,5,0,0:0:0:0:
437,67,338003,1,0,0:0:0:0:
390,221,338172,5,0,0:0:0:0:
237,166,338342,1,0,0:0:0:0:
78,198,338511,5,0,0:0:0:0:
213,287,338681,1,0,0:0:0:0:
359,218,338850,2,0,P|395:245|423:244,1,67.499998998642
487,205,339020,2,0,P|496:164|486:120,1,67.499998998642
458,65,339189,6,0,P|416:73|392:159,1,134.999997997284
342,308,339528,1,0,0:0:0:0:
180,326,339698,1,0,0:0:0:0:
61,216,339867,2,0,P|88:156|153:122,1,134.999997997284
308,112,340206,1,0,0:0:0:0:
449,192,340376,1,0,0:0:0:0:
301,258,340545,5,0,0:0:0:0:
179,149,340715,1,0,0:0:0:0:
340,160,340884,5,0,0:0:0:0:
222,272,341054,1,0,0:0:0:0:
232,110,341223,5,0,0:0:0:0:
383,168,341393,1,0,0:0:0:0:
263,276,341562,5,0,0:0:0:0:
260,113,341732,1,0,0:0:0:0:
328,195,341901,6,0,P|272:190|226:191,1,89.9999952316285
130,197,342240,2,0,P|112:174|126:109,1,89.9999952316285
173,22,342579,2,0,P|219:36|255:82,1,89.9999952316285
350,33,342918,2,0,P|370:64|381:116,1,89.9999952316285
480,157,343257,6,0,P|468:200|439:235,1,89.9999952316285
362,310,343596,2,0,P|312:313|257:298,1,89.9999952316285
167,327,343935,2,0,P|153:289|157:220,1,89.9999952316285
52,197,344274,2,0,P|98:155|139:153,1,89.9999952316285
131,43,344613,6,0,P|167:63|213:105,1,89.9999952316285
310,115,344952,2,0,P|354:105|409:115,1,89.9999952316285
494,159,345291,2,0,P|488:205|458:249,1,89.9999952316285
359,262,345630,2,0,P|339:272|309:342,1,89.9999952316285
203,357,345969,6,0,P|152:368|106:350,1,89.9999952316285
31,290,346308,2,0,P|18:241|20:184,1,89.9999952316285
56,100,346647,2,0,B|79:78|72:48|72:48|56:20|145:9,1,134.999992847443
182,8,346986,1,0,0:0:0:0:
289,9,347155,1,0,0:0:0:0:
384,60,347325,6,0,P|388:100|361:151,1,89.9999952316285
273,198,347664,2,0,P|242:176|220:115,1,89.9999952316285
115,104,348003,2,0,P|155:75|208:78,1,89.9999952316285
295,35,348342,2,0,P|305:89|305:144,1,89.9999952316285
228,199,348681,6,0,P|203:155|205:106,1,89.9999952316285
306,85,349020,2,0,P|341:102|376:160,1,89.9999952316285
364,250,349359,2,0,P|346:286|301:309,1,89.9999952316285
194,307,349698,2,0,P|166:291|134:226,1,89.9999952316285
45,183,350037,6,0,P|67:153|128:140,1,89.9999952316285
179,50,350376,2,0,P|214:82|217:133,1,89.9999952316285
258,223,350715,2,0,P|285:242|351:241,1,89.9999952316285
428,182,351054,2,0,P|431:136|403:95,1,89.9999952316285
301,83,351393,6,0,P|248:85|210:117,1,89.9999952316285
111,120,351732,2,0,P|135:165|183:184,1,89.9999952316285
208,282,352070,2,0,P|243:239|240:191,1,89.9999952316285
261,99,352409,1,0,0:0:0:0:
367,79,352579,1,0,0:0:0:0:
462,128,352748,6,0,P|472:169|455:229,1,89.9999952316285
360,250,353087,2,0,P|393:279|388:333,1,89.9999952316285
286,305,353426,2,0,P|263:333|197:334,1,89.9999952316285
116,288,353765,2,0,P|90:257|85:204,1,89.9999952316285
59,103,354104,6,0,P|98:84|152:93,1,89.9999952316285
236,143,354443,2,0,P|255:122|282:54,1,89.9999952316285
374,12,354782,2,0,P|408:17|436:66,1,89.9999952316285
470,164,355121,2,0,P|465:209|433:253,1,89.9999952316285
333,254,355460,6,0,P|298:260|233:238,1,89.9999952316285
139,227,355799,2,0,P|166:186|208:170,1,89.9999952316285
294,113,356138,2,0,P|334:112|377:149,1,89.9999952316285
439,226,356477,1,0,0:0:0:0:
225,256,356816,5,0,0:0:0:0:
225,256,357155,1,0,0:0:0:0:
225,256,357494,1,0,0:0:0:0:
42,140,357833,1,0,0:0:0:0:
150,135,358003,1,0,0:0:0:0:
257,134,358172,6,0,P|310:138|355:155,1,89.9999952316285
326,256,358511,1,0,0:0:0:0:
218,268,358681,1,0,0:0:0:0:
200,161,358850,2,0,P|225:115|267:101,1,89.9999952316285
366,96,359189,1,0,0:0:0:0:
442,173,359359,1,0,0:0:0:0:
405,274,359528,5,0,0:0:0:0:
301,305,359698,1,0,0:0:0:0:
205,255,359867,1,0,0:0:0:0:
222,148,360037,1,0,0:0:0:0:
181,48,360206,1,0,0:0:0:0:
72,40,360376,1,0,0:0:0:0:
15,131,360545,1,0,0:0:0:0:
75,221,360715,1,0,0:0:0:0:
182,227,360884,6,0,P|219:236|270:209,1,89.9999952316285
317,120,361223,2,0,P|352:111|416:122,1,89.9999952316285
436,221,361562,2,0,P|436:250|402:304,1,89.9999952316285
306,344,361901,2,0,P|254:344|215:324,1,89.9999952316285
146,248,362240,5,0,0:0:0:0:
252,151,362409,1,0,0:0:0:0:
346,42,362579,5,0,0:0:0:0:
210,88,362748,1,0,0:0:0:0:
108,190,362918,5,0,0:0:0:0:
249,212,363087,1,0,0:0:0:0:
345,104,363257,5,0,0:0:0:0:
220,174,363426,1,0,0:0:0:0:
343,220,363596,6,0,B|362:208|423:225|451:189|461:113|283:13|266:66|271:119|271:119|246:93|192:69|78:58|59:128|106:213|228:211,1,674.999964237214
292,204,369019,6,0,B|323:188|373:198|373:198|337:210|310:276|375:287|366:325|298:354|226:315|154:308|90:198|139:77|336:57,1,674.999964237214
403,69,374443,6,0,B|417:83|419:86|359:89|359:89|286:131|128:126|136:187|152:235|361:232|466:251|472:351|374:368|269:351,1,674.999964237214
209,325,379867,6,0,B|195:302|221:252|221:252|204:226|208:191|246:177|246:177|238:155|239:124|290:119|290:119|298:96|363:113|388:88|362:43|284:20|203:49|148:89|113:240,1,674.999964237214
176,271,385290,6,0,B|217:275|217:275|265:276|266:224|266:224|262:175|213:171|213:171|166:168|170:218|170:218|168:273|237:275|237:275|252:293|252:293|266:269|266:269|295:283|378:276|425:236|388:212|351:229|351:229|317:205|337:126,1,719.999961853028
256,192,390799,12,0,393341,0:0:0:0:
256,192,393426,12,0,396138,0:0:0:0:
