osu file format v14

[General]
AudioFilename: Team Grimoire - G1ll35 d3 R415.mp3
AudioLeadIn: 0
PreviewTime: 196654
Countdown: 0
SampleSet: None
StackLeniency: 0.7
Mode: 3
LetterboxInBreaks: 0
SpecialStyle: 0
WidescreenStoryboard: 0

[Editor]
DistanceSpacing: 1
BeatDivisor: 4
GridSize: 8
TimelineZoom: 3.299999

[Metadata]
Title:G1ll35 d3 R415
TitleUnicode:G1ll35 d3 R415
Artist:Team Grimoire
ArtistUnicode:Team Grimoire
Creator:Allezard
Version:Insane
Source:
Tags:grimoire of crimson jcore gilles de rais [Shana Lesus]
BeatmapID:865372
BeatmapSetID:386950

[Difficulty]
HPDrainRate:7.5
CircleSize:4
OverallDifficulty:8
ApproachRate:5
SliderMultiplier:1.4
SliderTickRate:1

[Events]
//Background and Video events
0,0,"BG.jpg",0,0
//Break Periods
//Storyboard Layer 0 (Background)
//Storyboard Layer 1 (Fail)
//Storyboard Layer 2 (Pass)
//Storyboard Layer 3 (Foreground)
//Storyboard Sound Samples

[TimingPoints]
26980,279.06976744186,4,3,1,35,1,0
44840,-100,4,3,1,55,0,0
98421,-100,4,3,1,40,0,0
152003,-100,4,3,1,60,0,0
169863,-100,4,3,1,20,0,0
170979,-100,4,3,1,15,0,0
178793,-100,4,3,1,50,0,0
192189,-100,4,3,1,60,0,0
196654,-100,4,3,1,60,0,1
203770,-100,4,3,1,20,0,1
204189,-100,4,3,1,40,0,1
204468,-100,4,3,1,60,0,1
209352,-100,4,3,1,20,0,1
210049,-100,4,3,1,60,0,1
213398,-100,4,3,1,20,0,1
214514,-100,4,3,1,60,0,1
222328,-100,4,3,1,20,0,1
223166,-100,4,3,1,40,0,1
223445,-100,4,3,1,60,0,1
230142,-100,4,3,1,20,0,1
231259,-100,4,3,1,40,0,1
232375,-100,4,3,1,25,0,0
259166,-100,4,3,1,5,0,0
268096,-100,4,3,1,20,0,0

[HitObjects]
448,192,26980,5,0,0:0:0:0:
64,192,26980,1,0,0:0:0:0:
320,192,27119,1,0,0:0:0:0:
64,192,27259,1,0,0:0:0:0:
192,192,27259,1,0,0:0:0:0:
448,192,27398,1,0,0:0:0:0:
192,192,27538,1,0,0:0:0:0:
320,192,27538,1,0,0:0:0:0:
64,192,27677,1,0,0:0:0:0:
192,192,27817,1,0,0:0:0:0:
448,192,27817,1,0,0:0:0:0:
320,192,27956,1,0,0:0:0:0:
64,192,28096,1,0,0:0:0:0:
192,192,28096,1,0,0:0:0:0:
448,192,28235,1,0,0:0:0:0:
64,192,28375,1,0,0:0:0:0:
320,192,28375,1,0,0:0:0:0:
192,192,28514,1,0,0:0:0:0:
320,192,28654,1,0,0:0:0:0:
448,192,28654,1,0,0:0:0:0:
64,192,28793,1,0,0:0:0:0:
192,192,28933,1,0,0:0:0:0:
448,192,28933,1,0,0:0:0:0:
448,192,29073,1,0,0:0:0:0:
192,192,29073,1,0,0:0:0:0:
448,192,29212,1,0,0:0:0:0:
320,192,29212,1,0,0:0:0:0:
64,192,29352,1,0,0:0:0:0:
192,192,29491,1,0,0:0:0:0:
320,192,29491,1,0,0:0:0:0:
448,192,29631,1,0,0:0:0:0:
64,192,29770,1,0,0:0:0:0:
320,192,29770,1,0,0:0:0:0:
192,192,29910,1,0,0:0:0:0:
320,192,30049,1,0,0:0:0:0:
448,192,30049,1,0,0:0:0:0:
192,192,30189,1,0,0:0:0:0:
64,192,30328,1,0,0:0:0:0:
320,192,30328,1,0,0:0:0:0:
448,192,30468,1,0,0:0:0:0:
192,192,30468,1,0,0:0:0:0:
192,192,30607,1,0,0:0:0:0:
320,192,30607,1,0,0:0:0:0:
64,192,30747,1,0,0:0:0:0:
320,192,30747,1,0,0:0:0:0:
448,192,30886,1,0,0:0:0:0:
192,192,30886,1,0,0:0:0:0:
64,192,31026,1,0,0:0:0:0:
192,192,31096,1,0,0:0:0:0:
448,192,31166,1,0,0:0:0:0:
320,192,31166,1,0,0:0:0:0:
320,192,31305,1,0,0:0:0:0:
192,192,31305,1,0,0:0:0:0:
64,192,31445,1,0,0:0:0:0:
448,192,31445,1,0,0:0:0:0:
192,192,31584,1,0,0:0:0:0:
320,192,31724,1,0,0:0:0:0:
448,192,31724,1,0,0:0:0:0:
64,192,31863,1,0,0:0:0:0:
192,192,32003,1,0,0:0:0:0:
448,192,32003,1,0,0:0:0:0:
320,192,32142,1,0,0:0:0:0:
192,192,32282,1,0,0:0:0:0:
64,192,32282,1,0,0:0:0:0:
448,192,32421,1,0,0:0:0:0:
320,192,32561,1,0,0:0:0:0:
64,192,32561,1,0,0:0:0:0:
192,192,32700,1,0,0:0:0:0:
320,192,32840,1,0,0:0:0:0:
448,192,32840,1,0,0:0:0:0:
64,192,32980,1,0,0:0:0:0:
448,192,33119,1,0,0:0:0:0:
192,192,33119,1,0,0:0:0:0:
320,192,33259,1,0,0:0:0:0:
192,192,33398,1,0,0:0:0:0:
320,192,33468,1,0,0:0:0:0:
448,192,33538,1,0,0:0:0:0:
64,192,33538,1,0,0:0:0:0:
192,192,33677,1,0,0:0:0:0:
320,192,33677,1,0,0:0:0:0:
448,192,33817,1,0,0:0:0:0:
192,192,33956,1,0,0:0:0:0:
64,192,33956,1,0,0:0:0:0:
448,192,34096,1,0,0:0:0:0:
320,192,34235,1,0,0:0:0:0:
64,192,34235,1,0,0:0:0:0:
192,192,34375,1,0,0:0:0:0:
320,192,34514,1,0,0:0:0:0:
448,192,34514,1,0,0:0:0:0:
64,192,34654,1,0,0:0:0:0:
192,192,34793,1,0,0:0:0:0:
448,192,34793,1,0,0:0:0:0:
320,192,34933,1,0,0:0:0:0:
64,192,35073,1,0,0:0:0:0:
448,192,35073,1,0,0:0:0:0:
320,192,35212,1,0,0:0:0:0:
64,192,35352,1,0,0:0:0:0:
192,192,35352,1,0,0:0:0:0:
448,192,35491,1,0,0:0:0:0:
320,192,35491,1,0,0:0:0:0:
64,192,35631,1,0,0:0:0:0:
192,192,35700,1,0,0:0:0:0:
320,192,35770,1,0,0:0:0:0:
448,192,35770,1,0,0:0:0:0:
64,192,35910,1,4,0:0:0:0:
192,192,35910,1,2,0:0:0:0:
448,192,35910,1,0,0:0:0:0:
320,192,36049,128,0,36189:0:0:0:0:
448,192,36189,1,0,0:0:0:0:
64,192,36189,1,0,0:0:0:0:
320,192,36328,128,0,36468:0:0:0:0:
64,192,36468,1,0,0:0:0:0:
192,192,36468,1,0,0:0:0:0:
320,192,36607,128,0,36747:0:0:0:0:
448,192,36747,1,0,0:0:0:0:
64,192,36747,1,0,0:0:0:0:
320,192,36886,128,0,37026:0:0:0:0:
192,192,37026,1,0,0:0:0:0:
64,192,37026,1,0,0:0:0:0:
320,192,37166,128,0,37305:0:0:0:0:
448,192,37305,1,0,0:0:0:0:
64,192,37305,1,0,0:0:0:0:
320,192,37445,128,0,37584:0:0:0:0:
192,192,37584,1,0,0:0:0:0:
64,192,37584,1,0,0:0:0:0:
320,192,37724,128,0,37863:0:0:0:0:
64,192,37863,1,0,0:0:0:0:
448,192,37863,1,0,0:0:0:0:
192,192,38003,1,0,0:0:0:0:
320,192,38003,1,0,0:0:0:0:
64,192,38142,1,0,0:0:0:0:
448,192,38142,1,0,0:0:0:0:
320,192,38142,1,0,0:0:0:0:
192,192,38282,128,0,38421:0:0:0:0:
320,192,38421,1,0,0:0:0:0:
448,192,38421,1,0,0:0:0:0:
192,192,38561,128,0,38700:0:0:0:0:
64,192,38700,1,0,0:0:0:0:
448,192,38700,1,0,0:0:0:0:
192,192,38840,128,0,38980:0:0:0:0:
320,192,38980,1,0,0:0:0:0:
448,192,38980,1,0,0:0:0:0:
192,192,39119,128,0,39259:0:0:0:0:
64,192,39259,1,0,0:0:0:0:
448,192,39259,1,0,0:0:0:0:
192,192,39398,128,0,39538:0:0:0:0:
320,192,39538,1,0,0:0:0:0:
448,192,39538,1,0,0:0:0:0:
192,192,39677,128,0,39817:0:0:0:0:
448,192,39817,1,0,0:0:0:0:
320,192,39886,1,0,0:0:0:0:
64,192,39956,1,0,0:0:0:0:
192,192,39956,1,0,0:0:0:0:
64,192,40096,1,0,0:0:0:0:
320,192,40096,1,0,0:0:0:0:
192,192,40235,1,0,0:0:0:0:
448,192,40235,1,0,0:0:0:0:
192,192,40375,1,0,0:0:0:0:
320,192,40375,1,0,0:0:0:0:
64,192,40375,1,0,0:0:0:0:
448,192,40514,128,0,40654:0:0:0:0:
192,192,40654,1,0,0:0:0:0:
64,192,40654,1,0,0:0:0:0:
448,192,40793,128,0,40933:0:0:0:0:
320,192,40933,1,0,0:0:0:0:
192,192,40933,1,0,0:0:0:0:
448,192,41073,128,0,41212:0:0:0:0:
64,192,41212,1,0,0:0:0:0:
192,192,41212,1,0,0:0:0:0:
448,192,41352,128,0,41491:0:0:0:0:
320,192,41491,1,0,0:0:0:0:
64,192,41491,1,0,0:0:0:0:
320,192,41631,1,0,0:0:0:0:
192,192,41631,1,0,0:0:0:0:
448,192,41770,1,0,0:0:0:0:
192,192,41770,1,0,0:0:0:0:
64,192,41910,1,0,0:0:0:0:
320,192,41910,1,0,0:0:0:0:
64,192,42049,1,0,0:0:0:0:
192,192,42049,1,0,0:0:0:0:
448,192,42189,1,0,0:0:0:0:
320,192,42189,1,0,0:0:0:0:
192,192,42259,1,0,0:0:0:0:
64,192,42259,1,0,0:0:0:0:
320,192,42328,1,0,0:0:0:0:
448,192,42328,1,0,0:0:0:0:
192,192,42398,1,0,0:0:0:0:
64,192,42398,1,0,0:0:0:0:
448,192,42468,1,0,0:0:0:0:
320,192,42468,1,0,0:0:0:0:
64,192,42538,1,0,0:0:0:0:
192,192,42538,1,0,0:0:0:0:
320,192,42607,128,0,43724:0:0:0:0:
448,192,42607,128,0,43724:0:0:0:0:
64,192,44840,1,4,0:0:0:0:
192,192,44840,1,4,0:0:0:0:
448,192,44840,1,2,0:0:0:0:
320,192,44979,1,0,0:0:0:0:
64,192,45119,1,0,0:0:0:0:
448,192,45119,1,0,0:0:0:0:
192,192,45259,1,0,0:0:0:0:
320,192,45398,1,0,0:0:0:0:
448,192,45398,1,0,0:0:0:0:
64,192,45538,1,0,0:0:0:0:
192,192,45677,1,0,0:0:0:0:
448,192,45677,1,0,0:0:0:0:
320,192,45817,1,0,0:0:0:0:
192,192,45956,1,0,0:0:0:0:
64,192,45956,1,0,0:0:0:0:
448,192,46096,1,0,0:0:0:0:
64,192,46235,1,0,0:0:0:0:
320,192,46235,1,0,0:0:0:0:
192,192,46375,1,0,0:0:0:0:
64,192,46514,1,0,0:0:0:0:
448,192,46514,1,0,0:0:0:0:
320,192,46654,1,0,0:0:0:0:
448,192,46793,1,0,0:0:0:0:
64,192,46793,1,2,0:0:0:0:
448,192,46933,1,0,0:0:0:0:
64,192,46933,1,2,0:0:0:0:
448,192,47073,1,0,0:0:0:0:
320,192,47073,1,2,0:0:0:0:
64,192,47073,1,0,0:0:0:0:
192,192,47212,1,0,0:0:0:0:
64,192,47352,1,0,0:0:0:0:
448,192,47352,1,0,0:0:0:0:
320,192,47491,1,0,0:0:0:0:
192,192,47631,1,0,0:0:0:0:
64,192,47631,1,0,0:0:0:0:
448,192,47770,1,0,0:0:0:0:
320,192,47910,1,0,0:0:0:0:
64,192,47910,1,0,0:0:0:0:
192,192,48049,1,0,0:0:0:0:
448,192,48189,1,0,0:0:0:0:
64,192,48189,1,0,0:0:0:0:
320,192,48328,1,0,0:0:0:0:
448,192,48468,1,0,0:0:0:0:
64,192,48468,1,0,0:0:0:0:
320,192,48607,1,0,0:0:0:0:
192,192,48747,1,2,0:0:0:0:
64,192,48747,1,0,0:0:0:0:
320,192,48817,1,2,0:0:0:0:
448,192,48817,1,0,0:0:0:0:
192,192,48886,1,2,0:0:0:0:
64,192,48886,1,0,0:0:0:0:
448,192,49026,1,0,0:0:0:0:
320,192,49026,1,2,0:0:0:0:
64,192,49096,1,0,0:0:0:0:
320,192,49166,1,0,0:0:0:0:
192,192,49166,1,2,0:0:0:0:
448,192,49305,1,0,0:0:0:0:
64,192,49305,1,2,0:0:0:0:
320,192,49445,1,0,0:0:0:0:
192,192,49584,1,0,0:0:0:0:
64,192,49584,1,0,0:0:0:0:
448,192,49724,1,0,0:0:0:0:
320,192,49863,1,0,0:0:0:0:
64,192,49863,1,0,0:0:0:0:
192,192,50003,1,0,0:0:0:0:
64,192,50142,1,0,0:0:0:0:
448,192,50142,1,0,0:0:0:0:
320,192,50282,1,0,0:0:0:0:
192,192,50421,1,0,0:0:0:0:
448,192,50421,1,0,0:0:0:0:
64,192,50561,1,0,0:0:0:0:
320,192,50700,1,0,0:0:0:0:
448,192,50700,1,0,0:0:0:0:
192,192,50840,1,0,0:0:0:0:
64,192,50979,1,0,0:0:0:0:
320,192,50979,1,0,0:0:0:0:
448,192,51119,1,0,0:0:0:0:
320,192,51259,1,0,0:0:0:0:
192,192,51259,1,2,0:0:0:0:
320,192,51398,1,2,0:0:0:0:
192,192,51398,1,0,0:0:0:0:
448,192,51538,1,2,0:0:0:0:
320,192,51538,1,0,0:0:0:0:
64,192,51538,1,0,0:0:0:0:
192,192,51677,1,0,0:0:0:0:
320,192,51817,1,0,0:0:0:0:
448,192,51817,1,0,0:0:0:0:
448,192,51956,128,0,52375:0:0:0:0:
64,192,51956,1,0,0:0:0:0:
192,192,52096,1,0,0:0:0:0:
320,192,52235,1,0,0:0:0:0:
64,192,52375,1,0,0:0:0:0:
192,192,52375,1,0,0:0:0:0:
320,192,52514,1,0,0:0:0:0:
448,192,52514,1,0,0:0:0:0:
64,192,52654,1,0,0:0:0:0:
192,192,52654,1,2,0:0:0:0:
448,192,52724,1,0,0:0:0:0:
320,192,52724,1,2,0:0:0:0:
64,192,52793,1,0,0:0:0:0:
192,192,52793,1,2,0:0:0:0:
448,192,52863,1,0,0:0:0:0:
320,192,52863,1,2,0:0:0:0:
64,192,52933,1,0,0:0:0:0:
192,192,52933,1,2,0:0:0:0:
448,192,53003,1,0,0:0:0:0:
320,192,53003,1,2,0:0:0:0:
64,192,53073,1,0,0:0:0:0:
192,192,53073,1,2,0:0:0:0:
448,192,53142,1,0,0:0:0:0:
320,192,53142,1,2,0:0:0:0:
64,192,53212,1,0,0:0:0:0:
192,192,53212,1,2,0:0:0:0:
448,192,53352,1,0,0:0:0:0:
320,192,53352,1,2,0:0:0:0:
64,192,53491,1,2,0:0:0:0:
448,192,53491,1,0,0:0:0:0:
192,192,53561,1,2,0:0:0:0:
320,192,53561,1,0,0:0:0:0:
64,192,53631,1,2,0:0:0:0:
448,192,53631,1,0,0:0:0:0:
320,192,53700,1,2,0:0:0:0:
192,192,53700,1,0,0:0:0:0:
64,192,53770,1,4,0:0:0:0:
448,192,53770,1,4,0:0:0:0:
320,192,53910,1,0,0:0:0:0:
64,192,54049,1,0,0:0:0:0:
192,192,54049,1,0,0:0:0:0:
448,192,54189,1,0,0:0:0:0:
64,192,54328,1,0,0:0:0:0:
320,192,54328,1,0,0:0:0:0:
192,192,54468,1,0,0:0:0:0:
448,192,54607,1,0,0:0:0:0:
320,192,54607,1,0,0:0:0:0:
192,192,54747,1,0,0:0:0:0:
64,192,54886,1,0,0:0:0:0:
448,192,54886,1,0,0:0:0:0:
320,192,55026,1,0,0:0:0:0:
448,192,55166,1,0,0:0:0:0:
192,192,55166,1,0,0:0:0:0:
64,192,55305,1,0,0:0:0:0:
448,192,55445,1,0,0:0:0:0:
320,192,55445,1,0,0:0:0:0:
192,192,55584,1,0,0:0:0:0:
448,192,55724,1,2,0:0:0:0:
320,192,55724,1,0,0:0:0:0:
448,192,55863,1,0,0:0:0:0:
320,192,55863,1,2,0:0:0:0:
320,192,56003,1,0,0:0:0:0:
448,192,56003,1,0,0:0:0:0:
192,192,56003,1,2,0:0:0:0:
64,192,56142,1,0,0:0:0:0:
448,192,56282,1,0,0:0:0:0:
192,192,56282,1,0,0:0:0:0:
320,192,56421,1,0,0:0:0:0:
448,192,56561,1,0,0:0:0:0:
64,192,56561,1,0,0:0:0:0:
320,192,56700,1,0,0:0:0:0:
192,192,56840,1,0,0:0:0:0:
448,192,56840,1,0,0:0:0:0:
64,192,56979,1,0,0:0:0:0:
320,192,57119,1,0,0:0:0:0:
448,192,57119,1,0,0:0:0:0:
192,192,57259,1,0,0:0:0:0:
64,192,57398,1,0,0:0:0:0:
448,192,57398,1,0,0:0:0:0:
320,192,57538,128,0,58096:0:0:0:0:
64,192,57677,128,0,57956:0:0:0:0:
192,192,57817,128,0,58235:0:0:0:0:
448,192,57956,128,0,58096:0:0:0:0:
64,192,58096,128,0,58235:0:0:0:0:
448,192,58235,1,2,0:0:0:0:
320,192,58235,1,0,0:0:0:0:
64,192,58375,1,0,0:0:0:0:
448,192,58514,1,0,0:0:0:0:
192,192,58514,1,0,0:0:0:0:
320,192,58654,1,0,0:0:0:0:
448,192,58793,1,0,0:0:0:0:
64,192,58793,1,0,0:0:0:0:
192,192,58933,1,0,0:0:0:0:
64,192,59073,1,0,0:0:0:0:
320,192,59073,1,0,0:0:0:0:
448,192,59212,1,0,0:0:0:0:
192,192,59352,1,0,0:0:0:0:
64,192,59352,1,0,0:0:0:0:
320,192,59491,1,0,0:0:0:0:
64,192,59631,1,0,0:0:0:0:
448,192,59631,1,0,0:0:0:0:
192,192,59770,1,0,0:0:0:0:
448,192,59910,1,2,0:0:0:0:
320,192,59910,1,0,0:0:0:0:
64,192,59979,1,2,0:0:0:0:
192,192,59979,1,0,0:0:0:0:
320,192,60049,1,0,0:0:0:0:
448,192,60049,1,2,0:0:0:0:
64,192,60189,1,2,0:0:0:0:
448,192,60189,1,0,0:0:0:0:
320,192,60328,1,0,0:0:0:0:
192,192,60328,1,2,0:0:0:0:
448,192,60468,1,0,0:0:0:0:
64,192,60468,1,2,0:0:0:0:
192,192,60468,1,0,0:0:0:0:
320,192,60607,128,0,61026:0:0:0:0:
192,192,60747,128,0,61166:0:0:0:0:
448,192,60886,128,0,61305:0:0:0:0:
64,192,61026,128,0,61445:0:0:0:0:
320,192,61166,128,0,61584:0:0:0:0:
192,192,61305,128,0,61445:0:0:0:0:
448,192,61445,128,0,61584:0:0:0:0:
64,192,61584,1,0,0:0:0:0:
192,192,61584,1,0,0:0:0:0:
320,192,61724,128,0,62003:0:0:0:0:
64,192,61863,128,0,62142:0:0:0:0:
192,192,61863,128,0,62421:0:0:0:0:
448,192,62003,128,0,62282:0:0:0:0:
320,192,62142,128,0,62700:0:0:0:0:
64,192,62282,128,0,62561:0:0:0:0:
448,192,62421,128,0,62561:0:0:0:0:
192,192,62561,128,0,62700:0:0:0:0:
64,192,62700,1,4,0:0:0:0:
448,192,62700,1,2,0:0:0:0:
192,192,62840,1,0,0:0:0:0:
448,192,62979,1,0,0:0:0:0:
64,192,62979,1,0,0:0:0:0:
320,192,63119,1,0,0:0:0:0:
64,192,63259,1,0,0:0:0:0:
192,192,63259,1,0,0:0:0:0:
448,192,63398,1,0,0:0:0:0:
192,192,63538,1,0,0:0:0:0:
320,192,63538,1,0,0:0:0:0:
64,192,63677,1,0,0:0:0:0:
448,192,63817,1,0,0:0:0:0:
320,192,63817,1,0,0:0:0:0:
192,192,63956,1,0,0:0:0:0:
320,192,64096,1,0,0:0:0:0:
64,192,64096,1,0,0:0:0:0:
448,192,64235,1,0,0:0:0:0:
192,192,64375,1,0,0:0:0:0:
64,192,64375,1,0,0:0:0:0:
320,192,64514,1,0,0:0:0:0:
448,192,64514,1,0,0:0:0:0:
64,192,64654,1,0,0:0:0:0:
192,192,64654,1,2,0:0:0:0:
320,192,64724,1,2,0:0:0:0:
448,192,64724,1,0,0:0:0:0:
64,192,64793,1,0,0:0:0:0:
192,192,64793,1,2,0:0:0:0:
192,192,64933,1,2,0:0:0:0:
448,192,64933,1,0,0:0:0:0:
320,192,64933,1,0,0:0:0:0:
64,192,65073,1,0,0:0:0:0:
448,192,65212,1,0,0:0:0:0:
192,192,65212,1,0,0:0:0:0:
320,192,65352,1,0,0:0:0:0:
448,192,65491,1,0,0:0:0:0:
64,192,65491,1,0,0:0:0:0:
192,192,65631,1,0,0:0:0:0:
64,192,65770,1,0,0:0:0:0:
320,192,65770,1,0,0:0:0:0:
448,192,65910,1,0,0:0:0:0:
192,192,66049,1,0,0:0:0:0:
64,192,66049,1,0,0:0:0:0:
320,192,66189,1,0,0:0:0:0:
448,192,66328,1,0,0:0:0:0:
192,192,66328,1,0,0:0:0:0:
320,192,66468,1,0,0:0:0:0:
64,192,66607,1,0,0:0:0:0:
448,192,66607,1,0,0:0:0:0:
192,192,66747,1,0,0:0:0:0:
448,192,66886,128,0,67026:0:0:0:0:
64,192,66886,128,0,67026:0:0:0:0:
320,192,66956,128,0,67166:0:0:0:0:
192,192,67026,128,0,67166:0:0:0:0:
448,192,67166,1,0,0:0:0:0:
64,192,67166,1,0,0:0:0:0:
192,192,67305,1,0,0:0:0:0:
64,192,67445,1,0,0:0:0:0:
448,192,67445,1,0,0:0:0:0:
320,192,67584,1,0,0:0:0:0:
192,192,67724,1,0,0:0:0:0:
448,192,67724,1,0,0:0:0:0:
64,192,67863,1,0,0:0:0:0:
320,192,68003,1,0,0:0:0:0:
448,192,68003,1,0,0:0:0:0:
192,192,68142,1,0,0:0:0:0:
64,192,68282,1,0,0:0:0:0:
320,192,68282,1,0,0:0:0:0:
448,192,68421,1,0,0:0:0:0:
320,192,68561,1,0,0:0:0:0:
192,192,68561,1,0,0:0:0:0:
64,192,68700,1,0,0:0:0:0:
192,192,68840,1,0,0:0:0:0:
448,192,68840,1,0,0:0:0:0:
320,192,68979,1,0,0:0:0:0:
64,192,69119,1,2,0:0:0:0:
448,192,69119,1,0,0:0:0:0:
448,192,69259,1,0,0:0:0:0:
192,192,69259,1,2,0:0:0:0:
320,192,69398,1,0,0:0:0:0:
64,192,69398,1,2,0:0:0:0:
448,192,69538,1,0,0:0:0:0:
192,192,69538,1,2,0:0:0:0:
448,192,69677,1,0,0:0:0:0:
64,192,69677,1,2,0:0:0:0:
320,192,69817,1,0,0:0:0:0:
448,192,69956,1,0,0:0:0:0:
64,192,69956,1,0,0:0:0:0:
192,192,70096,1,0,0:0:0:0:
64,192,70235,1,0,0:0:0:0:
320,192,70235,1,0,0:0:0:0:
448,192,70375,1,0,0:0:0:0:
320,192,70514,1,0,0:0:0:0:
192,192,70514,1,0,0:0:0:0:
448,192,70654,128,0,70793:0:0:0:0:
192,192,70793,1,0,0:0:0:0:
64,192,70793,1,0,0:0:0:0:
448,192,70933,128,0,71073:0:0:0:0:
320,192,71073,1,0,0:0:0:0:
192,192,71073,1,0,0:0:0:0:
448,192,71212,128,0,71352:0:0:0:0:
64,192,71352,1,0,0:0:0:0:
320,192,71421,1,0,0:0:0:0:
64,192,71491,1,0,0:0:0:0:
320,192,71561,1,0,0:0:0:0:
192,192,71631,1,4,0:0:0:0:
64,192,71631,1,2,0:0:0:0:
448,192,71770,1,0,0:0:0:0:
64,192,71910,1,0,0:0:0:0:
320,192,71910,1,0,0:0:0:0:
192,192,72049,1,0,0:0:0:0:
320,192,72189,1,0,0:0:0:0:
448,192,72189,1,0,0:0:0:0:
64,192,72328,1,0,0:0:0:0:
320,192,72468,1,0,0:0:0:0:
192,192,72468,1,0,0:0:0:0:
448,192,72607,1,0,0:0:0:0:
64,192,72747,1,0,0:0:0:0:
192,192,72747,1,0,0:0:0:0:
320,192,72886,1,0,0:0:0:0:
64,192,73026,1,0,0:0:0:0:
448,192,73026,1,0,0:0:0:0:
192,192,73166,1,0,0:0:0:0:
320,192,73305,1,0,0:0:0:0:
64,192,73305,1,0,0:0:0:0:
448,192,73445,1,0,0:0:0:0:
64,192,73584,1,0,0:0:0:0:
448,192,73654,1,0,0:0:0:0:
320,192,73677,1,0,0:0:0:0:
192,192,73700,1,0,0:0:0:0:
64,192,73724,1,0,0:0:0:0:
192,192,73863,1,0,0:0:0:0:
448,192,73863,1,0,0:0:0:0:
320,192,74003,1,0,0:0:0:0:
64,192,74142,1,0,0:0:0:0:
448,192,74142,1,0,0:0:0:0:
192,192,74282,1,0,0:0:0:0:
320,192,74421,1,0,0:0:0:0:
448,192,74421,1,0,0:0:0:0:
64,192,74561,1,0,0:0:0:0:
192,192,74700,1,0,0:0:0:0:
448,192,74700,1,0,0:0:0:0:
320,192,74840,1,0,0:0:0:0:
64,192,74979,1,0,0:0:0:0:
192,192,74979,1,0,0:0:0:0:
448,192,75119,1,0,0:0:0:0:
64,192,75259,1,0,0:0:0:0:
320,192,75259,1,0,0:0:0:0:
192,192,75398,1,0,0:0:0:0:
64,192,75538,1,2,0:0:0:0:
448,192,75538,1,0,0:0:0:0:
320,192,75607,1,0,0:0:0:0:
192,192,75607,1,2,0:0:0:0:
64,192,75677,1,2,0:0:0:0:
448,192,75677,1,0,0:0:0:0:
64,192,75817,1,0,0:0:0:0:
192,192,75817,1,2,0:0:0:0:
320,192,75956,1,2,0:0:0:0:
448,192,75956,1,0,0:0:0:0:
448,192,76096,1,0,0:0:0:0:
64,192,76096,1,2,0:0:0:0:
192,192,76096,1,0,0:0:0:0:
320,192,76235,1,0,0:0:0:0:
64,192,76375,1,0,0:0:0:0:
192,192,76375,1,0,0:0:0:0:
448,192,76514,1,0,0:0:0:0:
64,192,76654,1,0,0:0:0:0:
320,192,76654,1,0,0:0:0:0:
192,192,76793,1,0,0:0:0:0:
448,192,76933,1,0,0:0:0:0:
320,192,76933,1,0,0:0:0:0:
64,192,77073,1,0,0:0:0:0:
448,192,77212,1,0,0:0:0:0:
192,192,77212,1,0,0:0:0:0:
320,192,77352,1,0,0:0:0:0:
64,192,77491,1,0,0:0:0:0:
192,192,77491,1,0,0:0:0:0:
320,192,77631,1,0,0:0:0:0:
64,192,77770,1,0,0:0:0:0:
448,192,77770,1,0,0:0:0:0:
192,192,77910,1,0,0:0:0:0:
64,192,78049,1,0,0:0:0:0:
448,192,78049,1,0,0:0:0:0:
64,192,78189,1,0,0:0:0:0:
192,192,78189,1,0,0:0:0:0:
448,192,78328,128,0,78607:0:0:0:0:
320,192,78328,128,0,78468:0:0:0:0:
64,192,78468,128,0,78607:0:0:0:0:
192,192,78607,128,0,78886:0:0:0:0:
320,192,78607,128,0,78747:0:0:0:0:
64,192,78747,128,0,78886:0:0:0:0:
448,192,78886,128,0,79166:0:0:0:0:
320,192,78886,128,0,79026:0:0:0:0:
64,192,79026,128,0,79166:0:0:0:0:
192,192,79166,128,0,79445:0:0:0:0:
320,192,79166,128,0,79305:0:0:0:0:
64,192,79305,128,0,79445:0:0:0:0:
448,192,79445,1,0,0:0:0:0:
320,192,79445,1,2,0:0:0:0:
448,192,79584,1,2,0:0:0:0:
64,192,79584,1,0,0:0:0:0:
64,192,79724,1,0,0:0:0:0:
192,192,79724,1,2,0:0:0:0:
192,192,79863,1,0,0:0:0:0:
320,192,79863,1,2,0:0:0:0:
320,192,80003,1,0,0:0:0:0:
448,192,80003,1,2,0:0:0:0:
64,192,80142,1,2,0:0:0:0:
448,192,80142,1,0,0:0:0:0:
192,192,80282,1,0,0:0:0:0:
320,192,80282,1,2,0:0:0:0:
448,192,80421,1,2,0:0:0:0:
64,192,80421,1,0,0:0:0:0:
448,192,80561,1,4,0:0:0:0:
320,192,80561,1,4,0:0:0:0:
64,192,80561,1,2,0:0:0:0:
192,192,80700,128,0,80840:0:0:0:0:
448,192,80840,1,0,0:0:0:0:
64,192,80840,1,0,0:0:0:0:
320,192,80979,128,0,81119:0:0:0:0:
64,192,81119,1,0,0:0:0:0:
192,192,81119,1,0,0:0:0:0:
448,192,81259,128,0,81398:0:0:0:0:
64,192,81398,1,0,0:0:0:0:
320,192,81398,1,0,0:0:0:0:
192,192,81538,128,0,81677:0:0:0:0:
64,192,81677,1,0,0:0:0:0:
320,192,81677,1,0,0:0:0:0:
448,192,81817,128,0,81956:0:0:0:0:
64,192,81956,1,0,0:0:0:0:
192,192,81956,1,0,0:0:0:0:
320,192,82096,128,0,82235:0:0:0:0:
192,192,82235,1,0,0:0:0:0:
448,192,82235,1,0,0:0:0:0:
64,192,82375,128,0,82514:0:0:0:0:
448,192,82514,1,2,0:0:0:0:
320,192,82514,1,0,0:0:0:0:
448,192,82654,1,0,0:0:0:0:
320,192,82654,1,2,0:0:0:0:
64,192,82793,1,0,0:0:0:0:
448,192,82793,1,0,0:0:0:0:
192,192,82793,1,2,0:0:0:0:
320,192,82933,128,0,83073:0:0:0:0:
448,192,83073,1,0,0:0:0:0:
64,192,83073,1,0,0:0:0:0:
192,192,83212,128,0,83352:0:0:0:0:
448,192,83352,1,0,0:0:0:0:
64,192,83352,1,0,0:0:0:0:
320,192,83491,128,0,83631:0:0:0:0:
192,192,83631,1,0,0:0:0:0:
64,192,83631,1,0,0:0:0:0:
448,192,83770,128,0,83910:0:0:0:0:
320,192,83910,1,0,0:0:0:0:
192,192,83910,1,0,0:0:0:0:
64,192,84049,128,0,84189:0:0:0:0:
192,192,84189,1,0,0:0:0:0:
448,192,84189,1,0,0:0:0:0:
320,192,84328,128,0,84468:0:0:0:0:
64,192,84468,1,2,0:0:0:0:
448,192,84468,1,0,0:0:0:0:
192,192,84538,1,2,0:0:0:0:
320,192,84538,1,0,0:0:0:0:
448,192,84607,1,0,0:0:0:0:
64,192,84607,1,2,0:0:0:0:
64,192,84747,1,0,0:0:0:0:
192,192,84747,1,2,0:0:0:0:
448,192,84747,1,2,0:0:0:0:
320,192,84886,1,2,0:0:0:0:
192,192,84886,1,0,0:0:0:0:
64,192,85026,1,0,0:0:0:0:
448,192,85026,1,2,0:0:0:0:
192,192,85166,128,0,85305:0:0:0:0:
448,192,85305,1,0,0:0:0:0:
320,192,85305,1,0,0:0:0:0:
64,192,85445,128,0,85584:0:0:0:0:
192,192,85584,1,0,0:0:0:0:
320,192,85584,1,0,0:0:0:0:
448,192,85724,128,0,85863:0:0:0:0:
320,192,85863,1,0,0:0:0:0:
64,192,85863,1,0,0:0:0:0:
192,192,86003,128,0,86142:0:0:0:0:
448,192,86142,1,0,0:0:0:0:
320,192,86142,1,0,0:0:0:0:
64,192,86282,128,0,86421:0:0:0:0:
192,192,86421,1,0,0:0:0:0:
448,192,86421,1,0,0:0:0:0:
320,192,86561,128,0,86700:0:0:0:0:
64,192,86700,1,0,0:0:0:0:
192,192,86700,1,0,0:0:0:0:
448,192,86840,128,0,86979:0:0:0:0:
320,192,86979,1,0,0:0:0:0:
192,192,86979,1,2,0:0:0:0:
192,192,87119,1,0,0:0:0:0:
320,192,87119,1,2,0:0:0:0:
320,192,87259,1,0,0:0:0:0:
192,192,87259,1,0,0:0:0:0:
448,192,87259,1,2,0:0:0:0:
64,192,87398,128,0,87817:0:0:0:0:
448,192,87538,128,0,87956:0:0:0:0:
192,192,87677,128,0,88096:0:0:0:0:
320,192,87817,128,0,88375:0:0:0:0:
64,192,87956,128,0,88235:0:0:0:0:
448,192,88096,128,0,88235:0:0:0:0:
192,192,88235,128,0,88375:0:0:0:0:
448,192,88375,1,0,0:0:0:0:
64,192,88375,1,2,0:0:0:0:
320,192,88445,1,2,0:0:0:0:
192,192,88445,1,0,0:0:0:0:
64,192,88514,1,2,0:0:0:0:
448,192,88514,1,0,0:0:0:0:
320,192,88584,1,2,0:0:0:0:
192,192,88584,1,0,0:0:0:0:
64,192,88654,1,2,0:0:0:0:
448,192,88654,1,0,0:0:0:0:
192,192,88724,1,2,0:0:0:0:
320,192,88724,1,0,0:0:0:0:
448,192,88793,1,0,0:0:0:0:
64,192,88793,1,2,0:0:0:0:
320,192,88863,1,2,0:0:0:0:
192,192,88863,1,0,0:0:0:0:
64,192,88933,1,0,0:0:0:0:
448,192,88933,1,2,0:0:0:0:
320,192,89073,1,2,0:0:0:0:
192,192,89073,1,0,0:0:0:0:
64,192,89212,1,0,0:0:0:0:
448,192,89212,1,0,0:0:0:0:
192,192,89352,1,0,0:0:0:0:
320,192,89421,1,0,0:0:0:0:
448,192,89491,1,2,0:0:0:0:
64,192,89491,1,4,0:0:0:0:
192,192,89491,1,4,0:0:0:0:
320,192,89631,128,0,89770:0:0:0:0:
192,192,89770,1,0,0:0:0:0:
64,192,89770,1,0,0:0:0:0:
448,192,89910,128,0,90049:0:0:0:0:
320,192,90049,1,0,0:0:0:0:
192,192,90049,1,0,0:0:0:0:
64,192,90189,128,0,90328:0:0:0:0:
320,192,90328,1,0,0:0:0:0:
448,192,90328,1,0,0:0:0:0:
192,192,90468,128,0,90607:0:0:0:0:
448,192,90607,1,0,0:0:0:0:
64,192,90607,1,0,0:0:0:0:
320,192,90747,128,0,90886:0:0:0:0:
192,192,90886,1,0,0:0:0:0:
64,192,90886,1,0,0:0:0:0:
448,192,91026,128,0,91166:0:0:0:0:
320,192,91166,1,0,0:0:0:0:
64,192,91166,1,0,0:0:0:0:
192,192,91305,128,0,91445:0:0:0:0:
64,192,91445,1,2,0:0:0:0:
448,192,91445,1,0,0:0:0:0:
448,192,91584,1,2,0:0:0:0:
64,192,91584,1,0,0:0:0:0:
448,192,91724,1,0,0:0:0:0:
64,192,91724,1,2,0:0:0:0:
320,192,91724,1,0,0:0:0:0:
192,192,91863,128,0,92003:0:0:0:0:
448,192,92003,1,0,0:0:0:0:
320,192,92003,1,0,0:0:0:0:
64,192,92142,128,0,92282:0:0:0:0:
320,192,92282,1,0,0:0:0:0:
448,192,92282,1,0,0:0:0:0:
192,192,92421,128,0,92561:0:0:0:0:
64,192,92561,1,0,0:0:0:0:
320,192,92561,1,0,0:0:0:0:
448,192,92700,128,0,92840:0:0:0:0:
64,192,92840,1,0,0:0:0:0:
192,192,92840,1,0,0:0:0:0:
320,192,92979,128,0,93119:0:0:0:0:
448,192,93119,1,0,0:0:0:0:
64,192,93119,1,0,0:0:0:0:
448,192,93398,128,0,93817:0:0:0:0:
192,192,93538,128,0,93956:0:0:0:0:
64,192,93677,128,0,93817:0:0:0:0:
320,192,93677,128,0,93956:0:0:0:0:
64,192,93956,1,0,0:0:0:0:
448,192,93956,1,0,0:0:0:0:
192,192,94096,128,0,94235:0:0:0:0:
64,192,94235,1,0,0:0:0:0:
448,192,94235,1,0,0:0:0:0:
320,192,94375,128,0,94514:0:0:0:0:
448,192,94514,1,0,0:0:0:0:
192,192,94514,1,0,0:0:0:0:
64,192,94654,128,0,94793:0:0:0:0:
192,192,94793,1,0,0:0:0:0:
320,192,94793,1,0,0:0:0:0:
448,192,94933,128,0,95073:0:0:0:0:
320,192,95073,1,0,0:0:0:0:
64,192,95073,1,0,0:0:0:0:
192,192,95212,128,0,95352:0:0:0:0:
64,192,95352,1,0,0:0:0:0:
448,192,95352,1,0,0:0:0:0:
320,192,95491,128,0,95631:0:0:0:0:
64,192,95631,1,2,0:0:0:0:
448,192,95631,1,2,0:0:0:0:
448,192,95770,1,0,0:0:0:0:
192,192,95770,1,2,0:0:0:0:
192,192,95910,1,2,0:0:0:0:
320,192,95910,1,0,0:0:0:0:
64,192,96049,1,0,0:0:0:0:
320,192,96049,1,2,0:0:0:0:
64,192,96189,1,2,0:0:0:0:
448,192,96189,1,0,0:0:0:0:
192,192,96328,1,2,0:0:0:0:
448,192,96328,1,0,0:0:0:0:
320,192,96468,1,2,0:0:0:0:
192,192,96468,1,0,0:0:0:0:
448,192,96607,1,2,0:0:0:0:
64,192,96607,1,0,0:0:0:0:
448,192,96747,1,0,0:0:0:0:
192,192,96747,1,2,0:0:0:0:
64,192,96886,1,2,0:0:0:0:
192,192,96886,1,0,0:0:0:0:
448,192,97026,1,2,0:0:0:0:
320,192,97026,1,0,0:0:0:0:
192,192,97096,1,0,0:0:0:0:
64,192,97096,1,2,0:0:0:0:
320,192,97166,1,0,0:0:0:0:
448,192,97166,1,2,0:0:0:0:
64,192,97305,128,2,97584:0:0:0:0:
448,192,97445,128,0,97724:0:0:0:0:
192,192,97584,128,2,97863:0:0:0:0:
320,192,97724,128,0,98003:0:0:0:0:
64,192,97863,128,2,98282:0:0:0:0:
448,192,98003,128,0,98282:0:0:0:0:
320,192,98142,1,2,0:0:0:0:
192,192,98142,1,0,0:0:0:0:
192,192,98282,1,0,0:0:0:0:
320,192,98282,1,2,0:0:0:0:
64,192,98421,128,2,99538:0:0:0:0:
192,192,98421,1,4,0:0:0:0:
448,192,98421,1,4,0:0:0:0:
448,192,98561,1,0,0:0:0:0:
192,192,98700,1,0,0:0:0:0:
320,192,98700,1,0,0:0:0:0:
320,192,98840,1,0,0:0:0:0:
192,192,98979,1,0,0:0:0:0:
448,192,98979,1,0,0:0:0:0:
448,192,99119,1,0,0:0:0:0:
192,192,99259,1,0,0:0:0:0:
320,192,99259,1,0,0:0:0:0:
448,192,99398,1,0,0:0:0:0:
448,192,99538,1,0,0:0:0:0:
320,192,99538,1,0,0:0:0:0:
192,192,99538,128,0,100654:0:0:0:0:
64,192,99677,1,0,0:0:0:0:
320,192,99817,1,0,0:0:0:0:
448,192,99817,1,0,0:0:0:0:
320,192,99956,1,0,0:0:0:0:
448,192,100096,1,0,0:0:0:0:
64,192,100096,1,0,0:0:0:0:
320,192,100235,1,0,0:0:0:0:
64,192,100375,1,2,0:0:0:0:
448,192,100375,1,2,0:0:0:0:
448,192,100514,1,2,0:0:0:0:
64,192,100514,1,2,0:0:0:0:
64,192,100654,128,0,101770:0:0:0:0:
320,192,100654,1,2,0:0:0:0:
448,192,100654,1,2,0:0:0:0:
192,192,100793,1,0,0:0:0:0:
448,192,100933,1,0,0:0:0:0:
320,192,100933,1,0,0:0:0:0:
320,192,101073,1,0,0:0:0:0:
192,192,101212,1,0,0:0:0:0:
448,192,101212,1,0,0:0:0:0:
448,192,101352,1,0,0:0:0:0:
320,192,101491,1,0,0:0:0:0:
192,192,101491,1,0,0:0:0:0:
448,192,101631,1,0,0:0:0:0:
320,192,101770,128,0,102886:0:0:0:0:
448,192,101770,1,0,0:0:0:0:
192,192,101770,1,0,0:0:0:0:
64,192,101910,1,0,0:0:0:0:
192,192,102049,1,0,0:0:0:0:
448,192,102049,1,0,0:0:0:0:
192,192,102189,1,0,0:0:0:0:
448,192,102328,1,0,0:0:0:0:
64,192,102328,1,0,0:0:0:0:
192,192,102468,1,0,0:0:0:0:
64,192,102607,1,2,0:0:0:0:
448,192,102607,1,2,0:0:0:0:
448,192,102747,1,2,0:0:0:0:
64,192,102747,1,2,0:0:0:0:
448,192,102886,128,0,104003:0:0:0:0:
192,192,102886,1,2,0:0:0:0:
64,192,102886,1,2,0:0:0:0:
320,192,103026,1,0,0:0:0:0:
64,192,103166,1,0,0:0:0:0:
192,192,103166,1,0,0:0:0:0:
192,192,103305,1,0,0:0:0:0:
320,192,103445,1,0,0:0:0:0:
64,192,103445,1,0,0:0:0:0:
64,192,103584,1,0,0:0:0:0:
320,192,103724,1,0,0:0:0:0:
192,192,103724,1,0,0:0:0:0:
64,192,103863,1,0,0:0:0:0:
192,192,104003,128,0,105119:0:0:0:0:
320,192,104003,1,0,0:0:0:0:
64,192,104003,1,0,0:0:0:0:
448,192,104142,1,0,0:0:0:0:
320,192,104282,1,0,0:0:0:0:
64,192,104282,1,0,0:0:0:0:
320,192,104421,1,0,0:0:0:0:
448,192,104561,1,0,0:0:0:0:
64,192,104561,1,0,0:0:0:0:
64,192,104700,1,0,0:0:0:0:
448,192,104840,1,2,0:0:0:0:
320,192,104840,1,2,0:0:0:0:
320,192,104979,1,2,0:0:0:0:
448,192,104979,1,2,0:0:0:0:
320,192,105119,128,0,106235:0:0:0:0:
448,192,105119,1,2,0:0:0:0:
64,192,105119,1,2,0:0:0:0:
192,192,105259,1,0,0:0:0:0:
64,192,105398,1,0,0:0:0:0:
448,192,105398,1,0,0:0:0:0:
448,192,105538,1,0,0:0:0:0:
192,192,105677,1,0,0:0:0:0:
64,192,105677,1,0,0:0:0:0:
192,192,105817,1,0,0:0:0:0:
64,192,105956,1,0,0:0:0:0:
448,192,105956,1,0,0:0:0:0:
192,192,106096,1,0,0:0:0:0:
64,192,106235,128,0,107352:0:0:0:0:
192,192,106235,1,0,0:0:0:0:
448,192,106235,1,0,0:0:0:0:
320,192,106375,1,0,0:0:0:0:
192,192,106514,1,0,0:0:0:0:
448,192,106514,1,0,0:0:0:0:
192,192,106654,1,0,0:0:0:0:
320,192,106793,1,2,0:0:0:0:
448,192,106793,1,2,0:0:0:0:
320,192,106933,1,2,0:0:0:0:
448,192,106933,1,2,0:0:0:0:
448,192,107073,1,2,0:0:0:0:
192,192,107142,1,2,0:0:0:0:
320,192,107212,1,2,0:0:0:0:
192,192,107352,128,0,108468:0:0:0:0:
320,192,107352,1,2,0:0:0:0:
448,192,107352,1,2,0:0:0:0:
448,192,107491,1,2,0:0:0:0:
320,192,107491,1,2,0:0:0:0:
448,192,107631,1,2,0:0:0:0:
64,192,107631,1,2,0:0:0:0:
64,192,107770,1,0,0:0:0:0:
320,192,107910,1,0,0:0:0:0:
448,192,107910,1,0,0:0:0:0:
448,192,108049,1,0,0:0:0:0:
64,192,108189,1,0,0:0:0:0:
320,192,108189,1,0,0:0:0:0:
448,192,108328,1,0,0:0:0:0:
320,192,108468,128,0,109584:0:0:0:0:
448,192,108468,1,0,0:0:0:0:
64,192,108468,1,0,0:0:0:0:
192,192,108607,1,0,0:0:0:0:
64,192,108747,1,0,0:0:0:0:
448,192,108747,1,0,0:0:0:0:
448,192,108886,1,0,0:0:0:0:
192,192,109026,1,0,0:0:0:0:
64,192,109026,1,0,0:0:0:0:
192,192,109166,1,0,0:0:0:0:
64,192,109305,1,0,0:0:0:0:
448,192,109305,1,0,0:0:0:0:
192,192,109445,1,0,0:0:0:0:
64,192,109584,128,0,110700:0:0:0:0:
192,192,109584,1,0,0:0:0:0:
448,192,109584,1,0,0:0:0:0:
320,192,109724,1,0,0:0:0:0:
192,192,109863,1,0,0:0:0:0:
448,192,109863,1,0,0:0:0:0:
448,192,110003,1,0,0:0:0:0:
320,192,110142,1,0,0:0:0:0:
192,192,110142,1,0,0:0:0:0:
192,192,110282,1,0,0:0:0:0:
320,192,110421,1,0,0:0:0:0:
448,192,110421,1,0,0:0:0:0:
192,192,110561,1,0,0:0:0:0:
320,192,110700,128,0,111817:0:0:0:0:
192,192,110700,1,0,0:0:0:0:
448,192,110700,1,0,0:0:0:0:
64,192,110840,1,0,0:0:0:0:
192,192,110979,1,0,0:0:0:0:
448,192,110979,1,0,0:0:0:0:
192,192,111119,1,0,0:0:0:0:
64,192,111259,1,2,0:0:0:0:
448,192,111328,1,2,0:0:0:0:
192,192,111398,1,2,0:0:0:0:
64,192,111538,1,2,0:0:0:0:
448,192,111538,1,2,0:0:0:0:
192,192,111677,1,0,0:0:0:0:
448,192,111817,128,0,114049:0:0:0:0:
64,192,111817,1,2,0:0:0:0:
192,192,111817,1,2,0:0:0:0:
320,192,111956,1,0,0:0:0:0:
192,192,112096,1,0,0:0:0:0:
64,192,112096,1,0,0:0:0:0:
192,192,112235,1,0,0:0:0:0:
64,192,112375,1,0,0:0:0:0:
320,192,112375,1,0,0:0:0:0:
320,192,112514,1,0,0:0:0:0:
192,192,112654,1,0,0:0:0:0:
64,192,112654,1,0,0:0:0:0:
192,192,112793,1,0,0:0:0:0:
64,192,112933,1,0,0:0:0:0:
320,192,112933,1,0,0:0:0:0:
64,192,113073,1,0,0:0:0:0:
320,192,113212,1,0,0:0:0:0:
192,192,113212,1,0,0:0:0:0:
192,192,113352,1,0,0:0:0:0:
320,192,113491,1,0,0:0:0:0:
64,192,113491,1,0,0:0:0:0:
64,192,113631,1,0,0:0:0:0:
320,192,113770,1,2,0:0:0:0:
192,192,113770,1,2,0:0:0:0:
320,192,113910,1,2,0:0:0:0:
192,192,113910,1,2,0:0:0:0:
320,192,114049,1,2,0:0:0:0:
192,192,114049,1,2,0:0:0:0:
64,192,114049,128,0,116282:0:0:0:0:
448,192,114189,128,0,114259:0:0:0:0:
448,192,114328,128,0,114398:0:0:0:0:
448,192,114468,128,0,114538:0:0:0:0:
448,192,114607,128,0,114677:0:0:0:0:
448,192,114747,128,0,114817:0:0:0:0:
448,192,114886,128,0,114956:0:0:0:0:
448,192,115026,128,0,115096:0:0:0:0:
320,192,115166,1,2,0:0:0:0:
448,192,115166,1,0,0:0:0:0:
320,192,115305,1,2,0:0:0:0:
448,192,115305,1,0,0:0:0:0:
320,192,115445,1,2,0:0:0:0:
448,192,115445,1,0,0:0:0:0:
320,192,115584,1,2,0:0:0:0:
448,192,115584,1,0,0:0:0:0:
192,192,115724,1,2,0:0:0:0:
448,192,115793,1,2,0:0:0:0:
192,192,115863,1,2,0:0:0:0:
448,192,115933,1,2,0:0:0:0:
192,192,116003,1,2,0:0:0:0:
448,192,116073,1,2,0:0:0:0:
192,192,116142,1,2,0:0:0:0:
448,192,116212,1,2,0:0:0:0:
192,192,116282,1,2,0:0:0:0:
448,192,116282,128,0,117398:0:0:0:0:
320,192,116282,1,4,0:0:0:0:
64,192,116421,1,0,0:0:0:0:
192,192,116561,1,0,0:0:0:0:
320,192,116561,1,0,0:0:0:0:
192,192,116700,1,0,0:0:0:0:
64,192,116840,1,0,0:0:0:0:
320,192,116840,1,0,0:0:0:0:
320,192,116979,1,0,0:0:0:0:
192,192,117119,1,0,0:0:0:0:
64,192,117119,1,0,0:0:0:0:
320,192,117259,1,0,0:0:0:0:
192,192,117398,128,0,118514:0:0:0:0:
64,192,117398,1,0,0:0:0:0:
320,192,117398,1,0,0:0:0:0:
320,192,117538,1,0,0:0:0:0:
448,192,117677,1,0,0:0:0:0:
64,192,117677,1,0,0:0:0:0:
64,192,117817,1,0,0:0:0:0:
320,192,117956,1,0,0:0:0:0:
448,192,117956,1,0,0:0:0:0:
64,192,118096,1,0,0:0:0:0:
448,192,118235,1,2,0:0:0:0:
320,192,118235,1,2,0:0:0:0:
320,192,118375,1,2,0:0:0:0:
448,192,118375,1,2,0:0:0:0:
64,192,118514,128,0,119631:0:0:0:0:
320,192,118514,1,2,0:0:0:0:
448,192,118514,1,2,0:0:0:0:
192,192,118654,1,0,0:0:0:0:
320,192,118793,1,0,0:0:0:0:
448,192,118793,1,0,0:0:0:0:
448,192,118933,1,0,0:0:0:0:
320,192,119073,1,0,0:0:0:0:
192,192,119073,1,0,0:0:0:0:
320,192,119212,1,0,0:0:0:0:
192,192,119352,1,0,0:0:0:0:
448,192,119352,1,0,0:0:0:0:
320,192,119491,1,0,0:0:0:0:
192,192,119631,128,0,120747:0:0:0:0:
320,192,119631,1,0,0:0:0:0:
448,192,119631,1,0,0:0:0:0:
64,192,119770,1,0,0:0:0:0:
320,192,119910,1,0,0:0:0:0:
448,192,119910,1,0,0:0:0:0:
320,192,120049,1,0,0:0:0:0:
64,192,120189,1,0,0:0:0:0:
448,192,120189,1,0,0:0:0:0:
320,192,120328,1,0,0:0:0:0:
64,192,120468,1,4,0:0:0:0:
448,192,120468,1,2,0:0:0:0:
448,192,120607,1,2,0:0:0:0:
64,192,120607,1,4,0:0:0:0:
448,192,120747,128,0,121863:0:0:0:0:
64,192,120747,1,2,0:0:0:0:
320,192,120747,1,2,0:0:0:0:
192,192,120886,1,0,0:0:0:0:
64,192,121026,1,0,0:0:0:0:
320,192,121026,1,0,0:0:0:0:
320,192,121166,1,0,0:0:0:0:
192,192,121305,1,0,0:0:0:0:
64,192,121305,1,0,0:0:0:0:
64,192,121445,1,0,0:0:0:0:
192,192,121584,1,0,0:0:0:0:
320,192,121584,1,0,0:0:0:0:
64,192,121724,1,0,0:0:0:0:
64,192,121863,1,0,0:0:0:0:
320,192,121863,1,0,0:0:0:0:
192,192,121863,128,0,122979:0:0:0:0:
448,192,122003,1,0,0:0:0:0:
320,192,122142,1,0,0:0:0:0:
64,192,122142,1,0,0:0:0:0:
320,192,122282,1,0,0:0:0:0:
64,192,122421,1,0,0:0:0:0:
448,192,122421,1,0,0:0:0:0:
64,192,122561,1,0,0:0:0:0:
448,192,122700,1,2,0:0:0:0:
320,192,122700,1,2,0:0:0:0:
448,192,122840,1,2,0:0:0:0:
320,192,122840,1,2,0:0:0:0:
448,192,122979,128,0,124096:0:0:0:0:
64,192,122979,1,2,0:0:0:0:
320,192,122979,1,2,0:0:0:0:
192,192,123119,1,0,0:0:0:0:
64,192,123259,1,0,0:0:0:0:
320,192,123259,1,0,0:0:0:0:
64,192,123398,1,0,0:0:0:0:
192,192,123538,1,0,0:0:0:0:
320,192,123538,1,0,0:0:0:0:
192,192,123677,1,0,0:0:0:0:
64,192,123817,1,0,0:0:0:0:
320,192,123817,1,0,0:0:0:0:
192,192,123956,1,0,0:0:0:0:
320,192,124096,128,0,125212:0:0:0:0:
192,192,124096,1,0,0:0:0:0:
64,192,124096,1,0,0:0:0:0:
448,192,124235,1,0,0:0:0:0:
192,192,124375,1,0,0:0:0:0:
64,192,124375,1,0,0:0:0:0:
192,192,124514,1,0,0:0:0:0:
64,192,124654,128,0,124933:0:0:0:0:
448,192,124654,128,0,125073:0:0:0:0:
192,192,124933,128,0,125073:0:0:0:0:
64,192,125073,128,0,125212:0:0:0:0:
192,192,125212,128,2,126328:0:0:0:0:
448,192,125212,1,4,0:0:0:0:
320,192,125352,1,0,0:0:0:0:
64,192,125491,1,0,0:0:0:0:
448,192,125491,1,0,0:0:0:0:
448,192,125631,1,0,0:0:0:0:
320,192,125770,1,0,0:0:0:0:
64,192,125770,1,0,0:0:0:0:
64,192,125910,1,0,0:0:0:0:
320,192,126049,1,0,0:0:0:0:
448,192,126049,1,0,0:0:0:0:
64,192,126189,1,0,0:0:0:0:
320,192,126328,128,0,127445:0:0:0:0:
64,192,126328,1,0,0:0:0:0:
448,192,126328,1,0,0:0:0:0:
192,192,126468,1,0,0:0:0:0:
64,192,126607,1,0,0:0:0:0:
448,192,126607,1,0,0:0:0:0:
448,192,126747,1,0,0:0:0:0:
192,192,126886,1,0,0:0:0:0:
64,192,126886,1,0,0:0:0:0:
192,192,127026,1,0,0:0:0:0:
64,192,127166,1,2,0:0:0:0:
448,192,127166,1,4,0:0:0:0:
448,192,127305,1,4,0:0:0:0:
64,192,127305,1,2,0:0:0:0:
64,192,127445,128,0,128561:0:0:0:0:
448,192,127445,1,2,0:0:0:0:
192,192,127445,1,2,0:0:0:0:
320,192,127584,1,0,0:0:0:0:
192,192,127724,1,0,0:0:0:0:
448,192,127724,1,0,0:0:0:0:
448,192,127863,1,0,0:0:0:0:
320,192,128003,1,0,0:0:0:0:
192,192,128003,1,0,0:0:0:0:
192,192,128142,1,0,0:0:0:0:
320,192,128282,1,0,0:0:0:0:
448,192,128282,1,0,0:0:0:0:
192,192,128421,1,0,0:0:0:0:
320,192,128561,128,0,129677:0:0:0:0:
192,192,128561,1,0,0:0:0:0:
448,192,128561,1,0,0:0:0:0:
192,192,128840,128,0,129049:0:0:0:0:
64,192,128840,128,0,129049:0:0:0:0:
192,192,129119,1,2,0:0:0:0:
64,192,129119,1,2,0:0:0:0:
448,192,129119,1,4,0:0:0:0:
64,192,129398,1,2,0:0:0:0:
448,192,129398,1,2,0:0:0:0:
448,192,129538,1,2,0:0:0:0:
64,192,129538,1,2,0:0:0:0:
64,192,129677,1,2,0:0:0:0:
192,192,129677,1,2,0:0:0:0:
448,192,129677,128,0,131910:0:0:0:0:
320,192,129817,1,0,0:0:0:0:
192,192,129956,1,0,0:0:0:0:
64,192,129956,1,0,0:0:0:0:
192,192,130096,1,0,0:0:0:0:
64,192,130235,1,0,0:0:0:0:
320,192,130235,1,0,0:0:0:0:
64,192,130375,1,0,0:0:0:0:
192,192,130514,1,0,0:0:0:0:
320,192,130514,1,0,0:0:0:0:
320,192,130654,1,0,0:0:0:0:
192,192,130793,1,0,0:0:0:0:
64,192,130793,1,0,0:0:0:0:
192,192,130933,1,0,0:0:0:0:
64,192,131073,1,0,0:0:0:0:
320,192,131073,1,0,0:0:0:0:
320,192,131212,1,0,0:0:0:0:
64,192,131352,128,0,131910:0:0:0:0:
192,192,131631,1,2,0:0:0:0:
320,192,131631,1,2,0:0:0:0:
192,192,131770,1,2,0:0:0:0:
320,192,131770,1,2,0:0:0:0:
320,192,131910,128,2,134142:0:0:0:0:
192,192,131910,1,2,0:0:0:0:
448,192,132049,1,0,0:0:0:0:
64,192,132189,1,0,0:0:0:0:
192,192,132189,1,0,0:0:0:0:
192,192,132328,1,0,0:0:0:0:
64,192,132468,1,0,0:0:0:0:
448,192,132468,1,0,0:0:0:0:
64,192,132607,1,0,0:0:0:0:
192,192,132747,1,0,0:0:0:0:
448,192,132747,1,0,0:0:0:0:
448,192,132886,1,0,0:0:0:0:
192,192,133026,1,0,0:0:0:0:
64,192,133026,1,0,0:0:0:0:
192,192,133166,1,0,0:0:0:0:
64,192,133305,1,0,0:0:0:0:
448,192,133305,1,0,0:0:0:0:
64,192,133445,1,0,0:0:0:0:
192,192,133584,1,0,0:0:0:0:
448,192,133584,1,0,0:0:0:0:
448,192,133724,1,0,0:0:0:0:
192,192,133863,1,2,0:0:0:0:
64,192,133863,1,2,0:0:0:0:
192,192,134003,1,2,0:0:0:0:
64,192,134003,1,2,0:0:0:0:
64,192,134142,1,2,0:0:0:0:
192,192,134142,1,2,0:0:0:0:
448,192,134142,1,0,0:0:0:0:
320,192,134282,128,0,136375:0:0:0:0:
448,192,134700,128,0,136375:0:0:0:0:
192,192,136375,1,0,0:0:0:0:
64,192,136445,1,0,0:0:0:0:
448,192,136514,1,0,0:0:0:0:
320,192,136584,1,0,0:0:0:0:
192,192,136654,1,0,0:0:0:0:
64,192,136724,1,0,0:0:0:0:
320,192,136793,1,0,0:0:0:0:
448,192,136863,1,0,0:0:0:0:
192,192,136933,1,0,0:0:0:0:
64,192,137003,1,0,0:0:0:0:
320,192,137073,1,0,0:0:0:0:
448,192,137142,1,0,0:0:0:0:
64,192,137212,1,0,0:0:0:0:
192,192,137282,1,0,0:0:0:0:
320,192,137352,1,0,0:0:0:0:
448,192,137421,1,0,0:0:0:0:
192,192,137491,1,0,0:0:0:0:
64,192,137561,1,0,0:0:0:0:
320,192,137631,1,0,0:0:0:0:
448,192,137700,1,0,0:0:0:0:
192,192,137770,1,0,0:0:0:0:
64,192,137840,1,0,0:0:0:0:
448,192,137910,1,0,0:0:0:0:
320,192,137979,1,0,0:0:0:0:
192,192,138049,1,0,0:0:0:0:
64,192,138119,1,0,0:0:0:0:
448,192,138189,1,0,0:0:0:0:
320,192,138259,1,0,0:0:0:0:
192,192,138328,1,0,0:0:0:0:
320,192,138538,1,0,0:0:0:0:
448,192,138607,1,2,0:0:0:0:
64,192,138607,1,4,0:0:0:0:
192,192,138607,1,4,0:0:0:0:
320,192,139445,128,0,143003:0:0:0:0:
192,192,142793,128,0,142933:0:0:0:0:
64,192,142793,128,0,142933:0:0:0:0:
448,192,143003,1,0,0:0:0:0:
192,192,143073,1,4,0:0:0:0:
64,192,143073,128,4,143212:0:0:0:0:
448,192,143212,128,0,143352:0:0:0:0:
320,192,143352,128,0,143491:0:0:0:0:
64,192,143491,128,0,143631:0:0:0:0:
192,192,143631,1,0,0:0:0:0:
448,192,143631,128,0,143770:0:0:0:0:
320,192,143770,128,0,143910:0:0:0:0:
192,192,143910,128,0,144049:0:0:0:0:
64,192,144049,128,0,144189:0:0:0:0:
320,192,144189,128,0,144328:0:0:0:0:
448,192,144328,128,0,144468:0:0:0:0:
192,192,144468,128,0,144607:0:0:0:0:
448,192,144607,128,0,144747:0:0:0:0:
64,192,144747,128,0,144886:0:0:0:0:
320,192,144886,128,0,145026:0:0:0:0:
64,192,145026,1,0,0:0:0:0:
192,192,145026,128,0,145305:0:0:0:0:
448,192,145166,128,0,145305:0:0:0:0:
64,192,145305,128,0,145445:0:0:0:0:
320,192,145305,1,0,0:0:0:0:
448,192,145445,128,0,145584:0:0:0:0:
192,192,145584,1,0,0:0:0:0:
64,192,145584,128,0,145724:0:0:0:0:
320,192,145724,128,0,145863:0:0:0:0:
448,192,145863,1,0,0:0:0:0:
192,192,145863,128,0,146003:0:0:0:0:
64,192,146003,128,0,146142:0:0:0:0:
448,192,146142,128,0,146421:0:0:0:0:
320,192,146142,1,0,0:0:0:0:
192,192,146282,128,0,146421:0:0:0:0:
64,192,146421,128,0,146561:0:0:0:0:
320,192,146421,1,0,0:0:0:0:
448,192,146561,128,0,146700:0:0:0:0:
192,192,146700,1,0,0:0:0:0:
64,192,146700,128,0,146840:0:0:0:0:
320,192,146840,128,0,146979:0:0:0:0:
64,192,146979,128,0,147119:0:0:0:0:
448,192,147119,128,0,147259:0:0:0:0:
192,192,147259,128,0,147398:0:0:0:0:
320,192,147398,128,0,147538:0:0:0:0:
64,192,147538,128,0,147677:0:0:0:0:
448,192,147677,128,0,147817:0:0:0:0:
320,192,147817,1,0,0:0:0:0:
64,192,147817,128,0,147956:0:0:0:0:
192,192,147956,128,0,148096:0:0:0:0:
64,192,148096,1,0,0:0:0:0:
448,192,148096,128,0,148235:0:0:0:0:
320,192,148235,128,0,148375:0:0:0:0:
192,192,148375,128,0,148514:0:0:0:0:
64,192,148514,128,0,148654:0:0:0:0:
320,192,148654,128,0,148793:0:0:0:0:
448,192,148793,128,0,148933:0:0:0:0:
192,192,148933,1,0,0:0:0:0:
64,192,148933,128,0,149073:0:0:0:0:
320,192,149073,128,0,149212:0:0:0:0:
448,192,149212,128,0,149770:0:0:0:0:
64,192,149212,128,0,149352:0:0:0:0:
320,192,149352,128,0,149491:0:0:0:0:
64,192,149491,128,0,149631:0:0:0:0:
320,192,149631,128,0,149770:0:0:0:0:
64,192,149770,1,0,0:0:0:0:
192,192,149770,128,0,149910:0:0:0:0:
448,192,149910,128,0,150049:0:0:0:0:
320,192,150049,1,0,0:0:0:0:
64,192,150049,128,0,150189:0:0:0:0:
192,192,150189,128,0,150328:0:0:0:0:
320,192,150328,128,0,150468:0:0:0:0:
448,192,150328,1,0,0:0:0:0:
64,192,150468,128,0,150607:0:0:0:0:
192,192,150607,1,0,0:0:0:0:
448,192,150607,128,0,150886:0:0:0:0:
320,192,150607,128,0,150747:0:0:0:0:
64,192,150747,128,0,150886:0:0:0:0:
192,192,150886,128,0,151026:0:0:0:0:
320,192,150886,1,0,0:0:0:0:
448,192,151026,128,0,151166:0:0:0:0:
64,192,151166,128,0,151305:0:0:0:0:
320,192,151166,128,0,152003:0:0:0:0:
192,192,151305,128,0,151445:0:0:0:0:
64,192,151445,1,0,0:0:0:0:
448,192,151445,128,0,151584:0:0:0:0:
192,192,151584,128,0,151724:0:0:0:0:
64,192,151724,128,0,151863:0:0:0:0:
448,192,151863,128,0,152003:0:0:0:0:
192,192,152003,1,0,0:0:0:0:
64,192,152003,1,0,0:0:0:0:
320,192,152142,1,0,0:0:0:0:
448,192,152142,1,0,0:0:0:0:
320,192,152282,1,0,0:0:0:0:
192,192,152282,1,0,0:0:0:0:
448,192,152491,1,0,0:0:0:0:
64,192,152561,1,0,0:0:0:0:
192,192,152561,1,0,0:0:0:0:
192,192,152770,1,0,0:0:0:0:
320,192,152910,1,0,0:0:0:0:
448,192,153049,1,0,0:0:0:0:
192,192,153119,1,0,0:0:0:0:
64,192,153119,1,0,0:0:0:0:
448,192,153259,1,0,0:0:0:0:
320,192,153328,1,0,0:0:0:0:
64,192,153398,1,0,0:0:0:0:
192,192,153398,1,0,0:0:0:0:
448,192,153468,1,0,0:0:0:0:
320,192,153468,1,0,0:0:0:0:
64,192,153538,1,0,0:0:0:0:
192,192,153538,1,0,0:0:0:0:
448,192,153677,1,0,0:0:0:0:
64,192,153677,1,0,0:0:0:0:
448,192,153886,1,0,0:0:0:0:
64,192,153956,1,0,0:0:0:0:
192,192,154003,1,0,0:0:0:0:
320,192,154049,1,0,0:0:0:0:
448,192,154096,1,0,0:0:0:0:
64,192,154096,1,0,0:0:0:0:
448,192,154235,1,0,0:0:0:0:
320,192,154282,1,0,0:0:0:0:
192,192,154328,1,0,0:0:0:0:
64,192,154375,1,0,0:0:0:0:
448,192,154445,1,0,0:0:0:0:
192,192,154514,1,0,0:0:0:0:
64,192,154514,1,0,0:0:0:0:
320,192,154584,1,0,0:0:0:0:
448,192,154654,1,0,0:0:0:0:
64,192,154724,1,0,0:0:0:0:
320,192,154863,1,0,0:0:0:0:
64,192,155003,1,0,0:0:0:0:
320,192,155073,1,0,0:0:0:0:
448,192,155073,1,0,0:0:0:0:
64,192,155212,1,0,0:0:0:0:
192,192,155282,1,0,0:0:0:0:
448,192,155352,1,0,0:0:0:0:
320,192,155352,1,0,0:0:0:0:
192,192,155421,1,0,0:0:0:0:
64,192,155421,1,0,0:0:0:0:
320,192,155491,1,0,0:0:0:0:
448,192,155491,1,0,0:0:0:0:
192,192,155561,1,0,0:0:0:0:
64,192,155561,1,0,0:0:0:0:
320,192,155631,1,0,0:0:0:0:
448,192,155631,1,0,0:0:0:0:
192,192,155700,1,0,0:0:0:0:
64,192,155700,1,0,0:0:0:0:
448,192,155770,1,0,0:0:0:0:
320,192,155840,1,0,0:0:0:0:
64,192,155910,1,0,0:0:0:0:
192,192,155910,1,0,0:0:0:0:
320,192,156049,1,0,0:0:0:0:
64,192,156259,1,0,0:0:0:0:
192,192,156398,1,0,0:0:0:0:
320,192,156538,1,0,0:0:0:0:
448,192,156677,1,0,0:0:0:0:
64,192,156747,1,0,0:0:0:0:
192,192,156747,1,0,0:0:0:0:
64,192,156956,1,0,0:0:0:0:
448,192,157026,1,0,0:0:0:0:
320,192,157073,1,0,0:0:0:0:
192,192,157119,1,0,0:0:0:0:
64,192,157166,1,0,0:0:0:0:
448,192,157235,1,0,0:0:0:0:
192,192,157305,1,0,0:0:0:0:
320,192,157305,1,0,0:0:0:0:
64,192,157514,1,0,0:0:0:0:
320,192,157584,1,0,0:0:0:0:
448,192,157584,1,0,0:0:0:0:
192,192,157654,1,0,0:0:0:0:
64,192,157724,1,0,0:0:0:0:
448,192,157724,1,0,0:0:0:0:
320,192,157793,1,0,0:0:0:0:
192,192,157863,1,0,0:0:0:0:
64,192,157933,1,0,0:0:0:0:
320,192,158003,1,0,0:0:0:0:
64,192,158142,1,0,0:0:0:0:
448,192,158142,1,0,0:0:0:0:
320,192,158212,1,0,0:0:0:0:
64,192,158282,1,0,0:0:0:0:
192,192,158282,1,0,0:0:0:0:
448,192,158352,1,0,0:0:0:0:
320,192,158352,1,0,0:0:0:0:
192,192,158491,1,0,0:0:0:0:
448,192,158561,1,0,0:0:0:0:
320,192,158631,1,0,0:0:0:0:
64,192,158700,1,0,0:0:0:0:
192,192,158700,1,0,0:0:0:0:
64,192,158910,1,0,0:0:0:0:
320,192,158979,1,0,0:0:0:0:
448,192,158979,1,0,0:0:0:0:
192,192,159189,1,0,0:0:0:0:
448,192,159259,1,0,0:0:0:0:
320,192,159328,1,0,0:0:0:0:
192,192,159398,1,0,0:0:0:0:
64,192,159468,1,0,0:0:0:0:
448,192,159538,1,0,0:0:0:0:
320,192,159538,1,0,0:0:0:0:
192,192,159747,1,0,0:0:0:0:
448,192,159817,1,0,0:0:0:0:
64,192,159817,1,0,0:0:0:0:
320,192,159956,1,0,0:0:0:0:
192,192,159956,1,0,0:0:0:0:
448,192,160026,1,0,0:0:0:0:
64,192,160096,1,0,0:0:0:0:
192,192,160096,1,0,0:0:0:0:
448,192,160166,1,0,0:0:0:0:
64,192,160235,1,0,0:0:0:0:
192,192,160235,1,0,0:0:0:0:
320,192,160445,1,0,0:0:0:0:
64,192,160584,1,0,0:0:0:0:
448,192,160654,1,0,0:0:0:0:
320,192,160654,1,0,0:0:0:0:
64,192,160793,1,0,0:0:0:0:
192,192,160863,1,0,0:0:0:0:
320,192,160933,1,0,0:0:0:0:
448,192,160933,1,0,0:0:0:0:
192,192,161003,1,0,0:0:0:0:
64,192,161073,1,0,0:0:0:0:
448,192,161073,1,0,0:0:0:0:
320,192,161142,1,0,0:0:0:0:
192,192,161212,1,0,0:0:0:0:
64,192,161212,1,0,0:0:0:0:
320,192,161282,1,0,0:0:0:0:
448,192,161282,1,0,0:0:0:0:
192,192,161421,1,0,0:0:0:0:
320,192,161491,1,0,0:0:0:0:
448,192,161491,1,0,0:0:0:0:
64,192,161561,1,0,0:0:0:0:
192,192,161561,1,0,0:0:0:0:
320,192,161631,1,0,0:0:0:0:
448,192,161700,1,0,0:0:0:0:
192,192,161770,1,0,0:0:0:0:
64,192,161770,1,0,0:0:0:0:
448,192,161979,1,0,0:0:0:0:
192,192,162049,1,0,0:0:0:0:
64,192,162049,1,0,0:0:0:0:
320,192,162119,1,0,0:0:0:0:
448,192,162119,1,0,0:0:0:0:
192,192,162189,1,0,0:0:0:0:
64,192,162189,1,0,0:0:0:0:
320,192,162259,1,0,0:0:0:0:
448,192,162328,1,0,0:0:0:0:
64,192,162328,1,0,0:0:0:0:
320,192,162468,1,0,0:0:0:0:
192,192,162514,1,0,0:0:0:0:
64,192,162561,1,0,0:0:0:0:
448,192,162607,1,0,0:0:0:0:
320,192,162607,1,0,0:0:0:0:
192,192,162677,1,0,0:0:0:0:
64,192,162747,1,0,0:0:0:0:
320,192,162817,1,0,0:0:0:0:
192,192,162956,1,0,0:0:0:0:
64,192,163096,1,0,0:0:0:0:
448,192,163166,1,0,0:0:0:0:
320,192,163166,1,0,0:0:0:0:
64,192,163305,1,0,0:0:0:0:
192,192,163305,1,0,0:0:0:0:
448,192,163375,1,0,0:0:0:0:
320,192,163375,1,0,0:0:0:0:
64,192,163445,1,0,0:0:0:0:
192,192,163445,1,0,0:0:0:0:
448,192,163654,1,0,0:0:0:0:
192,192,163724,1,0,0:0:0:0:
64,192,163724,1,0,0:0:0:0:
320,192,163933,1,0,0:0:0:0:
192,192,164073,1,0,0:0:0:0:
64,192,164212,1,0,0:0:0:0:
320,192,164282,1,0,0:0:0:0:
448,192,164282,1,0,0:0:0:0:
64,192,164421,1,0,0:0:0:0:
192,192,164468,1,0,0:0:0:0:
320,192,164514,1,0,0:0:0:0:
448,192,164561,1,0,0:0:0:0:
64,192,164561,1,0,0:0:0:0:
448,192,164770,1,0,0:0:0:0:
192,192,164840,1,0,0:0:0:0:
64,192,164840,1,0,0:0:0:0:
320,192,164979,1,0,0:0:0:0:
448,192,164979,1,0,0:0:0:0:
64,192,165119,1,0,0:0:0:0:
192,192,165119,1,0,0:0:0:0:
448,192,165166,1,0,0:0:0:0:
320,192,165212,1,0,0:0:0:0:
64,192,165259,1,0,0:0:0:0:
192,192,165259,1,0,0:0:0:0:
448,192,165305,1,0,0:0:0:0:
320,192,165352,1,0,0:0:0:0:
64,192,165398,1,0,0:0:0:0:
192,192,165398,1,0,0:0:0:0:
448,192,165538,1,0,0:0:0:0:
64,192,165538,1,0,0:0:0:0:
320,192,165607,1,0,0:0:0:0:
192,192,165607,1,0,0:0:0:0:
448,192,165677,1,0,0:0:0:0:
64,192,165677,1,0,0:0:0:0:
320,192,165817,1,0,0:0:0:0:
192,192,165817,1,0,0:0:0:0:
448,192,166026,1,0,0:0:0:0:
64,192,166166,1,0,0:0:0:0:
320,192,166235,1,0,0:0:0:0:
448,192,166235,1,0,0:0:0:0:
192,192,166375,1,0,0:0:0:0:
64,192,166375,1,0,0:0:0:0:
192,192,166514,1,0,0:0:0:0:
320,192,166514,1,0,0:0:0:0:
320,192,166654,1,0,0:0:0:0:
448,192,166654,1,0,0:0:0:0:
64,192,166793,1,0,0:0:0:0:
192,192,166793,1,0,0:0:0:0:
448,192,166863,1,0,0:0:0:0:
320,192,166933,1,0,0:0:0:0:
64,192,167003,1,0,0:0:0:0:
192,192,167003,1,0,0:0:0:0:
320,192,167073,1,0,0:0:0:0:
64,192,167142,1,0,0:0:0:0:
448,192,167142,1,0,0:0:0:0:
192,192,167212,1,0,0:0:0:0:
320,192,167212,1,0,0:0:0:0:
64,192,167282,1,0,0:0:0:0:
448,192,167282,1,0,0:0:0:0:
320,192,167352,1,0,0:0:0:0:
192,192,167352,1,0,0:0:0:0:
192,192,167561,1,0,0:0:0:0:
320,192,167631,1,0,0:0:0:0:
448,192,167631,1,0,0:0:0:0:
64,192,167700,1,0,0:0:0:0:
448,192,167770,1,0,0:0:0:0:
320,192,167817,1,0,0:0:0:0:
192,192,167863,1,0,0:0:0:0:
64,192,167910,1,0,0:0:0:0:
448,192,167910,1,0,0:0:0:0:
320,192,168049,1,0,0:0:0:0:
64,192,168189,1,0,0:0:0:0:
448,192,168189,1,0,0:0:0:0:
192,192,168328,1,0,0:0:0:0:
320,192,168328,1,0,0:0:0:0:
448,192,168468,1,0,0:0:0:0:
64,192,168468,1,0,0:0:0:0:
320,192,168677,1,0,0:0:0:0:
448,192,168817,1,0,0:0:0:0:
64,192,168886,1,0,0:0:0:0:
192,192,168886,1,0,0:0:0:0:
320,192,168956,1,0,0:0:0:0:
448,192,168956,1,0,0:0:0:0:
64,192,169026,1,0,0:0:0:0:
192,192,169026,1,0,0:0:0:0:
448,192,169235,1,0,0:0:0:0:
320,192,169305,1,0,0:0:0:0:
192,192,169375,1,0,0:0:0:0:
448,192,169445,1,0,0:0:0:0:
64,192,169445,1,0,0:0:0:0:
192,192,169584,1,0,0:0:0:0:
448,192,169631,1,0,0:0:0:0:
64,192,169677,1,0,0:0:0:0:
320,192,169724,1,0,0:0:0:0:
192,192,169793,1,0,0:0:0:0:
64,192,169863,1,4,0:0:0:0:
448,192,169863,1,4,0:0:0:0:
320,192,170003,1,0,0:0:0:0:
64,192,170142,1,0,0:0:0:0:
448,192,170282,1,0,0:0:0:0:
192,192,170421,1,0,0:0:0:0:
448,192,170561,1,0,0:0:0:0:
320,192,170700,1,0,0:0:0:0:
192,192,170840,1,0,0:0:0:0:
64,192,170979,1,0,0:0:0:0:
448,192,170979,1,0,0:0:0:0:
320,192,171119,1,0,0:0:0:0:
192,192,171259,1,0,0:0:0:0:
64,192,171259,1,0,0:0:0:0:
448,192,171328,1,0,0:0:0:0:
320,192,171398,1,0,0:0:0:0:
64,192,171398,1,0,0:0:0:0:
192,192,171538,1,0,0:0:0:0:
448,192,171538,1,0,0:0:0:0:
320,192,171677,1,0,0:0:0:0:
64,192,171817,1,0,0:0:0:0:
448,192,171817,1,0,0:0:0:0:
192,192,171956,1,0,0:0:0:0:
448,192,172096,1,0,0:0:0:0:
64,192,172096,1,0,0:0:0:0:
448,192,172235,1,0,0:0:0:0:
192,192,172235,1,0,0:0:0:0:
320,192,172375,1,0,0:0:0:0:
192,192,172375,1,0,0:0:0:0:
64,192,172514,1,0,0:0:0:0:
448,192,172514,1,0,0:0:0:0:
448,192,172654,1,0,0:0:0:0:
192,192,172654,1,0,0:0:0:0:
192,192,172793,1,0,0:0:0:0:
320,192,172793,1,0,0:0:0:0:
64,192,172933,1,0,0:0:0:0:
320,192,172933,1,0,0:0:0:0:
64,192,173073,1,0,0:0:0:0:
448,192,173073,1,0,0:0:0:0:
192,192,173212,1,0,0:0:0:0:
448,192,173352,1,0,0:0:0:0:
192,192,173491,1,0,0:0:0:0:
320,192,173491,1,0,0:0:0:0:
448,192,173631,1,0,0:0:0:0:
64,192,173770,1,0,0:0:0:0:
192,192,173770,1,0,0:0:0:0:
448,192,173910,1,0,0:0:0:0:
64,192,174049,1,0,0:0:0:0:
320,192,174049,1,0,0:0:0:0:
448,192,174189,1,0,0:0:0:0:
64,192,174328,1,0,0:0:0:0:
192,192,174328,1,0,0:0:0:0:
320,192,174468,1,0,0:0:0:0:
448,192,174607,1,0,0:0:0:0:
192,192,174747,1,0,0:0:0:0:
448,192,174886,1,0,0:0:0:0:
320,192,175026,1,0,0:0:0:0:
192,192,175166,1,0,0:0:0:0:
64,192,175305,1,0,0:0:0:0:
320,192,175445,1,0,0:0:0:0:
448,192,175445,1,0,0:0:0:0:
192,192,175584,1,0,0:0:0:0:
64,192,175584,1,0,0:0:0:0:
448,192,175724,1,0,0:0:0:0:
192,192,175724,1,0,0:0:0:0:
64,192,175863,1,0,0:0:0:0:
320,192,175863,1,0,0:0:0:0:
320,192,176003,1,0,0:0:0:0:
448,192,176003,1,0,0:0:0:0:
192,192,176142,1,0,0:0:0:0:
64,192,176142,1,0,0:0:0:0:
448,192,176282,1,0,0:0:0:0:
192,192,176282,1,0,0:0:0:0:
64,192,176421,1,0,0:0:0:0:
320,192,176421,1,0,0:0:0:0:
64,192,176561,1,0,0:0:0:0:
448,192,176561,1,0,0:0:0:0:
192,192,176700,1,0,0:0:0:0:
320,192,176840,1,0,0:0:0:0:
448,192,176840,1,0,0:0:0:0:
64,192,176979,1,0,0:0:0:0:
448,192,177119,1,0,0:0:0:0:
192,192,177119,1,0,0:0:0:0:
64,192,177259,1,0,0:0:0:0:
320,192,177398,1,0,0:0:0:0:
448,192,177398,1,0,0:0:0:0:
192,192,177538,1,0,0:0:0:0:
64,192,177677,1,0,0:0:0:0:
320,192,177817,1,0,0:0:0:0:
64,192,177956,1,0,0:0:0:0:
448,192,177956,128,0,178793:0:0:0:0:
320,192,178096,1,0,0:0:0:0:
64,192,178235,1,0,0:0:0:0:
192,192,178375,1,0,0:0:0:0:
320,192,178514,1,0,0:0:0:0:
64,192,178514,128,0,178654:0:0:0:0:
192,192,178654,1,0,0:0:0:0:
64,192,178793,1,4,0:0:0:0:
320,192,178793,1,0,0:0:0:0:
192,192,178933,1,0,0:0:0:0:
448,192,179073,1,0,0:0:0:0:
64,192,179073,1,0,0:0:0:0:
320,192,179212,1,0,0:0:0:0:
448,192,179352,1,0,0:0:0:0:
192,192,179352,1,0,0:0:0:0:
64,192,179491,1,0,0:0:0:0:
448,192,179631,1,0,0:0:0:0:
320,192,179631,1,0,0:0:0:0:
192,192,179770,1,0,0:0:0:0:
320,192,179910,1,0,0:0:0:0:
64,192,179910,1,0,0:0:0:0:
448,192,180049,1,0,0:0:0:0:
64,192,180189,1,0,0:0:0:0:
192,192,180189,1,0,0:0:0:0:
320,192,180328,1,0,0:0:0:0:
64,192,180468,1,0,0:0:0:0:
448,192,180468,1,0,0:0:0:0:
192,192,180607,1,0,0:0:0:0:
320,192,180747,1,0,0:0:0:0:
448,192,180747,1,2,0:0:0:0:
448,192,180886,1,2,0:0:0:0:
320,192,180886,1,0,0:0:0:0:
64,192,181026,1,0,0:0:0:0:
320,192,181026,1,0,0:0:0:0:
448,192,181026,1,2,0:0:0:0:
192,192,181166,1,0,0:0:0:0:
320,192,181305,1,0,0:0:0:0:
448,192,181305,1,0,0:0:0:0:
64,192,181445,1,0,0:0:0:0:
192,192,181584,1,0,0:0:0:0:
448,192,181584,1,0,0:0:0:0:
320,192,181724,1,0,0:0:0:0:
64,192,181863,1,0,0:0:0:0:
192,192,181863,1,0,0:0:0:0:
448,192,182003,1,0,0:0:0:0:
64,192,182142,1,0,0:0:0:0:
320,192,182142,1,0,0:0:0:0:
192,192,182282,1,0,0:0:0:0:
320,192,182421,1,0,0:0:0:0:
448,192,182421,1,0,0:0:0:0:
64,192,182561,1,0,0:0:0:0:
448,192,182700,1,0,0:0:0:0:
320,192,182735,1,0,0:0:0:0:
192,192,182770,1,0,0:0:0:0:
64,192,182805,1,0,0:0:0:0:
448,192,182840,1,0,0:0:0:0:
320,192,182875,1,0,0:0:0:0:
192,192,182910,1,0,0:0:0:0:
64,192,182945,1,0,0:0:0:0:
320,192,182979,1,0,0:0:0:0:
448,192,182979,1,2,0:0:0:0:
448,192,183119,1,2,0:0:0:0:
320,192,183119,1,0,0:0:0:0:
192,192,183259,1,2,0:0:0:0:
64,192,183259,1,0,0:0:0:0:
64,192,183398,1,0,0:0:0:0:
192,192,183398,1,2,0:0:0:0:
64,192,183538,1,0,0:0:0:0:
448,192,183538,1,2,0:0:0:0:
320,192,183538,1,0,0:0:0:0:
192,192,183677,1,0,0:0:0:0:
64,192,183817,1,0,0:0:0:0:
320,192,183817,1,0,0:0:0:0:
448,192,183956,1,0,0:0:0:0:
320,192,184096,1,0,0:0:0:0:
192,192,184096,1,0,0:0:0:0:
64,192,184235,1,0,0:0:0:0:
320,192,184375,1,0,0:0:0:0:
448,192,184375,1,0,0:0:0:0:
192,192,184514,1,0,0:0:0:0:
64,192,184654,1,0,0:0:0:0:
448,192,184654,1,0,0:0:0:0:
320,192,184793,1,0,0:0:0:0:
64,192,184933,1,2,0:0:0:0:
192,192,184933,1,0,0:0:0:0:
64,192,185073,1,2,0:0:0:0:
192,192,185073,1,0,0:0:0:0:
448,192,185212,1,0,0:0:0:0:
64,192,185212,1,2,0:0:0:0:
320,192,185212,1,0,0:0:0:0:
192,192,185352,1,0,0:0:0:0:
64,192,185491,1,0,0:0:0:0:
448,192,185491,1,0,0:0:0:0:
320,192,185631,1,0,0:0:0:0:
64,192,185770,1,0,0:0:0:0:
192,192,185770,1,0,0:0:0:0:
448,192,185910,1,0,0:0:0:0:
192,192,186049,1,0,0:0:0:0:
320,192,186049,1,0,0:0:0:0:
64,192,186189,1,0,0:0:0:0:
320,192,186328,1,0,0:0:0:0:
448,192,186328,1,0,0:0:0:0:
192,192,186468,1,0,0:0:0:0:
64,192,186607,1,0,0:0:0:0:
448,192,186607,1,0,0:0:0:0:
320,192,186747,1,0,0:0:0:0:
64,192,186886,1,0,0:0:0:0:
192,192,186886,1,0,0:0:0:0:
448,192,187026,1,0,0:0:0:0:
320,192,187166,1,0,0:0:0:0:
64,192,187166,1,2,0:0:0:0:
448,192,187305,1,2,0:0:0:0:
64,192,187305,1,0,0:0:0:0:
192,192,187305,1,0,0:0:0:0:
320,192,187445,1,2,0:0:0:0:
448,192,187445,1,0,0:0:0:0:
64,192,187514,1,2,0:0:0:0:
192,192,187584,1,2,0:0:0:0:
448,192,187724,1,4,0:0:0:0:
320,192,187724,1,4,0:0:0:0:
64,192,187724,1,2,0:0:0:0:
192,192,187863,1,0,0:0:0:0:
320,192,188003,1,0,0:0:0:0:
448,192,188003,1,0,0:0:0:0:
64,192,188142,1,0,0:0:0:0:
192,192,188282,1,0,0:0:0:0:
448,192,188282,1,0,0:0:0:0:
320,192,188421,1,0,0:0:0:0:
448,192,188561,1,0,0:0:0:0:
64,192,188561,1,0,0:0:0:0:
192,192,188700,1,0,0:0:0:0:
320,192,188840,1,0,0:0:0:0:
448,192,188840,1,0,0:0:0:0:
64,192,188979,1,0,0:0:0:0:
192,192,189119,1,0,0:0:0:0:
320,192,189119,1,0,0:0:0:0:
448,192,189259,1,0,0:0:0:0:
64,192,189398,1,0,0:0:0:0:
192,192,189398,1,0,0:0:0:0:
320,192,189538,1,0,0:0:0:0:
448,192,189677,1,2,0:0:0:0:
192,192,189677,1,0,0:0:0:0:
192,192,189817,1,0,0:0:0:0:
448,192,189817,1,2,0:0:0:0:
320,192,189956,1,0,0:0:0:0:
64,192,189956,1,0,0:0:0:0:
448,192,189956,1,2,0:0:0:0:
192,192,190096,1,0,0:0:0:0:
320,192,190235,1,0,0:0:0:0:
448,192,190235,1,0,0:0:0:0:
64,192,190375,1,0,0:0:0:0:
448,192,190514,1,0,0:0:0:0:
192,192,190514,1,0,0:0:0:0:
320,192,190654,1,0,0:0:0:0:
192,192,190793,1,0,0:0:0:0:
64,192,190793,1,0,0:0:0:0:
448,192,190933,1,0,0:0:0:0:
320,192,191073,1,0,0:0:0:0:
64,192,191073,1,0,0:0:0:0:
192,192,191212,5,0,0:0:0:0:
64,192,191352,1,0,0:0:0:0:
448,192,191352,1,0,0:0:0:0:
320,192,191491,1,0,0:0:0:0:
192,192,191631,1,0,0:0:0:0:
448,192,191631,1,2,0:0:0:0:
192,192,191770,1,0,0:0:0:0:
64,192,191770,1,2,0:0:0:0:
64,192,191910,1,0,0:0:0:0:
320,192,191910,1,2,0:0:0:0:
448,192,192049,1,2,0:0:0:0:
320,192,192049,1,0,0:0:0:0:
192,192,192189,1,0,0:0:0:0:
64,192,192189,1,0,0:0:0:0:
448,192,192189,1,0,0:0:0:0:
320,192,192328,1,0,0:0:0:0:
64,192,192468,1,0,0:0:0:0:
448,192,192538,1,0,0:0:0:0:
192,192,192607,1,0,0:0:0:0:
448,192,192747,1,0,0:0:0:0:
64,192,192817,1,0,0:0:0:0:
320,192,192886,1,0,0:0:0:0:
192,192,193026,1,0,0:0:0:0:
448,192,193096,1,0,0:0:0:0:
192,192,193166,1,0,0:0:0:0:
320,192,193305,1,0,0:0:0:0:
64,192,193375,1,0,0:0:0:0:
320,192,193445,1,0,0:0:0:0:
448,192,193584,1,0,0:0:0:0:
192,192,193654,1,0,0:0:0:0:
448,192,193724,1,0,0:0:0:0:
64,192,193863,1,0,0:0:0:0:
320,192,193933,1,0,0:0:0:0:
64,192,194003,1,0,0:0:0:0:
320,192,194142,1,0,0:0:0:0:
192,192,194212,1,0,0:0:0:0:
320,192,194282,1,0,0:0:0:0:
192,192,194421,1,0,0:0:0:0:
448,192,194421,128,0,194561:0:0:0:0:
320,192,194491,1,0,0:0:0:0:
64,192,194561,1,0,0:0:0:0:
448,192,194700,1,0,0:0:0:0:
320,192,194700,128,0,194840:0:0:0:0:
64,192,194770,1,0,0:0:0:0:
192,192,194840,1,0,0:0:0:0:
320,192,194979,1,0,0:0:0:0:
64,192,194979,128,0,195119:0:0:0:0:
448,192,195049,1,0,0:0:0:0:
192,192,195119,1,0,0:0:0:0:
64,192,195259,1,0,0:0:0:0:
320,192,195259,128,0,195398:0:0:0:0:
192,192,195328,1,0,0:0:0:0:
448,192,195398,1,0,0:0:0:0:
320,192,195538,1,0,0:0:0:0:
64,192,195538,128,0,195677:0:0:0:0:
448,192,195607,1,0,0:0:0:0:
192,192,195677,1,0,0:0:0:0:
64,192,195817,1,0,0:0:0:0:
448,192,195817,128,0,195956:0:0:0:0:
192,192,195886,1,0,0:0:0:0:
320,192,195956,1,0,0:0:0:0:
448,192,196096,1,0,0:0:0:0:
192,192,196096,128,0,196235:0:0:0:0:
64,192,196166,1,0,0:0:0:0:
320,192,196235,1,0,0:0:0:0:
64,192,196375,1,0,0:0:0:0:
448,192,196375,1,0,0:0:0:0:
64,192,196514,1,0,0:0:0:0:
448,192,196514,1,0,0:0:0:0:
448,192,196654,1,2,0:0:0:0:
192,192,196654,1,4,0:0:0:0:
64,192,196654,1,4,0:0:0:0:
320,192,196724,1,0,0:0:0:0:
64,192,196793,1,0,0:0:0:0:
448,192,196933,1,2,0:0:0:0:
320,192,196933,1,2,0:0:0:0:
192,192,197003,1,0,0:0:0:0:
320,192,197073,1,0,0:0:0:0:
64,192,197212,1,2,0:0:0:0:
192,192,197212,1,2,0:0:0:0:
320,192,197282,1,0,0:0:0:0:
448,192,197352,1,0,0:0:0:0:
64,192,197491,1,2,0:0:0:0:
192,192,197491,1,2,0:0:0:0:
448,192,197561,1,0,0:0:0:0:
320,192,197631,1,0,0:0:0:0:
64,192,197770,1,2,0:0:0:0:
448,192,197770,1,2,0:0:0:0:
320,192,197840,1,0,0:0:0:0:
192,192,197910,1,0,0:0:0:0:
320,192,198049,1,2,0:0:0:0:
64,192,198049,1,2,0:0:0:0:
192,192,198119,1,0,0:0:0:0:
448,192,198189,1,0,0:0:0:0:
64,192,198328,1,2,0:0:0:0:
192,192,198328,1,2,0:0:0:0:
320,192,198398,1,0,0:0:0:0:
448,192,198468,1,0,0:0:0:0:
64,192,198607,1,2,0:0:0:0:
192,192,198607,1,2,0:0:0:0:
64,192,198747,1,2,0:0:0:0:
320,192,198747,1,2,0:0:0:0:
192,192,198886,1,0,0:0:0:0:
448,192,198886,1,2,0:0:0:0:
64,192,198886,1,2,0:0:0:0:
320,192,198956,1,0,0:0:0:0:
192,192,199026,1,0,0:0:0:0:
64,192,199166,1,2,0:0:0:0:
448,192,199166,1,2,0:0:0:0:
192,192,199235,1,0,0:0:0:0:
320,192,199305,1,0,0:0:0:0:
64,192,199445,1,2,0:0:0:0:
448,192,199445,1,2,0:0:0:0:
320,192,199514,1,0,0:0:0:0:
192,192,199584,1,0,0:0:0:0:
320,192,199724,1,2,0:0:0:0:
448,192,199724,1,2,0:0:0:0:
192,192,199793,1,0,0:0:0:0:
64,192,199863,1,0,0:0:0:0:
192,192,200003,1,2,0:0:0:0:
320,192,200003,1,2,0:0:0:0:
448,192,200073,1,0,0:0:0:0:
64,192,200142,1,0,0:0:0:0:
448,192,200282,1,2,0:0:0:0:
320,192,200282,1,2,0:0:0:0:
64,192,200352,1,0,0:0:0:0:
192,192,200421,1,0,0:0:0:0:
448,192,200561,1,2,0:0:0:0:
320,192,200561,1,0,0:0:0:0:
64,192,200631,1,2,0:0:0:0:
192,192,200631,1,0,0:0:0:0:
320,192,200700,1,0,0:0:0:0:
448,192,200700,1,2,0:0:0:0:
64,192,200840,1,2,0:0:0:0:
192,192,200840,1,2,0:0:0:0:
320,192,200979,1,2,0:0:0:0:
64,192,200979,1,2,0:0:0:0:
64,192,201119,1,2,0:0:0:0:
448,192,201119,1,2,0:0:0:0:
192,192,201119,1,0,0:0:0:0:
320,192,201189,1,0,0:0:0:0:
192,192,201259,1,0,0:0:0:0:
448,192,201398,1,2,0:0:0:0:
64,192,201398,1,2,0:0:0:0:
320,192,201468,1,0,0:0:0:0:
192,192,201538,1,0,0:0:0:0:
64,192,201677,1,2,0:0:0:0:
448,192,201677,1,2,0:0:0:0:
192,192,201747,1,0,0:0:0:0:
320,192,201817,1,0,0:0:0:0:
448,192,201956,1,2,0:0:0:0:
64,192,201956,1,2,0:0:0:0:
192,192,202026,1,0,0:0:0:0:
320,192,202096,1,0,0:0:0:0:
448,192,202235,1,2,0:0:0:0:
192,192,202235,1,2,0:0:0:0:
320,192,202305,1,0,0:0:0:0:
64,192,202375,1,0,0:0:0:0:
448,192,202514,1,2,0:0:0:0:
320,192,202514,1,2,0:0:0:0:
192,192,202584,1,0,0:0:0:0:
64,192,202654,1,0,0:0:0:0:
448,192,202793,1,2,0:0:0:0:
320,192,202793,1,2,0:0:0:0:
64,192,202863,1,0,0:0:0:0:
192,192,202933,1,0,0:0:0:0:
448,192,203073,1,2,0:0:0:0:
320,192,203073,1,0,0:0:0:0:
192,192,203212,1,0,0:0:0:0:
448,192,203212,1,0,0:0:0:0:
320,192,203352,1,2,0:0:0:0:
448,192,203352,1,2,0:0:0:0:
64,192,203352,1,0,0:0:0:0:
192,192,203421,1,0,0:0:0:0:
64,192,203491,1,0,0:0:0:0:
320,192,203631,1,2,0:0:0:0:
192,192,203631,1,2,0:0:0:0:
448,192,203700,1,0,0:0:0:0:
64,192,203770,1,0,0:0:0:0:
192,192,203805,1,0,0:0:0:0:
320,192,203840,1,0,0:0:0:0:
448,192,203875,1,0,0:0:0:0:
64,192,203910,1,0,0:0:0:0:
192,192,203945,1,0,0:0:0:0:
320,192,203979,1,0,0:0:0:0:
448,192,204014,1,0,0:0:0:0:
64,192,204049,1,0,0:0:0:0:
192,192,204084,1,0,0:0:0:0:
320,192,204119,1,0,0:0:0:0:
448,192,204154,1,0,0:0:0:0:
64,192,204189,1,0,0:0:0:0:
192,192,204189,1,0,0:0:0:0:
448,192,204328,1,0,0:0:0:0:
320,192,204328,1,0,0:0:0:0:
64,192,204468,1,0,0:0:0:0:
192,192,204468,1,2,0:0:0:0:
320,192,204538,1,2,0:0:0:0:
448,192,204538,1,0,0:0:0:0:
64,192,204607,1,0,0:0:0:0:
192,192,204607,1,2,0:0:0:0:
320,192,204677,1,2,0:0:0:0:
448,192,204677,1,0,0:0:0:0:
64,192,204747,1,0,0:0:0:0:
192,192,204747,1,2,0:0:0:0:
448,192,204817,1,0,0:0:0:0:
320,192,204817,1,2,0:0:0:0:
64,192,204886,1,0,0:0:0:0:
192,192,204886,1,2,0:0:0:0:
448,192,204956,1,0,0:0:0:0:
320,192,204956,1,2,0:0:0:0:
64,192,205026,1,0,0:0:0:0:
192,192,205026,1,2,0:0:0:0:
448,192,205166,1,0,0:0:0:0:
320,192,205166,1,2,0:0:0:0:
64,192,205305,1,2,0:0:0:0:
320,192,205305,1,0,0:0:0:0:
192,192,205375,1,2,0:0:0:0:
448,192,205375,1,0,0:0:0:0:
64,192,205445,1,2,0:0:0:0:
320,192,205445,1,0,0:0:0:0:
192,192,205514,1,2,0:0:0:0:
448,192,205514,1,0,0:0:0:0:
64,192,205584,1,2,0:0:0:0:
320,192,205584,1,4,0:0:0:0:
448,192,205654,1,0,0:0:0:0:
192,192,205724,1,0,0:0:0:0:
448,192,205863,1,2,0:0:0:0:
64,192,205863,1,2,0:0:0:0:
192,192,205933,1,0,0:0:0:0:
320,192,206003,1,0,0:0:0:0:
192,192,206142,1,2,0:0:0:0:
64,192,206142,1,2,0:0:0:0:
448,192,206212,1,0,0:0:0:0:
320,192,206282,1,0,0:0:0:0:
448,192,206421,1,2,0:0:0:0:
64,192,206421,1,2,0:0:0:0:
320,192,206491,1,0,0:0:0:0:
192,192,206561,1,0,0:0:0:0:
320,192,206700,1,2,0:0:0:0:
448,192,206700,1,2,0:0:0:0:
64,192,206770,1,0,0:0:0:0:
192,192,206840,1,0,0:0:0:0:
320,192,206979,1,2,0:0:0:0:
448,192,206979,1,2,0:0:0:0:
192,192,207049,1,0,0:0:0:0:
64,192,207119,1,0,0:0:0:0:
448,192,207259,1,2,0:0:0:0:
192,192,207259,1,2,0:0:0:0:
320,192,207328,1,0,0:0:0:0:
64,192,207398,1,0,0:0:0:0:
448,192,207538,1,2,0:0:0:0:
320,192,207538,1,2,0:0:0:0:
448,192,207677,1,2,0:0:0:0:
192,192,207677,1,2,0:0:0:0:
320,192,207817,1,2,0:0:0:0:
64,192,207817,1,0,0:0:0:0:
448,192,207817,1,2,0:0:0:0:
192,192,207886,1,0,0:0:0:0:
448,192,207956,1,0,0:0:0:0:
64,192,208096,1,2,0:0:0:0:
320,192,208096,1,2,0:0:0:0:
192,192,208166,1,0,0:0:0:0:
448,192,208235,1,0,0:0:0:0:
64,192,208375,1,2,0:0:0:0:
192,192,208375,1,2,0:0:0:0:
320,192,208445,1,0,0:0:0:0:
448,192,208514,1,0,0:0:0:0:
192,192,208654,1,2,0:0:0:0:
64,192,208654,1,2,0:0:0:0:
448,192,208724,1,0,0:0:0:0:
320,192,208793,1,0,0:0:0:0:
448,192,208933,1,2,0:0:0:0:
64,192,208933,1,2,0:0:0:0:
320,192,209003,1,0,0:0:0:0:
192,192,209073,1,0,0:0:0:0:
448,192,209212,1,2,0:0:0:0:
320,192,209212,1,2,0:0:0:0:
64,192,209282,1,0,0:0:0:0:
448,192,209352,1,0,0:0:0:0:
320,192,209386,1,0,0:0:0:0:
192,192,209421,1,0,0:0:0:0:
64,192,209456,1,0,0:0:0:0:
448,192,209491,1,0,0:0:0:0:
320,192,209526,1,0,0:0:0:0:
192,192,209561,1,0,0:0:0:0:
64,192,209596,1,0,0:0:0:0:
448,192,209631,1,0,0:0:0:0:
320,192,209666,1,0,0:0:0:0:
192,192,209700,1,0,0:0:0:0:
64,192,209735,1,0,0:0:0:0:
448,192,209770,128,0,209910:0:0:0:0:
64,192,209910,128,0,210049:0:0:0:0:
448,192,210049,1,2,0:0:0:0:
320,192,210049,1,2,0:0:0:0:
192,192,210119,1,0,0:0:0:0:
448,192,210189,1,0,0:0:0:0:
64,192,210328,1,2,0:0:0:0:
320,192,210328,1,2,0:0:0:0:
192,192,210398,1,0,0:0:0:0:
448,192,210468,1,0,0:0:0:0:
64,192,210607,1,2,0:0:0:0:
192,192,210607,1,2,0:0:0:0:
448,192,210677,1,0,0:0:0:0:
320,192,210747,1,0,0:0:0:0:
448,192,210886,1,2,0:0:0:0:
64,192,210886,1,2,0:0:0:0:
192,192,210956,1,0,0:0:0:0:
320,192,211026,1,0,0:0:0:0:
64,192,211166,1,2,0:0:0:0:
192,192,211166,1,2,0:0:0:0:
448,192,211235,1,0,0:0:0:0:
320,192,211305,1,0,0:0:0:0:
448,192,211445,1,2,0:0:0:0:
64,192,211445,1,2,0:0:0:0:
192,192,211514,1,0,0:0:0:0:
320,192,211584,1,0,0:0:0:0:
64,192,211724,1,2,0:0:0:0:
448,192,211724,1,0,0:0:0:0:
192,192,211793,1,2,0:0:0:0:
320,192,211793,1,0,0:0:0:0:
64,192,211863,1,2,0:0:0:0:
448,192,211863,1,0,0:0:0:0:
192,192,212003,1,2,0:0:0:0:
320,192,212003,1,2,0:0:0:0:
320,192,212142,1,2,0:0:0:0:
192,192,212142,1,2,0:0:0:0:
64,192,212282,1,2,0:0:0:0:
192,192,212282,1,2,0:0:0:0:
448,192,212282,1,0,0:0:0:0:
320,192,212421,1,0,0:0:0:0:
448,192,212421,128,0,213398:0:0:0:0:
64,192,212561,1,0,0:0:0:0:
192,192,212631,1,0,0:0:0:0:
320,192,212700,1,0,0:0:0:0:
64,192,212840,1,0,0:0:0:0:
320,192,212910,1,0,0:0:0:0:
192,192,212979,1,0,0:0:0:0:
320,192,213119,1,0,0:0:0:0:
192,192,213189,1,0,0:0:0:0:
64,192,213259,1,0,0:0:0:0:
192,192,213398,128,2,213607:0:0:0:0:
320,192,213398,128,2,213607:0:0:0:0:
64,192,213677,128,2,213886:0:0:0:0:
448,192,213677,128,2,213886:0:0:0:0:
192,192,213956,128,2,214166:0:0:0:0:
320,192,213956,128,2,214166:0:0:0:0:
192,192,214235,128,0,214514:0:0:0:0:
448,192,214514,1,2,0:0:0:0:
320,192,214514,1,4,0:0:0:0:
64,192,214584,1,0,0:0:0:0:
192,192,214654,1,0,0:0:0:0:
448,192,214793,1,2,0:0:0:0:
64,192,214793,1,2,0:0:0:0:
320,192,214863,1,0,0:0:0:0:
192,192,214933,1,0,0:0:0:0:
320,192,215073,1,2,0:0:0:0:
64,192,215073,1,2,0:0:0:0:
192,192,215142,1,0,0:0:0:0:
448,192,215212,1,0,0:0:0:0:
64,192,215352,1,2,0:0:0:0:
192,192,215352,1,2,0:0:0:0:
320,192,215421,1,0,0:0:0:0:
448,192,215491,1,0,0:0:0:0:
64,192,215631,1,2,0:0:0:0:
320,192,215631,1,2,0:0:0:0:
448,192,215700,1,0,0:0:0:0:
192,192,215770,1,0,0:0:0:0:
64,192,215910,1,2,0:0:0:0:
448,192,215910,1,2,0:0:0:0:
320,192,215979,1,0,0:0:0:0:
192,192,216049,1,0,0:0:0:0:
448,192,216189,1,2,0:0:0:0:
320,192,216189,1,2,0:0:0:0:
64,192,216328,1,2,0:0:0:0:
192,192,216328,1,2,0:0:0:0:
448,192,216468,1,2,0:0:0:0:
320,192,216468,1,0,0:0:0:0:
64,192,216538,1,0,0:0:0:0:
320,192,216607,1,2,0:0:0:0:
192,192,216607,1,0,0:0:0:0:
64,192,216747,1,2,0:0:0:0:
448,192,216747,1,2,0:0:0:0:
192,192,216747,1,0,0:0:0:0:
320,192,216817,1,0,0:0:0:0:
192,192,216886,1,0,0:0:0:0:
448,192,217026,1,2,0:0:0:0:
64,192,217026,1,2,0:0:0:0:
192,192,217096,1,0,0:0:0:0:
320,192,217166,1,0,0:0:0:0:
192,192,217305,1,2,0:0:0:0:
448,192,217305,1,2,0:0:0:0:
320,192,217375,1,0,0:0:0:0:
64,192,217445,1,0,0:0:0:0:
448,192,217584,1,2,0:0:0:0:
320,192,217584,1,2,0:0:0:0:
192,192,217654,1,0,0:0:0:0:
64,192,217724,1,0,0:0:0:0:
192,192,217863,1,2,0:0:0:0:
448,192,217863,1,2,0:0:0:0:
64,192,217933,1,0,0:0:0:0:
320,192,218003,1,0,0:0:0:0:
448,192,218142,1,2,0:0:0:0:
64,192,218142,1,2,0:0:0:0:
192,192,218212,1,0,0:0:0:0:
320,192,218282,1,0,0:0:0:0:
448,192,218421,1,2,0:0:0:0:
192,192,218421,1,2,0:0:0:0:
64,192,218491,1,0,0:0:0:0:
320,192,218561,1,0,0:0:0:0:
448,192,218700,1,0,0:0:0:0:
64,192,218700,128,0,218979:0:0:0:0:
320,192,218770,1,0,0:0:0:0:
192,192,218840,1,0,0:0:0:0:
320,192,218979,1,2,0:0:0:0:
448,192,218979,1,2,0:0:0:0:
192,192,219049,1,0,0:0:0:0:
64,192,219119,1,0,0:0:0:0:
192,192,219259,1,2,0:0:0:0:
320,192,219259,1,2,0:0:0:0:
448,192,219328,1,0,0:0:0:0:
64,192,219398,1,0,0:0:0:0:
448,192,219538,1,2,0:0:0:0:
192,192,219538,1,2,0:0:0:0:
64,192,219607,1,0,0:0:0:0:
320,192,219677,1,0,0:0:0:0:
448,192,219817,1,2,0:0:0:0:
64,192,219817,1,2,0:0:0:0:
192,192,219886,1,0,0:0:0:0:
320,192,219956,1,0,0:0:0:0:
448,192,220096,1,2,0:0:0:0:
64,192,220096,1,2,0:0:0:0:
320,192,220166,1,0,0:0:0:0:
192,192,220235,1,0,0:0:0:0:
320,192,220375,1,2,0:0:0:0:
448,192,220375,1,2,0:0:0:0:
64,192,220445,1,0,0:0:0:0:
192,192,220514,1,0,0:0:0:0:
64,192,220654,1,2,0:0:0:0:
320,192,220654,1,2,0:0:0:0:
448,192,220724,1,0,0:0:0:0:
192,192,220793,1,0,0:0:0:0:
320,192,220933,1,2,0:0:0:0:
448,192,220933,1,2,0:0:0:0:
448,192,221073,1,2,0:0:0:0:
320,192,221073,1,2,0:0:0:0:
448,192,221212,1,2,0:0:0:0:
192,192,221212,1,2,0:0:0:0:
64,192,221212,1,0,0:0:0:0:
192,192,221352,1,2,0:0:0:0:
64,192,221352,1,2,0:0:0:0:
192,192,221491,1,2,0:0:0:0:
64,192,221491,1,2,0:0:0:0:
320,192,221491,1,0,0:0:0:0:
448,192,221561,1,0,0:0:0:0:
192,192,221631,1,0,0:0:0:0:
64,192,221770,1,2,0:0:0:0:
448,192,221770,1,2,0:0:0:0:
320,192,221840,1,0,0:0:0:0:
192,192,221910,1,0,0:0:0:0:
64,192,222049,1,2,0:0:0:0:
320,192,222049,1,2,0:0:0:0:
192,192,222119,1,0,0:0:0:0:
448,192,222189,1,0,0:0:0:0:
64,192,222328,128,2,222468:0:0:0:0:
192,192,222328,128,2,222468:0:0:0:0:
320,192,222468,128,0,222607:0:0:0:0:
448,192,222468,128,0,222607:0:0:0:0:
192,192,222607,128,2,222747:0:0:0:0:
64,192,222607,128,2,222747:0:0:0:0:
320,192,222747,128,0,222886:0:0:0:0:
448,192,222747,128,0,222886:0:0:0:0:
64,192,222886,128,2,223026:0:0:0:0:
192,192,222886,128,2,223026:0:0:0:0:
448,192,223026,128,0,223166:0:0:0:0:
320,192,223026,128,0,223166:0:0:0:0:
192,192,223166,1,2,0:0:0:0:
64,192,223166,1,0,0:0:0:0:
448,192,223235,1,0,0:0:0:0:
320,192,223235,1,2,0:0:0:0:
192,192,223305,1,2,0:0:0:0:
64,192,223305,1,0,0:0:0:0:
448,192,223375,1,0,0:0:0:0:
320,192,223375,1,2,0:0:0:0:
192,192,223445,1,2,0:0:0:0:
64,192,223445,1,4,0:0:0:0:
320,192,223514,1,0,0:0:0:0:
64,192,223584,1,0,0:0:0:0:
192,192,223724,1,2,0:0:0:0:
448,192,223724,1,2,0:0:0:0:
320,192,223793,1,0,0:0:0:0:
64,192,223863,1,0,0:0:0:0:
320,192,224003,1,2,0:0:0:0:
448,192,224003,1,2,0:0:0:0:
192,192,224073,1,0,0:0:0:0:
64,192,224142,1,0,0:0:0:0:
448,192,224282,1,2,0:0:0:0:
192,192,224282,1,2,0:0:0:0:
64,192,224352,1,0,0:0:0:0:
320,192,224421,1,0,0:0:0:0:
448,192,224561,1,2,0:0:0:0:
64,192,224561,1,2,0:0:0:0:
192,192,224631,1,0,0:0:0:0:
320,192,224700,1,0,0:0:0:0:
448,192,224840,1,2,0:0:0:0:
192,192,224840,1,2,0:0:0:0:
64,192,224910,1,0,0:0:0:0:
320,192,224979,1,0,0:0:0:0:
64,192,225119,1,2,0:0:0:0:
448,192,225119,1,2,0:0:0:0:
192,192,225189,1,0,0:0:0:0:
320,192,225259,1,0,0:0:0:0:
64,192,225398,1,0,0:0:0:0:
448,192,225468,1,0,0:0:0:0:
320,192,225491,1,0,0:0:0:0:
192,192,225514,1,0,0:0:0:0:
64,192,225538,1,0,0:0:0:0:
192,192,225677,1,2,0:0:0:0:
448,192,225677,1,2,0:0:0:0:
64,192,225747,1,0,0:0:0:0:
320,192,225817,1,0,0:0:0:0:
64,192,225956,1,2,0:0:0:0:
448,192,225956,1,2,0:0:0:0:
192,192,226026,1,0,0:0:0:0:
320,192,226096,1,0,0:0:0:0:
64,192,226235,1,2,0:0:0:0:
192,192,226235,1,2,0:0:0:0:
320,192,226305,1,0,0:0:0:0:
448,192,226375,1,0,0:0:0:0:
64,192,226514,1,2,0:0:0:0:
320,192,226514,1,2,0:0:0:0:
192,192,226584,1,0,0:0:0:0:
448,192,226654,1,0,0:0:0:0:
64,192,226793,1,2,0:0:0:0:
448,192,226793,1,2,0:0:0:0:
320,192,226863,1,0,0:0:0:0:
192,192,226933,1,0,0:0:0:0:
320,192,227073,1,2,0:0:0:0:
448,192,227073,1,2,0:0:0:0:
192,192,227142,1,0,0:0:0:0:
64,192,227212,1,0,0:0:0:0:
448,192,227352,1,2,0:0:0:0:
320,192,227352,1,0,0:0:0:0:
64,192,227421,1,2,0:0:0:0:
192,192,227421,1,0,0:0:0:0:
320,192,227491,1,0,0:0:0:0:
448,192,227491,1,2,0:0:0:0:
64,192,227631,1,0,0:0:0:0:
192,192,227631,1,2,0:0:0:0:
64,192,227770,1,0,0:0:0:0:
320,192,227770,1,2,0:0:0:0:
448,192,227910,1,2,0:0:0:0:
64,192,227910,1,2,0:0:0:0:
320,192,227910,1,0,0:0:0:0:
192,192,227979,1,0,0:0:0:0:
320,192,228049,1,0,0:0:0:0:
192,192,228189,1,2,0:0:0:0:
448,192,228189,1,2,0:0:0:0:
64,192,228259,1,0,0:0:0:0:
320,192,228328,1,0,0:0:0:0:
64,192,228468,1,2,0:0:0:0:
448,192,228468,1,2,0:0:0:0:
320,192,228538,1,0,0:0:0:0:
192,192,228607,1,0,0:0:0:0:
320,192,228747,1,2,0:0:0:0:
64,192,228747,1,2,0:0:0:0:
448,192,228817,1,0,0:0:0:0:
192,192,228886,1,0,0:0:0:0:
64,192,229026,1,2,0:0:0:0:
320,192,229026,1,2,0:0:0:0:
192,192,229096,1,0,0:0:0:0:
448,192,229166,1,0,0:0:0:0:
64,192,229305,1,2,0:0:0:0:
192,192,229305,1,2,0:0:0:0:
320,192,229375,1,0,0:0:0:0:
448,192,229445,1,0,0:0:0:0:
320,192,229584,1,2,0:0:0:0:
64,192,229584,1,2,0:0:0:0:
192,192,229654,1,0,0:0:0:0:
448,192,229724,1,0,0:0:0:0:
192,192,229863,1,2,0:0:0:0:
64,192,229863,1,2,0:0:0:0:
64,192,230003,1,2,0:0:0:0:
192,192,230003,1,2,0:0:0:0:
320,192,230142,128,0,230282:0:0:0:0:
448,192,230142,128,0,230421:0:0:0:0:
64,192,230282,128,0,230421:0:0:0:0:
320,192,230421,128,0,230700:0:0:0:0:
192,192,230421,128,0,230561:0:0:0:0:
448,192,230561,128,0,230700:0:0:0:0:
192,192,230700,128,0,230979:0:0:0:0:
64,192,230700,128,0,230840:0:0:0:0:
320,192,230840,128,0,230979:0:0:0:0:
64,192,230979,128,0,231259:0:0:0:0:
448,192,230979,128,0,231119:0:0:0:0:
192,192,231119,128,0,231259:0:0:0:0:
448,192,231259,1,2,0:0:0:0:
320,192,231259,1,2,0:0:0:0:
64,192,231398,1,2,0:0:0:0:
448,192,231398,1,2,0:0:0:0:
320,192,231538,1,2,0:0:0:0:
64,192,231538,1,2,0:0:0:0:
192,192,231677,1,2,0:0:0:0:
320,192,231677,1,2,0:0:0:0:
192,192,231817,1,2,0:0:0:0:
448,192,231817,1,2,0:0:0:0:
448,192,231956,1,2,0:0:0:0:
64,192,231956,1,2,0:0:0:0:
192,192,232096,1,2,0:0:0:0:
320,192,232096,1,2,0:0:0:0:
64,192,232235,1,2,0:0:0:0:
320,192,232235,1,2,0:0:0:0:
448,192,232375,128,4,233491:0:0:0:0:
192,192,232375,1,2,0:0:0:0:
64,192,232514,1,0,0:0:0:0:
320,192,232654,1,0,0:0:0:0:
192,192,232654,1,0,0:0:0:0:
320,192,232793,1,0,0:0:0:0:
192,192,232933,1,0,0:0:0:0:
64,192,232933,1,0,0:0:0:0:
64,192,233073,1,0,0:0:0:0:
192,192,233212,1,0,0:0:0:0:
320,192,233212,1,0,0:0:0:0:
64,192,233352,1,0,0:0:0:0:
64,192,233491,1,0,0:0:0:0:
192,192,233491,1,0,0:0:0:0:
320,192,233491,128,0,234607:0:0:0:0:
448,192,233631,1,0,0:0:0:0:
192,192,233770,1,0,0:0:0:0:
64,192,233770,1,0,0:0:0:0:
192,192,233910,1,0,0:0:0:0:
64,192,234049,1,0,0:0:0:0:
448,192,234049,1,0,0:0:0:0:
448,192,234189,1,0,0:0:0:0:
192,192,234328,1,0,0:0:0:0:
64,192,234328,1,0,0:0:0:0:
192,192,234468,1,0,0:0:0:0:
64,192,234468,1,0,0:0:0:0:
192,192,234607,128,0,235724:0:0:0:0:
448,192,234607,1,0,0:0:0:0:
64,192,234607,1,0,0:0:0:0:
320,192,234747,1,0,0:0:0:0:
64,192,234886,1,0,0:0:0:0:
448,192,234886,1,0,0:0:0:0:
64,192,235026,1,0,0:0:0:0:
320,192,235166,1,0,0:0:0:0:
448,192,235166,1,0,0:0:0:0:
448,192,235305,1,0,0:0:0:0:
320,192,235445,1,0,0:0:0:0:
64,192,235445,1,0,0:0:0:0:
448,192,235584,1,0,0:0:0:0:
448,192,235724,1,0,0:0:0:0:
320,192,235724,1,0,0:0:0:0:
64,192,235724,128,0,236840:0:0:0:0:
320,192,235863,1,0,0:0:0:0:
448,192,235863,1,0,0:0:0:0:
448,192,236003,1,0,0:0:0:0:
320,192,236003,1,0,0:0:0:0:
448,192,236142,1,0,0:0:0:0:
320,192,236142,1,0,0:0:0:0:
448,192,236282,1,0,0:0:0:0:
320,192,236282,1,0,0:0:0:0:
192,192,236421,1,0,0:0:0:0:
320,192,236491,1,0,0:0:0:0:
448,192,236561,1,0,0:0:0:0:
320,192,236700,1,0,0:0:0:0:
448,192,236700,1,0,0:0:0:0:
192,192,236840,128,0,237956:0:0:0:0:
320,192,236840,1,0,0:0:0:0:
448,192,236840,1,0,0:0:0:0:
64,192,236979,1,0,0:0:0:0:
320,192,237119,1,0,0:0:0:0:
448,192,237119,1,0,0:0:0:0:
320,192,237259,1,0,0:0:0:0:
64,192,237398,1,0,0:0:0:0:
448,192,237398,1,0,0:0:0:0:
448,192,237538,1,0,0:0:0:0:
320,192,237677,1,0,0:0:0:0:
64,192,237677,1,0,0:0:0:0:
448,192,237817,1,0,0:0:0:0:
320,192,237956,128,0,239073:0:0:0:0:
448,192,237956,1,0,0:0:0:0:
64,192,237956,1,0,0:0:0:0:
192,192,238096,1,0,0:0:0:0:
64,192,238235,1,0,0:0:0:0:
448,192,238235,1,0,0:0:0:0:
64,192,238375,1,0,0:0:0:0:
192,192,238514,1,0,0:0:0:0:
448,192,238514,1,0,0:0:0:0:
448,192,238654,1,0,0:0:0:0:
64,192,238793,1,0,0:0:0:0:
192,192,238863,1,0,0:0:0:0:
448,192,238933,1,0,0:0:0:0:
448,192,239073,128,0,240189:0:0:0:0:
192,192,239073,1,0,0:0:0:0:
64,192,239073,1,0,0:0:0:0:
320,192,239212,1,0,0:0:0:0:
192,192,239352,1,0,0:0:0:0:
64,192,239352,1,0,0:0:0:0:
192,192,239491,1,0,0:0:0:0:
64,192,239631,1,0,0:0:0:0:
320,192,239631,1,0,0:0:0:0:
64,192,239770,1,0,0:0:0:0:
192,192,239910,1,0,0:0:0:0:
320,192,239910,1,0,0:0:0:0:
64,192,240049,1,0,0:0:0:0:
320,192,240189,128,0,241305:0:0:0:0:
192,192,240189,1,0,0:0:0:0:
64,192,240189,1,0,0:0:0:0:
448,192,240328,1,0,0:0:0:0:
192,192,240468,1,0,0:0:0:0:
64,192,240468,1,0,0:0:0:0:
192,192,240607,1,0,0:0:0:0:
64,192,240747,1,0,0:0:0:0:
448,192,240747,1,0,0:0:0:0:
64,192,240886,1,0,0:0:0:0:
448,192,241026,1,0,0:0:0:0:
192,192,241096,1,0,0:0:0:0:
64,192,241166,1,0,0:0:0:0:
64,192,241305,128,0,242421:0:0:0:0:
192,192,241305,1,0,0:0:0:0:
448,192,241305,1,0,0:0:0:0:
320,192,241445,1,0,0:0:0:0:
192,192,241584,1,0,0:0:0:0:
448,192,241584,1,0,0:0:0:0:
192,192,241724,1,0,0:0:0:0:
320,192,241863,1,0,0:0:0:0:
448,192,241863,1,0,0:0:0:0:
448,192,242003,1,0,0:0:0:0:
320,192,242142,1,0,0:0:0:0:
192,192,242142,1,0,0:0:0:0:
448,192,242282,1,0,0:0:0:0:
192,192,242421,128,0,243538:0:0:0:0:
448,192,242421,1,0,0:0:0:0:
320,192,242421,1,0,0:0:0:0:
64,192,242561,1,0,0:0:0:0:
320,192,242700,1,0,0:0:0:0:
448,192,242700,1,0,0:0:0:0:
320,192,242840,1,0,0:0:0:0:
64,192,242979,1,0,0:0:0:0:
448,192,242979,1,0,0:0:0:0:
320,192,243119,1,0,0:0:0:0:
64,192,243259,1,0,0:0:0:0:
448,192,243259,1,0,0:0:0:0:
64,192,243398,1,0,0:0:0:0:
448,192,243398,1,0,0:0:0:0:
320,192,243538,128,0,244654:0:0:0:0:
448,192,243538,1,0,0:0:0:0:
64,192,243538,1,0,0:0:0:0:
192,192,243677,1,0,0:0:0:0:
64,192,243817,1,0,0:0:0:0:
448,192,243817,1,0,0:0:0:0:
64,192,243956,1,0,0:0:0:0:
192,192,244096,1,0,0:0:0:0:
448,192,244096,1,0,0:0:0:0:
192,192,244235,1,0,0:0:0:0:
64,192,244375,1,0,0:0:0:0:
448,192,244375,1,0,0:0:0:0:
192,192,244514,1,0,0:0:0:0:
448,192,244654,128,0,245770:0:0:0:0:
64,192,244654,1,0,0:0:0:0:
192,192,244654,1,0,0:0:0:0:
320,192,244793,1,0,0:0:0:0:
192,192,244933,1,0,0:0:0:0:
64,192,244933,1,0,0:0:0:0:
192,192,245073,1,0,0:0:0:0:
64,192,245212,1,0,0:0:0:0:
192,192,245282,1,0,0:0:0:0:
320,192,245352,1,0,0:0:0:0:
192,192,245491,1,0,0:0:0:0:
64,192,245491,1,0,0:0:0:0:
192,192,245631,1,0,0:0:0:0:
64,192,245631,1,0,0:0:0:0:
320,192,245770,128,0,246886:0:0:0:0:
64,192,245770,1,0,0:0:0:0:
192,192,245770,1,0,0:0:0:0:
448,192,245910,1,0,0:0:0:0:
192,192,246049,1,0,0:0:0:0:
64,192,246049,1,0,0:0:0:0:
192,192,246189,1,0,0:0:0:0:
64,192,246328,1,0,0:0:0:0:
448,192,246328,1,0,0:0:0:0:
448,192,246468,1,0,0:0:0:0:
192,192,246607,1,0,0:0:0:0:
64,192,246607,1,0,0:0:0:0:
448,192,246747,1,0,0:0:0:0:
64,192,246886,128,0,248003:0:0:0:0:
192,192,246886,1,0,0:0:0:0:
448,192,246886,1,0,0:0:0:0:
320,192,247026,1,0,0:0:0:0:
192,192,247166,1,0,0:0:0:0:
448,192,247166,1,0,0:0:0:0:
448,192,247305,1,0,0:0:0:0:
192,192,247445,1,0,0:0:0:0:
320,192,247445,1,0,0:0:0:0:
320,192,247584,1,0,0:0:0:0:
192,192,247863,1,0,0:0:0:0:
320,192,248003,128,0,249119:0:0:0:0:
192,192,248003,1,0,0:0:0:0:
448,192,248003,1,0,0:0:0:0:
64,192,248142,1,0,0:0:0:0:
192,192,248282,1,0,0:0:0:0:
448,192,248282,1,0,0:0:0:0:
192,192,248421,1,0,0:0:0:0:
64,192,248561,1,0,0:0:0:0:
448,192,248561,1,0,0:0:0:0:
448,192,248700,1,0,0:0:0:0:
64,192,248840,1,0,0:0:0:0:
192,192,248840,1,0,0:0:0:0:
448,192,248979,1,0,0:0:0:0:
448,192,249119,1,0,0:0:0:0:
64,192,249119,128,0,250235:0:0:0:0:
192,192,249119,1,0,0:0:0:0:
192,192,249259,1,0,0:0:0:0:
320,192,249259,1,0,0:0:0:0:
192,192,249398,1,0,0:0:0:0:
320,192,249398,1,0,0:0:0:0:
192,192,249538,1,0,0:0:0:0:
320,192,249538,1,0,0:0:0:0:
192,192,249677,1,0,0:0:0:0:
320,192,249677,1,0,0:0:0:0:
448,192,249817,1,0,0:0:0:0:
320,192,249886,1,0,0:0:0:0:
192,192,249956,1,0,0:0:0:0:
448,192,250026,1,0,0:0:0:0:
320,192,250096,1,0,0:0:0:0:
192,192,250166,1,0,0:0:0:0:
448,192,250235,1,0,0:0:0:0:
320,192,250235,128,0,251352:0:0:0:0:
64,192,250375,1,0,0:0:0:0:
448,192,250514,1,0,0:0:0:0:
192,192,250514,1,0,0:0:0:0:
192,192,250654,1,0,0:0:0:0:
64,192,250793,1,0,0:0:0:0:
448,192,250793,1,0,0:0:0:0:
448,192,250933,1,0,0:0:0:0:
192,192,251073,1,0,0:0:0:0:
64,192,251073,1,0,0:0:0:0:
448,192,251212,1,0,0:0:0:0:
192,192,251352,128,0,252468:0:0:0:0:
448,192,251352,1,0,0:0:0:0:
64,192,251352,1,0,0:0:0:0:
320,192,251491,1,0,0:0:0:0:
64,192,251631,1,0,0:0:0:0:
448,192,251631,1,0,0:0:0:0:
64,192,251770,1,0,0:0:0:0:
320,192,251910,1,0,0:0:0:0:
448,192,251910,1,0,0:0:0:0:
64,192,252049,1,0,0:0:0:0:
320,192,252189,1,0,0:0:0:0:
448,192,252189,1,0,0:0:0:0:
448,192,252328,1,0,0:0:0:0:
320,192,252328,1,0,0:0:0:0:
320,192,252468,128,0,253584:0:0:0:0:
64,192,252468,1,0,0:0:0:0:
448,192,252468,1,0,0:0:0:0:
192,192,252607,1,0,0:0:0:0:
64,192,252747,1,0,0:0:0:0:
448,192,252747,1,0,0:0:0:0:
448,192,252886,1,0,0:0:0:0:
192,192,253026,1,0,0:0:0:0:
64,192,253026,1,0,0:0:0:0:
64,192,253166,1,0,0:0:0:0:
192,192,253305,1,0,0:0:0:0:
448,192,253305,1,0,0:0:0:0:
64,192,253445,1,0,0:0:0:0:
448,192,253584,128,0,254700:0:0:0:0:
64,192,253584,1,0,0:0:0:0:
192,192,253584,1,0,0:0:0:0:
64,192,253724,1,0,0:0:0:0:
192,192,253724,1,0,0:0:0:0:
64,192,253863,1,0,0:0:0:0:
192,192,253863,1,0,0:0:0:0:
64,192,254003,1,0,0:0:0:0:
192,192,254003,1,0,0:0:0:0:
64,192,254142,1,0,0:0:0:0:
192,192,254142,1,0,0:0:0:0:
320,192,254282,1,0,0:0:0:0:
192,192,254352,1,0,0:0:0:0:
64,192,254421,1,0,0:0:0:0:
320,192,254561,1,0,0:0:0:0:
192,192,254561,1,0,0:0:0:0:
320,192,254700,1,0,0:0:0:0:
64,192,254700,128,0,255817:0:0:0:0:
192,192,254700,1,0,0:0:0:0:
448,192,254840,1,0,0:0:0:0:
320,192,254979,1,0,0:0:0:0:
192,192,254979,1,0,0:0:0:0:
192,192,255119,1,0,0:0:0:0:
448,192,255259,1,0,0:0:0:0:
320,192,255259,1,0,0:0:0:0:
320,192,255398,1,0,0:0:0:0:
448,192,255538,1,0,0:0:0:0:
192,192,255538,1,0,0:0:0:0:
320,192,255677,1,0,0:0:0:0:
320,192,255817,128,0,256933:0:0:0:0:
448,192,255817,1,0,0:0:0:0:
192,192,255817,1,0,0:0:0:0:
192,192,255956,1,0,0:0:0:0:
64,192,256096,1,0,0:0:0:0:
448,192,256096,1,0,0:0:0:0:
64,192,256235,1,0,0:0:0:0:
448,192,256375,1,0,0:0:0:0:
192,192,256375,1,0,0:0:0:0:
448,192,256514,1,0,0:0:0:0:
64,192,256654,1,0,0:0:0:0:
192,192,256724,1,0,0:0:0:0:
448,192,256793,1,0,0:0:0:0:
448,192,256933,128,0,258049:0:0:0:0:
64,192,256933,1,0,0:0:0:0:
192,192,256933,1,0,0:0:0:0:
320,192,257073,1,0,0:0:0:0:
64,192,257212,1,0,0:0:0:0:
192,192,257212,1,0,0:0:0:0:
192,192,257352,1,0,0:0:0:0:
64,192,257491,1,0,0:0:0:0:
320,192,257491,1,0,0:0:0:0:
320,192,257631,1,0,0:0:0:0:
192,192,257770,1,0,0:0:0:0:
64,192,257770,1,0,0:0:0:0:
320,192,257910,1,0,0:0:0:0:
64,192,258049,128,0,259166:0:0:0:0:
192,192,258049,1,0,0:0:0:0:
320,192,258049,1,0,0:0:0:0:
320,192,258189,1,0,0:0:0:0:
192,192,258328,1,0,0:0:0:0:
448,192,258328,1,0,0:0:0:0:
448,192,258468,1,0,0:0:0:0:
320,192,258607,1,0,0:0:0:0:
192,192,258607,1,0,0:0:0:0:
320,192,258747,1,0,0:0:0:0:
192,192,258747,1,0,0:0:0:0:
448,192,258886,1,0,0:0:0:0:
320,192,258956,1,0,0:0:0:0:
192,192,259026,1,0,0:0:0:0:
192,192,259166,128,0,260282:0:0:0:0:
448,192,259166,1,0,0:0:0:0:
320,192,259166,1,0,0:0:0:0:
320,192,260282,128,0,261398:0:0:0:0:
64,192,261398,128,0,262514:0:0:0:0:
448,192,262514,128,0,263631:0:0:0:0:
192,192,263631,128,0,264747:0:0:0:0:
320,192,264747,128,0,265863:0:0:0:0:
64,192,265863,128,0,266979:0:0:0:0:
192,192,266979,128,0,268096:0:0:0:0:
64,192,268096,1,4,0:0:0:0:
448,192,268096,1,4,0:0:0:0:
