osu file format v14

[General]
AudioFilename: audio-1.mp3
AudioLeadIn: 0
PreviewTime: 252031
Countdown: 1
SampleSet: Normal
StackLeniency: 0.2
Mode: 2
LetterboxInBreaks: 0
SkinPreference:Redd+Glass
WidescreenStoryboard: 1

[Editor]
Bookmarks: 1773,16634,23460,29174,40602,49174,49745,53745,54155,54317,57745,58888,67460,68031,69745,70317,72031,72602,76031,76245,76460,77174,79460,81745,86317,97174,97745,106888,116031,125174,134317,143460,152602,161745,165745,166317,170317,170888,172602,173174,174888,175460,178888,180031,181888,182317,184174,184602,186602,186888,188031,189174,197174,198317,206317,207460,215460,216602,219459,234888,244031,252031,253174,257744,261744,262317,270888,271172,271460,276031,280317,280602,285174,288599,289745
DistanceSpacing: 0.7
BeatDivisor: 16
GridSize: 32
TimelineZoom: 3.600004

[Metadata]
Title:FLASH 2000 TOUR Vol.2
TitleUnicode:FLASH 2000 TOUR Vol.2
Artist:Team Grimoire
ArtistUnicode:Team Grimoire
Creator:Dynamix braver
Version:Time Flashback vol. 2
Source:UNGLAND 4
Tags:UNGLAND Team Grimoire
BeatmapID:1702082
BeatmapSetID:809106

[Difficulty]
HPDrainRate:1.11
CircleSize:3.33
OverallDifficulty:4.44
ApproachRate:9.66
SliderMultiplier:2
SliderTickRate:1

[Events]
//Background and Video events
0,0,"black-wallpapers-25166-121698.jpg",0,0
//Break Periods
//Storyboard Layer 0 (Background)
//Storyboard Layer 1 (Fail)
//Storyboard Layer 2 (Pass)
//Storyboard Layer 3 (Foreground)
//Storyboard Sound Samples

[TimingPoints]
-540,285.714285714286,4,1,0,100,1,0
1487,-100,4,1,0,5,0,0
1750,-100,4,1,0,100,0,0
6317,-50,4,1,0,100,0,1
6602,-50,4,1,0,100,0,0
6745,-50,4,1,0,100,0,1
7031,-100,4,1,0,100,0,0
8206,-66.6666666666667,4,1,0,100,0,0
8706,-66.6666666666667,4,2,0,5,0,0
8849,-66.6666666666667,4,1,0,100,0,0
8992,-66.6666666666667,4,2,0,5,0,0
9134,-66.6666666666667,4,1,0,100,0,0
9277,-66.6666666666667,4,2,0,5,0,0
9420,-28.5714285714286,4,2,0,5,0,0
9640,-66.6666666666667,4,1,0,100,0,0
9849,-66.6666666666667,4,2,0,5,0,0
9992,-66.6666666666667,4,1,0,100,0,0
10134,-66.6666666666667,4,2,0,5,0,0
10277,-66.6666666666667,4,1,0,100,0,0
10420,-66.6666666666667,4,2,0,5,0,0
10563,-25,4,3,0,100,0,0
10706,-25,4,3,0,5,0,0
10849,-66.6666666666667,4,1,0,100,0,0
10992,-66.6666666666667,4,2,0,5,0,0
11134,-66.6666666666667,4,1,0,100,0,0
11277,-66.6666666666667,4,2,0,5,0,0
11420,-66.6666666666667,4,1,0,100,0,0
11563,-66.6666666666667,4,2,0,5,0,0
11706,-66.6666666666667,4,3,0,100,0,0
11992,-50,4,1,0,100,0,0
12134,-50,4,2,0,5,0,0
12277,-50,4,1,0,100,0,0
12420,-50,4,2,0,5,0,0
12563,-50,4,1,0,100,0,0
12706,-50,4,2,0,5,0,0
12849,-50,4,3,0,100,0,0
13134,-50,4,1,0,100,0,0
13277,-50,4,2,0,5,0,0
13420,-50,4,1,0,100,0,0
13563,-50,4,2,0,5,0,0
13706,-50,4,1,0,100,0,0
13849,-50,4,2,0,5,0,0
13992,-25,4,1,0,100,0,0
14277,-100,4,1,0,100,0,0
14531,-50,4,1,0,100,0,0
15134,-25,4,3,0,100,0,0
15420,-50,4,1,0,100,0,0
16277,-25,4,3,0,100,0,0
16563,-50,4,1,0,100,0,0
17420,-25,4,3,0,100,0,0
17706,-50,4,1,0,100,0,0
18563,-25,4,3,0,100,0,0
18849,-50,4,1,0,100,0,0
19706,-25,4,3,0,100,0,0
19992,-50,4,1,0,100,0,0
20849,-25,4,3,0,100,0,0
21134,-50,4,1,0,100,0,0
21992,-25,4,3,0,100,0,0
22277,-50,4,1,0,100,0,0
23134,-25,4,3,0,100,0,0
23420,-50,4,1,0,100,0,0
25602,-100,4,1,0,100,0,0
28531,-50,4,1,0,100,0,0
29174,-100,4,1,0,100,0,0
37031,-25,4,1,0,100,0,0
38317,-50,4,1,0,100,0,0
38602,-50,4,1,0,80,0,0
38888,-50,4,1,0,60,0,0
39174,-50,4,1,0,40,0,0
39460,-50,4,1,0,35,0,0
39745,-50,4,1,0,30,0,0
39960,-50,4,1,0,25,0,0
40031,-50,4,1,0,20,0,0
40102,-50,4,1,0,15,0,0
40174,-50,4,1,0,10,0,0
40245,-50,4,1,0,5,0,0
40460,-50,4,1,0,100,0,0
49102,-50,4,1,0,100,0,0
75960,-100,4,1,0,100,0,0
79477,-100,4,1,0,5,0,0
81750,-100,4,1,0,100,0,0
96531,-200,4,1,0,100,0,0
97174,-100,4,1,0,100,0,0
106888,-100,4,1,0,100,0,1
110817,-50,4,1,0,100,0,1
111460,-100,4,1,0,100,0,1
111960,-50,4,1,0,100,0,1
114174,-50,4,2,0,100,0,1
115317,-50,4,1,0,100,0,1
116031,-100,4,1,0,100,0,0
134013,-100,4,1,0,5,0,0
134031,-100,4,1,0,100,0,0
134299,-100,4,1,0,5,0,0
134317,-100,4,1,0,100,0,0
174817,-25,4,1,0,100,0,0
175460,-100,4,1,0,100,0,0
180031,-50,4,1,0,100,0,1
181888,-50,4,1,0,100,0,0
182317,-50,4,1,0,100,0,1
184174,-50,4,1,0,100,0,0
184602,-50,4,1,0,100,0,1
186602,-50,4,1,0,100,0,0
186888,-50,4,1,0,100,0,1
187960,-50,4,1,0,100,0,0
188031,-50,4,1,0,100,0,1
189102,-50,4,1,0,100,0,0
189174,-50,4,1,0,100,0,1
191174,-50,4,1,0,100,0,0
191460,-50,4,1,0,100,0,1
193460,-50,4,1,0,100,0,0
193745,-50,4,1,0,100,0,1
195745,-50,4,1,0,100,0,0
196031,-50,4,1,0,100,0,1
197102,-50,4,1,0,100,0,0
197174,-50,4,1,0,100,0,1
198245,-50,4,1,0,100,0,0
198317,-50,4,1,0,100,0,1
200317,-50,4,1,0,100,0,0
200602,-50,4,1,0,100,0,1
202602,-50,4,1,0,100,0,0
202888,-50,4,1,0,100,0,1
204888,-50,4,1,0,100,0,0
205174,-50,4,1,0,100,0,1
206245,-50,4,1,0,100,0,0
206317,-50,4,1,0,100,0,1
207388,-50,4,1,0,100,0,0
207460,-50,4,1,0,100,0,1
209460,-50,4,1,0,100,0,0
209745,-50,4,1,0,100,0,1
211745,-50,4,1,0,100,0,0
215460,-50,4,1,0,100,0,1
216602,571.428571428571,4,1,0,100,1,0
216602,-100,4,1,0,100,0,0
252030,285.714285714286,4,1,0,100,1,0
253174,-50,4,1,0,100,0,1
270888,-50,4,1,0,100,0,0
271460,-50,4,1,0,100,0,1
280317,-50,4,1,0,100,0,0
280602,-50,4,1,0,100,0,1
282317,-50,4,1,0,100,0,0
282888,-50,4,1,0,100,0,1
284888,-50,4,1,0,100,0,0
285172,142.857142857143,4,1,0,100,1,0
285174,-50,4,1,0,100,0,1
287174,-50,4,1,0,100,0,0
287457,71.4285714285714,4,1,0,100,1,0
288563,-100,4,1,0,100,0,1
288599,35.7142857142857,4,1,0,100,1,0
288599,-200,4,1,0,100,0,1
289152,-1000,4,1,0,100,0,1
289170,17.8571428571429,4,1,0,100,1,0
289744,571.428571428571,4,1,0,100,1,0
289745,-100,4,1,0,100,0,0
298315,-100,4,1,0,50,0,0
302886,-100,4,1,0,25,0,0
306315,-100,4,1,0,17,0,0
306922,-100,4,1,0,5,0,0

[HitObjects]
256,192,460,12,0,1674,0:0:0:0:
96,224,1745,6,0,P|192:128|192:128,1,100
160,288,2031,2,0,P|192:192|192:192,1,100
256,320,2317,2,0,P|224:224|224:224,1,100
352,288,2602,2,0,P|256:224|256:224,1,100
352,128,2891,5,0,0:0:0:0:
480,64,3034,1,0,0:0:0:0:
352,192,3173,1,0,0:0:0:0:
480,128,3316,1,0,0:0:0:0:
352,256,3459,1,0,0:0:0:0:
480,192,3602,1,0,0:0:0:0:
352,320,3745,1,0,0:0:0:0:
480,256,3887,1,0,0:0:0:0:
352,384,4030,5,0,0:0:0:0:
192,288,4173,1,0,0:0:0:0:
64,288,4316,1,0,0:0:0:0:
352,192,4459,1,0,0:0:0:0:
480,192,4602,1,0,0:0:0:0:
192,96,4745,1,0,0:0:0:0:
64,96,4887,1,0,0:0:0:0:
352,0,5030,1,0,0:0:0:0:
128,288,5177,6,0,P|256:256|256:256,1,100
384,192,5463,2,0,P|256:160|256:160,1,100
96,96,5749,2,0,P|224:64|224:64,1,100
480,96,6034,1,0,0:0:0:0:
288,64,6177,1,0,0:0:0:0:
0,160,6317,6,4,B|192:192|192:192|400:112|400:112,1,400
512,224,6745,6,4,B|320:192|320:192|112:272|112:272,1,400
0,192,7174,5,0,0:0:0:0:
208,96,7317,1,0,0:0:0:0:
0,256,7460,1,0,0:0:0:0:
240,192,7602,1,0,0:0:0:0:
0,320,7745,1,0,0:0:0:0:
272,288,7888,1,0,0:0:0:0:
0,384,8031,1,0,0:0:0:0:
304,384,8174,1,0,0:0:0:0:
480,352,8317,6,0,P|288:352|288:352,1,150.000005722046
480,288,8602,2,0,P|294:238|294:238,1,150.000005722046
480,224,8888,2,0,P|313:127|313:127,1,150.000005722046
480,160,9174,2,0,P|344:24|344:24,1,150.000005722046
480,96,9460,2,0,P|128:96|128:96,1,350.00000333786
0,128,9745,6,0,B|64:192|64:192|128:224|128:224,1,150.000005722046
0,196,10031,2,0,B|70:241|70:241|140:256|140:256,1,150.000005722046
2,264,10317,2,0,B|89:288|89:288|161:283|161:283,1,150.000005722046
0,352,10602,2,4,P|448:352|448:352,1,400
464,288,10888,6,0,B|400:224|288:176,1,150.000005722046
368,350,11174,2,0,B|367:259|322:146,1,150.000005722046
256,324,11460,2,0,B|320:260|368:148,1,150.000005722046
342,202,11745,2,0,B|285:227|194:227,1,150.000005722046
64,80,12031,6,0,B|16:144|32:224|96:256,1,200
156,87,12317,2,0,B|82:118|56:195|95:255,1,200
232,140,12602,2,0,B|152:130|91:184|95:255,1,200
232,140,12888,2,0,B|222:219|276:280|347:276,1,200
0,176,13174,6,0,B|128:144|128:144|208:192|208:192,1,200
0,176,13460,2,0,B|94:84|94:84|144:144|144:144,1,200
0,176,13745,2,0,B|36:49|36:49|67:122|67:122,1,200
0,176,14031,2,8,P|416:128|416:128,1,400
148,219,14317,6,8,P|294:191|294:191,1,100
86,320,14602,2,8,P|254:195|254:195,1,200
168,384,14888,2,8,P|251:191|251:191,1,200
416,384,15174,2,8,P|31:217|31:217,1,400
416,336,15460,2,8,P|223:252|223:252,1,200
416,336,15745,2,8,P|338:141|338:141,1,200
416,336,16031,2,8,P|499:143|499:143,1,200
416,384,16317,2,8,P|261:-5|261:-5,1,400
495,152,16602,6,8,P|304:272|304:272,1,200
464,315,16888,2,8,P|241:284|241:284,1,200
336,420,17174,2,8,P|185:253|185:253,1,200
170,418,17460,2,8,B|154:-7|154:-7|154:-7,1,400
208,192,17745,2,8,P|256:96|368:64,1,200
208,192,18031,2,8,P|297:132|410:161,1,200
31,144,18317,2,8,P|138:137|221:218,1,200
31,144,18602,2,8,P|416:32|416:32,1,400
31,144,18888,6,8,B|218:279|217:280,1,200
62,317,19174,2,8,B|290:280|290:281,1,200
208,417,19460,2,8,B|343:230|344:231,1,200
319,122,19745,2,0,P|262:312|124:176,1,400
319,122,20031,2,8,P|414:150|346:219,1,200
474,154,20317,2,8,P|445:249|376:181,1,200
441,309,20602,2,8,P|346:280|414:211,1,200
379,214,20888,2,0,B|175:192|175:192|176:-8|176:-8,1,400
176,192,21174,6,8,P|208:304|304:336,1,200
176,192,21460,2,8,P|259:272|358:252,1,200
176,192,21745,2,8,P|288:220|364:153,1,200
476,12,22031,2,0,B|456:24|456:24|476:12|476:12|156:204,1,400
176,192,22317,2,0,P|288:208|352:288,1,200
176,192,22602,2,0,P|280:149|376:187,1,200
176,192,22888,2,0,P|245:103|347:87,1,200
176,192,23174,2,0,B|336:72|336:72|176:192|176:192,1,400
176,192,23460,5,0,0:0:0:0:
336,192,23602,1,0,0:0:0:0:
128,192,23745,1,0,0:0:0:0:
368,192,23888,1,0,0:0:0:0:
80,192,24031,2,0,P|208:192|208:192,1,100
432,192,24174,2,0,P|304:192|304:192,1,100
256,192,24317,1,4,0:0:0:0:
256,192,24602,5,0,0:0:0:0:
160,128,24745,1,0,0:0:0:0:
64,64,24888,1,0,0:0:0:0:
256,192,25174,1,0,0:0:0:0:
352,256,25317,1,0,0:0:0:0:
448,320,25460,1,0,0:0:0:0:
256,192,25745,2,0,P|384:192|384:192,1,100
448,192,26031,1,0,0:0:0:0:
256,128,26317,2,0,P|128:128|128:128,1,100
64,128,26602,1,0,0:0:0:0:
192,256,26888,6,0,P|416:256|416:256,1,200
288,256,27031,1,0,0:0:0:0:
416,192,27460,2,0,P|416:96|512:64,1,200
416,96,27602,1,0,0:0:0:0:
96,192,28031,2,0,P|96:288|0:320,1,200
96,288,28173,1,0,0:0:0:0:
64,192,28602,6,2,P|480:192|480:192,1,400
256,192,28745,5,2,0:0:0:0:
64,192,29174,5,0,0:0:0:0:
160,192,29317,1,0,0:0:0:0:
64,96,29460,1,0,0:0:0:0:
448,192,29745,1,0,0:0:0:0:
352,192,29888,1,0,0:0:0:0:
448,96,30031,1,0,0:0:0:0:
192,192,30317,5,0,0:0:0:0:
96,192,30460,1,0,0:0:0:0:
48,276,30602,1,0,0:0:0:0:
448,192,30888,1,0,0:0:0:0:
352,192,31031,1,0,0:0:0:0:
304,108,31173,1,0,0:0:0:0:
64,192,31460,6,0,P|68:176|68:176,1,12.5
160,192,31602,2,0,P|164:176|164:176,1,12.5
256,192,31745,2,0,P|260:176|260:176,1,12.5
448,256,32031,2,0,P|444:240|444:240,1,12.5
352,256,32173,2,0,P|348:240|348:240,1,12.5
256,256,32316,2,0,P|252:240|252:240,1,12.5
32,32,32602,6,0,P|47:27|47:27,1,12.5
80,115,32744,2,0,P|95:110|95:110,1,12.5
128,198,32887,2,0,P|143:193|143:193,1,12.5
480,352,33174,2,0,P|464:356|464:356,1,12.5
432,269,33316,2,0,P|416:273|416:273,1,12.5
384,186,33459,2,0,P|368:190|368:190,1,12.5
192,192,33745,6,0,P|196:207|196:207,1,12.5
109,240,33887,2,0,P|113:255|113:255,1,12.5
26,288,34030,2,0,P|30:303|30:303,1,12.5
320,192,34317,2,0,P|315:176|315:176,1,12.5
403,144,34459,2,0,P|398:128|398:128,1,12.5
486,96,34602,2,0,P|481:80|481:80,1,12.5
32,192,34888,6,0,B|160:160|160:160|256:160|256:160,1,200
160,224,35031,1,0,0:0:0:0:
512,224,35460,2,0,B|416:288|416:288|320:224|320:224,1,200
416,192,35602,1,0,0:0:0:0:
256,192,36031,5,0,0:0:0:0:
256,192,36174,1,0,0:0:0:0:
224,192,36317,1,0,0:0:0:0:
288,192,36460,1,0,0:0:0:0:
192,192,36602,5,0,0:0:0:0:
320,192,36745,1,0,0:0:0:0:
160,192,36888,1,0,0:0:0:0:
352,192,37031,1,0,0:0:0:0:
128,256,37174,6,0,P|192:64|192:64,1,200
384,256,37317,2,0,P|320:64|320:64,1,200
64,224,37460,6,0,P|224:96|224:96,1,200
448,224,37603,2,0,P|288:96|288:96,1,200
32,160,37745,6,0,P|256:160|256:160,1,200
480,160,37888,2,0,P|256:160|256:160,1,200
0,96,38031,6,0,P|192:160|192:160,1,200
512,96,38174,2,0,P|320:160|320:160,1,200
256,192,38317,5,4,0:0:0:0:
256,192,38388,12,0,40460,0:0:0:0:
96,128,40602,6,0,P|288:0|288:0,1,200
96,192,40888,2,0,P|288:64|288:64,1,200
96,256,41174,2,0,P|288:128|288:128,1,200
96,320,41460,2,0,P|288:192|288:192,1,200
480,0,41745,6,0,B|448:96|448:96|352:160|352:160,1,200
480,64,42031,2,0,B|448:160|448:160|352:224|352:224,1,200
480,128,42317,2,0,B|448:224|448:224|352:288|352:288,1,200
480,192,42602,2,0,B|448:288|448:288|352:352|352:352,1,200
256,352,42817,1,0,0:0:0:0:
128,352,42888,6,0,P|0:288|64:224,1,200
128,288,43174,2,0,P|0:224|64:160,1,200
128,224,43460,2,0,P|0:160|64:96,1,200
128,160,43745,2,0,P|0:96|64:32,1,200
256,64,44031,6,0,P|286:266|286:266,1,200
256,64,44317,2,0,P|384:224|384:224,1,200
256,64,44602,2,0,P|446:138|446:138,1,200
256,64,44888,2,0,P|458:33|458:33,1,200
356,50,45102,1,0,0:0:0:0:
256,64,45174,6,0,P|32:96|32:96,1,200
256,320,45460,2,0,P|480:288|480:288,1,200
128,192,45745,2,0,P|160:416|160:416,1,200
384,192,46031,2,0,P|352:-32|352:-32,1,200
128,192,46317,6,0,B|32:256|32:256|128:256|128:256,1,200
384,192,46602,2,0,B|480:128|480:128|384:128|384:128,1,200
256,320,46888,2,0,B|320:416|320:416|320:320|320:320,1,200
256,64,47174,2,0,B|192:-32|192:-32|192:64|192:64,1,200
215,184,47388,1,0,0:0:0:0:
256,320,47460,6,0,B|352:352|352:352|384:256|384:256,1,200
256,64,47745,2,0,B|160:32|160:32|128:128|128:128,1,200
384,192,48031,2,0,B|416:96|416:96|320:64|320:64,1,200
128,192,48317,2,0,B|96:288|96:288|192:320|192:320,1,200
512,192,48602,6,0,P|288:192|288:192,1,200
0,192,48888,2,0,P|224:192|224:192,1,200
480,192,49174,6,2,P|504:172|504:172,14,25
256,192,49460,5,4,0:0:0:0:
32,192,49477,6,2,P|12:176|12:176,12,25
480,192,49745,6,0,P|256:192|256:192,1,200
0,192,50031,2,0,P|224:192|224:192,1,200
288,128,50317,2,0,P|416:96|448:32,1,200
224,256,50602,2,0,P|96:288|64:352,1,200
320,224,50888,6,0,P|512:320|512:320,1,200
192,224,51174,2,0,P|0:320|0:320,1,200
192,128,51460,2,0,P|384:32|384:32,1,200
320,128,51745,2,0,P|128:32|128:32,1,200
160,160,51960,1,0,0:0:0:0:
192,256,52031,6,0,P|416:192|416:192,1,200
320,256,52317,2,0,P|256:32|256:32,1,200
320,128,52602,2,0,P|96:192|96:192,1,200
192,128,52888,2,0,P|256:352|256:352,1,200
448,320,53174,6,0,P|512:96|512:96,1,200
64,320,53460,2,0,P|0:96|0:96,1,200
416,224,53745,6,0,P|424:196|424:196,5,25
128,224,53888,6,0,P|136:196|136:196,5,25
480,192,54031,6,2,P|504:172|504:172,5,25
32,192,54174,6,2,P|12:176|12:176,5,25
288,64,54317,2,0,P|512:64|512:64,1,200
224,160,54602,2,0,P|0:160|0:160,1,200
288,256,54888,2,0,P|512:256|512:256,1,200
224,320,55174,2,0,P|0:320|0:320,1,200
288,320,55460,6,0,P|448:160|448:160,1,200
224,320,55745,2,0,P|64:160|64:160,1,200
161,283,56031,2,0,P|379:342|379:342,1,200
350,283,56317,2,0,P|132:342|132:342,1,200
96,224,56531,1,0,0:0:0:0:
32,128,56602,6,0,B|96:32|192:32|192:32,1,200
480,128,56888,2,0,B|416:32|320:32|320:32,1,200
192,416,57174,2,0,B|96:352|96:256|96:256,1,200
320,416,57460,2,0,B|416:352|416:256|416:256,1,200
320,192,57745,6,0,P|448:192|448:192,1,100
192,192,57888,2,0,P|64:192|64:192,1,100
384,128,58031,6,0,P|512:128|512:128,1,100
128,128,58174,2,0,P|0:128|0:128,1,100
320,284,58317,6,8,P|320:256|320:256,5,25
192,284,58460,6,8,P|192:256|192:256,5,25
408,192,58602,6,8,P|408:164|408:164,5,25
104,192,58745,6,8,P|104:164|104:164,5,25
512,192,58888,6,0,P|288:192|288:192,1,200
0,192,59174,2,0,P|224:192|224:192,1,200
448,128,59460,2,0,P|256:64|256:64,1,200
64,128,59745,2,0,P|256:64|256:64,1,200
256,224,60031,6,0,P|192:320|96:352,1,200
256,224,60317,2,0,P|320:320|416:352,1,200
32,288,60602,2,0,P|160:96|160:96,1,200
480,288,60888,2,0,P|352:96|352:96,1,200
480,192,61174,6,0,P|256:192|256:192,1,200
32,192,61460,2,0,P|256:192|256:192,1,200
352,192,61745,2,0,P|160:64|160:64,1,200
160,192,62031,2,0,P|352:64|352:64,1,200
480,320,62317,5,0,0:0:0:0:
352,288,62460,1,0,0:0:0:0:
448,224,62602,1,0,0:0:0:0:
320,192,62745,1,0,0:0:0:0:
0,256,62888,5,0,0:0:0:0:
192,192,63031,1,0,0:0:0:0:
32,160,63173,1,0,0:0:0:0:
224,96,63316,1,0,0:0:0:0:
480,288,63460,6,0,P|256:256|256:256,1,200
480,224,63745,1,0,0:0:0:0:
288,192,63888,1,0,0:0:0:0:
0,192,64031,6,0,P|160:320|160:320,1,200
0,96,64317,1,0,0:0:0:0:
160,224,64460,1,0,0:0:0:0:
352,320,64602,5,0,0:0:0:0:
448,224,64745,1,0,0:0:0:0:
352,128,64888,1,0,0:0:0:0:
256,224,65031,1,0,0:0:0:0:
128,128,65174,5,0,0:0:0:0:
32,32,65317,1,0,0:0:0:0:
128,128,65460,1,0,0:0:0:0:
224,224,65602,1,0,0:0:0:0:
352,224,65745,6,0,P|576:224|576:224,2,200
224,224,66174,1,0,0:0:0:0:
160,224,66317,6,0,P|-64:224|-64:224,2,200
288,224,66746,1,0,0:0:0:0:
416,224,66888,2,0,P|480:32|480:32,1,200
410,139,67174,2,0,P|369:-58|369:-58,1,200
192,192,67460,6,0,P|192:168|192:168,15,25
316,192,67745,2,0,P|316:168|316:168,15,25
256,192,68031,6,0,P|48:192|48:192,1,200
256,192,68317,2,0,P|75:88|75:88,1,200
256,192,68602,2,0,P|152:11|152:11,1,200
256,192,68888,2,0,P|256:-16|256:-16,1,200
256,192,69174,6,0,P|464:192|464:192,1,200
256,192,69460,2,0,P|436:88|436:88,1,200
160,192,69745,6,0,P|128:160|128:160,14,25
352,192,70031,2,0,P|384:160|384:160,14,25
32,96,70317,5,0,0:0:0:0:
160,64,70460,1,0,0:0:0:0:
80,160,70602,1,0,0:0:0:0:
208,128,70745,1,0,0:0:0:0:
128,224,70888,1,0,0:0:0:0:
256,192,71031,1,0,0:0:0:0:
384,160,71174,1,0,0:0:0:0:
256,192,71317,1,0,0:0:0:0:
128,224,71460,6,0,P|32:48|32:48,1,200
384,224,71745,2,0,P|480:48|480:48,1,200
128,224,72031,6,0,P|128:192|128:192,5,25
384,224,72174,2,0,P|384:192|384:192,5,25
256,192,72317,6,0,P|256:160|256:160,14,25
0,192,72602,6,0,P|208:192|208:192,1,200
412,46,72888,2,0,P|232:150|232:150,1,200
96,96,73174,2,0,P|304:96|304:96,1,200
512,128,73460,2,0,P|331:232|331:232,1,200
0,192,73745,6,0,P|208:192|208:192,1,200
288,96,74031,2,0,P|496:96|496:96,1,200
0,288,74317,2,0,P|208:288|208:288,1,200
288,224,74603,2,0,P|496:224|496:224,1,200
0,192,74888,5,0,0:0:0:0:
256,192,75031,1,0,0:0:0:0:
512,192,75174,1,0,0:0:0:0:
256,192,75317,1,0,0:0:0:0:
0,192,75460,2,0,P|208:192|208:192,1,200
512,192,75745,2,0,P|304:192|304:192,1,200
224,192,76031,6,2,P|64:192|64:192,2,150
368,192,76602,6,0,P|480:192|480:192,1,100
144,192,76888,2,0,P|32:192|32:192,1,100
256,192,77174,5,4,0:0:0:0:
256,192,77192,12,4,79460,0:0:0:0:
256,192,79477,12,0,81727,0:0:0:0:
192,160,81745,5,0,0:0:0:0:
256,160,81960,2,0,P|320:160|320:160,2,50
160,224,82317,5,0,0:0:0:0:
320,224,82532,2,0,P|256:224|256:224,2,50
128,288,82888,5,0,0:0:0:0:
352,288,83103,2,0,P|416:288|416:288,2,50
480,288,83460,1,0,0:0:0:0:
128,288,83745,1,4,0:0:0:0:
320,160,84031,5,0,0:0:0:0:
256,160,84246,2,0,P|160:160|160:160,2,50
352,224,84603,5,0,0:0:0:0:
224,224,84818,2,0,P|288:224|288:224,2,50
384,288,85174,5,0,0:0:0:0:
192,288,85389,2,0,P|128:288|128:288,2,50
32,288,85746,1,0,0:0:0:0:
384,288,86031,1,4,0:0:0:0:
256,128,86317,5,0,0:0:0:0:
128,128,86460,1,0,0:0:0:0:
256,128,86602,1,0,0:0:0:0:
384,128,86745,1,0,0:0:0:0:
128,128,86888,5,0,0:0:0:0:
256,128,87031,1,0,0:0:0:0:
384,128,87174,1,0,0:0:0:0:
128,128,87460,2,0,P|0:128|0:128,1,100
384,128,87745,2,0,P|512:128|512:128,1,100
256,128,88031,5,4,0:0:0:0:
256,288,88317,1,0,0:0:0:0:
32,192,88602,6,0,P|160:192|160:192,1,100
480,192,88888,2,0,P|352:192|352:192,1,100
192,256,89174,2,0,P|128:160|128:160,1,100
288,256,89460,2,0,P|352:160|352:160,1,100
96,192,89745,1,0,0:0:0:0:
416,192,89888,1,0,0:0:0:0:
0,128,90031,1,0,0:0:0:0:
512,128,90174,1,0,0:0:0:0:
160,96,90317,1,0,0:0:0:0:
352,96,90460,1,0,0:0:0:0:
256,96,90602,5,14,0:0:0:0:
160,160,90888,6,0,P|32:160|32:160,1,100
352,160,91174,2,0,P|480:160|480:160,1,100
160,224,91460,2,0,P|224:96|224:96,1,100
352,224,91745,2,0,P|288:96|288:96,1,100
160,224,92031,1,0,0:0:0:0:
352,224,92174,1,0,0:0:0:0:
64,128,92317,1,0,0:0:0:0:
448,128,92460,1,0,0:0:0:0:
256,64,92602,5,4,0:0:0:0:
256,320,92888,1,0,0:0:0:0:
0,192,93174,6,0,P|128:192|128:192,1,100
512,192,93602,1,0,0:0:0:0:
384,192,93744,1,0,0:0:0:0:
512,192,93887,1,0,0:0:0:0:
0,192,94317,6,0,P|128:192|128:192,1,100
512,192,94745,1,0,0:0:0:0:
256,192,94887,1,0,0:0:0:0:
512,192,95030,1,0,0:0:0:0:
160,192,95460,6,0,P|32:192|32:192,1,100
320,192,95745,2,0,P|448:192|448:192,1,100
0,96,96031,2,0,P|96:160|96:160,1,100
512,96,96317,2,0,P|416:160|416:160,1,100
256,288,96602,6,0,L|256:92,1,175
128,192,97174,6,0,P|192:192|192:192,1,50
384,192,97317,2,0,P|320:192|320:192,1,50
0,160,97460,2,0,P|64:96|64:96,1,50
512,160,97602,2,0,P|448:96|448:96,1,50
192,128,97745,6,0,P|64:128|64:128,1,100
320,128,98031,2,0,P|448:128|448:128,1,100
96,224,98317,2,0,P|224:224|224:224,1,100
416,224,98602,2,0,P|288:224|288:224,1,100
96,192,98888,1,0,0:0:0:0:
416,192,99031,1,0,0:0:0:0:
96,192,99174,1,0,0:0:0:0:
416,192,99317,1,0,0:0:0:0:
256,192,99745,5,14,0:0:0:0:
224,128,100031,6,0,P|0:128|0:128,1,200
256,128,100460,1,0,0:0:0:0:
288,128,100602,2,0,P|512:128|512:128,1,200
256,128,101031,1,0,0:0:0:0:
64,64,101174,2,0,P|96:160|96:160,1,100
448,64,101460,2,0,P|416:160|416:160,1,100
416,256,101745,2,0,P|512:224|512:224,1,100
96,256,102031,2,0,P|0:224|0:224,1,100
0,160,102317,6,0,P|224:160|224:160,1,200
0,160,102745,1,0,0:0:0:0:
512,160,102888,2,0,P|288:160|288:160,1,200
512,160,103316,1,0,0:0:0:0:
0,160,103460,6,0,P|128:160|128:160,1,100
512,160,103745,2,0,P|384:160|384:160,1,100
0,160,104031,1,0,0:0:0:0:
512,160,104317,2,0,B|512:0|512:0|448:0|448:0,1,200
0,192,104888,5,0,0:0:0:0:
512,192,105174,1,0,0:0:0:0:
0,192,105460,1,0,0:0:0:0:
512,192,105745,1,0,0:0:0:0:
192,192,106031,6,0,P|128:192|128:192,1,50
320,192,106174,2,0,P|384:192|384:192,1,50
96,96,106317,2,0,P|160:96|160:96,1,50
416,96,106460,2,0,P|352:96|352:96,1,50
64,256,106602,6,0,P|32:192|32:192,1,50
448,256,106745,2,0,P|480:192|480:192,1,50
256,352,106888,2,0,P|256:0|256:0,1,350
192,320,107460,6,0,P|128:288|128:288,1,50
320,320,107602,2,0,P|384:288|384:288,1,50
160,224,107745,2,0,P|96:224|96:224,1,50
352,224,107888,2,0,P|416:224|416:224,1,50
32,128,108031,2,0,P|0:192|0:192,1,50
480,128,108174,2,0,P|512:192|512:192,1,50
160,128,108602,2,0,P|384:128|384:128,1,200
96,192,109174,6,0,P|448:192|448:192,1,350
0,128,109746,6,0,P|32:64|32:64,1,50
480,256,109888,2,0,P|512:320|512:320,1,50
256,96,110031,2,0,P|256:32|256:32,1,50
256,256,110174,2,0,P|256:320|256:320,1,50
512,32,110317,2,0,P|448:0|448:0,1,50
64,256,110460,2,0,P|0:288|0:288,1,50
64,192,110888,2,0,P|480:192|480:192,2,400
64,192,111460,6,0,P|416:128|416:128,1,350
0,32,112031,2,0,P|128:32|128:32,1,100
160,64,112174,2,0,P|288:64|288:64,1,100
320,96,112317,2,0,P|448:96|448:96,1,100
512,192,112460,2,0,P|384:192|384:192,1,100
352,224,112602,2,0,P|224:224|224:224,1,100
192,256,112745,2,0,P|64:256|64:256,1,100
256,352,113174,2,0,B|448:288|448:32,2,400
256,352,113745,6,0,B|256:0|256:0|256:224|256:224,1,500
192,288,114174,6,14,P|192:160|192:160,1,100
320,288,114317,6,14,P|320:160|320:160,1,100
160,256,114460,6,14,P|96:160|96:160,1,100
352,256,114602,6,14,P|416:160|416:160,1,100
128,224,114745,6,14,P|32:192|32:192,1,100
384,224,114888,6,14,P|480:192|480:192,1,100
96,192,115031,6,14,P|-32:192|-32:192,1,100
416,192,115174,6,14,P|544:192|544:192,1,100
256,192,115317,5,14,0:0:0:0:
96,160,115460,6,0,P|72:160|72:160,1,25
416,160,115602,2,0,P|440:160|440:160,1,25
96,160,115745,2,0,P|72:160|72:160,1,25
416,160,115888,2,0,P|440:160|440:160,1,25
256,192,116031,6,0,P|480:192|480:192,1,200
256,192,116460,1,0,0:0:0:0:
256,192,116602,2,0,P|32:192|32:192,1,200
256,192,117031,1,0,0:0:0:0:
384,192,117174,2,0,P|416:96|416:96,1,100
128,192,117460,2,0,P|96:96|96:96,1,100
512,192,117745,2,0,P|384:192|384:192,1,100
0,192,118031,2,0,P|128:192|128:192,1,100
128,32,118317,6,0,P|160:256|160:256,1,200
256,32,118745,1,0,0:0:0:0:
384,32,118888,2,0,P|352:256|352:256,1,200
256,32,119316,1,0,0:0:0:0:
160,128,119460,2,0,P|32:128|32:128,1,100
352,128,119745,2,0,P|480:128|480:128,1,100
0,192,120031,2,0,P|64:288|64:288,1,100
512,192,120317,2,0,P|448:288|448:288,1,100
0,192,120602,6,0,P|128:192|128:192,1,100
256,192,120888,1,0,0:0:0:0:
512,192,121174,6,0,P|384:192|384:192,1,100
256,192,121460,1,0,0:0:0:0:
0,96,121745,6,0,P|64:192|64:192,1,100
256,192,122031,1,0,0:0:0:0:
512,96,122317,6,0,P|448:192|448:192,1,100
256,192,122603,1,0,0:0:0:0:
192,192,122888,5,0,0:0:0:0:
320,192,123031,1,0,0:0:0:0:
192,192,123174,1,0,0:0:0:0:
320,192,123317,1,0,0:0:0:0:
128,192,123460,5,0,0:0:0:0:
384,192,123602,1,0,0:0:0:0:
128,192,123745,1,0,0:0:0:0:
384,192,123888,1,0,0:0:0:0:
256,192,124031,6,0,P|192:192|192:192,1,50
160,192,124174,2,0,P|96:192|96:192,1,50
256,192,124317,6,0,P|320:192|320:192,1,50
352,192,124460,2,0,P|416:192|416:192,1,50
256,192,124602,6,0,P|192:192|192:192,1,50
0,192,124745,2,0,P|64:192|64:192,1,50
256,192,124888,6,0,P|320:192|320:192,1,50
512,192,125031,2,0,P|448:192|448:192,1,50
256,192,125174,6,0,P|160:192|160:192,2,50
320,128,125460,2,0,P|384:128|384:128,2,50
192,192,125745,2,0,P|96:192|96:192,2,50
320,128,126031,2,0,P|384:128|384:128,2,50
128,192,126317,2,0,P|32:192|32:192,2,50
320,128,126603,2,0,P|384:128|384:128,2,50
64,192,126888,2,0,P|0:192|0:192,2,50
320,128,127174,2,0,P|384:128|384:128,2,50
64,96,127460,6,0,P|0:32|0:32,2,50
256,96,127745,2,0,P|320:32|320:32,2,50
160,96,128031,2,0,P|96:32|96:32,2,50
352,96,128316,2,0,P|416:32|416:32,2,50
256,96,128602,2,0,P|192:32|192:32,2,50
448,96,128888,2,0,P|512:32|512:32,2,50
64,100,129174,1,8,0:0:0:0:
64,64,129174,2,0,P|0:0|0:0,2,50
448,100,129460,1,8,0:0:0:0:
448,64,129460,2,0,P|512:0|512:0,2,50
32,192,129745,5,0,0:0:0:0:
160,192,129888,1,0,0:0:0:0:
32,256,130031,1,0,0:0:0:0:
160,256,130174,1,0,0:0:0:0:
32,320,130317,1,0,0:0:0:0:
160,320,130460,1,0,0:0:0:0:
32,384,130602,1,0,0:0:0:0:
160,384,130745,1,0,0:0:0:0:
480,224,130888,5,0,0:0:0:0:
416,320,131031,1,0,0:0:0:0:
384,224,131174,5,0,0:0:0:0:
512,320,131317,1,0,0:0:0:0:
416,128,131460,5,0,0:0:0:0:
288,224,131602,1,0,0:0:0:0:
320,128,131745,5,0,0:0:0:0:
384,224,131888,1,0,0:0:0:0:
128,128,132031,5,0,0:0:0:0:
256,128,132174,1,0,0:0:0:0:
384,128,132317,5,0,0:0:0:0:
256,128,132460,1,0,0:0:0:0:
0,0,132602,5,0,0:0:0:0:
192,192,132745,1,0,0:0:0:0:
512,0,132888,5,0,0:0:0:0:
320,192,133031,1,0,0:0:0:0:
0,192,133174,5,0,0:0:0:0:
512,192,133317,1,0,0:0:0:0:
0,192,133460,5,0,0:0:0:0:
512,192,133602,1,0,0:0:0:0:
0,192,133745,6,0,P|192:192|192:192,1,187.5
512,192,134031,2,0,P|320:192|320:192,1,187.5
0,64,134317,6,0,P|24:64|24:64,1,25
128,64,134460,2,0,P|96:64|96:64,1,25
0,128,134602,2,0,P|24:128|24:128,1,25
128,128,134745,2,0,P|96:128|96:128,1,25
0,192,134888,2,2,P|24:192|24:192,1,25
128,192,135031,2,0,P|96:192|96:192,1,25
0,256,135174,2,2,P|24:256|24:256,1,25
128,256,135317,2,0,P|160:256|160:256,1,25
256,64,135460,6,0,P|232:64|232:64,1,25
128,64,135602,2,0,P|160:64|160:64,1,25
256,128,135745,2,0,P|232:128|232:128,1,25
128,128,135888,2,0,P|160:128|160:128,1,25
256,192,136031,2,2,P|232:192|232:192,1,25
128,192,136174,2,0,P|160:192|160:192,1,25
256,256,136317,2,2,P|232:256|232:256,1,25
128,256,136460,2,0,P|160:256|160:256,1,25
256,64,136602,6,0,P|280:64|280:64,1,25
384,64,136745,2,0,P|352:64|352:64,1,25
256,128,136887,2,0,P|280:128|280:128,1,25
384,128,137031,2,0,P|352:128|352:128,1,25
256,192,137173,2,2,P|280:192|280:192,1,25
384,192,137317,2,0,P|352:192|352:192,1,25
256,256,137459,2,2,P|280:256|280:256,1,25
384,256,137602,2,0,P|416:256|416:256,1,25
512,64,137745,6,0,P|488:64|488:64,1,25
384,64,137888,2,0,P|416:64|416:64,1,25
512,128,138031,2,0,P|488:128|488:128,1,25
384,128,138174,2,0,P|416:128|416:128,1,25
512,192,138317,2,2,P|488:192|488:192,1,25
384,192,138460,2,0,L|416:192|416:192,1,25
512,256,138602,2,2,P|488:256|488:256,1,25
384,256,138745,2,0,L|352:256|352:256,1,25
0,192,138888,6,0,P|24:192|24:192,1,25
192,192,139031,2,0,L|160:192,1,25
0,256,139174,2,0,P|24:256|24:256,1,25
192,256,139317,2,0,L|224:256,1,25
512,192,139460,2,2,P|488:192|488:192,1,25
352,192,139602,2,0,L|384:192,1,25
512,256,139745,2,2,P|488:256|488:256,1,25
320,256,139888,2,0,L|288:256,1,25
0,192,140031,6,0,P|32:192|32:192,1,25
320,192,140174,2,0,L|352:192,1,25
512,192,140317,2,0,P|480:192|480:192,1,25
192,192,140460,2,0,L|160:192,1,25
0,192,140602,2,2,P|32:192|32:192,1,25
320,192,140745,2,0,L|352:192,1,25
512,192,140888,2,2,P|480:192|480:192,1,25
192,192,141031,2,0,L|160:192,1,25
0,192,141174,6,0,P|32:192|32:192,1,25
384,192,141317,2,0,L|352:192,1,25
0,192,141460,2,0,P|32:192|32:192,1,25
384,192,141602,2,0,L|416:192|416:192,1,25
512,192,141745,2,2,P|480:192|480:192,1,25
96,192,141888,2,0,L|128:192,1,25
512,192,142031,2,2,P|480:192|480:192,1,25
96,192,142174,2,0,L|128:192|128:192,1,25
256,192,142317,12,0,143460,0:0:0:0:
96,192,143745,6,0,P|224:192|224:192,1,100
416,192,144031,2,0,P|288:192|288:192,1,100
96,96,144317,2,0,P|0:192|0:192,1,100
416,96,144602,2,0,P|512:192|512:192,1,100
96,96,144888,1,0,0:0:0:0:
416,96,145031,1,0,0:0:0:0:
32,96,145317,1,0,0:0:0:0:
416,96,145602,1,0,0:0:0:0:
96,96,145745,1,0,0:0:0:0:
352,192,146031,6,0,P|480:192|480:192,1,100
160,192,146317,2,0,P|32:192|32:192,1,100
512,64,146602,2,0,B|480:128|480:128|416:160|416:160,1,100
0,64,146888,2,0,B|32:128|32:128|96:160|96:160,1,100
384,128,147174,1,0,0:0:0:0:
128,128,147317,1,0,0:0:0:0:
448,128,147602,1,0,0:0:0:0:
128,128,147888,1,0,0:0:0:0:
384,128,148031,1,0,0:0:0:0:
96,256,148317,5,0,0:0:0:0:
256,256,148460,1,0,0:0:0:0:
96,256,148602,1,0,0:0:0:0:
256,256,148745,1,0,0:0:0:0:
416,256,148888,1,0,0:0:0:0:
256,256,149031,1,0,0:0:0:0:
416,256,149174,1,0,0:0:0:0:
256,256,149317,1,0,0:0:0:0:
160,192,149460,2,0,P|32:192|32:192,1,100
352,192,149745,2,0,P|480:192|480:192,1,100
256,192,150031,1,0,0:0:0:0:
160,192,150174,2,0,P|32:192|32:192,1,100
160,288,150460,5,0,0:0:0:0:
160,96,150603,1,0,0:0:0:0:
352,96,150746,1,0,0:0:0:0:
352,288,150889,1,0,0:0:0:0:
0,192,151031,1,0,0:0:0:0:
512,192,151174,1,0,0:0:0:0:
0,192,151317,1,0,0:0:0:0:
512,192,151460,1,0,0:0:0:0:
352,192,151602,2,0,B|416:160|416:160|448:96|448:96,1,100
160,192,151888,2,0,B|96:224|96:224|64:288|64:288,1,100
352,192,152174,5,0,0:0:0:0:
160,192,152317,1,0,0:0:0:0:
352,192,152460,1,0,0:0:0:0:
160,192,152602,5,0,0:0:0:0:
0,96,152745,1,0,0:0:0:0:
256,192,152888,1,0,0:0:0:0:
96,96,153031,1,0,0:0:0:0:
352,192,153174,1,0,0:0:0:0:
192,96,153317,1,0,0:0:0:0:
448,192,153460,1,0,0:0:0:0:
288,96,153602,1,0,0:0:0:0:
0,96,153745,1,0,0:0:0:0:
480,96,154031,1,0,0:0:0:0:
0,96,154173,1,0,0:0:0:0:
480,96,154460,1,0,0:0:0:0:
0,96,154745,1,0,0:0:0:0:
480,96,154888,1,0,0:0:0:0:
96,192,155031,6,0,P|224:192|224:192,1,100
416,192,155317,2,0,P|288:192|288:192,1,100
160,128,155602,2,0,P|32:128|32:128,1,100
352,128,155888,2,0,P|480:128|480:128,1,100
256,128,156174,1,0,0:0:0:0:
448,128,156317,1,0,0:0:0:0:
64,128,156459,1,0,0:0:0:0:
512,128,156745,1,0,0:0:0:0:
64,128,157031,1,0,0:0:0:0:
416,128,157174,1,0,0:0:0:0:
0,128,157460,6,0,P|128:128|128:128,1,100
384,128,157745,2,0,P|512:128|512:128,1,100
0,192,158031,2,0,P|128:192|128:192,1,100
384,192,158317,2,0,P|512:192|512:192,1,100
416,320,158602,1,0,0:0:0:0:
96,320,158745,1,0,0:0:0:0:
480,320,159031,1,0,0:0:0:0:
96,320,159317,1,0,0:0:0:0:
416,320,159460,2,0,P|480:224|480:224,1,100
224,320,159745,2,0,P|288:224|288:224,1,100
320,320,160031,2,0,P|384:224|384:224,1,100
128,320,160317,2,0,P|192:224|192:224,1,100
64,128,160602,5,0,0:0:0:0:
320,0,160745,1,0,0:0:0:0:
448,256,160888,1,0,0:0:0:0:
192,384,161031,1,0,0:0:0:0:
64,128,161174,5,0,0:0:0:0:
448,256,161317,1,0,0:0:0:0:
320,0,161460,1,0,0:0:0:0:
192,384,161602,1,0,0:0:0:0:
352,192,161745,6,0,P|480:192|480:192,1,100
288,256,162031,2,0,P|416:256|416:256,1,100
224,320,162317,2,0,P|352:320|352:320,1,100
160,384,162602,2,0,P|288:384|288:384,1,100
512,192,162888,1,0,0:0:0:0:
0,192,163174,1,0,0:0:0:0:
256,192,163317,1,0,0:0:0:0:
0,192,163460,2,0,P|16:192|16:192,6,12.5
256,192,163602,2,0,P|240:192|240:192,6,12.5
512,192,163745,2,0,P|496:192|496:192,15,12.5
512,192,164031,6,0,P|384:192|384:192,1,100
0,192,164317,2,0,P|128:192|128:192,1,100
352,192,164602,2,0,P|416:64|416:64,1,100
160,192,164888,2,0,P|96:320|96:320,1,100
352,192,165174,1,0,0:0:0:0:
160,192,165460,1,0,0:0:0:0:
352,192,165602,1,0,0:0:0:0:
32,192,165745,2,0,P|12:192|12:192,4,12.5
480,192,165888,2,0,P|500:192|500:192,4,12.5
256,192,166031,2,0,P|256:172|256:172,14,12.5
352,192,166317,6,0,P|288:64|288:64,1,100
160,192,166602,2,0,P|224:320|224:320,1,100
384,256,166888,2,0,P|512:192|512:192,1,100
128,128,167174,2,0,P|0:192|0:192,1,100
256,192,167460,1,0,0:0:0:0:
128,128,167745,1,0,0:0:0:0:
384,256,167888,1,0,0:0:0:0:
256,192,168174,1,0,0:0:0:0:
384,256,168460,1,0,0:0:0:0:
128,128,168602,6,0,P|0:128|0:128,1,100
384,256,168888,2,0,P|512:256|512:256,1,100
320,64,169174,2,0,P|320:-64|320:-64,1,100
192,320,169460,2,0,P|192:448|192:448,1,100
0,192,169745,2,0,P|128:192|128:192,1,100
512,192,170031,2,0,P|384:192|384:192,1,100
192,252,170317,2,0,P|172:252|172:252,6,12.5
320,252,170460,2,0,P|340:252|340:252,6,12.5
64,192,170602,2,0,P|59:192|66:192,4,12.5
448,192,170745,2,0,P|453:192|445:192,4,12.5
64,160,170888,6,0,P|160:128|160:128,1,100
448,224,171174,2,0,P|352:256|352:256,1,100
288,0,171460,2,0,P|320:96|320:96,1,100
224,384,171746,2,0,P|192:288|192:288,1,100
128,160,172031,2,0,P|0:160|0:160,1,100
384,160,172317,2,0,P|512:160|512:160,1,100
384,192,172602,2,0,P|404:192|404:192,6,12.5
128,192,172745,2,0,P|108:192|108:192,6,12.5
480,192,172888,2,0,P|500:192|500:192,6,12.5
32,192,173031,2,0,P|12:192|12:192,6,12.5
352,192,173174,6,0,P|480:128|480:128,1,100
160,192,173460,2,0,P|64:256|64:256,1,100
256,96,173745,2,0,P|192:-32|192:-32,1,100
256,288,174031,2,0,P|320:384|320:384,1,100
0,192,174317,2,0,P|128:192|128:192,1,100
512,192,174602,2,0,P|384:192|384:192,1,100
512,128,174888,2,0,P|192:32|192:32,1,200
0,256,175031,2,0,P|320:352|320:352,1,200
192,64,175174,2,0,P|-35:265|-35:265,1,200
288,320,175317,2,0,P|531:90|531:90,1,200
0,192,175460,6,0,P|128:192|128:192,1,100
512,192,175745,2,0,P|384:192|384:192,1,100
448,32,176031,2,0,P|352:96|352:96,1,100
64,352,176317,2,0,P|160:288|160:288,1,100
0,192,176602,1,0,0:0:0:0:
512,192,176888,1,0,0:0:0:0:
0,192,177031,1,0,0:0:0:0:
512,192,177317,1,0,0:0:0:0:
0,192,177602,1,0,0:0:0:0:
512,192,177745,6,0,P|384:192|384:192,1,100
0,192,178031,2,0,P|128:192|128:192,1,100
0,96,178317,2,0,P|128:96|128:96,1,100
512,96,178603,2,0,P|384:96|384:96,1,100
32,288,178888,6,0,P|0:224|0:224,1,50
480,288,179031,2,0,P|512:224|512:224,1,50
100,192,179174,6,0,P|36:160|36:160,1,50
416,192,179317,2,0,P|480:160|480:160,1,50
192,96,179460,6,0,P|128:96|128:96,1,50
352,96,179603,2,0,P|416:96|416:96,1,50
64,0,179745,6,0,P|0:32|0:32,1,50
448,0,179888,2,0,P|512:32|512:32,1,50
256,192,180031,5,0,0:0:0:0:
256,192,180049,12,0,180281,0:0:0:0:
192,192,180299,5,0,0:0:0:0:
256,192,180317,12,0,180567,0:0:0:0:
128,192,180585,5,0,0:0:0:0:
256,192,180602,12,0,180852,0:0:0:0:
64,192,180870,5,0,0:0:0:0:
256,192,180888,12,0,181138,0:0:0:0:
0,192,181156,5,0,0:0:0:0:
256,192,181174,12,0,181424,0:0:0:0:
64,192,181442,5,0,0:0:0:0:
256,192,181460,12,0,181710,0:0:0:0:
128,192,181727,5,0,0:0:0:0:
256,192,181745,12,0,181995,0:0:0:0:
192,192,182013,5,0,0:0:0:0:
256,192,182031,12,0,182299,0:0:0:0:
256,192,182317,5,0,0:0:0:0:
256,192,182335,12,0,182567,0:0:0:0:
320,192,182585,5,0,0:0:0:0:
256,192,182603,12,0,182853,0:0:0:0:
384,192,182871,5,0,0:0:0:0:
256,192,182888,12,0,183138,0:0:0:0:
448,192,183156,5,0,0:0:0:0:
256,192,183174,12,0,183424,0:0:0:0:
512,192,183442,5,0,0:0:0:0:
256,192,183460,12,0,183710,0:0:0:0:
448,192,183728,5,0,0:0:0:0:
256,192,183746,12,0,183996,0:0:0:0:
384,192,184013,5,0,0:0:0:0:
256,192,184031,12,0,184299,0:0:0:0:
192,256,184317,6,0,P|96:224|96:224,1,100
320,256,184460,2,0,P|416:224|416:224,1,100
256,192,184602,5,0,0:0:0:0:
256,192,184620,12,0,184852,0:0:0:0:
192,192,184870,5,0,0:0:0:0:
256,192,184888,12,0,185138,0:0:0:0:
128,192,185156,5,0,0:0:0:0:
256,192,185173,12,0,185423,0:0:0:0:
64,192,185441,5,0,0:0:0:0:
256,192,185459,12,0,185709,0:0:0:0:
0,192,185727,5,0,0:0:0:0:
256,192,185745,12,0,185995,0:0:0:0:
64,192,186013,5,0,0:0:0:0:
256,192,186031,12,0,186281,0:0:0:0:
128,192,186298,5,0,0:0:0:0:
256,192,186316,12,0,186566,0:0:0:0:
192,192,186584,5,0,0:0:0:0:
256,192,186602,12,0,186870,0:0:0:0:
256,192,186888,5,0,0:0:0:0:
256,192,186906,12,0,187138,0:0:0:0:
320,192,187156,5,0,0:0:0:0:
256,192,187174,12,0,187424,0:0:0:0:
384,192,187442,5,0,0:0:0:0:
256,192,187460,12,0,187710,0:0:0:0:
320,192,187727,5,0,0:0:0:0:
256,192,187745,12,0,188013,0:0:0:0:
192,192,188031,5,0,0:0:0:0:
256,192,188049,12,0,188138,0:0:0:0:
320,192,188156,5,0,0:0:0:0:
256,192,188174,12,0,188281,0:0:0:0:
128,192,188299,5,0,0:0:0:0:
256,192,188317,12,0,188424,0:0:0:0:
384,192,188442,5,0,0:0:0:0:
256,192,188460,12,0,188567,0:0:0:0:
160,192,188585,5,0,0:0:0:0:
256,192,188602,12,0,188710,0:0:0:0:
352,192,188727,5,0,0:0:0:0:
256,192,188745,12,0,188852,0:0:0:0:
96,192,188870,5,0,0:0:0:0:
256,192,188888,12,0,188995,0:0:0:0:
416,192,189013,5,0,0:0:0:0:
256,192,189031,12,0,189156,0:0:0:0:
256,192,189174,5,0,0:0:0:0:
256,192,189192,12,0,189424,0:0:0:0:
192,192,189442,5,0,0:0:0:0:
256,192,189460,12,0,189710,0:0:0:0:
256,128,189728,5,0,0:0:0:0:
256,192,189745,12,0,189995,0:0:0:0:
160,128,190013,5,0,0:0:0:0:
256,192,190031,12,0,190281,0:0:0:0:
256,64,190299,5,0,0:0:0:0:
256,192,190317,12,0,190567,0:0:0:0:
128,64,190585,5,0,0:0:0:0:
256,192,190603,12,0,190853,0:0:0:0:
256,0,190870,5,0,0:0:0:0:
256,192,190888,12,0,191138,0:0:0:0:
96,0,191156,5,0,0:0:0:0:
256,192,191174,12,0,191442,0:0:0:0:
256,192,191460,5,0,0:0:0:0:
256,192,191478,12,0,191710,0:0:0:0:
320,192,191728,5,0,0:0:0:0:
256,192,191746,12,0,191996,0:0:0:0:
256,256,192014,5,0,0:0:0:0:
256,192,192031,12,0,192281,0:0:0:0:
352,256,192299,5,0,0:0:0:0:
256,192,192317,12,0,192567,0:0:0:0:
256,320,192585,5,0,0:0:0:0:
256,192,192603,12,0,192853,0:0:0:0:
384,320,192871,5,0,0:0:0:0:
256,192,192889,12,0,193139,0:0:0:0:
256,384,193156,5,0,0:0:0:0:
256,192,193174,12,0,193424,0:0:0:0:
416,384,193442,5,0,0:0:0:0:
256,192,193460,12,0,193728,0:0:0:0:
256,192,193745,5,0,0:0:0:0:
256,192,193763,12,0,193995,0:0:0:0:
128,192,194013,5,0,0:0:0:0:
256,192,194031,12,0,194281,0:0:0:0:
256,192,194299,5,0,0:0:0:0:
256,192,194317,12,0,194567,0:0:0:0:
384,192,194584,5,0,0:0:0:0:
256,192,194602,12,0,194852,0:0:0:0:
256,192,194870,5,0,0:0:0:0:
256,192,194888,12,0,195138,0:0:0:0:
128,192,195156,5,0,0:0:0:0:
256,192,195174,12,0,195424,0:0:0:0:
256,192,195441,5,0,0:0:0:0:
256,192,195459,12,0,195709,0:0:0:0:
384,192,195727,5,0,0:0:0:0:
256,192,195745,12,0,196013,0:0:0:0:
256,192,196031,5,0,0:0:0:0:
256,192,196049,12,0,196281,0:0:0:0:
192,192,196299,5,0,0:0:0:0:
256,192,196317,12,0,196567,0:0:0:0:
128,192,196585,5,0,0:0:0:0:
256,192,196603,12,0,196853,0:0:0:0:
64,192,196870,5,0,0:0:0:0:
256,192,196888,12,0,197156,0:0:0:0:
0,192,197174,5,0,0:0:0:0:
256,192,197192,12,0,197281,0:0:0:0:
512,192,197299,5,0,0:0:0:0:
256,192,197317,12,0,197424,0:0:0:0:
64,192,197442,5,0,0:0:0:0:
256,192,197460,12,0,197567,0:0:0:0:
448,192,197585,5,0,0:0:0:0:
256,192,197603,12,0,197710,0:0:0:0:
192,192,197728,5,0,0:0:0:0:
256,192,197745,12,0,197853,0:0:0:0:
320,192,197870,5,0,0:0:0:0:
256,192,197888,12,0,197995,0:0:0:0:
128,192,198013,5,0,0:0:0:0:
256,192,198031,12,0,198138,0:0:0:0:
384,192,198156,5,0,0:0:0:0:
256,192,198174,12,0,198299,0:0:0:0:
256,192,198317,5,0,0:0:0:0:
256,192,198335,12,0,198567,0:0:0:0:
192,128,198585,5,0,0:0:0:0:
256,192,198603,12,0,198853,0:0:0:0:
256,192,198871,5,0,0:0:0:0:
256,192,198888,12,0,199138,0:0:0:0:
320,256,199156,5,0,0:0:0:0:
256,192,199174,12,0,199424,0:0:0:0:
256,192,199442,5,0,0:0:0:0:
256,192,199460,12,0,199710,0:0:0:0:
128,64,199728,5,0,0:0:0:0:
256,192,199746,12,0,199996,0:0:0:0:
256,192,200013,5,0,0:0:0:0:
256,192,200031,12,0,200281,0:0:0:0:
384,320,200299,5,0,0:0:0:0:
256,192,200317,12,0,200585,0:0:0:0:
256,192,200602,5,0,0:0:0:0:
256,192,200620,12,0,200852,0:0:0:0:
64,0,200870,5,0,0:0:0:0:
256,192,200888,12,0,201138,0:0:0:0:
256,192,201156,5,0,0:0:0:0:
256,192,201173,12,0,201423,0:0:0:0:
448,384,201441,5,0,0:0:0:0:
256,192,201459,12,0,201709,0:0:0:0:
256,192,201727,5,0,0:0:0:0:
256,192,201745,12,0,201995,0:0:0:0:
0,0,202013,5,0,0:0:0:0:
256,192,202031,12,0,202281,0:0:0:0:
256,192,202298,5,0,0:0:0:0:
256,192,202316,12,0,202566,0:0:0:0:
512,384,202584,5,0,0:0:0:0:
256,192,202602,12,0,202870,0:0:0:0:
256,192,202888,5,0,0:0:0:0:
256,192,202906,12,0,203138,0:0:0:0:
96,64,203156,5,0,0:0:0:0:
256,192,203174,12,0,203424,0:0:0:0:
256,192,203442,5,0,0:0:0:0:
256,192,203459,12,0,203709,0:0:0:0:
416,320,203727,5,0,0:0:0:0:
256,192,203745,12,0,203995,0:0:0:0:
256,192,204013,5,0,0:0:0:0:
256,192,204031,12,0,204281,0:0:0:0:
160,160,204299,5,0,0:0:0:0:
256,192,204317,12,0,204567,0:0:0:0:
256,192,204584,5,0,0:0:0:0:
256,192,204602,12,0,204852,0:0:0:0:
352,224,204870,5,0,0:0:0:0:
256,192,204888,12,0,205156,0:0:0:0:
256,192,205174,5,0,0:0:0:0:
256,192,205192,12,0,205424,0:0:0:0:
128,192,205442,5,0,0:0:0:0:
256,192,205460,12,0,205710,0:0:0:0:
256,192,205728,5,0,0:0:0:0:
256,192,205745,12,0,205995,0:0:0:0:
384,192,206013,5,0,0:0:0:0:
256,192,206031,12,0,206281,0:0:0:0:
256,192,206299,5,0,0:0:0:0:
256,192,206317,12,0,206567,0:0:0:0:
128,192,206585,5,0,0:0:0:0:
256,192,206603,12,0,206853,0:0:0:0:
256,192,206870,5,0,0:0:0:0:
256,192,206888,12,0,207138,0:0:0:0:
384,192,207156,5,0,0:0:0:0:
256,192,207174,12,0,207442,0:0:0:0:
256,192,207460,5,0,0:0:0:0:
256,192,207478,12,0,207710,0:0:0:0:
192,192,207728,5,0,0:0:0:0:
256,192,207746,12,0,207996,0:0:0:0:
128,192,208014,5,0,0:0:0:0:
256,192,208031,12,0,208281,0:0:0:0:
64,192,208299,5,0,0:0:0:0:
256,192,208317,12,0,208567,0:0:0:0:
0,192,208585,5,0,0:0:0:0:
256,192,208603,12,0,208853,0:0:0:0:
64,192,208871,5,0,0:0:0:0:
256,192,208889,12,0,209139,0:0:0:0:
128,192,209156,5,0,0:0:0:0:
256,192,209174,12,0,209424,0:0:0:0:
192,192,209442,5,0,0:0:0:0:
256,192,209460,12,0,209728,0:0:0:0:
256,192,209745,5,0,0:0:0:0:
256,192,209763,12,0,209995,0:0:0:0:
320,192,210013,5,0,0:0:0:0:
256,192,210031,12,0,210281,0:0:0:0:
384,192,210299,5,0,0:0:0:0:
256,192,210316,12,0,210566,0:0:0:0:
448,192,210584,5,0,0:0:0:0:
256,192,210602,12,0,210852,0:0:0:0:
512,192,210870,5,0,0:0:0:0:
256,192,210888,12,0,211138,0:0:0:0:
448,192,211156,5,0,0:0:0:0:
256,192,211174,12,0,211424,0:0:0:0:
384,192,211441,5,0,0:0:0:0:
256,192,211459,12,0,211709,0:0:0:0:
320,192,211727,5,0,0:0:0:0:
256,192,211745,12,0,212013,0:0:0:0:
256,128,212031,5,0,0:0:0:0:
256,256,212174,1,0,0:0:0:0:
256,128,212317,1,0,0:0:0:0:
256,256,212460,1,0,0:0:0:0:
224,192,212602,5,0,0:0:0:0:
288,192,212745,1,0,0:0:0:0:
224,192,212888,1,0,0:0:0:0:
288,192,213031,1,0,0:0:0:0:
160,192,213174,5,0,0:0:0:0:
352,192,213317,1,0,0:0:0:0:
160,192,213460,1,0,0:0:0:0:
352,192,213602,1,0,0:0:0:0:
96,192,213745,5,0,0:0:0:0:
416,192,213888,1,0,0:0:0:0:
96,192,214031,1,0,0:0:0:0:
416,192,214174,1,0,0:0:0:0:
32,192,214317,5,0,0:0:0:0:
480,192,214460,1,0,0:0:0:0:
32,192,214602,1,0,0:0:0:0:
480,192,214745,1,0,0:0:0:0:
0,128,214888,5,0,0:0:0:0:
512,128,215031,1,0,0:0:0:0:
0,128,215174,1,0,0:0:0:0:
512,128,215317,1,0,0:0:0:0:
256,256,215460,6,0,P|384:256|384:256,1,100
256,256,215602,2,0,P|128:256|128:256,1,100
320,192,215745,2,0,P|430:128|430:128,1,100
192,192,215888,2,0,P|81:128|81:128,1,100
384,128,216031,6,4,P|448:32|448:32,1,100
128,128,216174,2,4,P|64:32|64:32,1,100
512,0,216317,2,4,P|512:128|512:96,1,100
0,0,216460,2,4,P|0:128|0:96,1,100
256,192,216602,5,12,0:0:0:0:
320,96,217459,2,0,P|448:96|448:96,1,100
192,96,218030,2,0,P|64:96|64:96,1,100
256,96,218602,1,0,0:0:0:0:
256,96,218887,1,0,0:0:0:0:
256,160,219459,2,0,P|224:160|224:160,2,25
352,160,219744,2,0,P|480:160|480:160,1,100
256,160,220602,2,0,P|128:160|128:160,2,100
320,160,221459,1,0,0:0:0:0:
416,160,221744,1,0,0:0:0:0:
192,160,222316,6,0,P|-32:160|-32:160,1,200
256,160,223459,1,0,0:0:0:0:
352,160,224030,2,0,P|384:160|384:160,2,25
224,160,224316,2,0,P|96:160|96:160,1,100
352,160,225173,2,0,P|128:160|128:160,1,200
152,160,225744,1,4,0:0:0:0:
192,192,226602,2,0,P|64:192|64:192,1,100
320,192,227173,2,0,P|448:192|448:192,1,100
192,192,227744,1,0,0:0:0:0:
320,192,228030,1,0,0:0:0:0:
352,128,228602,2,0,P|128:128|128:128,1,200
416,96,229744,5,0,0:0:0:0:
96,96,230316,1,0,0:0:0:0:
256,64,231173,2,0,P|320:64|320:64,2,50
160,64,232030,2,0,P|-64:64|-64:64,1,200
288,64,233173,2,0,P|320:64|320:64,2,25
288,96,233459,2,0,P|416:96|416:96,1,100
224,96,234316,2,0,P|0:96|0:96,1,200
24,96,234887,1,4,0:0:0:0:
224,160,235744,2,0,P|352:160|352:160,1,100
256,224,236316,2,0,P|384:224|384:224,1,100
288,288,236887,5,0,0:0:0:0:
288,288,237173,1,0,0:0:0:0:
288,288,237744,2,0,P|320:288|320:288,2,25
192,288,238030,2,0,P|64:288|64:288,1,100
256,288,238887,2,0,P|384:288|384:288,2,100
160,288,240030,1,0,0:0:0:0:
256,288,240601,1,0,0:0:0:0:
160,288,241173,1,0,0:0:0:0:
64,288,241744,1,0,0:0:0:0:
256,288,242316,2,0,P|288:288|288:288,2,25
256,224,242601,6,0,P|384:224|384:224,1,100
448,224,243459,1,0,0:0:0:0:
256,224,244030,1,4,0:0:0:0:
160,224,244601,2,0,P|32:224|32:224,3,100
256,224,245744,2,0,P|384:224|384:224,1,100
480,224,246316,1,0,0:0:0:0:
256,192,246887,1,0,0:0:0:0:
96,192,247459,1,0,0:0:0:0:
256,192,248030,1,0,0:0:0:0:
416,192,248601,1,4,0:0:0:0:
256,288,249173,5,0,0:0:0:0:
256,192,249459,2,0,L|256:128|256:128,2,50
0,192,250316,1,0,0:0:0:0:
512,192,250887,1,0,0:0:0:0:
0,192,251459,1,0,0:0:0:0:
256,192,251530,1,0,0:0:0:0:
512,192,251601,1,0,0:0:0:0:
512,192,251744,1,4,0:0:0:0:
256,192,252030,1,4,0:0:0:0:
256,192,252047,12,0,253155,0:0:0:0:
0,192,253172,5,0,0:0:0:0:
64,192,253244,1,0,0:0:0:0:
128,192,253315,1,0,0:0:0:0:
256,192,253458,1,0,0:0:0:0:
512,192,253601,1,0,0:0:0:0:
256,192,253744,1,0,0:0:0:0:
512,192,253887,1,0,0:0:0:0:
256,192,254030,1,0,0:0:0:0:
512,192,254172,1,0,0:0:0:0:
0,192,254315,2,0,P|224:192|224:192,1,200
512,192,254601,2,0,P|288:192|288:192,1,200
256,192,254887,1,0,0:0:0:0:
160,160,255172,5,0,0:0:0:0:
0,160,255244,1,0,0:0:0:0:
160,160,255315,1,0,0:0:0:0:
256,160,255458,2,0,P|480:160|480:160,1,200
256,96,255744,2,0,P|32:96|32:96,1,200
224,160,256030,2,0,P|224:384|224:384,1,200
288,224,256316,2,0,P|288:0|288:0,1,200
128,192,256601,1,0,0:0:0:0:
384,192,256744,1,0,0:0:0:0:
128,192,256887,1,0,0:0:0:0:
384,192,257030,1,0,0:0:0:0:
256,192,257172,2,0,P|256:-64|256:-64,1,200
128,192,257458,6,0,P|0:192|0:192,1,100
384,192,257601,2,0,P|512:192|512:192,1,100
128,192,257744,5,0,0:0:0:0:
256,192,257815,1,0,0:0:0:0:
384,192,257887,1,0,0:0:0:0:
128,192,258030,1,0,0:0:0:0:
384,192,258172,1,0,0:0:0:0:
128,192,258315,1,0,0:0:0:0:
384,192,258458,1,0,0:0:0:0:
128,192,258601,1,0,0:0:0:0:
384,192,258744,1,0,0:0:0:0:
256,224,258887,2,0,P|256:0|256:0,3,200
256,320,259458,5,0,0:0:0:0:
512,192,259744,1,0,0:0:0:0:
256,192,259815,1,0,0:0:0:0:
0,192,259887,1,0,0:0:0:0:
128,192,260030,1,0,0:0:0:0:
384,192,260172,1,0,0:0:0:0:
128,192,260315,1,0,0:0:0:0:
384,192,260458,1,0,0:0:0:0:
0,192,260601,2,0,P|224:192|224:192,1,200
512,192,260887,2,0,P|288:192|288:192,1,200
224,192,261172,6,0,P|0:192|0:192,1,200
288,192,261458,2,0,P|512:192|512:192,1,200
448,128,261744,6,0,P|448:152|448:152,1,25
434,125,261780,6,0,P|425:147|425:147,1,25
424,117,261815,6,0,P|406:133|406:133,1,25
417,105,261851,6,0,P|394:113|394:113,1,25
416,92,261887,6,0,P|392:90|392:90,1,25
420,80,261922,6,0,P|399:68|399:68,1,25
429,70,261958,6,0,P|415:50|415:50,1,25
441,64,261994,6,0,P|436:41|436:41,1,25
454,64,262030,6,0,P|459:41|459:41,1,25
466,70,262065,6,0,P|480:50|480:50,1,25
475,80,262101,6,0,P|496:68|496:68,1,25
479,92,262137,6,0,P|503:90|503:90,1,25
478,105,262172,6,0,P|501:113|501:113,1,25
471,117,262208,6,0,P|489:133|489:133,1,25
461,125,262244,6,0,P|470:147|470:147,1,25
448,127,262280,6,0,P|447:150|447:150,1,25
448,96,262315,5,0,0:0:0:0:
512,192,262387,2,0,P|384:192|384:192,1,100
0,192,262672,5,0,0:0:0:0:
64,192,262744,1,0,0:0:0:0:
128,192,262815,1,0,0:0:0:0:
512,192,262887,2,0,P|384:192|384:192,1,100
0,192,263172,5,0,0:0:0:0:
64,192,263244,1,0,0:0:0:0:
128,192,263315,1,0,0:0:0:0:
384,192,263387,2,0,P|512:192|512:192,1,100
128,192,263530,2,0,P|0:192|0:192,1,100
320,128,263673,2,0,P|352:32|352:32,1,100
192,128,263816,2,0,P|160:32|160:32,1,100
256,224,263959,2,0,P|256:352|256:352,1,100
256,192,264102,1,0,0:0:0:0:
0,192,264315,5,0,0:0:0:0:
128,192,264387,1,0,0:0:0:0:
256,192,264458,1,0,0:0:0:0:
512,192,264530,2,0,P|384:192|384:192,1,100
0,192,264887,5,0,0:0:0:0:
128,192,264958,1,0,0:0:0:0:
256,192,265030,1,0,0:0:0:0:
512,192,265101,2,0,P|384:192|384:192,1,100
0,192,265457,5,0,0:0:0:0:
128,192,265530,1,0,0:0:0:0:
256,192,265601,1,0,0:0:0:0:
512,192,265671,2,0,P|384:192|384:192,1,100
0,192,265814,2,0,P|128:192|128:192,1,100
512,192,265957,2,0,P|384:192|384:192,1,100
0,192,266100,2,0,P|128:192|128:192,1,100
256,224,266243,2,0,P|256:352|256:352,1,100
160,256,266386,6,0,P|32:256|32:256,1,100
352,192,266529,2,0,P|224:192|224:192,1,100
0,192,266672,1,0,0:0:0:0:
64,192,266744,1,0,0:0:0:0:
128,192,266815,1,0,0:0:0:0:
512,192,266887,2,0,P|384:192|384:192,1,100
0,192,267173,5,0,0:0:0:0:
64,192,267244,1,0,0:0:0:0:
128,192,267315,1,0,0:0:0:0:
512,192,267387,2,0,P|384:192|384:192,1,100
0,192,267743,5,0,0:0:0:0:
64,192,267815,1,0,0:0:0:0:
128,192,267887,1,0,0:0:0:0:
384,192,267958,2,0,P|512:192|512:192,1,100
128,192,268101,2,0,P|0:192|0:192,1,100
320,128,268244,2,0,P|352:32|352:32,1,100
192,128,268387,2,0,P|160:32|160:32,1,100
256,224,268530,2,0,P|256:352|256:352,1,100
512,192,268887,5,0,0:0:0:0:
448,192,268958,1,0,0:0:0:0:
384,192,269030,1,0,0:0:0:0:
0,192,269101,2,0,P|128:192|128:192,1,100
512,192,269459,5,0,0:0:0:0:
448,192,269530,1,0,0:0:0:0:
384,192,269601,1,0,0:0:0:0:
0,192,269672,2,0,P|128:192|128:192,1,100
512,192,270029,5,0,0:0:0:0:
448,192,270101,1,0,0:0:0:0:
384,192,270172,1,0,0:0:0:0:
128,192,270244,2,0,P|0:192|0:192,1,100
384,192,270387,2,0,P|512:192|512:192,1,100
192,128,270530,2,0,P|160:32|160:32,1,100
320,128,270673,2,0,P|352:32|352:32,1,100
256,224,270816,2,0,P|256:352|256:352,1,100
192,192,270959,6,0,P|64:192|64:192,1,100
320,192,271102,2,0,P|448:192|448:192,1,100
256,192,271244,2,0,P|256:168|256:168,1,25
256,192,271280,2,0,P|280:192|280:192,1,25
256,192,271316,2,0,P|256:216|256:216,1,25
256,192,271352,2,0,P|232:192|232:192,1,25
256,192,271387,2,0,P|256:168|256:168,1,25
256,192,271423,2,0,P|280:192|280:192,1,25
256,192,271458,5,0,0:0:0:0:
0,192,271530,1,0,0:0:0:0:
256,192,271601,1,0,0:0:0:0:
512,192,271744,2,0,P|256:192|256:192,1,200
0,192,272030,2,0,P|224:192|224:192,1,200
0,128,272316,1,0,0:0:0:0:
512,128,272458,1,0,0:0:0:0:
224,192,272601,2,0,P|0:192|0:192,1,200
288,192,272887,2,0,P|512:192|512:192,1,200
256,192,273173,1,0,0:0:0:0:
160,160,273458,5,0,0:0:0:0:
0,160,273530,1,0,0:0:0:0:
160,160,273601,1,0,0:0:0:0:
0,256,273744,2,0,P|224:256|224:256,1,200
288,192,274030,2,0,P|64:192|64:192,1,200
160,128,274315,2,0,P|384:128|384:128,1,200
448,64,274601,2,0,P|224:64|224:64,1,200
0,192,274887,1,0,0:0:0:0:
512,192,275030,1,0,0:0:0:0:
128,192,275173,1,0,0:0:0:0:
384,192,275316,1,0,0:0:0:0:
256,192,275458,2,0,P|256:160|256:160,14,25
192,256,275744,6,0,P|64:256|64:256,1,100
320,256,275887,2,0,P|448:256|448:256,1,100
192,256,276030,5,0,0:0:0:0:
320,256,276101,1,0,0:0:0:0:
192,256,276173,1,0,0:0:0:0:
512,256,276316,1,0,0:0:0:0:
0,256,276458,1,0,0:0:0:0:
128,192,276601,1,0,0:0:0:0:
512,256,276744,1,0,0:0:0:0:
384,192,276887,1,0,0:0:0:0:
256,128,277030,1,0,0:0:0:0:
0,96,277172,5,6,0:0:0:0:
512,96,277315,1,6,0:0:0:0:
0,96,277458,1,6,0:0:0:0:
512,96,277601,1,6,0:0:0:0:
256,320,277744,5,0,0:0:0:0:
256,192,278030,2,0,P|256:160|256:160,8,25
128,192,278316,1,0,0:0:0:0:
384,192,278458,1,0,0:0:0:0:
128,192,278601,1,0,0:0:0:0:
384,192,278744,1,0,0:0:0:0:
0,192,278887,2,0,P|224:192|224:192,1,200
512,192,279173,2,0,P|288:192|288:192,1,200
224,192,279458,6,0,P|0:192|0:192,1,200
288,192,279744,2,0,P|512:192|512:192,1,200
0,160,280030,1,0,0:0:0:0:
512,160,280172,1,0,0:0:0:0:
0,256,280315,5,0,0:0:0:0:
256,256,280387,1,0,0:0:0:0:
512,256,280458,1,0,0:0:0:0:
0,160,280530,2,0,P|0:32|0:32,1,100
512,160,280887,5,0,0:0:0:0:
256,160,280959,1,0,0:0:0:0:
0,160,281030,1,0,0:0:0:0:
512,160,281102,2,0,P|512:32|512:32,1,100
0,160,281458,5,0,0:0:0:0:
256,160,281530,1,0,0:0:0:0:
512,160,281601,1,0,0:0:0:0:
256,160,281672,2,0,P|128:160|128:160,1,100
0,160,281815,2,0,P|128:160|128:160,1,100
256,160,281958,2,0,P|384:160|384:160,1,100
512,160,282101,2,0,P|384:160|384:160,1,100
256,160,282244,2,0,P|256:32|256:32,1,100
512,256,282601,5,0,0:0:0:0:
256,256,282673,1,0,0:0:0:0:
0,256,282744,1,0,0:0:0:0:
512,160,282816,2,0,P|512:64|512:32,1,100
0,256,283172,5,0,0:0:0:0:
256,256,283244,1,0,0:0:0:0:
512,256,283315,1,0,0:0:0:0:
512,160,283387,2,0,P|512:64|512:32,1,100
512,256,283744,5,0,0:0:0:0:
256,256,283815,1,0,0:0:0:0:
0,256,283887,1,0,0:0:0:0:
512,192,283958,2,0,P|384:192|384:192,1,100
0,192,284101,2,0,P|128:192|128:192,1,100
416,128,284244,2,0,P|544:128|544:128,1,100
96,128,284387,2,0,P|-32:128|-32:128,1,100
256,128,284494,2,0,P|256:96|256:96,5,25
256,64,284601,1,0,0:0:0:0:
0,192,284887,5,0,0:0:0:0:
256,192,284958,1,0,0:0:0:0:
512,192,285030,1,0,0:0:0:0:
0,192,285101,2,0,P|128:192|128:192,1,100
224,192,285314,5,0,0:0:0:0:
288,192,285457,1,0,0:0:0:0:
192,192,285600,1,0,0:0:0:0:
320,192,285743,1,0,0:0:0:0:
160,192,285886,5,0,0:0:0:0:
352,192,286029,1,0,0:0:0:0:
128,192,286172,1,0,0:0:0:0:
384,192,286314,1,0,0:0:0:0:
96,192,286457,5,0,0:0:0:0:
416,192,286600,1,0,0:0:0:0:
64,192,286743,1,0,0:0:0:0:
448,192,286886,1,0,0:0:0:0:
32,192,287029,5,0,0:0:0:0:
480,192,287172,1,0,0:0:0:0:
0,192,287314,1,0,0:0:0:0:
512,192,287457,6,0,P|512:-32|512:-32,1,200
0,192,287599,2,0,P|0:-32|0:-32,1,200
512,192,287742,6,0,P|400:-1|400:-1,1,200
0,192,287885,2,0,P|111:-1|111:-1,1,200
512,192,288028,6,0,P|318:79|318:79,1,200
0,192,288171,2,0,P|193:79|193:79,1,200
512,192,288314,6,0,P|288:191|288:191,1,200
0,192,288457,2,0,P|224:191|224:191,1,200
288,192,288599,6,0,P|320:96|320:96,3,100
192,192,288741,2,0,P|160:96|160:96,3,100
384,192,288884,2,0,P|448:96|448:96,3,100
96,192,289027,2,0,P|0:128|0:128,3,100
288,128,289170,6,0,P|288:352|288:352,3,200
224,128,289241,2,0,P|224:352|224:352,3,200
352,128,289312,6,0,P|352:352|352:352,3,200
160,128,289384,2,0,P|160:352|160:352,3,200
416,128,289455,6,0,P|416:352|416:352,3,200
96,128,289527,2,0,P|96:352|96:352,3,200
480,128,289598,6,0,P|480:352|480:352,3,200
32,128,289670,2,0,P|32:352|32:352,3,200
160,160,289744,6,14,B|384:160|384:160,1,200,0|0,0:0|0:0,0:0:0:0:
320,96,290601,2,0,P|448:96|448:96,1,100
192,96,291172,2,0,P|64:96|64:96,1,100
256,96,291744,1,0,0:0:0:0:
256,96,292029,1,0,0:0:0:0:
256,160,292601,2,0,P|224:160|224:160,2,25
352,160,292886,2,0,P|480:160|480:160,1,100
256,160,293744,2,0,P|128:160|128:160,2,100
320,160,294601,1,0,0:0:0:0:
416,160,294886,1,0,0:0:0:0:
192,160,295458,6,0,P|-32:160|-32:160,1,200
256,160,296601,1,0,0:0:0:0:
352,160,297172,2,0,P|384:160|384:160,2,25
224,160,297458,2,0,P|96:160|96:160,1,100
352,160,298315,2,0,P|128:160|128:160,1,200
152,160,298886,1,4,0:0:0:0:
192,192,299744,2,0,P|64:192|64:192,1,100
320,192,300315,2,0,P|448:192|448:192,1,100
192,192,300886,1,0,0:0:0:0:
320,192,301172,1,0,0:0:0:0:
352,128,301744,2,0,P|128:128|128:128,1,200
416,96,302886,5,0,0:0:0:0:
96,96,303458,1,0,0:0:0:0:
256,64,304315,2,0,P|320:64|320:64,2,50
160,64,305172,2,0,P|-64:64|-64:64,1,200
288,64,306315,2,0,P|320:64|320:64,2,25
288,96,306601,2,0,P|416:96|416:96,1,100
256,192,306958,12,0,310101,0:0:0:0:
