osu file format v14

[General]
AudioFilename: audio.mp3
AudioLeadIn: 0
PreviewTime: 222014
Countdown: 1
SampleSet: Soft
StackLeniency: 0.7
Mode: 0
LetterboxInBreaks: 0
WidescreenStoryboard: 0

[Editor]
Bookmarks: 118871,137300
DistanceSpacing: 1
BeatDivisor: 4
GridSize: 4
TimelineZoom: 3.599998

[Metadata]
Title:DIE GLOCKE
TitleUnicode:DIE GLOCKE
Artist:Team Grimoire
ArtistUnicode:Team Grimoire
Creator:EijiKuinbii
Version:Easy
Source:
Tags:
BeatmapID:1265660
BeatmapSetID:598767

[Difficulty]
HPDrainRate:5
CircleSize:4
OverallDifficulty:8.5
ApproachRate:10
SliderMultiplier:3
SliderTickRate:1

[Events]
//Background and Video events
0,0,"1.jpg",0,0
//Break Periods
2,153071,165357
2,167642,169642
2,172213,173642
2,176785,178642
//Storyboard Layer 0 (Background)
//Storyboard Layer 1 (Fail)
//Storyboard Layer 2 (Pass)
//Storyboard Layer 3 (Foreground)
//Storyboard Sound Samples

[TimingPoints]
300,285.714285714286,4,2,0,70,1,0
75728,-100,4,2,0,70,0,1
80014,-66.6666666666667,4,2,0,70,0,0
80157,-200,4,2,0,70,0,0
80300,-100,4,2,0,70,0,1
83728,-66.6666666666667,4,2,0,70,0,0
84871,-100,4,2,0,70,0,1
89157,-66.6666666666667,4,2,0,70,0,0
89300,-200,4,2,0,70,0,0
89442,-100,4,2,0,70,0,1
91728,-66.6666666666667,4,2,0,70,0,0
92585,-66.6666666666667,4,2,0,70,0,0
93442,-58.8235294117647,4,2,0,70,0,0
93728,-50,4,2,0,70,0,0
94014,-100,4,2,0,70,0,1
98014,-100,4,2,0,70,0,0
98300,-66.6666666666667,4,2,0,70,0,0
98442,-200,4,2,0,70,0,0
98585,-100,4,2,0,70,0,1
102585,-111.111111111111,4,2,0,70,0,0
103157,-100,4,2,0,70,0,1
106585,-111.111111111111,4,2,0,70,0,0
107157,-76.9230769230769,4,2,0,70,0,0
107442,-62.5,4,2,0,70,0,0
107728,-100,4,2,0,70,0,1
109728,-133.333333333333,4,2,0,70,0,1
110014,-200,4,2,0,70,0,1
111442,-100,4,2,0,70,0,1
111728,-66.6666666666667,4,2,0,70,0,1
111871,-200,4,2,0,70,0,1
112014,-66.6666666666667,4,2,0,70,0,1
112300,-100,4,2,0,70,0,0
116014,-66.6666666666667,4,2,0,70,0,0
116300,-100,4,2,0,70,0,0
116585,-66.6666666666667,4,2,0,70,0,0
116728,-200,4,2,0,70,0,0
116871,-100,4,2,0,70,0,0
119157,-66.6666666666667,4,2,0,70,0,0
119442,-100,4,2,0,70,0,0
119728,-133.333333333333,4,2,0,70,0,0
121157,-200,4,2,0,70,0,0
121442,-66.6666666666667,4,2,0,70,0,0
121585,-100,4,2,0,70,0,0
125157,-66.6666666666667,4,2,0,70,0,0
125371,-100,4,2,0,70,0,0
125728,-66.6666666666667,4,2,0,70,0,0
125871,-200,4,2,0,70,0,0
126014,-100,4,2,0,70,0,0
129442,-149.253731343284,4,2,0,70,0,0
129728,-90.9090909090909,4,2,0,70,0,0
130014,-133.333333333333,4,2,0,70,0,0
130300,-100,4,2,0,70,0,0
131728,-133.333333333333,4,2,0,70,0,0
132300,-100,4,2,0,70,0,0
132871,-66.6666666666667,4,2,0,70,0,0
133157,-100,4,2,0,70,0,0
134300,-66.6666666666667,4,2,0,70,0,0
134585,-100,4,2,0,70,0,0
134871,-66.6666666666667,4,2,0,70,0,0
135014,-200,4,2,0,70,0,0
135157,-100,4,2,0,70,0,0
137157,-133.333333333333,4,2,0,70,0,0
137442,-83.3333333333333,4,2,0,70,0,0
137728,-100,4,2,0,70,0,0
138871,-133.333333333333,4,2,0,70,0,0
139442,-142.857142857143,4,2,0,70,0,0
139728,-100,4,2,0,70,0,0
143442,-90.9090909090909,4,2,0,70,0,0
143728,-100,4,2,0,70,0,0
146585,-133.333333333333,4,2,0,70,0,0
147157,-120.481927710843,4,2,0,70,0,0
148871,-333.333333333333,4,2,0,30,0,0
149871,-333.333333333333,4,2,0,15,0,0
151157,-333.333333333333,4,2,0,10,0,0
152014,-333.333333333333,4,2,0,5,0,0
167157,-500,4,2,0,70,0,0
167442,-500,4,2,0,30,0,0
171442,-500,4,2,0,70,0,0
172014,-500,4,2,0,30,0,0
175442,-500,4,2,0,70,0,0
175728,-500,4,2,0,30,0,0
176014,-500,4,2,0,70,0,0
176585,-500,4,2,0,30,0,0
180442,-500,4,2,0,70,0,0
183157,-250,4,2,0,70,0,0
184300,-125,4,2,0,70,0,0
185442,-90.9090909090909,4,2,0,70,0,1
189728,-66.6666666666667,4,2,0,70,0,1
189871,-200,4,2,0,70,0,1
190014,-90.9090909090909,4,2,0,70,0,1
193442,-66.6666666666667,4,2,0,70,0,0
194014,-50,4,2,0,70,0,0
194300,-40,4,2,0,70,0,0
194585,-90.9090909090909,4,2,0,70,0,1
220871,-100,4,2,0,70,0,0
222014,-100,4,2,0,70,0,1
230014,-100,4,2,0,70,0,0
231157,-100,4,2,0,70,0,1
258585,-100,4,2,0,70,0,0
295157,-100,4,2,0,70,0,1
312300,-100,4,2,0,70,0,0
313442,-100,4,2,0,70,0,1
331442,-100,4,2,0,70,0,0
331728,-100,4,2,0,70,0,1
339442,-100,4,2,0,70,0,0
340871,-100,4,2,0,70,0,1
348871,-100,4,2,0,70,0,0
350014,-100,4,2,0,70,0,1
350085,-100,4,2,0,70,0,0

[HitObjects]
256,192,73442,12,0,75657,0:0:0:0:
319,204,75728,6,0,L|303:49,1,150
239,256,76014,2,0,B|301:285|301:285|415:291,1,150
284,114,76300,1,0,0:0:0:0:
131,187,76442,1,0,0:0:0:0:
225,272,76585,1,0,0:0:0:0:
178,91,76728,1,0,0:0:0:0:
383,42,76871,6,0,L|375:201,1,150
194,92,77157,2,0,L|200:246,1,150
399,291,77442,1,0,0:0:0:0:
277,71,77585,1,0,0:0:0:0:
208,278,77728,1,0,0:0:0:0:
354,123,77871,1,0,0:0:0:0:
194,72,78014,6,0,L|35:90,1,150
186,275,78300,2,0,L|34:270,1,150
221,189,78585,1,0,0:0:0:0:
263,318,78728,1,0,0:0:0:0:
391,196,78871,1,0,0:0:0:0:
204,174,79014,1,0,0:0:0:0:
453,128,79157,6,0,B|471:185|471:185|460:315,1,150
254,234,79442,2,0,B|236:177|236:177|247:47,1,150
350,233,79728,1,0,0:0:0:0:
205,313,79871,1,0,0:0:0:0:
323,31,80014,6,0,L|310:206,1,112.500004291535
326,153,80157,6,0,L|330:96,1,37.5
239,56,80300,6,0,L|226:231,1,150
437,199,80585,2,0,L|422:41,1,150
225,64,80871,1,0,0:0:0:0:
357,233,81014,1,0,0:0:0:0:
356,46,81157,1,0,0:0:0:0:
234,243,81300,1,0,0:0:0:0:
73,89,81442,6,0,P|164:55|221:58,1,150
84,253,81728,2,0,B|64:199|64:199|70:72,1,150
213,272,82014,1,0,0:0:0:0:
244,80,82157,1,0,0:0:0:0:
102,235,82300,1,0,0:0:0:0:
314,217,82442,1,0,0:0:0:0:
91,209,82585,6,0,L|97:369,1,150
323,354,82871,2,0,L|336:196,1,150
193,39,83157,1,0,0:0:0:0:
230,209,83300,1,0,0:0:0:0:
314,53,83442,1,0,0:0:0:0:
126,104,83585,1,0,0:0:0:0:
330,199,83728,6,0,B|359:166|422:179|422:179|356:149|361:64|430:36|478:67|478:67|515:96|521:133|512:198|487:242|457:239|495:342|495:342|421:311|390:260|390:260|366:278|324:286,1,787.500030040742
348,280,84300,6,0,B|316:297|278:302|278:302|240:281|219:274|219:274|170:304|97:286,1,225.000008583069
91,90,84585,6,0,P|211:105|91:198,1,337.500012874604
83,185,84871,6,0,L|98:344,1,150
271,362,85157,2,0,L|281:187,1,150
146,144,85442,1,0,0:0:0:0:
359,206,85585,1,0,0:0:0:0:
190,279,85728,1,0,0:0:0:0:
271,54,85871,1,0,0:0:0:0:
381,220,86014,6,0,B|381:275|381:275|356:367,1,150
163,139,86300,2,0,L|350:130,1,150
99,224,86585,1,0,0:0:0:0:
144,31,86728,1,0,0:0:0:0:
257,245,86871,1,0,0:0:0:0:
50,129,87014,1,0,0:0:0:0:
227,57,87157,6,0,L|376:49,1,150
419,264,87442,2,0,L|269:256,1,150
75,133,87728,1,0,0:0:0:0:
175,291,87871,1,0,0:0:0:0:
15,222,88014,1,0,0:0:0:0:
261,160,88157,1,0,0:0:0:0:
62,0,88300,6,0,B|46:40|46:40|60:165,1,150
280,63,88585,2,0,L|106:54,1,150
277,178,88871,1,0,0:0:0:0:
380,32,89014,1,0,0:0:0:0:
443,260,89157,6,0,L|310:266,1,112.500004291535
316,257,89300,6,0,L|372:254,1,37.5
499,332,89442,6,0,L|349:338,1,150
440,174,89728,2,0,L|290:180,1,150
477,53,90014,1,0,0:0:0:0:
476,256,90157,1,0,0:0:0:0:
284,101,90300,1,0,0:0:0:0:
377,255,90442,1,0,0:0:0:0:
362,74,90585,6,0,B|294:53|294:53|157:55,1,150
154,233,90871,2,0,L|323:213,1,150
100,122,91157,1,0,0:0:0:0:
159,337,91300,1,0,0:0:0:0:
260,54,91442,5,0,0:0:0:0:
66,34,91585,1,0,0:0:0:0:
66,34,91728,2,0,B|51:82|70:118|102:146|102:146|148:160|220:146|220:146|145:166|115:268|115:268|232:209|335:223|335:223|303:320|217:313,1,787.500030040742
232,313,92300,6,0,P|368:320|464:388,1,225.000008583069
502,205,92585,6,0,B|507:191|495:167|495:167|472:128|408:121|379:158|366:192|389:253|389:253|348:237|310:237|310:237|295:200|310:140|343:102|343:102|264:180|205:233|205:233|235:186|230:125|230:125|208:11|96:2|3:50|-5:149|86:266|160:197,1,1237.50004720688
160,197,93442,6,0,B|136:275|80:300|80:300|-70:241|-43:57,1,382.500007295609
108,47,93728,6,0,P|251:59|236:315,1,450
243,310,94014,6,0,L|442:321,1,150
212,80,94300,1,0,0:0:0:0:
149,328,94442,1,0,0:0:0:0:
387,91,94585,6,0,L|203:103,1,150
457,354,94871,1,0,0:0:0:0:
483,62,95014,1,0,0:0:0:0:
185,53,95157,6,0,L|204:213,1,150
19,34,95442,1,0,0:0:0:0:
193,320,95585,1,0,0:0:0:0:
12,351,95728,6,0,L|29:202,1,150
271,79,96014,1,0,0:0:0:0:
103,330,96157,1,0,0:0:0:0:
94,70,96300,6,0,L|256:59,1,150
129,335,96585,1,0,0:0:0:0:
9,120,96728,1,0,0:0:0:0:
296,268,96871,6,0,L|146:257,1,150
348,38,97157,1,0,0:0:0:0:
393,300,97300,1,0,0:0:0:0:
157,46,97442,6,0,L|148:210,1,150
365,56,97728,1,0,0:0:0:0:
35,56,97871,1,0,0:0:0:0:
144,223,98014,6,0,B|201:241|201:241|355:225,1,150
199,46,98300,6,0,L|191:161,1,112.500004291535
206,165,98442,6,0,L|208:127,1,37.5
124,0,98585,6,0,L|113:151,1,150
423,44,98871,1,0,0:0:0:0:
188,60,99014,1,0,0:0:0:0:
301,328,99157,6,0,L|310:176,1,150
54,203,99442,1,0,0:0:0:0:
283,341,99585,1,0,0:0:0:0:
218,174,99728,6,0,L|56:186,1,150
267,354,100014,1,0,0:0:0:0:
273,53,100157,1,0,0:0:0:0:
456,273,100300,6,0,L|306:261,1,150
33,255,100585,1,0,0:0:0:0:
311,177,100728,1,0,0:0:0:0:
103,33,100871,6,0,L|92:196,1,150
255,352,101157,1,0,0:0:0:0:
191,55,101300,1,0,0:0:0:0:
80,347,101442,6,0,L|261:330,1,150
108,55,101728,1,0,0:0:0:0:
6,308,101871,1,0,0:0:0:0:
229,206,102014,6,0,L|211:51,1,150
41,200,102300,1,0,0:0:0:0:
304,289,102442,1,0,0:0:0:0:
455,104,102585,6,0,B|366:46|366:46|261:46,1,202.499993820191
255,76,102871,2,0,B|344:134|344:134|449:134,1,202.499993820191
355,90,103157,6,0,B|350:138|350:138|372:285,1,150
499,17,103442,1,0,0:0:0:0:
239,55,103585,1,0,0:0:0:0:
424,316,103728,6,0,B|442:255|442:255|450:154,1,150
226,73,104014,1,0,0:0:0:0:
318,331,104157,1,0,0:0:0:0:
406,46,104300,6,0,L|238:36,1,150
24,167,104585,1,0,0:0:0:0:
357,128,104728,1,0,0:0:0:0:
117,4,104871,6,0,L|111:170,1,150
245,344,105157,1,0,0:0:0:0:
195,57,105300,1,0,0:0:0:0:
348,292,105442,6,0,L|342:142,1,150
444,344,105728,1,0,0:0:0:0:
151,286,105871,1,0,0:0:0:0:
216,63,106014,6,0,L|223:219,1,150
426,77,106300,1,0,0:0:0:0:
134,27,106442,1,0,0:0:0:0:
230,279,106585,6,0,B|243:194|243:194|236:72,1,202.499993820191
236,45,106871,2,0,B|223:130|223:130|230:252,1,202.499993820191
148,301,107157,6,0,P|69:306|37:289,1,97.4999955368044
1,216,107300,2,0,L|0:104,1,97.4999955368044
52,11,107442,6,0,P|136:-6|228:28,1,120
149,118,107585,2,0,P|125:104|143:109,1,120
129,124,107728,6,0,B|331:149,1,150
137,287,108014,1,0,0:0:0:0:
59,30,108157,1,0,0:0:0:0:
397,72,108300,6,0,B|195:47,1,150
484,33,108585,1,0,0:0:0:0:
389,317,108728,1,0,0:0:0:0:
241,69,108871,6,0,L|251:220,1,150
62,91,109157,1,0,0:0:0:0:
322,22,109300,1,0,0:0:0:0:
160,314,109442,6,0,B|158:258|158:258|169:164,1,150
396,265,109728,6,0,P|324:286|224:255,1,168.750006437302
235,262,110014,6,0,L|231:211,1,37.5
252,34,110157,2,0,L|256:85,1,37.5
240,265,110300,6,0,L|231:214,1,37.5
246,31,110443,2,0,L|254:82,1,37.5
245,268,110585,6,0,L|232:217,1,37.5
241,28,110728,2,0,L|254:78,1,37.5
251,270,110871,6,0,L|233:221,1,37.5
236,26,111014,2,0,L|253:74,1,37.5
448,176,111157,6,0,P|422:180|383:174,1,37.5
337,151,111300,2,0,P|290:142|275:145,1,37.5
229,163,111442,6,0,P|185:166|150:160,1,75
79,172,111585,2,0,P|45:286|51:294,1,75
115,355,111728,6,0,L|109:222,1,112.500004291535
129,233,111871,6,0,L|131:289,1,37.5
219,341,112014,6,0,B|283:376|371:379|440:345|440:345|432:282|339:230,1,337.500012874604
381,257,112300,6,0,P|370:224|396:91,1,150
354,33,112514,1,0,0:0:0:0:
354,33,112585,2,0,L|229:37,1,75
136,82,112728,2,0,L|261:86,1,75
281,110,112871,2,0,P|295:201|246:260,1,150
116,227,113085,1,0,0:0:0:0:
116,227,113157,2,0,P|102:136|151:77,1,150
446,123,113442,6,0,L|250:140,1,150
476,332,113728,2,0,L|280:315,1,150
462,28,114014,2,0,L|266:45,1,150
503,247,114300,2,0,L|307:230,1,150
189,171,114585,6,0,P|102:222|92:284,1,150
191,337,114800,1,0,0:0:0:0:
191,337,114871,2,0,L|187:262,1,75
273,146,115014,2,0,L|269:220,1,75
314,281,115157,2,0,P|408:313|481:297,1,150
484,137,115371,1,0,0:0:0:0:
484,137,115442,2,0,P|390:105|317:121,1,150
51,174,115728,6,0,L|247:191,1,150
267,134,116014,6,0,P|176:27|10:117,1,337.500012874604
51,174,116300,6,0,L|64:335,1,150
280,350,116585,6,0,L|289:237,1,112.500004291535
282,219,116728,6,0,L|278:256,1,37.5
353,383,116871,6,0,L|365:225,1,150
356,55,117085,1,0,0:0:0:0:
356,55,117157,2,0,P|437:98|450:120,1,75
476,192,117300,2,0,P|395:149|382:127,1,75
275,89,117442,2,0,P|188:75|127:108,1,150
148,258,117657,1,0,0:0:0:0:
148,258,117728,2,0,P|235:272|296:239,1,150
124,18,118014,6,0,L|104:200,1,150
355,74,118300,2,0,L|375:256,1,150
34,76,118585,2,0,L|14:258,1,150
262,34,118871,2,0,L|282:216,1,150
115,340,119157,6,0,P|98:236|210:198,1,225.000008583069
319,279,119442,6,0,B|277:296|277:296|174:277,1,150
192,192,119657,5,0,0:0:0:0:
192,192,119728,2,0,L|198:120,1,56.2500021457673
287,91,119871,2,0,L|283:148,1,56.2500021457673
165,186,120014,6,0,L|196:101,1,56.2500021457673
313,97,120157,2,0,L|290:163,1,56.2500021457673
136,172,120300,6,0,L|176:114,1,56.2500021457673
343,111,120443,2,0,L|303:169,1,56.2500021457673
104,144,120585,6,0,L|171:88,1,56.2500021457673
374,138,120728,2,0,L|307:195,1,56.2500021457673
75,101,120871,6,0,L|139:71,1,56.2500021457673
404,182,121014,2,0,L|340:212,1,56.2500021457673
192,192,121157,6,0,B|172:246|172:246|183:306,1,112.5
260,363,121442,6,0,B|266:275|266:275|261:253|261:253|270:235|270:235|283:91,1,225.000008583069
434,43,121657,5,0,0:0:0:0:
434,43,121728,2,0,P|446:125|439:141,1,75
418,253,121871,2,0,P|406:171|413:155,1,75
349,81,122014,2,0,P|243:64|188:87,1,150
201,276,122228,1,0,0:0:0:0:
201,276,122300,2,0,P|307:293|362:270,1,150
128,87,122585,6,0,L|117:262,1,150
323,41,122871,2,0,L|334:216,1,150
47,34,123157,2,0,L|36:209,1,150
126,321,123442,5,0,0:0:0:0:
349,210,123585,1,0,0:0:0:0:
18,178,123728,6,0,P|13:135|22:103,1,75
122,2,123871,2,0,P|127:45|117:76,1,75
106,205,124014,2,0,P|177:260|261:241,1,150
290,108,124228,1,0,0:0:0:0:
290,108,124300,2,0,P|219:53|135:72,1,150
283,326,124585,2,0,B|306:280|306:280|313:165,1,150
354,37,124800,5,0,0:0:0:0:
354,37,124871,2,0,P|399:83|434:85,1,75
436,177,125014,2,0,P|373:192|354:222,1,75
274,177,125157,6,0,P|291:115|170:200,1,337.500012874604
264,315,125442,6,0,P|238:252|211:227,1,75
209,125,125585,2,0,P|183:188|156:213,1,75
37,340,125728,6,0,L|241:330,1,112.500004291535
166,317,125871,6,0,L|128:318,1,37.5
25,226,126014,6,0,P|28:131|105:88,1,150
172,171,126228,5,0,0:0:0:0:
172,171,126300,2,0,L|38:181,1,75
0,85,126442,2,0,L|134:95,1,75
305,118,126585,2,0,P|357:54|339:-17,1,150
223,101,126800,1,0,0:0:0:0:
223,101,126871,2,0,B|220:129|220:129|239:277,1,150
402,363,127157,6,0,L|406:199,1,150
100,326,127442,2,0,L|96:162,1,150
322,309,127728,2,0,L|326:145,1,150
3,364,128014,2,0,L|-1:200,1,150
133,111,128228,5,0,0:0:0:0:
133,111,128300,2,0,P|153:166|127:149,1,150
212,36,128585,2,0,P|264:100|259:181,1,150
43,134,128871,2,0,P|72:56|145:20,1,150
212,231,129157,2,0,P|130:244|62:199,1,150
187,125,129442,6,0,P|140:161|148:102,1,150.749992869187
156,134,129728,6,0,B|156:189|148:239|148:239|137:254|137:254|145:271|145:271|142:331|137:382|137:382|137:393,1,247.500007553101
58,328,130014,6,0,P|34:238|79:165,1,168.750006437302
156,134,130300,6,0,P|262:82|197:-1,1,225
191,71,130585,6,0,L|206:243,1,150
287,343,130800,1,0,0:0:0:0:
287,343,130871,2,0,L|300:193,1,150
491,133,131157,2,0,P|400:220|337:212,1,150
282,108,131371,1,0,0:0:0:0:
282,108,131442,2,0,P|373:21|436:29,1,150
239,231,131728,6,0,L|236:144,1,56.2500021457673
106,46,131871,2,0,L|108:120,1,56.2500021457673
150,231,132014,2,0,L|147:144,1,56.2500021457673
195,46,132156,2,0,L|197:120,1,56.2500021457673
59,174,132300,6,0,P|30:222|48:340,1,150
204,344,132514,1,0,0:0:0:0:
204,344,132585,2,0,P|233:296|215:178,1,150
461,50,132871,6,0,P|471:182|298:166,1,337.500012874604
376,47,133157,6,0,P|386:83|389:121,1,75
314,280,133300,2,0,P|303:244|301:206,1,75
249,93,133442,2,0,P|159:46|90:82,1,150
83,190,133657,1,0,0:0:0:0:
83,190,133728,2,0,P|173:237|242:201,1,150
24,118,134014,1,0,0:0:0:0:
49,341,134156,1,0,0:0:0:0:
249,93,134300,6,0,P|341:209|196:195,1,337.500012874604
176,56,134585,6,0,P|166:101|181:142,1,75
214,309,134728,2,0,P|224:273|217:236,1,75
271,170,134871,6,0,L|481:163,1,112.500004291535
397,149,135014,6,0,L|340:150,1,37.5
273,252,135157,6,0,L|483:245,1,150
429,63,135442,2,0,L|279:58,1,150
207,192,135657,1,0,0:0:0:0:
207,192,135728,2,0,P|192:292|234:333,1,150
422,247,136014,2,0,L|273:252,1,150
3,114,136300,6,0,L|152:118,1,150
94,344,136585,2,0,L|243:339,1,150
94,40,136871,2,0,L|243:44,1,150
3,270,137157,6,0,L|77:267,1,56.2500021457673
77,256,137300,2,0,L|20:257,1,56.2500021457673
0,190,137442,6,0,P|57:148|129:193,1,179.999994506836
185,311,137657,5,0,0:0:0:0:
185,311,137729,2,0,P|228:328|311:317,1,75
396,295,137871,2,0,P|353:278|270:289,1,75
165,346,138014,6,0,P|211:353|258:347,1,75
415,259,138156,2,0,P|369:252|322:258,1,75
172,148,138300,6,0,B|145:136|145:136|300:128,1,150
72,21,138585,1,0,0:0:0:0:
72,227,138728,1,0,0:0:0:0:
251,56,138871,6,0,L|194:58,1,56.2500021457673
18,103,139014,2,0,L|74:100,1,56.2500021457673
254,20,139157,6,0,L|197:22,1,56.2500021457673
14,138,139300,2,0,L|70:135,1,56.2500021457673
314,236,139442,6,0,B|277:260|277:260|120:252,1,157.499995193482
167,85,139728,6,0,P|255:149|252:187,1,150
164,312,139942,1,0,0:0:0:0:
164,312,140014,2,0,L|178:146,1,150
373,338,140300,2,0,L|359:172,1,150
72,353,140585,2,0,L|86:187,1,150
192,71,140800,5,0,0:0:0:0:
192,71,140871,2,0,P|136:46|117:45,1,75
0,81,141014,2,0,P|56:106|75:107,1,75
236,144,141157,2,0,P|351:207|357:267,1,150
276,333,141371,1,0,0:0:0:0:
276,333,141442,2,0,P|161:270|155:210,1,150
277,65,141728,1,0,0:0:0:0:
257,239,141871,1,0,0:0:0:0:
53,98,142014,6,0,L|202:112,1,150
69,333,142300,2,0,L|218:318,1,150
134,25,142585,2,0,L|283:39,1,150
14,241,142871,2,0,L|163:226,1,150
320,144,143085,5,0,0:0:0:0:
320,144,143157,2,0,P|300:191|263:213,1,75
196,329,143300,2,0,P|216:282|253:260,1,75
402,187,143442,6,0,P|397:89|237:91,1,247.500007553101
269,59,143728,6,0,P|194:84|90:54,1,150
0,230,144014,1,0,0:0:0:0:
301,166,144157,1,0,0:0:0:0:
106,54,144300,2,0,L|92:236,1,150
324,330,144585,2,0,L|312:180,1,150
428,75,144800,5,0,0:0:0:0:
428,75,144871,2,0,P|439:130|379:223,1,150
228,174,145085,1,0,0:0:0:0:
228,174,145156,2,0,P|217:119|277:26,1,150
479,232,145442,6,0,L|291:246,1,150
352,13,145728,1,0,0:0:0:0:
472,244,145871,2,0,L|466:329,1,75
307,380,146014,6,0,L|293:186,1,150
405,374,146300,1,0,0:0:0:0:
198,236,146442,1,0,0:0:0:0:
317,131,146585,6,0,B|357:135|397:98|397:98|331:37|279:57|255:88|255:88|220:89|191:79|191:79|143:95|78:93,1,393.750015020371
115,92,147157,6,0,B|85:103|59:122|59:122|75:174|65:251|65:251|83:184|174:148|270:196|259:297|237:351|174:372|125:363|125:363|145:279|145:279|312:298|312:298|324:181|265:143|203:115|203:115|291:130|334:109|334:109|388:180|390:224|394:256|394:256|415:221|452:221|452:221,1,1431.75002075443
462,219,148871,6,0,P|523:346|398:338,1,314.999990386963
256,192,149942,12,0,152871,0:0:0:0:
389,169,167157,6,0,L|387:231,1,60
389,169,171442,6,0,L|387:231,2,60
389,169,175442,6,0,L|387:231,1,60
387,228,176014,6,0,L|389:169,2,60
389,169,180442,6,0,L|387:231,1,60
387,228,180871,2,0,L|389:169,1,60
368,156,181442,6,0,L|366:218,1,60
347,143,182014,2,0,L|345:205,1,60
326,130,182585,2,0,L|324:192,1,60
305,117,183157,6,0,L|303:179,1,60
237,296,183442,2,0,L|238:236,1,60
284,104,183728,2,0,L|282:166,1,60
216,283,184014,2,0,L|218:221,1,60
361,236,184300,6,0,L|286:233,1,60
138,151,184442,2,0,L|213:153,1,60
380,206,184585,2,0,L|305:203,1,60
119,180,184727,2,0,L|199:161,1,60
392,170,184871,2,0,L|312:213,1,60
107,216,185013,2,0,L|187:173,1,60
395,128,185157,2,0,L|322:196,1,60
104,258,185299,2,0,L|177:190,1,60
