osu file format v14

[General]
AudioFilename: audio.mp3
AudioLeadIn: 0
PreviewTime: 217305
Countdown: 0
SampleSet: Normal
StackLeniency: 0.7
Mode: 1
LetterboxInBreaks: 0
WidescreenStoryboard: 0

[Editor]
DistanceSpacing: 1.8
BeatDivisor: 4
GridSize: 32
TimelineZoom: 3.099999

[Metadata]
Title:C18H27NO3(extend)
TitleUnicode:C18H27NO3(extend)
Artist:Team Grimoire
ArtistUnicode:Team Grimoire
Creator:komasy
Version:Capsaicin
Source:SOUND VOLTEX II -infinite infection-
Tags:Grimoire of Crimson pop'n music Sunny Park SDVX カプサイシン 制作決定記念 オリジナル楽曲コンテスト Production Confirmation Commemorative Original Song Contest Hardcore Gabba
BeatmapID:1474500
BeatmapSetID:695981

[Difficulty]
HPDrainRate:4
CircleSize:2
OverallDifficulty:7
ApproachRate:10
SliderMultiplier:1.4
SliderTickRate:1

[Events]
//Background and Video events
0,0,"bg.jpg",0,40
//Break Periods
2,39291,47034
//Storyboard Layer 0 (Background)
//Storyboard Layer 1 (Fail)
//Storyboard Layer 2 (Pass)
//Storyboard Layer 3 (Foreground)
//Storyboard Sound Samples

[TimingPoints]
2520,285.714285714286,4,1,0,70,1,0
3091,-133.333333333333,4,1,0,70,0,0
28805,-114.285714285714,4,1,0,70,0,0
29877,-100,4,1,0,80,0,0
39162,-100,4,1,0,40,0,0
40234,-105.263157894737,4,1,0,40,0,0
41377,-111.111111111111,4,1,0,40,0,0
42520,-117.647058823529,4,1,0,40,0,0
43662,-125,4,1,0,40,0,0
44805,-133.333333333333,4,1,0,40,0,0
45948,-142.857142857143,4,1,0,40,0,0
47091,-153.846153846154,4,1,0,40,0,0
48234,-133.333333333333,4,1,0,70,0,0
50520,-125,4,1,0,75,0,0
52805,-117.647058823529,4,1,0,80,0,0
55091,-111.111111111111,4,1,0,85,0,0
56234,-105.263157894737,4,1,0,90,0,0
57377,-33.3333333333333,4,1,0,20,0,1
58448,-100,4,1,0,90,0,0
58520,-100,4,1,0,90,0,0
131805,-100,4,1,0,70,0,0
132234,-100,4,1,0,60,0,0
132805,-105.263157894737,4,1,0,50,0,0
133377,-100,4,1,0,40,0,0
133948,-111.111111111111,4,1,0,30,0,0
134520,-100,4,1,0,20,0,0
135091,-117.647058823529,4,1,0,20,0,0
136234,-125,4,1,0,50,0,0
137377,-133.333333333333,4,1,0,50,0,0
138520,-142.857142857143,4,1,0,50,0,0
139662,-153.846153846154,4,1,0,50,0,0
140805,-200,4,1,0,50,0,0
149948,-161.290322580645,4,1,0,60,0,0
158805,-158.730158730159,4,1,0,60,0,0
158948,-156.25,4,1,0,60,0,0
159091,-153.846153846154,4,1,0,60,0,0
163520,-151.515151515152,4,1,0,60,0,0
163591,-149.253731343284,4,1,0,60,0,0
163662,-147.058823529412,4,1,0,60,0,0
165662,-144.927536231884,4,1,0,60,0,0
165758,-142.857142857143,4,1,0,60,0,0
165853,-140.845070422535,4,1,0,60,0,0
165948,-138.888888888889,4,1,0,60,0,0
168162,-161.290322580645,4,1,0,90,0,0
168234,-133.333333333333,4,1,0,90,0,1
186448,-114.942528735632,4,1,0,90,0,1
204734,-100,4,1,0,85,0,0
215091,-33.3333333333333,4,1,0,85,0,1
216234,-55.5555555555556,4,1,0,85,0,0
216305,-57.1428571428571,4,1,0,85,0,0
216377,-58.8235294117647,4,1,0,85,0,0
216448,-60.6060606060606,4,1,0,85,0,0
216520,-62.5,4,1,0,85,0,0
216591,-64.5161290322581,4,1,0,85,0,0
216662,-66.6666666666667,4,1,0,85,0,0
216734,-68.9655172413793,4,1,0,85,0,0
216805,-71.4285714285714,4,1,0,85,0,0
216877,-74.0740740740741,4,1,0,85,0,0
216948,-76.9230769230769,4,1,0,85,0,0
217020,-80,4,1,0,85,0,0
217091,-83.3333333333333,4,1,0,85,0,0
217162,-86.9565217391304,4,1,0,85,0,0
217234,-90.9090909090909,4,1,0,85,0,0
217305,-95.2380952380952,4,1,0,85,0,0
217377,-100,4,1,0,95,0,1
234520,-100,4,1,0,95,0,0
235662,-100,4,1,0,95,0,1
253948,-100,4,1,0,95,0,0
254020,-100,4,1,0,70,0,0
255091,-100,4,1,0,60,0,0
256234,-100,4,1,0,50,0,0
260734,-100,4,1,0,90,0,0
297377,-100,4,1,0,90,0,1
315662,-100,4,1,0,80,0,0
315734,-100,4,1,0,50,0,0
317662,-106.382978723404,4,1,0,50,0,0
317948,-114.942528735632,4,1,0,50,0,0
319948,-123.456790123457,4,1,0,50,0,0
320234,-133.333333333333,4,1,0,40,0,0
322234,-144.927536231884,4,1,0,40,0,0
322519,-161.290322580645,4,1,0,40,0,0
324520,-178.571428571429,4,1,0,40,0,0
324734,-178.571428571429,4,1,0,30,0,0
324805,-200,4,1,0,30,0,0

[HitObjects]
320,192,2520,5,4,0:0:0:0:
320,192,3091,1,0,0:0:0:0:
320,192,3662,1,8,0:0:0:0:
320,192,4234,1,0,0:0:0:0:
320,192,4805,1,0,0:0:0:0:
320,192,5377,1,0,0:0:0:0:
320,192,5948,1,8,0:0:0:0:
320,192,6520,1,0,0:0:0:0:
320,192,6805,1,0,0:0:0:0:
320,192,7091,1,0,0:0:0:0:
320,192,7662,1,0,0:0:0:0:
320,192,8234,1,8,0:0:0:0:
320,192,8805,1,0,0:0:0:0:
320,192,9377,1,0,0:0:0:0:
320,192,9948,1,0,0:0:0:0:
320,192,10520,1,8,0:0:0:0:
320,192,11091,1,0,0:0:0:0:
320,192,11377,1,0,0:0:0:0:
320,192,11520,1,0,0:0:0:0:
320,192,11662,1,0,0:0:0:0:
320,192,11948,1,8,0:0:0:0:
320,192,12234,1,0,0:0:0:0:
384,192,12520,1,8,0:0:0:0:
384,192,12805,1,0,0:0:0:0:
384,192,13091,1,8,0:0:0:0:
384,192,13234,1,0,0:0:0:0:
384,192,13377,1,0,0:0:0:0:
384,192,13662,1,8,0:0:0:0:
384,192,13948,1,0,0:0:0:0:
352,224,14520,1,0,0:0:0:0:
352,224,15091,1,8,0:0:0:0:
352,224,15662,1,0,0:0:0:0:
352,224,15948,1,0,0:0:0:0:
352,224,16234,1,0,0:0:0:0:
352,224,16520,1,8,0:0:0:0:
352,224,16805,1,0,0:0:0:0:
352,224,17091,1,8,0:0:0:0:
352,224,17377,1,0,0:0:0:0:
352,224,17662,1,8,0:0:0:0:
416,160,17805,1,8,0:0:0:0:
416,256,17948,1,0,0:0:0:0:
416,256,18234,1,8,0:0:0:0:
416,256,18520,1,0,0:0:0:0:
416,256,19091,1,0,0:0:0:0:
416,256,19662,1,8,0:0:0:0:
416,256,20234,1,0,0:0:0:0:
416,256,20520,1,0,0:0:0:0:
416,256,20662,1,0,0:0:0:0:
416,256,20805,1,0,0:0:0:0:
416,256,21091,1,8,0:0:0:0:
416,256,21377,1,0,0:0:0:0:
416,256,21662,1,8,0:0:0:0:
416,256,21948,1,0,0:0:0:0:
416,256,22234,1,8,0:0:0:0:
416,256,22377,1,0,0:0:0:0:
416,256,22520,1,0,0:0:0:0:
416,256,22805,1,8,0:0:0:0:
416,256,23091,1,0,0:0:0:0:
416,256,23662,1,0,0:0:0:0:
416,256,24234,1,8,0:0:0:0:
416,256,24805,1,0,0:0:0:0:
416,256,25091,1,0,0:0:0:0:
416,256,25377,1,0,0:0:0:0:
416,256,25662,1,8,0:0:0:0:
416,256,25948,1,0,0:0:0:0:
416,256,26234,1,8,0:0:0:0:
416,256,26520,1,0,0:0:0:0:
416,256,26805,1,8,0:0:0:0:
416,256,26948,1,8,0:0:0:0:
416,256,27091,1,0,0:0:0:0:
416,256,27377,1,8,0:0:0:0:
416,256,27662,1,0,0:0:0:0:
416,256,28234,1,0,0:0:0:0:
416,256,28805,1,8,0:0:0:0:
416,256,28948,1,0,0:0:0:0:
480,288,29091,1,8,0:0:0:0:
480,288,29305,1,0,0:0:0:0:
480,288,29377,1,0,0:0:0:0:
480,288,29520,1,8,0:0:0:0:
480,288,29662,1,0,0:0:0:0:
448,256,29734,1,0,0:0:0:0:
480,288,29805,1,0,0:0:0:0:
384,224,29948,1,4,0:0:0:0:
160,160,30234,1,8,0:0:0:0:
256,192,30377,1,0,0:0:0:0:
384,224,30520,1,8,0:0:0:0:
384,224,30591,1,0,0:0:0:0:
384,224,30662,1,8,0:0:0:0:
288,160,30805,1,0,0:0:0:0:
384,192,30948,1,8,0:0:0:0:
352,160,31020,1,8,0:0:0:0:
384,192,31091,1,0,0:0:0:0:
288,128,31234,1,0,0:0:0:0:
384,192,31377,1,8,0:0:0:0:
352,160,31448,1,0,0:0:0:0:
352,160,31591,1,0,0:0:0:0:
352,160,31662,1,8,0:0:0:0:
256,192,31805,1,8,0:0:0:0:
256,192,31948,1,0,0:0:0:0:
320,160,32020,1,0,0:0:0:0:
288,160,32091,1,8,0:0:0:0:
224,224,32162,1,8,0:0:0:0:
288,192,32234,1,0,0:0:0:0:
384,192,32377,1,0,0:0:0:0:
384,192,32520,1,8,0:0:0:0:
384,192,32662,1,0,0:0:0:0:
384,192,32734,1,0,0:0:0:0:
384,192,32805,1,8,0:0:0:0:
384,192,32948,1,0,0:0:0:0:
384,192,33091,1,8,0:0:0:0:
384,192,33234,1,8,0:0:0:0:
384,192,33305,1,0,0:0:0:0:
384,192,33377,1,8,0:0:0:0:
384,192,33520,1,0,0:0:0:0:
288,256,33662,1,8,0:0:0:0:
256,192,33734,1,8,0:0:0:0:
384,192,33805,1,0,0:0:0:0:
320,224,33877,1,8,0:0:0:0:
320,224,33948,1,0,0:0:0:0:
224,192,34091,1,0,0:0:0:0:
128,128,34234,1,8,0:0:0:0:
224,160,34377,1,8,0:0:0:0:
256,160,34448,1,8,0:0:0:0:
288,160,34520,1,0,0:0:0:0:
384,224,34662,1,0,0:0:0:0:
352,128,34805,1,8,0:0:0:0:
384,256,34948,1,0,0:0:0:0:
384,128,35091,1,8,0:0:0:0:
384,224,35162,1,0,0:0:0:0:
384,128,35234,1,8,0:0:0:0:
384,192,35305,1,8,0:0:0:0:
384,192,35377,1,0,0:0:0:0:
384,192,35520,1,0,0:0:0:0:
288,256,35662,1,8,0:0:0:0:
320,224,35734,1,0,0:0:0:0:
352,192,35805,1,0,0:0:0:0:
352,192,35948,1,8,0:0:0:0:
352,192,36091,1,0,0:0:0:0:
352,192,36162,1,0,0:0:0:0:
352,192,36234,1,8,0:0:0:0:
352,192,36305,1,0,0:0:0:0:
352,192,36377,1,8,0:0:0:0:
352,192,36520,1,0,0:0:0:0:
352,192,36662,1,8,0:0:0:0:
352,192,36734,1,8,0:0:0:0:
352,192,36805,1,0,0:0:0:0:
352,192,36948,1,0,0:0:0:0:
352,192,37091,1,8,0:0:0:0:
352,192,37234,1,0,0:0:0:0:
352,192,37305,1,0,0:0:0:0:
352,192,37377,1,8,0:0:0:0:
352,192,37520,1,0,0:0:0:0:
352,192,37662,1,8,0:0:0:0:
352,192,37734,1,8,0:0:0:0:
352,192,37805,1,0,0:0:0:0:
352,192,37877,1,0,0:0:0:0:
352,192,37948,1,8,0:0:0:0:
384,256,38020,1,0,0:0:0:0:
352,192,38091,1,8,0:0:0:0:
416,160,38162,1,8,0:0:0:0:
352,192,38234,1,0,0:0:0:0:
416,160,38305,1,8,0:0:0:0:
352,192,38377,1,0,0:0:0:0:
384,160,38448,1,0,0:0:0:0:
416,128,38520,1,8,0:0:0:0:
320,224,38662,1,0,0:0:0:0:
384,160,38734,1,0,0:0:0:0:
384,160,38805,1,8,0:0:0:0:
384,160,38877,1,8,0:0:0:0:
384,160,38948,1,8,0:0:0:0:
384,160,39091,1,4,0:0:0:0:
352,256,48234,5,0,0:0:0:0:
352,256,48520,1,0,0:0:0:0:
416,256,48805,1,8,0:0:0:0:
416,256,49091,1,0,0:0:0:0:
448,288,49377,1,8,0:0:0:0:
448,288,49662,1,8,0:0:0:0:
448,288,49805,1,8,0:0:0:0:
448,288,49948,1,0,0:0:0:0:
448,288,50234,1,8,0:0:0:0:
448,288,50520,1,0,0:0:0:0:
448,288,50805,1,0,0:0:0:0:
448,288,51091,1,8,0:0:0:0:
448,288,51377,1,0,0:0:0:0:
448,288,51662,1,8,0:0:0:0:
448,288,51949,1,8,0:0:0:0:
448,288,52091,1,0,0:0:0:0:
448,288,52234,1,8,0:0:0:0:
192,224,52520,1,8,0:0:0:0:
192,224,52805,1,0,0:0:0:0:
384,64,53091,1,8,0:0:0:0:
192,224,53377,1,0,0:0:0:0:
416,64,53662,1,8,0:0:0:0:
192,224,53948,1,0,0:0:0:0:
224,224,54234,1,8,0:0:0:0:
224,224,54377,1,8,0:0:0:0:
224,224,54520,1,0,0:0:0:0:
448,128,54805,1,8,0:0:0:0:
224,224,55091,1,0,0:0:0:0:
224,224,55377,1,8,0:0:0:0:
448,128,55662,1,0,0:0:0:0:
480,160,55948,1,8,0:0:0:0:
256,224,56234,1,0,0:0:0:0:
480,192,56520,1,8,0:0:0:0:
352,160,56662,1,0,0:0:0:0:
224,96,56805,1,8,0:0:0:0:
448,256,57091,1,8,0:0:0:0:
320,160,58520,1,4,0:0:0:0:
128,320,58805,1,0,0:0:0:0:
320,160,59091,1,0,0:0:0:0:
128,320,59377,1,0,0:0:0:0:
320,160,59662,1,0,0:0:0:0:
128,320,59948,1,0,0:0:0:0:
320,160,60234,1,0,0:0:0:0:
128,320,60520,1,0,0:0:0:0:
320,160,60805,1,0,0:0:0:0:
128,288,61091,1,0,0:0:0:0:
320,160,61377,1,0,0:0:0:0:
128,320,61662,1,0,0:0:0:0:
320,160,61948,1,0,0:0:0:0:
128,320,62234,1,0,0:0:0:0:
320,160,62520,1,0,0:0:0:0:
166,285,62805,1,8,0:0:0:0:
256,224,62948,1,8,0:0:0:0:
288,128,63091,1,0,0:0:0:0:
224,352,63377,1,0,0:0:0:0:
288,96,63662,1,0,0:0:0:0:
256,352,63948,1,0,0:0:0:0:
288,96,64234,1,0,0:0:0:0:
256,352,64520,1,0,0:0:0:0:
288,96,64805,1,0,0:0:0:0:
256,352,65091,1,0,0:0:0:0:
288,96,65377,1,0,0:0:0:0:
256,352,65662,1,0,0:0:0:0:
288,96,65948,1,0,0:0:0:0:
256,320,66234,1,0,0:0:0:0:
288,64,66520,1,0,0:0:0:0:
256,320,66805,1,0,0:0:0:0:
363,259,66948,1,8,0:0:0:0:
288,64,67091,1,0,0:0:0:0:
256,288,67377,1,12,0:0:0:0:
160,64,67662,1,0,0:0:0:0:
224,192,67805,1,0,0:0:0:0:
160,96,67948,1,0,0:0:0:0:
288,64,68234,1,0,0:0:0:0:
288,320,68520,1,0,0:0:0:0:
288,64,68805,1,0,0:0:0:0:
288,320,69091,1,0,0:0:0:0:
288,64,69377,1,0,0:0:0:0:
322,152,69520,1,0,0:0:0:0:
367,262,69662,1,8,0:0:0:0:
249,211,69805,1,8,0:0:0:0:
288,64,69948,1,0,0:0:0:0:
288,320,70234,1,0,0:0:0:0:
288,64,70520,1,0,0:0:0:0:
288,320,70805,1,0,0:0:0:0:
384,192,70948,1,8,0:0:0:0:
288,64,71091,1,0,0:0:0:0:
288,320,71377,1,0,0:0:0:0:
387,201,71520,1,0,0:0:0:0:
288,96,71662,1,8,0:0:0:0:
387,201,71877,1,0,0:0:0:0:
448,288,71948,1,8,0:0:0:0:
384,192,72091,1,8,0:0:0:0:
352,160,72234,1,4,0:0:0:0:
352,160,72520,1,0,0:0:0:0:
352,160,72805,1,0,0:0:0:0:
236,182,73091,1,0,0:0:0:0:
330,164,73234,1,8,0:0:0:0:
352,160,73377,1,4,0:0:0:0:
352,160,73662,1,0,0:0:0:0:
352,160,73948,1,0,0:0:0:0:
276,286,74091,1,8,0:0:0:0:
352,160,74234,1,0,0:0:0:0:
264,130,74377,1,8,0:0:0:0:
384,160,74520,1,4,0:0:0:0:
172,104,74805,1,8,0:0:0:0:
286,135,74948,1,8,0:0:0:0:
384,160,75091,1,4,0:0:0:0:
286,135,75234,1,8,0:0:0:0:
384,160,75377,1,8,0:0:0:0:
256,224,75520,1,8,0:0:0:0:
384,96,75662,1,0,0:0:0:0:
384,96,75698,1,0,0:0:0:0:
416,192,75805,1,8,0:0:0:0:
416,192,75841,1,8,0:0:0:0:
416,192,75948,1,8,0:0:0:0:
416,192,75984,1,8,0:0:0:0:
416,192,76091,1,0,0:0:0:0:
416,192,76127,1,0,0:0:0:0:
384,160,76234,1,8,0:0:0:0:
352,192,76282,1,8,0:0:0:0:
352,192,76330,1,8,0:0:0:0:
320,192,76377,1,0,0:0:0:0:
320,160,76448,1,0,0:0:0:0:
384,160,76520,1,8,0:0:0:0:
384,160,76591,1,8,0:0:0:0:
384,160,76662,1,8,0:0:0:0:
384,160,76734,1,8,0:0:0:0:
384,160,76805,1,0,0:0:0:0:
160,128,77091,1,0,0:0:0:0:
352,192,77234,1,8,0:0:0:0:
352,192,77377,1,0,0:0:0:0:
480,320,77591,1,8,0:0:0:0:
448,288,77662,1,0,0:0:0:0:
480,320,77805,1,8,0:0:0:0:
384,256,77948,1,0,0:0:0:0:
480,288,78091,1,8,0:0:0:0:
384,256,78234,1,0,0:0:0:0:
448,256,78305,1,0,0:0:0:0:
416,256,78377,1,8,0:0:0:0:
320,192,78520,1,0,0:0:0:0:
416,256,78662,1,0,0:0:0:0:
320,224,78805,1,8,0:0:0:0:
256,160,78948,1,0,0:0:0:0:
256,160,79091,1,0,0:0:0:0:
480,160,79377,1,0,0:0:0:0:
384,160,79520,1,8,0:0:0:0:
256,160,79662,1,0,0:0:0:0:
416,160,79877,1,8,0:0:0:0:
352,160,79948,1,0,0:0:0:0:
352,160,80091,1,8,0:0:0:0:
352,160,80234,1,0,0:0:0:0:
352,160,80377,1,8,0:0:0:0:
352,160,80448,1,8,0:0:0:0:
352,160,80520,1,0,0:0:0:0:
352,160,80662,1,8,0:0:0:0:
352,160,80805,1,0,0:0:0:0:
352,160,80948,1,0,0:0:0:0:
352,160,81091,1,8,0:0:0:0:
352,160,81234,1,0,0:0:0:0:
352,160,81377,1,0,0:0:0:0:
160,128,81662,1,0,0:0:0:0:
352,192,81805,1,8,0:0:0:0:
352,192,81948,1,0,0:0:0:0:
480,320,82162,1,8,0:0:0:0:
448,288,82233,1,0,0:0:0:0:
480,320,82376,1,8,0:0:0:0:
384,256,82519,1,0,0:0:0:0:
480,288,82662,1,8,0:0:0:0:
384,256,82805,1,0,0:0:0:0:
448,256,82876,1,0,0:0:0:0:
416,256,82948,1,8,0:0:0:0:
320,192,83091,1,0,0:0:0:0:
416,256,83233,1,0,0:0:0:0:
320,224,83376,1,8,0:0:0:0:
256,160,83519,1,0,0:0:0:0:
256,160,83662,1,0,0:0:0:0:
480,160,83948,1,0,0:0:0:0:
384,160,84091,1,8,0:0:0:0:
256,160,84233,1,0,0:0:0:0:
416,160,84448,1,8,0:0:0:0:
352,160,84519,1,0,0:0:0:0:
352,160,84662,1,8,0:0:0:0:
352,160,84805,1,0,0:0:0:0:
352,160,84948,1,8,0:0:0:0:
352,160,85019,1,8,0:0:0:0:
352,160,85091,1,0,0:0:0:0:
352,160,85233,1,8,0:0:0:0:
352,160,85376,1,0,0:0:0:0:
352,160,85519,1,0,0:0:0:0:
352,160,85591,1,0,0:0:0:0:
352,160,85662,1,8,0:0:0:0:
352,160,85734,1,0,0:0:0:0:
352,160,85805,1,8,0:0:0:0:
352,160,85877,1,8,0:0:0:0:
384,160,85948,1,0,0:0:0:0:
160,128,86234,1,0,0:0:0:0:
352,192,86377,1,8,0:0:0:0:
352,192,86520,1,0,0:0:0:0:
320,160,86591,1,0,0:0:0:0:
480,320,86734,1,8,0:0:0:0:
448,288,86805,1,0,0:0:0:0:
480,320,86948,1,8,0:0:0:0:
384,256,87091,1,0,0:0:0:0:
480,288,87234,1,8,0:0:0:0:
448,256,87305,1,8,0:0:0:0:
384,256,87377,1,0,0:0:0:0:
448,256,87448,1,0,0:0:0:0:
416,256,87520,1,8,0:0:0:0:
320,192,87663,1,0,0:0:0:0:
416,256,87805,1,0,0:0:0:0:
384,224,87877,1,0,0:0:0:0:
320,224,87948,1,8,0:0:0:0:
256,160,88091,1,0,0:0:0:0:
256,160,88234,1,0,0:0:0:0:
480,160,88520,1,0,0:0:0:0:
384,160,88663,1,8,0:0:0:0:
256,160,88805,1,0,0:0:0:0:
288,128,88877,1,8,0:0:0:0:
416,160,89020,1,8,0:0:0:0:
352,160,89091,1,0,0:0:0:0:
256,160,89162,1,0,0:0:0:0:
352,160,89234,1,8,0:0:0:0:
256,160,89377,1,0,0:0:0:0:
288,128,89448,1,8,0:0:0:0:
352,160,89520,1,8,0:0:0:0:
288,128,89591,1,8,0:0:0:0:
352,160,89663,1,0,0:0:0:0:
416,256,89805,1,0,0:0:0:0:
224,224,89948,1,8,0:0:0:0:
352,160,90020,1,8,0:0:0:0:
352,192,90091,1,0,0:0:0:0:
384,192,90162,1,0,0:0:0:0:
448,160,90234,1,8,0:0:0:0:
416,192,90305,1,0,0:0:0:0:
416,192,90377,1,8,0:0:0:0:
416,192,90448,1,8,0:0:0:0:
352,160,90520,1,0,0:0:0:0:
160,128,90805,1,0,0:0:0:0:
352,192,90948,1,8,0:0:0:0:
352,192,91091,1,0,0:0:0:0:
320,192,91162,1,0,0:0:0:0:
480,320,91305,1,8,0:0:0:0:
448,288,91376,1,0,0:0:0:0:
480,320,91519,1,8,0:0:0:0:
384,256,91662,1,0,0:0:0:0:
352,224,91734,1,0,0:0:0:0:
480,288,91805,1,8,0:0:0:0:
448,256,91877,1,8,0:0:0:0:
384,256,91948,1,0,0:0:0:0:
416,256,92091,1,8,0:0:0:0:
320,192,92234,1,0,0:0:0:0:
320,160,92305,1,8,0:0:0:0:
320,224,92448,1,8,0:0:0:0:
416,256,92519,1,0,0:0:0:0:
256,160,92662,1,8,0:0:0:0:
256,160,92805,1,0,0:0:0:0:
352,128,92948,1,8,0:0:0:0:
384,96,93020,1,8,0:0:0:0:
384,96,93091,1,8,0:0:0:0:
384,160,93234,1,8,0:0:0:0:
256,160,93377,1,0,0:0:0:0:
192,160,93448,1,8,0:0:0:0:
352,160,93591,1,8,0:0:0:0:
416,160,93662,1,8,0:0:0:0:
352,160,93805,1,8,0:0:0:0:
320,192,93877,1,8,0:0:0:0:
352,160,93948,1,0,0:0:0:0:
288,160,94020,1,0,0:0:0:0:
352,160,94091,1,8,0:0:0:0:
352,160,94234,1,0,0:0:0:0:
352,160,94376,1,8,0:0:0:0:
320,192,94448,1,8,0:0:0:0:
352,160,94520,1,0,0:0:0:0:
352,160,94567,1,0,0:0:0:0:
320,160,94615,1,0,0:0:0:0:
352,160,94662,1,8,0:0:0:0:
352,160,94734,1,0,0:0:0:0:
352,160,94805,1,8,0:0:0:0:
352,160,94877,1,8,0:0:0:0:
352,160,94948,1,8,0:0:0:0:
352,160,95020,1,8,0:0:0:0:
416,160,95091,1,0,0:0:0:0:
512,384,95377,1,0,0:0:0:0:
352,160,95520,1,8,0:0:0:0:
352,160,95662,1,0,0:0:0:0:
352,160,95734,1,0,0:0:0:0:
352,160,95805,1,8,0:0:0:0:
352,160,95948,1,0,0:0:0:0:
352,160,96091,1,0,0:0:0:0:
352,160,96162,1,8,0:0:0:0:
352,160,96305,1,8,0:0:0:0:
352,160,96377,1,0,0:0:0:0:
256,224,96520,1,8,0:0:0:0:
256,224,96662,1,0,0:0:0:0:
256,224,96734,1,0,0:0:0:0:
256,224,96805,1,8,0:0:0:0:
320,256,96877,1,8,0:0:0:0:
256,224,96948,1,0,0:0:0:0:
384,256,97091,1,8,0:0:0:0:
320,192,97234,1,8,0:0:0:0:
192,128,97377,1,0,0:0:0:0:
320,192,97591,1,8,0:0:0:0:
512,384,97662,1,0,0:0:0:0:
352,160,97805,1,8,0:0:0:0:
352,160,97947,1,0,0:0:0:0:
352,160,98019,1,0,0:0:0:0:
352,160,98090,1,8,0:0:0:0:
352,160,98233,1,0,0:0:0:0:
352,160,98376,1,8,0:0:0:0:
352,160,98447,1,8,0:0:0:0:
320,160,98520,1,0,0:0:0:0:
352,160,98590,1,0,0:0:0:0:
352,160,98662,1,8,0:0:0:0:
256,224,98805,1,0,0:0:0:0:
256,224,98947,1,8,0:0:0:0:
256,224,99019,1,8,0:0:0:0:
256,224,99090,1,0,0:0:0:0:
320,256,99162,1,8,0:0:0:0:
256,224,99233,1,0,0:0:0:0:
224,128,99305,1,0,0:0:0:0:
384,256,99376,1,8,0:0:0:0:
416,160,99662,1,0,0:0:0:0:
512,384,99948,1,0,0:0:0:0:
352,160,100091,1,8,0:0:0:0:
352,160,100233,1,0,0:0:0:0:
352,160,100305,1,0,0:0:0:0:
352,160,100376,1,8,0:0:0:0:
352,160,100519,1,0,0:0:0:0:
352,160,100662,1,0,0:0:0:0:
352,160,100733,1,8,0:0:0:0:
352,160,100876,1,8,0:0:0:0:
352,160,100948,1,0,0:0:0:0:
256,224,101091,1,8,0:0:0:0:
256,224,101233,1,0,0:0:0:0:
256,224,101305,1,0,0:0:0:0:
256,224,101376,1,8,0:0:0:0:
320,256,101448,1,8,0:0:0:0:
256,224,101519,1,0,0:0:0:0:
384,256,101662,1,8,0:0:0:0:
320,160,101805,1,8,0:0:0:0:
192,128,101948,1,0,0:0:0:0:
384,192,102162,1,8,0:0:0:0:
512,384,102233,1,0,0:0:0:0:
352,160,102376,1,8,0:0:0:0:
352,160,102520,1,0,0:0:0:0:
352,160,102590,1,0,0:0:0:0:
352,160,102661,1,8,0:0:0:0:
352,160,102804,1,0,0:0:0:0:
352,160,102947,1,8,0:0:0:0:
352,160,103020,1,8,0:0:0:0:
320,160,103091,1,0,0:0:0:0:
352,160,103161,1,0,0:0:0:0:
352,160,103233,1,8,0:0:0:0:
256,224,103376,1,0,0:0:0:0:
256,224,103520,1,8,0:0:0:0:
256,224,103590,1,8,0:0:0:0:
256,192,103662,1,0,0:0:0:0:
288,160,103734,1,0,0:0:0:0:
288,128,103805,1,8,0:0:0:0:
288,128,103877,1,8,0:0:0:0:
288,128,103948,1,0,0:0:0:0:
224,128,104020,1,8,0:0:0:0:
288,128,104091,1,8,0:0:0:0:
288,128,104162,1,8,0:0:0:0:
416,160,104234,1,0,0:0:0:0:
512,384,104520,1,0,0:0:0:0:
352,160,104663,1,8,0:0:0:0:
352,160,104805,1,0,0:0:0:0:
352,160,104877,1,0,0:0:0:0:
352,160,104948,1,8,0:0:0:0:
352,160,105091,1,0,0:0:0:0:
352,160,105234,1,0,0:0:0:0:
352,160,105305,1,8,0:0:0:0:
352,160,105448,1,8,0:0:0:0:
352,160,105520,1,0,0:0:0:0:
384,224,105591,1,0,0:0:0:0:
256,224,105663,1,8,0:0:0:0:
256,224,105805,1,0,0:0:0:0:
256,224,105948,1,8,0:0:0:0:
320,256,106020,1,8,0:0:0:0:
256,224,106091,1,0,0:0:0:0:
384,256,106234,1,8,0:0:0:0:
288,192,106377,1,0,0:0:0:0:
256,160,106448,1,8,0:0:0:0:
192,128,106520,1,0,0:0:0:0:
224,128,106591,1,0,0:0:0:0:
320,192,106734,1,8,0:0:0:0:
512,384,106805,1,0,0:0:0:0:
352,160,106948,1,8,0:0:0:0:
352,160,107090,1,0,0:0:0:0:
352,160,107162,1,0,0:0:0:0:
352,160,107233,1,8,0:0:0:0:
352,160,107376,1,0,0:0:0:0:
352,160,107519,1,8,0:0:0:0:
352,160,107590,1,8,0:0:0:0:
320,160,107663,1,0,0:0:0:0:
352,160,107733,1,8,0:0:0:0:
352,160,107805,1,8,0:0:0:0:
256,224,107948,1,0,0:0:0:0:
256,224,108090,1,8,0:0:0:0:
256,224,108162,1,8,0:0:0:0:
256,224,108233,1,0,0:0:0:0:
320,256,108305,1,8,0:0:0:0:
256,224,108376,1,0,0:0:0:0:
224,128,108448,1,0,0:0:0:0:
384,256,108519,1,8,0:0:0:0:
352,224,108591,1,0,0:0:0:0:
288,192,108662,1,8,0:0:0:0:
256,160,108734,1,8,0:0:0:0:
416,160,108805,1,0,0:0:0:0:
512,384,109091,1,0,0:0:0:0:
352,160,109234,1,8,0:0:0:0:
352,160,109376,1,0,0:0:0:0:
352,160,109448,1,0,0:0:0:0:
352,160,109519,1,8,0:0:0:0:
352,160,109662,1,0,0:0:0:0:
352,160,109805,1,0,0:0:0:0:
352,160,109876,1,8,0:0:0:0:
288,160,109948,1,0,0:0:0:0:
352,160,110091,1,0,0:0:0:0:
224,96,110162,1,0,0:0:0:0:
256,224,110234,1,8,0:0:0:0:
256,224,110376,1,0,0:0:0:0:
256,224,110519,1,8,0:0:0:0:
320,256,110591,1,8,0:0:0:0:
256,224,110662,1,0,0:0:0:0:
384,256,110805,1,8,0:0:0:0:
320,256,110877,1,0,0:0:0:0:
320,160,110948,1,8,0:0:0:0:
256,160,111020,1,8,0:0:0:0:
192,128,111091,1,0,0:0:0:0:
384,192,111305,1,8,0:0:0:0:
512,384,111376,1,8,0:0:0:0:
352,160,111519,1,8,0:0:0:0:
352,160,111661,1,0,0:0:0:0:
352,160,111733,1,8,0:0:0:0:
352,160,111877,1,8,0:0:0:0:
352,160,111947,1,8,0:0:0:0:
352,160,112090,1,8,0:0:0:0:
352,160,112161,1,8,0:0:0:0:
320,160,112234,1,0,0:0:0:0:
352,160,112304,1,8,0:0:0:0:
352,160,112376,1,8,0:0:0:0:
256,224,112519,1,0,0:0:0:0:
256,224,112661,1,8,0:0:0:0:
256,224,112733,1,8,0:0:0:0:
256,192,112805,1,0,0:0:0:0:
288,160,112853,1,0,0:0:0:0:
288,128,112900,1,0,0:0:0:0:
256,128,112948,1,8,0:0:0:0:
288,128,113020,1,0,0:0:0:0:
288,128,113091,1,8,0:0:0:0:
224,128,113163,1,8,0:0:0:0:
288,128,113234,1,8,0:0:0:0:
288,128,113305,1,8,0:0:0:0:
224,128,113377,1,0,0:0:0:0:
416,256,113662,1,0,0:0:0:0:
448,256,113805,1,8,0:0:0:0:
448,256,113948,1,0,0:0:0:0:
448,256,114091,1,8,0:0:0:0:
448,256,114162,1,8,0:0:0:0:
448,256,114234,1,0,0:0:0:0:
352,192,114377,1,8,0:0:0:0:
416,288,114520,1,0,0:0:0:0:
512,352,114662,1,8,0:0:0:0:
352,224,114805,1,0,0:0:0:0:
352,224,114877,1,0,0:0:0:0:
352,224,115020,1,8,0:0:0:0:
352,224,115091,1,0,0:0:0:0:
288,160,115234,1,8,0:0:0:0:
288,160,115377,1,0,0:0:0:0:
288,160,115448,1,8,0:0:0:0:
288,160,115520,1,0,0:0:0:0:
288,160,115662,1,0,0:0:0:0:
384,224,115805,1,8,0:0:0:0:
480,288,115948,1,0,0:0:0:0:
512,288,116020,1,0,0:0:0:0:
512,288,116091,1,8,0:0:0:0:
512,288,116234,1,0,0:0:0:0:
512,288,116377,1,8,0:0:0:0:
512,288,116448,1,8,0:0:0:0:
512,288,116520,1,0,0:0:0:0:
512,288,116662,1,8,0:0:0:0:
512,288,116805,1,0,0:0:0:0:
512,288,116877,1,8,0:0:0:0:
512,288,117020,1,8,0:0:0:0:
512,288,117091,1,0,0:0:0:0:
416,256,117234,1,8,0:0:0:0:
352,160,117377,1,0,0:0:0:0:
384,224,117448,1,0,0:0:0:0:
384,224,117520,1,8,0:0:0:0:
384,224,117591,1,8,0:0:0:0:
384,224,117662,1,0,0:0:0:0:
352,192,117734,1,8,0:0:0:0:
320,160,117805,1,0,0:0:0:0:
288,64,117948,1,0,0:0:0:0:
224,128,118091,1,0,0:0:0:0:
288,160,118162,1,8,0:0:0:0:
288,160,118234,1,0,0:0:0:0:
288,160,118377,1,0,0:0:0:0:
288,160,118520,1,8,0:0:0:0:
352,192,118662,1,8,0:0:0:0:
352,192,118734,1,8,0:0:0:0:
352,192,118805,1,0,0:0:0:0:
256,288,118948,1,8,0:0:0:0:
352,192,119091,1,0,0:0:0:0:
288,288,119234,1,8,0:0:0:0:
352,192,119377,1,0,0:0:0:0:
320,224,119448,1,0,0:0:0:0:
352,192,119520,1,8,0:0:0:0:
288,288,119662,1,0,0:0:0:0:
352,192,119805,1,8,0:0:0:0:
320,224,119877,1,8,0:0:0:0:
352,192,119948,1,0,0:0:0:0:
320,224,120020,1,0,0:0:0:0:
352,192,120091,1,8,0:0:0:0:
320,64,120234,1,0,0:0:0:0:
320,96,120305,1,8,0:0:0:0:
416,192,120448,1,8,0:0:0:0:
384,160,120520,1,0,0:0:0:0:
320,128,120591,1,0,0:0:0:0:
256,96,120662,1,8,0:0:0:0:
320,0,120805,1,0,0:0:0:0:
288,128,120948,1,8,0:0:0:0:
288,96,121020,1,8,0:0:0:0:
320,64,121091,1,0,0:0:0:0:
320,64,121234,1,8,0:0:0:0:
320,64,121377,1,0,0:0:0:0:
320,64,121520,1,0,0:0:0:0:
288,64,121591,1,0,0:0:0:0:
288,64,121662,1,8,0:0:0:0:
288,64,121805,1,0,0:0:0:0:
288,64,121948,1,12,0:0:0:0:
288,64,122234,1,12,0:0:0:0:
512,192,122520,1,0,0:0:0:0:
384,128,122662,1,0,0:0:0:0:
320,64,122734,1,8,0:0:0:0:
352,160,122805,1,0,0:0:0:0:
320,32,122948,1,8,0:0:0:0:
320,160,123091,1,0,0:0:0:0:
352,128,123162,1,0,0:0:0:0:
352,128,123234,1,8,0:0:0:0:
352,128,123377,1,0,0:0:0:0:
352,128,123520,1,8,0:0:0:0:
352,128,123591,1,8,0:0:0:0:
352,160,123662,1,0,0:0:0:0:
352,224,123734,1,0,0:0:0:0:
352,256,123805,1,8,0:0:0:0:
320,128,123948,1,0,0:0:0:0:
384,224,124091,1,8,0:0:0:0:
416,352,124234,1,0,0:0:0:0:
384,288,124305,1,8,0:0:0:0:
352,192,124448,1,8,0:0:0:0:
320,160,124520,1,0,0:0:0:0:
384,192,124591,1,0,0:0:0:0:
320,160,124662,1,0,0:0:0:0:
384,192,124734,1,0,0:0:0:0:
320,160,124805,1,0,0:0:0:0:
416,224,124948,1,8,0:0:0:0:
384,128,125020,1,8,0:0:0:0:
384,160,125091,1,0,0:0:0:0:
416,192,125234,1,8,0:0:0:0:
352,96,125377,1,0,0:0:0:0:
384,96,125520,1,0,0:0:0:0:
416,128,125591,1,0,0:0:0:0:
448,128,125662,1,8,0:0:0:0:
352,128,125805,1,8,0:0:0:0:
224,128,125948,1,0,0:0:0:0:
256,160,126020,1,0,0:0:0:0:
352,224,126162,1,0,0:0:0:0:
416,256,126234,1,8,0:0:0:0:
288,224,126377,1,8,0:0:0:0:
352,128,126520,1,0,0:0:0:0:
320,160,126591,1,0,0:0:0:0:
320,160,126662,1,8,0:0:0:0:
320,160,126734,1,0,0:0:0:0:
320,160,126805,1,8,0:0:0:0:
320,160,126877,1,8,0:0:0:0:
320,160,126948,1,8,0:0:0:0:
320,160,127020,1,8,0:0:0:0:
320,160,127091,1,0,0:0:0:0:
512,352,127377,1,0,0:0:0:0:
512,256,127520,1,8,0:0:0:0:
384,192,127662,1,0,0:0:0:0:
416,224,127734,1,0,0:0:0:0:
416,224,127805,1,8,0:0:0:0:
416,224,127948,1,0,0:0:0:0:
416,224,128091,1,8,0:0:0:0:
416,224,128162,1,8,0:0:0:0:
416,224,128234,1,0,0:0:0:0:
416,224,128305,1,8,0:0:0:0:
416,224,128448,1,8,0:0:0:0:
416,224,128520,1,0,0:0:0:0:
416,224,128662,1,8,0:0:0:0:
416,224,128805,1,0,0:0:0:0:
384,224,128877,1,0,0:0:0:0:
416,224,128948,1,8,0:0:0:0:
416,224,129091,1,0,0:0:0:0:
416,224,129162,1,8,0:0:0:0:
416,224,129377,1,0,0:0:0:0:
384,160,129591,1,8,0:0:0:0:
320,160,129662,1,0,0:0:0:0:
288,64,129805,1,8,0:0:0:0:
320,192,129948,1,0,0:0:0:0:
288,32,130162,1,8,0:0:0:0:
288,96,130234,1,8,0:0:0:0:
352,192,130377,1,8,0:0:0:0:
352,192,130520,1,0,0:0:0:0:
352,192,130662,1,8,0:0:0:0:
352,192,130734,1,8,0:0:0:0:
352,192,130805,1,0,0:0:0:0:
448,192,130948,1,8,0:0:0:0:
416,192,131020,1,8,0:0:0:0:
384,192,131091,1,0,0:0:0:0:
384,192,131162,1,8,0:0:0:0:
384,192,131234,1,0,0:0:0:0:
384,192,131305,1,0,0:0:0:0:
384,192,131377,1,8,0:0:0:0:
352,160,131424,1,0,0:0:0:0:
384,192,131472,1,0,0:0:0:0:
384,192,131520,1,8,0:0:0:0:
384,192,131591,1,8,0:0:0:0:
384,192,131662,1,0,0:0:0:0:
256,192,131805,12,0,136234,0:0:0:0:
320,160,140805,5,8,0:0:0:0:
352,192,141948,1,8,0:0:0:0:
352,192,143091,1,8,0:0:0:0:
384,224,143948,1,8,0:0:0:0:
352,192,144234,1,8,0:0:0:0:
416,256,144805,1,8,0:0:0:0:
352,192,145377,1,8,0:0:0:0:
352,192,146520,1,8,0:0:0:0:
384,256,147662,1,8,0:0:0:0:
256,160,148520,1,8,0:0:0:0:
384,192,148662,1,8,0:0:0:0:
416,224,148805,1,8,0:0:0:0:
288,32,149377,1,8,0:0:0:0:
416,224,149948,1,4,0:0:0:0:
416,192,150520,1,0,0:0:0:0:
416,192,151091,1,8,0:0:0:0:
416,192,151662,1,8,0:0:0:0:
416,192,152234,1,0,0:0:0:0:
416,192,152805,1,0,0:0:0:0:
416,192,153377,1,8,0:0:0:0:
416,192,153948,1,8,0:0:0:0:
416,192,154234,1,8,0:0:0:0:
416,192,154520,1,0,0:0:0:0:
416,192,155091,1,0,0:0:0:0:
416,192,155662,1,8,0:0:0:0:
416,192,156234,1,8,0:0:0:0:
416,192,156805,1,0,0:0:0:0:
416,192,157377,1,0,0:0:0:0:
416,192,157948,1,8,0:0:0:0:
416,192,158520,1,8,0:0:0:0:
416,192,158805,1,8,0:0:0:0:
416,192,158948,1,8,0:0:0:0:
416,192,159091,1,0,0:0:0:0:
416,192,159377,1,0,0:0:0:0:
416,192,159662,1,0,0:0:0:0:
416,192,159948,1,0,0:0:0:0:
416,192,160234,1,8,0:0:0:0:
416,192,160520,1,0,0:0:0:0:
416,192,160805,1,0,0:0:0:0:
416,192,161091,1,0,0:0:0:0:
384,160,161162,1,8,0:0:0:0:
320,128,161234,1,8,0:0:0:0:
320,128,161305,1,8,0:0:0:0:
320,128,161377,1,0,0:0:0:0:
320,128,161662,1,0,0:0:0:0:
320,128,161948,1,0,0:0:0:0:
320,128,162234,1,0,0:0:0:0:
320,128,162520,1,8,0:0:0:0:
320,128,162805,1,0,0:0:0:0:
320,128,163091,1,0,0:0:0:0:
320,128,163377,1,0,0:0:0:0:
384,192,163520,1,0,0:0:0:0:
416,224,163591,1,0,0:0:0:0:
448,256,163662,1,0,0:0:0:0:
288,320,163948,1,0,0:0:0:0:
448,256,164234,1,0,0:0:0:0:
288,352,164520,1,0,0:0:0:0:
416,224,164805,1,8,0:0:0:0:
256,192,165091,1,0,0:0:0:0:
448,224,165377,1,0,0:0:0:0:
256,192,165662,1,0,0:0:0:0:
320,192,165758,1,0,0:0:0:0:
384,160,165853,1,0,0:0:0:0:
448,192,165948,1,0,0:0:0:0:
288,64,166234,1,8,0:0:0:0:
448,192,166520,1,0,0:0:0:0:
416,32,166805,1,8,0:0:0:0:
256,192,167091,12,8,167948,0:0:0:0:
448,192,168234,5,4,0:0:0:0:
288,192,168805,1,8,0:0:0:0:
160,192,168948,1,8,0:0:0:0:
256,192,169091,1,8,0:0:0:0:
352,192,169234,1,8,0:0:0:0:
448,192,169377,1,0,0:0:0:0:
352,192,169520,1,0,0:0:0:0:
384,192,169591,1,0,0:0:0:0:
384,192,169662,1,0,0:0:0:0:
384,192,169805,1,0,0:0:0:0:
384,192,169948,1,8,0:0:0:0:
384,192,170020,1,8,0:0:0:0:
384,192,170091,1,0,0:0:0:0:
384,192,170234,1,8,0:0:0:0:
224,128,170520,1,0,0:0:0:0:
64,192,171091,1,8,0:0:0:0:
160,192,171234,1,8,0:0:0:0:
256,192,171377,1,8,0:0:0:0:
352,192,171520,1,8,0:0:0:0:
448,192,171663,1,0,0:0:0:0:
352,192,171806,1,0,0:0:0:0:
384,192,171948,1,8,0:0:0:0:
384,192,172091,1,0,0:0:0:0:
384,192,172234,1,0,0:0:0:0:
384,192,172306,1,8,0:0:0:0:
384,192,172377,1,0,0:0:0:0:
352,160,172448,1,0,0:0:0:0:
384,192,172520,1,8,0:0:0:0:
288,32,172805,1,0,0:0:0:0:
64,192,173377,1,8,0:0:0:0:
160,192,173520,1,8,0:0:0:0:
256,192,173663,1,8,0:0:0:0:
352,192,173806,1,8,0:0:0:0:
448,192,173949,1,0,0:0:0:0:
352,192,174092,1,0,0:0:0:0:
384,192,174163,1,0,0:0:0:0:
384,192,174234,1,0,0:0:0:0:
384,192,174377,1,0,0:0:0:0:
384,192,174520,1,8,0:0:0:0:
384,192,174592,1,8,0:0:0:0:
384,192,174663,1,0,0:0:0:0:
384,192,174806,1,8,0:0:0:0:
288,160,174948,1,8,0:0:0:0:
384,128,175091,1,0,0:0:0:0:
320,160,175234,1,0,0:0:0:0:
160,96,175305,1,0,0:0:0:0:
320,160,175377,1,8,0:0:0:0:
320,160,175520,1,0,0:0:0:0:
320,160,175662,1,8,0:0:0:0:
320,160,175805,1,8,0:0:0:0:
320,160,175948,1,8,0:0:0:0:
320,160,176091,1,8,0:0:0:0:
256,128,176234,1,0,0:0:0:0:
352,192,176448,1,8,0:0:0:0:
320,160,176520,1,8,0:0:0:0:
224,128,176662,1,0,0:0:0:0:
320,160,176805,1,8,0:0:0:0:
256,128,176948,1,0,0:0:0:0:
288,160,177020,1,0,0:0:0:0:
288,160,177091,1,8,0:0:0:0:
160,32,177377,1,4,0:0:0:0:
64,192,177948,1,8,0:0:0:0:
160,192,178091,1,8,0:0:0:0:
256,192,178234,1,8,0:0:0:0:
352,192,178377,1,8,0:0:0:0:
448,192,178520,1,0,0:0:0:0:
352,192,178663,1,0,0:0:0:0:
384,192,178734,1,0,0:0:0:0:
384,192,178805,1,0,0:0:0:0:
384,192,178948,1,0,0:0:0:0:
384,192,179091,1,8,0:0:0:0:
384,192,179163,1,8,0:0:0:0:
384,192,179234,1,0,0:0:0:0:
384,192,179377,1,8,0:0:0:0:
224,128,179663,1,0,0:0:0:0:
64,192,180234,1,8,0:0:0:0:
160,192,180377,1,8,0:0:0:0:
256,192,180520,1,8,0:0:0:0:
352,192,180663,1,8,0:0:0:0:
448,192,180806,1,0,0:0:0:0:
352,192,180949,1,0,0:0:0:0:
384,192,181091,1,8,0:0:0:0:
384,192,181234,1,0,0:0:0:0:
384,192,181377,1,8,0:0:0:0:
384,192,181449,1,8,0:0:0:0:
384,192,181520,1,0,0:0:0:0:
352,160,181591,1,0,0:0:0:0:
384,192,181663,1,8,0:0:0:0:
288,32,181948,1,0,0:0:0:0:
64,192,182520,1,8,0:0:0:0:
160,192,182663,1,8,0:0:0:0:
256,192,182806,1,8,0:0:0:0:
352,192,182949,1,8,0:0:0:0:
448,192,183092,1,0,0:0:0:0:
352,192,183235,1,0,0:0:0:0:
384,192,183306,1,0,0:0:0:0:
384,192,183377,1,0,0:0:0:0:
384,192,183520,1,0,0:0:0:0:
384,192,183663,1,8,0:0:0:0:
384,192,183735,1,8,0:0:0:0:
384,192,183806,1,0,0:0:0:0:
384,192,183949,1,8,0:0:0:0:
384,128,184234,1,8,0:0:0:0:
322,193,184377,1,8,0:0:0:0:
326,154,184520,1,8,0:0:0:0:
326,154,184662,1,0,0:0:0:0:
288,160,184734,1,0,0:0:0:0:
320,160,184805,1,8,0:0:0:0:
320,160,184948,1,8,0:0:0:0:
320,160,185091,1,8,0:0:0:0:
320,160,185234,1,0,0:0:0:0:
289,131,185305,1,0,0:0:0:0:
256,128,185377,1,8,0:0:0:0:
352,160,185520,1,8,0:0:0:0:
320,160,185662,1,8,0:0:0:0:
288,160,185734,1,8,0:0:0:0:
224,128,185805,1,0,0:0:0:0:
256,160,185877,1,0,0:0:0:0:
320,160,185948,1,8,0:0:0:0:
326,116,186020,1,0,0:0:0:0:
326,116,186091,1,8,0:0:0:0:
288,160,186234,1,8,0:0:0:0:
384,160,186377,1,8,0:0:0:0:
384,160,186520,1,4,0:0:0:0:
448,160,186805,1,8,0:0:0:0:
448,160,186900,1,0,0:0:0:0:
384,160,186996,1,0,0:0:0:0:
320,160,187091,1,8,0:0:0:0:
320,32,187234,1,8,0:0:0:0:
320,160,187377,1,8,0:0:0:0:
416,192,187520,1,8,0:0:0:0:
288,160,187662,1,0,0:0:0:0:
320,160,187805,1,0,0:0:0:0:
289,182,187877,1,0,0:0:0:0:
512,192,187948,1,8,0:0:0:0:
320,160,188091,1,0,0:0:0:0:
320,256,188234,1,8,0:0:0:0:
320,224,188305,1,8,0:0:0:0:
320,160,188377,1,0,0:0:0:0:
384,160,188448,1,0,0:0:0:0:
320,256,188520,1,8,0:0:0:0:
384,64,188805,1,0,0:0:0:0:
256,224,189091,1,0,0:0:0:0:
320,160,189234,1,0,0:0:0:0:
256,224,189377,1,8,0:0:0:0:
320,160,189520,1,8,0:0:0:0:
256,224,189662,1,8,0:0:0:0:
320,160,189805,1,8,0:0:0:0:
416,256,189948,1,0,0:0:0:0:
352,192,190091,1,8,0:0:0:0:
352,128,190162,1,0,0:0:0:0:
384,224,190234,1,0,0:0:0:0:
384,224,190377,1,8,0:0:0:0:
352,128,190520,1,8,0:0:0:0:
352,128,190591,1,8,0:0:0:0:
352,128,190662,1,0,0:0:0:0:
256,128,190805,1,0,0:0:0:0:
398,277,191091,1,0,0:0:0:0:
446,134,191281,1,0,0:0:0:0:
427,191,191377,1,0,0:0:0:0:
427,191,191662,1,8,0:0:0:0:
355,112,191805,1,8,0:0:0:0:
421,185,191948,1,8,0:0:0:0:
355,111,192091,1,8,0:0:0:0:
256,160,192234,1,0,0:0:0:0:
320,224,192377,1,8,0:0:0:0:
256,224,192448,1,8,0:0:0:0:
320,224,192520,1,8,0:0:0:0:
320,224,192662,1,8,0:0:0:0:
265,169,192805,1,0,0:0:0:0:
348,165,192948,1,0,0:0:0:0:
431,163,193091,1,8,0:0:0:0:
424,163,193377,1,0,0:0:0:0:
334,195,193520,1,0,0:0:0:0:
334,195,193591,1,0,0:0:0:0:
244,227,193662,1,8,0:0:0:0:
328,197,193805,1,0,0:0:0:0:
232,231,193948,1,8,0:0:0:0:
319,200,194091,1,8,0:0:0:0:
234,232,194234,1,8,0:0:0:0:
318,200,194377,1,8,0:0:0:0:
328,197,194520,1,0,0:0:0:0:
321,106,194662,1,8,0:0:0:0:
306,109,194698,1,8,0:0:0:0:
321,106,194805,1,8,0:0:0:0:
306,109,194841,1,8,0:0:0:0:
321,106,194948,1,8,0:0:0:0:
306,109,194984,1,8,0:0:0:0:
321,106,195091,1,0,0:0:0:0:
250,143,195162,1,8,0:0:0:0:
225,178,195234,1,0,0:0:0:0:
279,149,195377,1,0,0:0:0:0:
365,173,195520,1,8,0:0:0:0:
250,143,195662,1,4,0:0:0:0:
464,179,195948,1,8,0:0:0:0:
320,224,196020,1,8,0:0:0:0:
320,224,196091,1,8,0:0:0:0:
320,224,196162,1,8,0:0:0:0:
320,224,196234,1,0,0:0:0:0:
374,203,196377,1,0,0:0:0:0:
473,269,196520,1,8,0:0:0:0:
380,207,196662,1,8,0:0:0:0:
319,287,196805,1,0,0:0:0:0:
332,188,196948,1,0,0:0:0:0:
326,228,197020,1,0,0:0:0:0:
326,228,197091,1,0,0:0:0:0:
326,228,197234,1,8,0:0:0:0:
430,251,197377,1,0,0:0:0:0:
430,251,197520,1,0,0:0:0:0:
430,251,197662,1,8,0:0:0:0:
250,143,197948,1,0,0:0:0:0:
464,179,198234,1,8,0:0:0:0:
332,188,198377,1,0,0:0:0:0:
250,143,198448,1,0,0:0:0:0:
250,143,198520,1,8,0:0:0:0:
256,160,198662,1,0,0:0:0:0:
250,143,198805,1,8,0:0:0:0:
250,143,198948,1,8,0:0:0:0:
319,287,199091,1,0,0:0:0:0:
332,188,199234,1,0,0:0:0:0:
326,228,199306,1,8,0:0:0:0:
326,228,199377,1,0,0:0:0:0:
326,228,199520,1,8,0:0:0:0:
430,251,199663,1,0,0:0:0:0:
430,251,199806,1,0,0:0:0:0:
430,251,199948,1,8,0:0:0:0:
293,95,200234,1,0,0:0:0:0:
256,160,200377,1,8,0:0:0:0:
352,160,200520,1,0,0:0:0:0:
256,160,200662,1,0,0:0:0:0:
320,160,200734,1,0,0:0:0:0:
261,307,200805,1,8,0:0:0:0:
256,160,200948,1,8,0:0:0:0:
450,212,201091,1,0,0:0:0:0:
365,254,201234,1,8,0:0:0:0:
318,152,201377,1,0,0:0:0:0:
410,223,201520,1,8,0:0:0:0:
410,223,201591,1,8,0:0:0:0:
410,223,201662,1,0,0:0:0:0:
410,223,201805,1,8,0:0:0:0:
392,172,201948,1,0,0:0:0:0:
352,160,202020,1,8,0:0:0:0:
389,84,202091,1,0,0:0:0:0:
392,176,202234,1,8,0:0:0:0:
395,62,202520,1,8,0:0:0:0:
395,62,202662,1,0,0:0:0:0:
395,62,202805,1,0,0:0:0:0:
395,62,202948,1,0,0:0:0:0:
336,92,203020,1,0,0:0:0:0:
395,62,203091,1,8,0:0:0:0:
395,62,203234,1,0,0:0:0:0:
395,62,203377,1,0,0:0:0:0:
383,93,203448,1,8,0:0:0:0:
395,62,203520,1,0,0:0:0:0:
360,81,203591,1,0,0:0:0:0:
395,62,203662,5,8,0:0:0:0:
395,62,203805,1,0,0:0:0:0:
395,62,203948,1,8,0:0:0:0:
395,111,204020,1,8,0:0:0:0:
395,62,204091,1,0,0:0:0:0:
256,192,204234,12,8,204662,0:0:0:0:
256,128,204805,5,4,0:0:0:0:
416,256,205091,1,8,0:0:0:0:
288,96,205377,1,8,0:0:0:0:
416,256,205662,1,0,0:0:0:0:
352,192,205805,1,8,0:0:0:0:
416,256,205948,1,4,0:0:0:0:
256,96,206234,1,8,0:0:0:0:
384,192,206448,1,8,0:0:0:0:
416,256,206520,1,8,0:0:0:0:
320,160,206662,1,8,0:0:0:0:
256,96,206805,1,0,0:0:0:0:
352,192,206948,1,8,0:0:0:0:
448,256,207091,1,4,0:0:0:0:
256,160,207377,1,8,0:0:0:0:
448,256,207662,1,8,0:0:0:0:
352,192,207948,1,0,0:0:0:0:
448,288,208091,1,8,0:0:0:0:
256,128,208234,1,4,0:0:0:0:
128,288,208520,1,8,0:0:0:0:
288,192,208734,1,8,0:0:0:0:
256,128,208805,1,8,0:0:0:0:
352,192,208948,1,8,0:0:0:0:
128,320,209091,1,0,0:0:0:0:
192,224,209234,1,8,0:0:0:0:
256,128,209377,1,4,0:0:0:0:
384,288,209662,1,8,0:0:0:0:
352,160,209805,1,8,0:0:0:0:
256,96,209948,1,4,0:0:0:0:
352,288,210234,1,8,0:0:0:0:
256,96,210520,1,4,0:0:0:0:
352,288,210805,1,8,0:0:0:0:
352,160,210948,1,8,0:0:0:0:
256,96,211091,1,4,0:0:0:0:
352,320,211377,1,8,0:0:0:0:
256,96,211662,1,4,0:0:0:0:
352,288,211948,1,4,0:0:0:0:
256,96,212234,1,4,0:0:0:0:
352,288,212520,1,4,0:0:0:0:
256,96,212805,1,0,0:0:0:0:
288,192,212948,1,0,0:0:0:0:
288,192,213091,1,8,0:0:0:0:
288,192,213234,1,8,0:0:0:0:
416,192,213377,1,0,0:0:0:0:
352,192,213448,1,0,0:0:0:0:
352,192,213520,1,8,0:0:0:0:
352,192,213591,1,0,0:0:0:0:
352,192,213662,1,8,0:0:0:0:
352,192,213734,1,0,0:0:0:0:
352,192,213805,1,8,0:0:0:0:
352,192,213877,1,8,0:0:0:0:
352,192,213948,1,0,0:0:0:0:
352,192,214020,1,0,0:0:0:0:
352,192,214091,1,0,0:0:0:0:
352,192,214162,1,8,0:0:0:0:
352,192,214234,1,0,0:0:0:0:
352,192,214305,1,0,0:0:0:0:
352,192,214377,1,8,0:0:0:0:
352,192,214448,1,8,0:0:0:0:
352,192,214520,1,0,0:0:0:0:
352,192,214591,1,8,0:0:0:0:
352,192,214662,1,8,0:0:0:0:
352,192,214734,1,8,0:0:0:0:
352,192,214805,1,0,0:0:0:0:
352,192,214877,1,8,0:0:0:0:
352,192,214948,1,8,0:0:0:0:
352,192,215020,1,8,0:0:0:0:
256,192,215091,12,0,216091,0:0:0:0:
320,192,216234,5,8,0:0:0:0:
320,256,216305,1,8,0:0:0:0:
384,224,216377,1,8,0:0:0:0:
320,256,216448,1,8,0:0:0:0:
384,256,216520,1,8,0:0:0:0:
320,224,216591,1,8,0:0:0:0:
384,352,216662,1,8,0:0:0:0:
352,288,216734,1,8,0:0:0:0:
320,224,216805,1,8,0:0:0:0:
288,160,216877,1,8,0:0:0:0:
256,96,216948,1,8,0:0:0:0:
288,160,217020,1,8,0:0:0:0:
256,96,217091,1,8,0:0:0:0:
288,160,217162,1,8,0:0:0:0:
256,96,217234,1,8,0:0:0:0:
288,160,217305,1,8,0:0:0:0:
256,96,217377,1,0,0:0:0:0:
128,160,217520,1,8,0:0:0:0:
256,192,217662,1,0,0:0:0:0:
320,224,217734,1,0,0:0:0:0:
352,224,217805,1,8,0:0:0:0:
448,288,217948,1,0,0:0:0:0:
352,224,218091,1,8,0:0:0:0:
384,256,218162,1,8,0:0:0:0:
416,256,218234,1,0,0:0:0:0:
416,256,218377,1,8,0:0:0:0:
416,256,218520,1,0,0:0:0:0:
416,256,218591,1,8,0:0:0:0:
416,256,218734,1,8,0:0:0:0:
416,256,218805,1,0,0:0:0:0:
416,256,218877,1,0,0:0:0:0:
416,256,218948,1,8,0:0:0:0:
416,256,219091,1,0,0:0:0:0:
416,256,219234,1,8,0:0:0:0:
416,256,219305,1,8,0:0:0:0:
288,160,219377,1,0,0:0:0:0:
288,160,219448,1,8,0:0:0:0:
288,160,219520,1,8,0:0:0:0:
416,128,219662,1,0,0:0:0:0:
352,224,219805,1,8,0:0:0:0:
320,128,219948,1,0,0:0:0:0:
352,160,220020,1,0,0:0:0:0:
352,160,220091,1,8,0:0:0:0:
352,160,220234,1,0,0:0:0:0:
352,160,220377,1,8,0:0:0:0:
352,160,220448,1,8,0:0:0:0:
352,160,220520,1,0,0:0:0:0:
352,160,220662,1,8,0:0:0:0:
352,160,220805,1,0,0:0:0:0:
384,192,220877,1,0,0:0:0:0:
288,172,220948,1,8,0:0:0:0:
384,192,221020,1,0,0:0:0:0:
352,160,221091,1,8,0:0:0:0:
320,192,221162,1,8,0:0:0:0:
320,192,221234,1,8,0:0:0:0:
320,192,221305,1,8,0:0:0:0:
320,192,221377,1,0,0:0:0:0:
352,128,221448,1,0,0:0:0:0:
320,192,221520,1,8,0:0:0:0:
288,160,221662,1,0,0:0:0:0:
256,96,221948,1,0,0:0:0:0:
128,160,222091,1,8,0:0:0:0:
256,192,222233,1,0,0:0:0:0:
320,224,222305,1,0,0:0:0:0:
352,224,222376,1,8,0:0:0:0:
448,288,222519,1,0,0:0:0:0:
352,224,222662,1,8,0:0:0:0:
384,256,222733,1,8,0:0:0:0:
416,256,222805,1,0,0:0:0:0:
416,256,222948,1,8,0:0:0:0:
416,256,223091,1,0,0:0:0:0:
416,256,223162,1,8,0:0:0:0:
416,256,223305,1,8,0:0:0:0:
416,256,223376,1,0,0:0:0:0:
256,160,223448,1,0,0:0:0:0:
416,256,223519,1,8,0:0:0:0:
416,256,223662,1,0,0:0:0:0:
416,256,223805,1,8,0:0:0:0:
384,160,223877,1,8,0:0:0:0:
416,256,223948,1,0,0:0:0:0:
416,224,224019,1,8,0:0:0:0:
320,192,224091,1,8,0:0:0:0:
273,195,224162,1,8,0:0:0:0:
416,128,224233,1,0,0:0:0:0:
352,224,224376,1,8,0:0:0:0:
320,128,224519,1,0,0:0:0:0:
352,160,224591,1,0,0:0:0:0:
352,160,224662,1,8,0:0:0:0:
352,160,224734,1,0,0:0:0:0:
305,207,224805,1,0,0:0:0:0:
352,160,224948,1,8,0:0:0:0:
320,192,225020,1,8,0:0:0:0:
352,160,225091,1,0,0:0:0:0:
352,160,225233,1,8,0:0:0:0:
320,192,225377,1,4,0:0:0:0:
320,192,225662,1,12,0:0:0:0:
320,192,225948,1,12,0:0:0:0:
320,192,226234,1,4,0:0:0:0:
256,96,226520,1,0,0:0:0:0:
128,160,226663,1,8,0:0:0:0:
192,192,226734,1,8,0:0:0:0:
256,192,226805,1,0,0:0:0:0:
352,224,226948,1,8,0:0:0:0:
448,288,227091,1,0,0:0:0:0:
416,256,227162,1,0,0:0:0:0:
352,224,227234,1,8,0:0:0:0:
416,256,227377,1,0,0:0:0:0:
416,256,227520,1,8,0:0:0:0:
320,192,227591,1,8,0:0:0:0:
416,256,227663,1,0,0:0:0:0:
416,256,227734,1,8,0:0:0:0:
416,256,227877,1,8,0:0:0:0:
416,256,227948,1,0,0:0:0:0:
416,256,228091,1,8,0:0:0:0:
416,256,228234,1,0,0:0:0:0:
384,224,228305,1,0,0:0:0:0:
320,192,228377,1,8,0:0:0:0:
288,192,228448,1,0,0:0:0:0:
224,192,228520,1,8,0:0:0:0:
320,192,228663,1,8,0:0:0:0:
416,128,228805,1,0,0:0:0:0:
352,224,228948,1,8,0:0:0:0:
384,192,229020,1,8,0:0:0:0:
320,128,229091,1,0,0:0:0:0:
352,160,229234,1,8,0:0:0:0:
352,160,229377,1,0,0:0:0:0:
320,160,229448,1,0,0:0:0:0:
352,160,229520,1,8,0:0:0:0:
352,160,229663,1,0,0:0:0:0:
352,160,229805,1,8,0:0:0:0:
352,160,229948,1,0,0:0:0:0:
384,192,230020,1,8,0:0:0:0:
288,172,230091,1,8,0:0:0:0:
384,192,230163,1,8,0:0:0:0:
352,160,230234,1,0,0:0:0:0:
320,192,230305,1,0,0:0:0:0:
320,192,230377,1,8,0:0:0:0:
320,192,230520,1,0,0:0:0:0:
288,160,230591,1,0,0:0:0:0:
320,192,230734,1,0,0:0:0:0:
288,160,230805,1,8,0:0:0:0:
256,96,231091,1,0,0:0:0:0:
128,160,231234,1,8,0:0:0:0:
320,224,231305,1,8,0:0:0:0:
256,192,231376,1,0,0:0:0:0:
352,224,231519,1,8,0:0:0:0:
448,288,231662,1,0,0:0:0:0:
384,256,231734,1,0,0:0:0:0:
352,224,231805,1,8,0:0:0:0:
416,256,231948,1,0,0:0:0:0:
416,256,232091,1,8,0:0:0:0:
416,256,232162,1,8,0:0:0:0:
416,256,232234,1,0,0:0:0:0:
416,256,232305,1,8,0:0:0:0:
288,224,232448,1,8,0:0:0:0:
416,256,232519,1,0,0:0:0:0:
96,160,232591,1,0,0:0:0:0:
416,256,232662,1,8,0:0:0:0:
192,160,232734,1,0,0:0:0:0:
416,256,232805,1,8,0:0:0:0:
416,256,232876,1,8,0:0:0:0:
416,256,232948,1,0,0:0:0:0:
416,256,233091,1,8,0:0:0:0:
320,192,233234,1,0,0:0:0:0:
273,195,233305,1,0,0:0:0:0:
416,128,233376,1,8,0:0:0:0:
352,224,233519,1,0,0:0:0:0:
320,128,233662,1,8,0:0:0:0:
352,160,233734,1,0,0:0:0:0:
256,128,233877,1,0,0:0:0:0:
224,160,233948,1,8,0:0:0:0:
256,160,234020,1,8,0:0:0:0:
224,160,234091,1,0,0:0:0:0:
320,160,234162,1,0,0:0:0:0:
224,160,234234,1,8,0:0:0:0:
352,160,234376,1,8,0:0:0:0:
320,192,234520,1,4,0:0:0:0:
320,192,234805,1,12,0:0:0:0:
320,192,235091,1,12,0:0:0:0:
320,192,235377,1,4,0:0:0:0:
256,96,235662,1,0,0:0:0:0:
128,160,235805,1,8,0:0:0:0:
256,192,235947,1,0,0:0:0:0:
320,224,236019,1,0,0:0:0:0:
352,224,236090,1,8,0:0:0:0:
448,288,236233,1,0,0:0:0:0:
352,224,236376,1,8,0:0:0:0:
384,256,236447,1,8,0:0:0:0:
416,256,236519,1,0,0:0:0:0:
416,256,236662,1,8,0:0:0:0:
416,256,236805,1,0,0:0:0:0:
416,256,236876,1,8,0:0:0:0:
352,224,237020,1,8,0:0:0:0:
416,256,237090,1,0,0:0:0:0:
416,256,237162,1,0,0:0:0:0:
416,256,237233,1,8,0:0:0:0:
416,256,237376,1,0,0:0:0:0:
416,256,237520,1,8,0:0:0:0:
416,256,237590,1,8,0:0:0:0:
416,256,237662,1,0,0:0:0:0:
416,224,237733,1,8,0:0:0:0:
320,192,237805,1,8,0:0:0:0:
416,128,237947,1,0,0:0:0:0:
352,224,238090,1,8,0:0:0:0:
320,128,238233,1,0,0:0:0:0:
352,160,238305,1,0,0:0:0:0:
352,160,238376,1,8,0:0:0:0:
352,160,238519,1,0,0:0:0:0:
352,160,238662,1,8,0:0:0:0:
352,160,238733,1,8,0:0:0:0:
352,160,238805,1,0,0:0:0:0:
352,160,238947,1,8,0:0:0:0:
352,160,239090,1,0,0:0:0:0:
384,192,239162,1,8,0:0:0:0:
288,172,239233,1,8,0:0:0:0:
384,192,239305,1,8,0:0:0:0:
352,160,239376,1,0,0:0:0:0:
320,192,239447,1,0,0:0:0:0:
320,192,239519,1,8,0:0:0:0:
320,192,239662,1,0,0:0:0:0:
352,128,239733,1,0,0:0:0:0:
288,160,239877,1,0,0:0:0:0:
320,192,239947,1,8,0:0:0:0:
256,192,240020,1,8,0:0:0:0:
256,192,240091,1,8,0:0:0:0:
256,192,240162,1,8,0:0:0:0:
256,96,240233,1,0,0:0:0:0:
128,160,240376,1,8,0:0:0:0:
256,192,240520,1,0,0:0:0:0:
320,224,240590,1,0,0:0:0:0:
352,224,240661,1,8,0:0:0:0:
448,288,240804,1,0,0:0:0:0:
352,224,240947,1,8,0:0:0:0:
384,256,241020,1,8,0:0:0:0:
416,256,241090,1,0,0:0:0:0:
416,256,241233,1,8,0:0:0:0:
416,256,241376,1,0,0:0:0:0:
416,256,241447,1,8,0:0:0:0:
384,224,241591,1,8,0:0:0:0:
416,256,241661,1,0,0:0:0:0:
416,256,241734,1,0,0:0:0:0:
416,256,241804,1,8,0:0:0:0:
416,256,241947,1,0,0:0:0:0:
416,256,242091,1,8,0:0:0:0:
416,256,242161,1,8,0:0:0:0:
416,256,242233,1,0,0:0:0:0:
416,224,242304,1,8,0:0:0:0:
320,192,242376,1,8,0:0:0:0:
273,195,242447,1,8,0:0:0:0:
416,128,242520,1,0,0:0:0:0:
352,224,242661,1,8,0:0:0:0:
320,128,242804,1,0,0:0:0:0:
352,160,242876,1,0,0:0:0:0:
352,160,242947,1,8,0:0:0:0:
305,207,243019,1,0,0:0:0:0:
352,160,243090,1,0,0:0:0:0:
352,160,243233,1,8,0:0:0:0:
320,192,243305,1,8,0:0:0:0:
352,160,243376,1,0,0:0:0:0:
352,160,243520,1,0,0:0:0:0:
320,192,243662,1,12,0:0:0:0:
320,192,243947,1,4,0:0:0:0:
320,192,244233,1,4,0:0:0:0:
320,192,244519,1,12,0:0:0:0:
256,96,244805,1,0,0:0:0:0:
128,160,244948,1,8,0:0:0:0:
192,192,245019,1,8,0:0:0:0:
256,192,245090,1,0,0:0:0:0:
352,224,245233,1,8,0:0:0:0:
448,288,245376,1,0,0:0:0:0:
416,256,245447,1,0,0:0:0:0:
352,224,245519,1,8,0:0:0:0:
416,256,245662,1,0,0:0:0:0:
416,256,245805,1,8,0:0:0:0:
320,192,245876,1,8,0:0:0:0:
416,256,245948,1,0,0:0:0:0:
416,256,246019,1,8,0:0:0:0:
416,256,246162,1,8,0:0:0:0:
416,256,246233,1,0,0:0:0:0:
416,256,246376,1,8,0:0:0:0:
416,256,246519,1,0,0:0:0:0:
384,224,246590,1,0,0:0:0:0:
320,192,246662,1,8,0:0:0:0:
288,192,246733,1,0,0:0:0:0:
224,192,246805,1,8,0:0:0:0:
320,128,246877,1,8,0:0:0:0:
320,128,246948,1,0,0:0:0:0:
416,128,247090,1,0,0:0:0:0:
352,224,247233,1,8,0:0:0:0:
384,192,247305,1,8,0:0:0:0:
320,128,247376,1,0,0:0:0:0:
352,160,247519,1,8,0:0:0:0:
352,160,247662,1,0,0:0:0:0:
320,160,247733,1,0,0:0:0:0:
352,160,247805,1,8,0:0:0:0:
352,160,247948,1,0,0:0:0:0:
352,160,248090,1,8,0:0:0:0:
352,160,248233,1,0,0:0:0:0:
384,192,248305,1,0,0:0:0:0:
288,172,248376,1,8,0:0:0:0:
384,192,248448,1,8,0:0:0:0:
352,160,248519,1,0,0:0:0:0:
320,192,248590,1,0,0:0:0:0:
320,192,248662,1,8,0:0:0:0:
320,192,248805,1,0,0:0:0:0:
352,128,248876,1,0,0:0:0:0:
320,192,249019,1,0,0:0:0:0:
288,160,249090,1,8,0:0:0:0:
320,160,249162,1,8,0:0:0:0:
352,192,249234,1,8,0:0:0:0:
352,192,249305,1,8,0:0:0:0:
256,96,249376,1,0,0:0:0:0:
128,160,249519,1,8,0:0:0:0:
320,224,249590,1,8,0:0:0:0:
256,192,249661,1,0,0:0:0:0:
352,224,249804,1,8,0:0:0:0:
448,288,249947,1,0,0:0:0:0:
384,256,250019,1,0,0:0:0:0:
352,224,250090,1,8,0:0:0:0:
416,256,250233,1,0,0:0:0:0:
416,256,250376,1,8,0:0:0:0:
416,256,250519,1,0,0:0:0:0:
352,224,250591,1,0,0:0:0:0:
320,192,250662,1,8,0:0:0:0:
224,192,250734,1,8,0:0:0:0:
416,256,250805,1,0,0:0:0:0:
352,224,250877,1,8,0:0:0:0:
416,256,250947,1,8,0:0:0:0:
273,195,251020,1,8,0:0:0:0:
416,256,251090,1,0,0:0:0:0:
416,256,251161,1,8,0:0:0:0:
384,224,251234,1,0,0:0:0:0:
416,256,251304,1,0,0:0:0:0:
416,256,251376,1,8,0:0:0:0:
273,195,251520,1,0,0:0:0:0:
416,128,251661,1,8,0:0:0:0:
416,192,251734,1,8,0:0:0:0:
352,224,251804,1,0,0:0:0:0:
320,192,251876,1,0,0:0:0:0:
320,128,251947,1,8,0:0:0:0:
352,192,252020,1,8,0:0:0:0:
352,160,252090,1,0,0:0:0:0:
352,160,252162,1,8,0:0:0:0:
224,160,252233,1,0,0:0:0:0:
256,160,252305,1,0,0:0:0:0:
224,160,252376,1,8,0:0:0:0:
320,192,252448,1,8,0:0:0:0:
224,160,252519,1,0,0:0:0:0:
256,128,252591,1,8,0:0:0:0:
320,128,252662,1,8,0:0:0:0:
288,96,252734,1,8,0:0:0:0:
256,192,252805,12,0,253805,0:0:0:0:
288,224,253948,5,4,0:0:0:0:
256,192,256234,12,0,260662,0:0:0:0:
320,160,260805,5,4,0:0:0:0:
128,320,261090,1,0,0:0:0:0:
320,160,261376,1,0,0:0:0:0:
128,320,261662,1,0,0:0:0:0:
320,160,261947,1,0,0:0:0:0:
128,320,262233,1,0,0:0:0:0:
320,160,262519,1,0,0:0:0:0:
128,320,262805,1,0,0:0:0:0:
320,96,262948,1,8,0:0:0:0:
320,160,263090,1,0,0:0:0:0:
128,288,263376,1,0,0:0:0:0:
320,160,263662,1,0,0:0:0:0:
128,320,263947,1,0,0:0:0:0:
320,160,264233,1,0,0:0:0:0:
128,320,264519,1,0,0:0:0:0:
320,160,264805,1,0,0:0:0:0:
166,285,265090,1,8,0:0:0:0:
256,224,265233,1,8,0:0:0:0:
288,128,265376,1,0,0:0:0:0:
224,352,265662,1,0,0:0:0:0:
288,96,265947,1,0,0:0:0:0:
256,352,266233,1,0,0:0:0:0:
288,96,266519,1,0,0:0:0:0:
256,352,266805,1,0,0:0:0:0:
288,96,267090,1,0,0:0:0:0:
256,352,267376,1,0,0:0:0:0:
352,128,267520,1,8,0:0:0:0:
288,96,267662,1,0,0:0:0:0:
352,128,267805,1,8,0:0:0:0:
256,352,267947,1,0,0:0:0:0:
288,96,268233,1,0,0:0:0:0:
256,320,268519,1,0,0:0:0:0:
288,64,268805,1,0,0:0:0:0:
256,320,269090,1,0,0:0:0:0:
363,259,269233,1,8,0:0:0:0:
288,64,269376,1,0,0:0:0:0:
256,288,269662,1,12,0:0:0:0:
160,64,269947,1,0,0:0:0:0:
224,192,270090,1,0,0:0:0:0:
160,96,270233,1,0,0:0:0:0:
288,64,270519,1,0,0:0:0:0:
288,320,270805,1,0,0:0:0:0:
288,64,271090,1,0,0:0:0:0:
288,320,271376,1,0,0:0:0:0:
288,64,271662,1,0,0:0:0:0:
322,152,271805,1,0,0:0:0:0:
367,262,271947,1,8,0:0:0:0:
249,211,272090,1,8,0:0:0:0:
288,64,272233,1,0,0:0:0:0:
288,320,272519,1,0,0:0:0:0:
288,64,272805,1,0,0:0:0:0:
288,320,273090,1,0,0:0:0:0:
384,192,273233,1,8,0:0:0:0:
288,64,273376,1,0,0:0:0:0:
288,320,273662,1,0,0:0:0:0:
387,201,273805,1,0,0:0:0:0:
288,96,273947,1,8,0:0:0:0:
387,201,274162,1,0,0:0:0:0:
448,288,274233,1,8,0:0:0:0:
384,192,274376,1,8,0:0:0:0:
352,160,274519,1,4,0:0:0:0:
352,160,274805,1,0,0:0:0:0:
352,160,275090,1,0,0:0:0:0:
236,182,275376,1,0,0:0:0:0:
330,164,275519,1,8,0:0:0:0:
352,160,275662,1,4,0:0:0:0:
352,160,275947,1,0,0:0:0:0:
352,160,276233,1,0,0:0:0:0:
276,286,276376,1,8,0:0:0:0:
352,160,276519,1,0,0:0:0:0:
264,130,276662,1,8,0:0:0:0:
384,160,276805,1,4,0:0:0:0:
172,104,277090,1,8,0:0:0:0:
286,135,277233,1,8,0:0:0:0:
384,160,277376,1,4,0:0:0:0:
286,135,277519,1,8,0:0:0:0:
384,160,277662,1,8,0:0:0:0:
320,160,277805,1,8,0:0:0:0:
384,96,277947,1,0,0:0:0:0:
384,96,277983,1,0,0:0:0:0:
416,192,278090,1,8,0:0:0:0:
416,192,278126,1,8,0:0:0:0:
416,192,278233,1,8,0:0:0:0:
416,192,278269,1,8,0:0:0:0:
416,192,278376,1,0,0:0:0:0:
416,192,278412,1,0,0:0:0:0:
384,160,278519,1,8,0:0:0:0:
352,192,278567,1,8,0:0:0:0:
352,192,278615,1,8,0:0:0:0:
320,192,278662,1,0,0:0:0:0:
320,160,278733,1,0,0:0:0:0:
384,160,278805,1,8,0:0:0:0:
384,160,278876,1,8,0:0:0:0:
384,160,278947,1,8,0:0:0:0:
384,160,279019,1,8,0:0:0:0:
384,160,279090,1,0,0:0:0:0:
160,128,279376,1,0,0:0:0:0:
352,192,279519,1,8,0:0:0:0:
352,192,279662,1,0,0:0:0:0:
480,320,279876,1,8,0:0:0:0:
448,288,279947,1,0,0:0:0:0:
480,320,280090,1,8,0:0:0:0:
384,256,280233,1,0,0:0:0:0:
480,288,280377,1,8,0:0:0:0:
416,256,280448,1,8,0:0:0:0:
384,256,280519,1,0,0:0:0:0:
448,256,280662,1,8,0:0:0:0:
320,192,280805,1,0,0:0:0:0:
416,256,280947,1,0,0:0:0:0:
320,224,281090,1,8,0:0:0:0:
256,160,281233,1,8,0:0:0:0:
256,160,281376,1,0,0:0:0:0:
480,160,281662,1,0,0:0:0:0:
384,160,281805,1,8,0:0:0:0:
256,160,281947,1,0,0:0:0:0:
416,160,282162,1,8,0:0:0:0:
352,160,282233,1,0,0:0:0:0:
352,160,282376,1,8,0:0:0:0:
352,160,282519,1,0,0:0:0:0:
416,192,282591,1,0,0:0:0:0:
352,160,282662,1,8,0:0:0:0:
352,160,282805,1,0,0:0:0:0:
352,160,282947,1,8,0:0:0:0:
320,160,283020,1,8,0:0:0:0:
352,160,283090,1,0,0:0:0:0:
352,160,283233,1,0,0:0:0:0:
352,160,283376,1,8,0:0:0:0:
352,160,283519,1,8,0:0:0:0:
352,160,283662,1,0,0:0:0:0:
160,128,283947,1,0,0:0:0:0:
352,192,284090,1,8,0:0:0:0:
352,192,284233,1,0,0:0:0:0:
480,320,284447,1,8,0:0:0:0:
448,288,284520,1,0,0:0:0:0:
480,320,284661,1,8,0:0:0:0:
384,256,284804,1,0,0:0:0:0:
480,288,284947,1,8,0:0:0:0:
416,224,285020,1,8,0:0:0:0:
384,256,285090,1,0,0:0:0:0:
416,256,285233,1,8,0:0:0:0:
320,192,285376,1,0,0:0:0:0:
416,256,285520,1,0,0:0:0:0:
320,224,285661,1,8,0:0:0:0:
256,160,285804,1,8,0:0:0:0:
256,160,285947,1,0,0:0:0:0:
480,160,286233,1,0,0:0:0:0:
384,160,286376,1,8,0:0:0:0:
256,160,286520,1,0,0:0:0:0:
416,160,286733,1,8,0:0:0:0:
352,160,286804,1,0,0:0:0:0:
352,160,286947,1,8,0:0:0:0:
352,160,287090,1,0,0:0:0:0:
320,128,287162,1,0,0:0:0:0:
352,160,287233,1,8,0:0:0:0:
352,160,287376,1,0,0:0:0:0:
352,160,287520,1,8,0:0:0:0:
352,160,287591,1,8,0:0:0:0:
352,160,287661,1,0,0:0:0:0:
352,160,287804,1,0,0:0:0:0:
352,160,287876,1,0,0:0:0:0:
352,160,287947,1,8,0:0:0:0:
352,160,288019,1,0,0:0:0:0:
352,160,288090,1,8,0:0:0:0:
352,160,288162,1,8,0:0:0:0:
384,160,288233,1,0,0:0:0:0:
160,128,288519,1,0,0:0:0:0:
352,192,288662,1,8,0:0:0:0:
352,192,288805,1,0,0:0:0:0:
320,160,288876,1,0,0:0:0:0:
480,320,288948,1,8,0:0:0:0:
448,288,289090,1,0,0:0:0:0:
416,288,289233,1,0,0:0:0:0:
480,320,289305,1,8,0:0:0:0:
448,256,289448,1,8,0:0:0:0:
480,288,289520,1,0,0:0:0:0:
384,256,289662,1,8,0:0:0:0:
320,192,289805,1,0,0:0:0:0:
288,160,289877,1,0,0:0:0:0:
416,256,289948,1,8,0:0:0:0:
384,256,290020,1,8,0:0:0:0:
416,256,290090,1,0,0:0:0:0:
320,224,290233,1,8,0:0:0:0:
256,160,290376,1,0,0:0:0:0:
256,160,290519,1,0,0:0:0:0:
416,224,290734,1,8,0:0:0:0:
480,160,290805,1,0,0:0:0:0:
384,160,290948,1,8,0:0:0:0:
256,160,291090,1,0,0:0:0:0:
288,128,291162,1,0,0:0:0:0:
352,192,291234,1,8,0:0:0:0:
352,160,291376,1,0,0:0:0:0:
352,224,291519,1,0,0:0:0:0:
352,160,291591,1,8,0:0:0:0:
256,160,291662,1,8,0:0:0:0:
288,128,291733,1,8,0:0:0:0:
352,160,291805,1,0,0:0:0:0:
352,160,291948,1,8,0:0:0:0:
224,224,292091,1,0,0:0:0:0:
288,192,292162,1,0,0:0:0:0:
192,128,292233,1,8,0:0:0:0:
224,160,292305,1,8,0:0:0:0:
352,192,292376,1,0,0:0:0:0:
384,192,292447,1,0,0:0:0:0:
448,160,292519,1,8,0:0:0:0:
416,192,292590,1,0,0:0:0:0:
416,192,292662,1,8,0:0:0:0:
416,192,292733,1,8,0:0:0:0:
352,160,292805,1,0,0:0:0:0:
160,128,293090,1,0,0:0:0:0:
352,192,293233,1,8,0:0:0:0:
352,192,293376,1,0,0:0:0:0:
480,320,293448,1,0,0:0:0:0:
320,192,293520,1,8,0:0:0:0:
448,288,293661,1,0,0:0:0:0:
480,320,293804,1,0,0:0:0:0:
448,288,293877,1,8,0:0:0:0:
416,256,293948,1,0,0:0:0:0:
480,288,294090,1,8,0:0:0:0:
384,256,294233,1,0,0:0:0:0:
416,256,294376,1,8,0:0:0:0:
384,224,294448,1,8,0:0:0:0:
320,192,294519,1,0,0:0:0:0:
224,128,294662,1,0,0:0:0:0:
288,192,294734,1,0,0:0:0:0:
416,256,294804,1,8,0:0:0:0:
256,160,294947,1,8,0:0:0:0:
256,160,295090,1,0,0:0:0:0:
352,128,295233,1,8,0:0:0:0:
384,96,295305,1,8,0:0:0:0:
384,96,295376,1,8,0:0:0:0:
384,160,295519,1,8,0:0:0:0:
256,160,295662,1,0,0:0:0:0:
192,160,295733,1,8,0:0:0:0:
352,160,295876,1,8,0:0:0:0:
416,160,295947,1,8,0:0:0:0:
352,160,296090,1,8,0:0:0:0:
320,192,296162,1,8,0:0:0:0:
352,160,296233,1,0,0:0:0:0:
288,160,296305,1,0,0:0:0:0:
352,160,296376,1,8,0:0:0:0:
352,160,296519,1,0,0:0:0:0:
352,160,296661,1,8,0:0:0:0:
320,192,296733,1,8,0:0:0:0:
352,160,296804,1,0,0:0:0:0:
320,160,296853,1,0,0:0:0:0:
288,192,296900,1,0,0:0:0:0:
352,160,296947,1,8,0:0:0:0:
352,160,297019,1,0,0:0:0:0:
352,160,297090,1,8,0:0:0:0:
352,160,297162,1,8,0:0:0:0:
352,160,297233,1,8,0:0:0:0:
352,160,297305,1,8,0:0:0:0:
416,160,297376,1,0,0:0:0:0:
192,64,297662,1,0,0:0:0:0:
352,160,297948,1,0,0:0:0:0:
352,160,298091,1,8,0:0:0:0:
352,160,298234,1,0,0:0:0:0:
352,160,298377,1,8,0:0:0:0:
448,128,298520,1,0,0:0:0:0:
352,192,298662,1,0,0:0:0:0:
320,224,298734,1,0,0:0:0:0:
352,256,298805,1,8,0:0:0:0:
448,288,298948,1,0,0:0:0:0:
320,256,299091,1,8,0:0:0:0:
416,256,299162,1,8,0:0:0:0:
384,256,299234,1,0,0:0:0:0:
256,192,299377,1,8,0:0:0:0:
416,160,299662,1,0,0:0:0:0:
192,64,299948,1,0,0:0:0:0:
256,160,300091,1,0,0:0:0:0:
288,256,300234,1,8,0:0:0:0:
352,160,300377,1,0,0:0:0:0:
352,160,300520,1,8,0:0:0:0:
352,160,300663,1,8,0:0:0:0:
320,224,300734,1,8,0:0:0:0:
448,128,300806,1,0,0:0:0:0:
352,192,300948,1,0,0:0:0:0:
352,256,301091,1,8,0:0:0:0:
448,192,301234,1,0,0:0:0:0:
480,160,301305,1,0,0:0:0:0:
320,256,301377,1,8,0:0:0:0:
416,256,301448,1,8,0:0:0:0:
384,256,301520,1,0,0:0:0:0:
256,192,301663,1,8,0:0:0:0:
352,192,301805,1,0,0:0:0:0:
320,160,301877,1,8,0:0:0:0:
416,160,301948,1,0,0:0:0:0:
192,64,302234,1,0,0:0:0:0:
352,160,302520,1,0,0:0:0:0:
352,160,302662,1,8,0:0:0:0:
320,128,302734,1,8,0:0:0:0:
352,160,302806,1,0,0:0:0:0:
352,160,302949,1,8,0:0:0:0:
448,128,303092,1,0,0:0:0:0:
352,192,303234,1,0,0:0:0:0:
320,224,303306,1,0,0:0:0:0:
352,256,303377,1,8,0:0:0:0:
448,288,303520,1,0,0:0:0:0:
320,256,303663,1,8,0:0:0:0:
416,256,303734,1,8,0:0:0:0:
384,256,303806,1,0,0:0:0:0:
256,192,303949,1,8,0:0:0:0:
416,160,304234,1,0,0:0:0:0:
192,64,304520,1,0,0:0:0:0:
256,160,304663,1,0,0:0:0:0:
416,160,304734,1,0,0:0:0:0:
288,256,304806,1,8,0:0:0:0:
352,160,304949,1,0,0:0:0:0:
352,160,305092,1,0,0:0:0:0:
352,160,305235,1,8,0:0:0:0:
320,224,305306,1,8,0:0:0:0:
448,128,305378,1,0,0:0:0:0:
352,192,305520,1,0,0:0:0:0:
352,256,305663,1,8,0:0:0:0:
448,192,305806,1,0,0:0:0:0:
480,160,305877,1,0,0:0:0:0:
320,256,305949,1,8,0:0:0:0:
416,256,306020,1,8,0:0:0:0:
384,256,306092,1,0,0:0:0:0:
256,192,306235,1,8,0:0:0:0:
416,160,306520,1,4,0:0:0:0:
192,64,306806,1,8,0:0:0:0:
288,96,306948,1,0,0:0:0:0:
352,160,307092,1,0,0:0:0:0:
352,160,307235,1,8,0:0:0:0:
352,192,307305,1,8,0:0:0:0:
352,160,307378,1,0,0:0:0:0:
352,160,307521,1,8,0:0:0:0:
448,128,307662,1,0,0:0:0:0:
352,192,307734,1,0,0:0:0:0:
320,224,307878,1,0,0:0:0:0:
352,256,307949,1,8,0:0:0:0:
448,288,308092,1,0,0:0:0:0:
320,256,308235,1,8,0:0:0:0:
416,256,308306,1,8,0:0:0:0:
384,256,308378,1,0,0:0:0:0:
256,192,308521,1,8,0:0:0:0:
416,160,308806,1,0,0:0:0:0:
192,64,309092,1,8,0:0:0:0:
256,160,309235,1,0,0:0:0:0:
256,160,309305,1,0,0:0:0:0:
288,256,309378,1,8,0:0:0:0:
352,160,309521,1,0,0:0:0:0:
352,160,309662,1,8,0:0:0:0:
352,160,309734,1,8,0:0:0:0:
320,224,309878,1,8,0:0:0:0:
448,128,309948,1,0,0:0:0:0:
352,192,310092,1,0,0:0:0:0:
352,256,310235,1,8,0:0:0:0:
448,192,310378,1,0,0:0:0:0:
480,160,310449,1,0,0:0:0:0:
320,256,310521,1,8,0:0:0:0:
416,256,310592,1,8,0:0:0:0:
384,256,310662,1,0,0:0:0:0:
256,192,310805,1,8,0:0:0:0:
352,192,310949,1,0,0:0:0:0:
320,160,311021,1,8,0:0:0:0:
0,96,311092,1,0,0:0:0:0:
224,128,311377,1,8,0:0:0:0:
352,128,311520,1,0,0:0:0:0:
352,160,311663,1,0,0:0:0:0:
352,160,311806,1,8,0:0:0:0:
320,160,311877,1,8,0:0:0:0:
352,160,311949,1,0,0:0:0:0:
352,160,312092,1,8,0:0:0:0:
256,224,312234,1,0,0:0:0:0:
288,256,312305,1,0,0:0:0:0:
320,224,312449,1,0,0:0:0:0:
352,256,312520,1,8,0:0:0:0:
448,288,312663,1,0,0:0:0:0:
320,256,312806,1,8,0:0:0:0:
416,256,312877,1,8,0:0:0:0:
384,256,312949,1,0,0:0:0:0:
256,192,313092,1,8,0:0:0:0:
512,224,313377,1,0,0:0:0:0:
320,192,313591,1,0,0:0:0:0:
192,64,313663,1,8,0:0:0:0:
256,160,313805,1,8,0:0:0:0:
288,256,313877,1,8,0:0:0:0:
352,160,313948,1,0,0:0:0:0:
352,160,314091,1,0,0:0:0:0:
288,128,314234,1,8,0:0:0:0:
352,96,314305,1,8,0:0:0:0:
352,160,314448,1,8,0:0:0:0:
448,128,314521,1,0,0:0:0:0:
416,160,314591,1,0,0:0:0:0:
352,192,314663,1,0,0:0:0:0:
320,224,314734,1,0,0:0:0:0:
352,256,314806,1,8,0:0:0:0:
320,224,314877,1,0,0:0:0:0:
448,192,314949,1,0,0:0:0:0:
480,160,315020,1,0,0:0:0:0:
320,256,315092,1,8,0:0:0:0:
416,256,315163,1,8,0:0:0:0:
384,256,315235,1,0,0:0:0:0:
352,224,315305,1,0,0:0:0:0:
256,192,315378,1,8,0:0:0:0:
480,224,315662,5,12,0:0:0:0:
384,256,315948,1,8,0:0:0:0:
384,256,316234,1,8,0:0:0:0:
384,256,316520,1,8,0:0:0:0:
384,256,316805,1,8,0:0:0:0:
384,256,317091,1,8,0:0:0:0:
384,256,317234,1,8,0:0:0:0:
384,256,317377,1,8,0:0:0:0:
384,256,317662,1,8,0:0:0:0:
384,256,317948,1,8,0:0:0:0:
384,256,318234,1,8,0:0:0:0:
384,256,318520,1,8,0:0:0:0:
384,256,318805,1,8,0:0:0:0:
384,256,319091,1,8,0:0:0:0:
384,256,319377,1,8,0:0:0:0:
384,256,319520,1,8,0:0:0:0:
384,256,319662,1,8,0:0:0:0:
384,256,319948,1,8,0:0:0:0:
384,256,320234,1,8,0:0:0:0:
384,256,320520,1,8,0:0:0:0:
384,256,320805,1,8,0:0:0:0:
384,256,321091,1,8,0:0:0:0:
384,256,321377,1,8,0:0:0:0:
384,256,321662,1,8,0:0:0:0:
384,256,321805,1,8,0:0:0:0:
384,256,321948,1,8,0:0:0:0:
384,256,322234,1,8,0:0:0:0:
384,256,322520,1,8,0:0:0:0:
384,256,322805,1,8,0:0:0:0:
384,256,323091,1,8,0:0:0:0:
384,256,323377,1,8,0:0:0:0:
384,256,323662,1,8,0:0:0:0:
384,256,323948,1,8,0:0:0:0:
384,256,324091,1,8,0:0:0:0:
384,256,324234,1,8,0:0:0:0:
384,256,324520,1,8,0:0:0:0:
384,256,324805,1,8,0:0:0:0:
384,256,325377,1,8,0:0:0:0:
352,256,325662,1,8,0:0:0:0:
384,256,325948,1,8,0:0:0:0:
384,256,326234,1,8,0:0:0:0:
320,192,326377,1,8,0:0:0:0:
384,256,326520,1,8,0:0:0:0:
384,256,327091,1,8,0:0:0:0:
384,256,327662,1,8,0:0:0:0:
288,192,327948,1,8,0:0:0:0:
384,256,328234,1,8,0:0:0:0:
192,160,328520,1,8,0:0:0:0:
288,192,328662,1,8,0:0:0:0:
384,256,328805,1,8,0:0:0:0:
288,192,329091,1,8,0:0:0:0:
384,256,329377,1,8,0:0:0:0:
384,256,329948,1,8,0:0:0:0:
384,256,330520,1,8,0:0:0:0:
160,160,330805,1,8,0:0:0:0:
320,128,330948,1,8,0:0:0:0:
352,224,331091,1,8,0:0:0:0:
352,256,331662,1,8,0:0:0:0:
352,256,332234,1,8,0:0:0:0:
352,256,332805,1,8,0:0:0:0:
352,256,333091,1,8,0:0:0:0:
352,256,333234,1,8,0:0:0:0:
352,256,333377,1,8,0:0:0:0:
352,256,333662,1,8,0:0:0:0:
