osu file format v14

[General]
AudioFilename: C18H27NO3.mp3
AudioLeadIn: 0
PreviewTime: 217352
Countdown: 1
SampleSet: Soft
StackLeniency: 0.7
Mode: 0
LetterboxInBreaks: 1
WidescreenStoryboard: 0

[Editor]
Bookmarks: 2494,11637,20780,29923,31495,39066,48209,57352,58495,67637,76780,95066,113352,131637,149923,159066,168209,186495,204780,217352,235637,253923,260780,279066,284209,297352,315637,324780,333637
DistanceSpacing: 1.7
BeatDivisor: 4
GridSize: 32
TimelineZoom: 7.699995

[Metadata]
Title:C18H27NO3(extend)
TitleUnicode:C18H27NO3(extend)
Artist:Team Grimoire
ArtistUnicode:Team Grimoire
Creator:Kloyd
Version:Volcanic
Source:SOUND VOLTEX II -infinite infection-
Tags:Capsaicin Hardcore Gabber SDVX 2 SDVX2 pop'n music Sunny Park 制作決定記念 オリジナル楽曲コンテスト Production Confirmation Commemorative Original Song Contest Grimoire of Crimson TG-002 M3-35 Spring
BeatmapID:822765
BeatmapSetID:375706

[Difficulty]
HPDrainRate:6.5
CircleSize:5
OverallDifficulty:8.5
ApproachRate:9.4
SliderMultiplier:1.78
SliderTickRate:1

[Events]
//Background and Video events
0,0,"bg.jpg",0,0
//Break Periods
2,39281,47684
2,136424,148541
//Storyboard Layer 0 (Background)
//Storyboard Layer 1 (Fail)
//Storyboard Layer 2 (Pass)
//Storyboard Layer 3 (Foreground)
//Storyboard Sound Samples

[TimingPoints]
2510,285.714285714286,4,2,1,30,1,0
2510,-333,4,2,1,30,0,0
28795,-100,4,1,1,50,0,0
29938,-100,4,1,1,70,0,0
48224,-133.333333333333,4,2,1,40,0,0
52795,-133.333333333333,4,2,1,50,0,0
53938,-133.333333333333,4,2,1,55,0,0
56224,-133.333333333333,4,2,1,60,0,0
56510,-200,4,2,1,70,0,0
57367,-133.333333333333,4,2,1,65,0,0
58510,-100,4,1,1,75,0,0
67367,-200,4,1,1,55,0,0
67652,-100,4,1,1,75,0,0
71652,-200,4,1,1,40,0,0
71938,-100,4,1,1,55,0,0
72224,-100,4,1,1,75,0,0
76795,-100,4,1,1,55,0,0
85938,-100,4,1,1,65,0,0
89938,-200,4,1,1,65,0,0
90510,-100,4,1,1,70,0,0
92795,-80,4,1,1,75,0,0
93081,-133.333333333333,4,1,1,75,0,0
93367,-100,4,1,1,75,0,0
93652,-80,4,1,1,75,0,0
93938,-66.6666666666667,4,1,1,75,0,0
94224,-133.333333333333,4,1,1,75,0,0
95081,-100,4,1,1,75,0,0
108224,-200,4,1,1,65,0,0
108795,-100,4,1,1,75,0,0
111081,-80,4,1,1,75,0,0
111367,-133.333333333333,4,1,1,75,0,0
111652,-100,4,1,1,75,0,0
111938,-80,4,1,1,75,0,0
112224,-66.6666666666667,4,1,1,75,0,0
112795,-100,4,1,1,75,0,0
121367,-80,4,1,1,75,0,0
121938,-66.6666666666667,4,1,1,75,0,0
122510,-100,4,1,1,75,0,0
125652,-80,4,1,1,75,0,0
125938,-100,4,1,1,75,0,0
126224,-80,4,1,1,75,0,0
126510,-200,4,1,1,75,0,0
126795,-80,4,1,1,75,0,0
127081,-100,4,1,1,75,0,0
128795,-80,4,1,1,75,0,0
129367,-100,4,1,1,75,0,0
129938,-80,4,1,1,75,0,0
130510,-100,4,1,1,75,0,0
131367,-66.6666666666667,4,1,1,75,0,0
136224,-66.6666666666667,4,1,1,5,0,0
149938,-200,4,2,1,35,0,0
161367,-200,4,2,1,35,0,0
163652,-200,4,2,1,45,0,0
165938,-200,4,2,1,55,0,0
167081,-200,4,1,1,35,0,0
167367,-200,4,1,1,45,0,0
167652,-200,4,1,1,55,0,0
167938,-200,4,1,1,65,0,0
168081,-200,4,1,1,75,0,0
168224,-200,4,1,1,80,0,1
168795,-100,4,1,1,80,0,1
170224,-133.333333333333,4,1,1,80,0,1
170510,-200,4,1,1,80,0,1
170795,-66.6666666666667,4,1,1,80,0,1
171081,-100,4,1,1,80,0,1
172795,-200,4,1,1,80,0,1
173081,-66.6666666666667,4,1,1,80,0,1
173367,-100,4,1,1,80,0,1
176224,-200,4,1,1,80,0,1
176795,-66.6666666666667,4,1,1,80,0,1
177367,-200,4,1,1,80,0,1
177652,-66.6666666666667,4,1,1,80,0,1
177938,-100,4,1,1,80,0,1
179652,-200,4,1,1,80,0,1
179938,-66.6666666666667,4,1,1,80,0,1
180224,-100,4,1,1,80,0,1
181938,-200,4,1,1,80,0,1
182224,-66.6666666666667,4,1,1,80,0,1
182510,-100,4,1,1,80,0,1
184224,-80,4,1,1,80,0,1
185938,-200,4,1,1,80,0,1
186224,-100,4,1,1,80,0,1
186510,-200,4,1,1,80,0,1
186795,-66.6666666666667,4,1,1,80,0,1
187081,-100,4,1,1,80,0,1
188795,-200,4,1,1,80,0,1
189367,-100,4,1,1,80,0,1
191081,-200,4,1,1,80,0,1
191652,-100,4,1,1,80,0,1
195081,-200,4,1,1,80,0,1
196224,-100,4,1,1,80,0,1
197367,-80,4,1,1,80,0,1
197652,-66.6666666666667,4,1,1,80,0,1
197938,-100,4,1,1,80,0,1
199652,-200,4,1,1,80,0,1
200224,-80,4,1,1,80,0,1
200510,-66.6666666666667,4,1,1,80,0,1
200795,-80,4,1,1,80,0,1
201938,-100,4,1,1,80,0,1
202510,-80,4,1,1,80,0,1
204795,-80,4,1,1,80,0,0
209367,-133.333333333333,4,1,1,80,0,0
215081,-66.6666666666667,4,1,1,80,0,1
217295,-66.6666666666667,4,1,1,80,0,0
217367,-90.9090909090909,4,1,1,85,0,1
220795,-200,4,1,1,85,0,1
221367,-80,4,1,1,85,0,1
221938,-90.9090909090909,4,1,1,85,0,1
225367,-133.333333333333,4,1,1,85,0,1
225652,-80,4,1,1,85,0,1
226224,-133.333333333333,4,1,1,85,0,1
226510,-90.9090909090909,4,1,1,85,0,1
229938,-133.333333333333,4,1,1,85,0,1
230510,-200,4,1,1,85,0,1
230795,-80,4,1,1,85,0,1
231081,-90.9090909090909,4,1,1,85,0,1
235081,-133.333333333333,4,1,1,45,0,0
235652,-90.9090909090909,4,1,1,85,0,1
239081,-200,4,1,1,85,0,1
239652,-100,4,1,1,85,0,1
239938,-80,4,1,1,85,0,1
240224,-90.9090909090909,4,1,1,85,0,1
243652,-80,4,1,1,85,0,1
244224,-133.333333333333,4,1,1,85,0,1
244510,-80,4,1,1,85,0,1
244795,-90.9090909090909,4,1,1,85,0,1
248224,-133.333333333333,4,1,1,85,0,1
249081,-80,4,1,1,85,0,1
249367,-90.9090909090909,4,1,1,85,0,1
252795,-133.333333333333,4,1,1,85,0,1
253367,-80,4,1,1,85,0,1
253938,-100,4,1,1,75,0,0
260795,-100,4,1,1,75,0,0
269652,-200,4,1,1,55,0,0
269938,-100,4,1,1,75,0,0
273938,-200,4,1,1,75,0,0
274224,-100,4,1,1,75,0,0
279081,-100,4,1,1,55,0,0
288224,-100,4,1,1,65,0,0
292224,-200,4,1,1,65,0,0
292795,-100,4,1,1,70,0,0
295081,-80,4,1,1,75,0,0
295367,-133.333333333333,4,1,1,75,0,0
295652,-100,4,1,1,75,0,0
295938,-80,4,1,1,75,0,0
296510,-133.333333333333,4,1,1,75,0,0
296795,-80,4,1,1,75,0,0
297367,-80,4,1,1,85,0,1
305938,-133.333333333333,4,1,1,85,0,1
306510,-80,4,1,1,85,0,1
315081,-200,4,1,1,85,0,1
315652,-100,4,2,1,45,0,0
317938,-100,4,2,1,45,0,0
320224,-100,4,2,1,40,0,0
322510,-333,4,2,1,35,0,0
324795,-333,4,2,1,30,0,0

[Colours]
Combo1 : 99,0,198
Combo2 : 255,128,128
Combo3 : 208,162,255
Combo4 : 225,225,225
Combo5 : 255,157,206

[HitObjects]
256,192,653,12,0,2368,0:0:0:0:
265,137,2510,6,0,L|254:251,1,106.906906906907,4|0,0:0|1:2,0:0:0:0:
241,363,3367,1,0,0:0:0:0:
241,363,3510,1,0,0:0:0:0:
241,363,3653,6,0,P|200:328|148:319,1,106.906906906907,2|0,1:2|1:0,0:0:0:0:
19,358,4510,1,0,0:0:0:0:
72,299,4796,6,0,P|72:273|66:247,1,53.4534534534535,0|0,1:0|0:0,0:0:0:0:
25,148,5367,1,0,1:0:0:0:
154,122,5653,1,0,0:0:0:0:
154,122,5796,1,0,0:0:0:0:
154,122,5939,6,0,P|158:174|135:222,1,106.906906906907,2|0,1:2|1:0,0:0:0:0:
25,148,6796,1,0,1:0:0:0:
66,22,7081,6,0,L|131:27,1,53.4534534534535,0|0,1:0|0:0,0:0:0:0:
154,122,7653,2,0,L|219:117,1,53.4534534534535,0|0,1:0|0:0,0:0:0:0:
258,74,8081,1,0,0:0:0:0:
258,74,8224,6,0,B|291:65|291:65|283:144,1,106.906906906907,2|0,1:2|1:0,0:0:0:0:
270,243,9081,1,0,0:0:0:0:
339,309,9367,6,0,L|400:300,1,53.4534534534535,0|0,1:0|0:0,0:0:0:0:
474,214,9939,2,0,L|451:271,1,53.4534534534535,0|0,1:0|0:0,0:0:0:0:
452,326,10367,1,0,0:0:0:0:
452,326,10510,6,0,L|392:236,1,106.906906906907,2|0,1:2|1:0,0:0:0:0:
469,37,11367,1,0,1:0:0:0:
469,37,11510,1,0,1:0:0:0:
493,106,11653,6,0,P|467:112|441:104,1,53.4534534534535,2|2,1:2|0:0,0:0:0:0:
317,1,12224,2,0,L|327:54,1,53.4534534534535,2|2,1:2|0:0,0:0:0:0:
277,174,12796,2,0,L|267:121,1,53.4534534534535,2|2,1:2|0:0,0:0:0:0:
250,33,13224,1,2,0:0:0:0:
250,33,13367,1,2,1:2:0:0:
190,155,13653,1,2,1:2:0:0:
113,55,13939,6,0,L|167:50,1,53.4534534534535,0|0,1:0|0:0,0:0:0:0:
225,118,14510,2,0,P|212:140|190:155,1,53.4534534534535,0|0,1:0|0:0,0:0:0:0:
58,86,15081,2,0,L|172:96,1,106.906906906907,0|0,1:0|1:0,0:0:0:0:
10,191,15939,1,0,1:0:0:0:
111,224,16224,6,0,P|130:242|137:267,1,53.4534534534535,2|2,1:2|0:0,0:0:0:0:
9,372,16796,2,0,P|8:345|21:322,1,53.4534534534535,2|2,1:2|0:0,0:0:0:0:
99,295,17367,2,0,L|155:302,1,53.4534534534535,2|2,1:2|0:0,0:0:0:0:
241,313,17796,1,2,0:0:0:0:
241,313,17939,1,2,1:2:0:0:
357,368,18224,1,2,0:0:0:0:
454,284,18510,6,0,P|431:271|405:268,1,53.4534534534535,0|0,1:0|0:0,0:0:0:0:
317,243,19081,2,0,P|318:269|330:294,1,53.4534534534535,0|0,1:0|0:0,0:0:0:0:
362,191,19510,1,0,0:0:0:0:
362,191,19653,2,0,L|251:209,1,106.906906906907,0|0,1:0|1:0,0:0:0:0:
0,240,20510,1,0,1:0:0:0:
0,240,20653,1,0,1:0:0:0:
63,278,20796,5,2,1:2:0:0:
17,168,21081,1,2,0:0:0:0:
107,90,21367,1,2,1:2:0:0:
208,151,21653,1,2,0:0:0:0:
181,265,21939,1,2,1:2:0:0:
112,192,22224,5,2,0:0:0:0:
112,192,22367,1,2,0:0:0:0:
112,192,22510,2,0,L|121:129,1,53.4534534534535,2|2,1:2|0:0,0:0:0:0:
138,33,23081,5,0,1:0:0:0:
233,80,23367,1,0,0:0:0:0:
339,84,23653,1,0,1:0:0:0:
437,45,23939,2,0,L|396:37,1,26.7267267267267,0|0,1:0|0:0,0:0:0:0:
339,84,24224,2,0,P|336:140|368:186,1,106.906906906907,0|0,1:0|1:0,0:0:0:0:
455,234,25081,1,0,1:0:0:0:
468,116,25367,5,2,1:2:0:0:
358,70,25653,1,2,0:0:0:0:
280,160,25939,1,2,1:2:0:0:
341,261,26224,1,2,0:0:0:0:
455,234,26510,1,2,1:2:0:0:
382,165,26796,5,2,0:0:0:0:
382,165,26939,1,2,0:0:0:0:
382,165,27081,1,2,1:2:0:0:
280,160,27367,1,2,0:0:0:0:
188,224,27653,6,0,P|189:254|199:279,1,53.4534534534535,0|0,1:0|0:0,0:0:0:0:
326,384,28224,2,0,P|325:354|315:329,1,53.4534534534535,0|0,1:0|0:0,0:0:0:0:
256,305,28653,1,0,1:0:0:0:
256,305,28796,5,0,0:0:0:0:
193,338,28939,1,4,0:3:0:0:
319,272,29081,1,2,0:3:0:0:
173,272,29224,1,4,0:3:0:0:
176,274,29296,1,4,0:3:0:0:
179,276,29367,1,8,0:3:0:0:
341,338,29510,1,2,0:3:0:0:
218,223,29653,2,0,L|224:170,1,44.5,4|0,3:3|0:0,0:0:0:0:
271,121,29796,2,0,L|265:76,1,44.5,4|0,0:3|0:0,0:0:0:0:
227,16,29939,5,4,1:0:0:0:
160,142,30081,1,0,0:0:0:0:
98,13,30224,1,2,0:3:0:0:
64,194,30367,1,0,0:0:0:0:
64,194,30439,1,0,0:0:0:0:
63,194,30510,2,0,B|43:202|43:202|26:184,1,44.5,4|0,0:3|2:0,0:0:0:0:
25,48,30653,2,0,P|56:78|70:120,1,89,2|0,0:3|0:0,0:0:0:0:
15,311,30939,1,0,0:0:0:0:
13,315,31010,1,0,0:0:0:0:
11,319,31081,5,0,0:0:0:0:
121,282,31224,1,0,0:0:0:0:
185,379,31367,1,2,0:3:0:0:
64,251,31510,2,0,P|68:229|80:209,1,44.5
198,264,31653,2,0,P|193:285|181:305,1,44.5,0|0,0:0|2:0,0:0:0:0:
89,358,31796,1,2,0:3:0:0:
89,358,31867,1,0,0:0:0:0:
89,358,31939,2,0,L|81:380,6,22.25,0|0|0|0|0|0|0,0:0|2:0|2:0|2:0|2:0|2:0|2:0,0:0:0:0:
97,334,32224,6,0,L|192:346,1,89
415,334,32510,2,0,L|320:346,1,89,2|0,0:3|0:0,0:0:0:0:
256,362,32724,1,0,0:0:0:0:
256,362,32796,2,0,B|261:312|261:312|250:286|250:286|258:232,1,133.5,0|0,0:0|2:0,0:0:0:0:
255,214,33081,2,0,L|303:228,1,44.5,2|0,0:3|0:0,0:0:0:0:
367,211,33224,2,0,L|415:225,1,44.5
506,144,33367,5,0,0:0:0:0:
506,144,33439,1,0,0:0:0:0:
505,144,33510,2,0,P|506:121|498:101,1,44.5
419,74,33653,2,0,L|411:105,6,22.25,2|0|0|0|0|0|0,0:3|2:0|2:0|2:0|2:0|2:0|2:0,0:0:0:0:
405,125,33939,6,0,B|384:133|384:133|361:133,1,44.5,0|0,0:0|2:0,0:0:0:0:
172,72,34081,2,0,B|193:64|193:64|216:64,1,44.5,0|0,0:0|2:0,0:0:0:0:
291,43,34224,1,2,0:3:0:0:
296,77,34296,1,0,0:0:0:0:
274,116,34367,1,0,0:0:0:0:
279,150,34439,1,0,0:0:0:0:
265,192,34510,6,0,B|293:181|293:181|348:199,1,89,0|0,0:3|0:0,0:0:0:0:
493,337,34796,1,2,0:3:0:0:
493,337,34867,1,0,0:0:0:0:
493,337,34939,2,0,B|486:360|486:360|469:372,1,44.5,0|0,0:0|2:0,0:0:0:0:
324,279,35081,2,0,L|419:308,1,89,0|2,0:0|0:3,0:0:0:0:
409,304,35296,1,0,0:0:0:0:
409,304,35367,1,0,0:3:0:0:
270,345,35510,1,0,0:0:0:0:
303,198,35653,5,0,0:0:0:0:
349,365,35796,1,0,0:0:0:0:
181,321,35939,1,2,0:3:0:0:
248,145,36081,1,0,0:0:0:0:
270,345,36224,1,0,0:0:0:0:
151,183,36367,1,2,0:3:0:0:
152,178,36439,1,0,0:0:0:0:
152,173,36510,2,0,L|103:184,1,44.5,0|0,0:0|2:0,0:0:0:0:
9,144,36653,2,0,P|7:122|17:102,1,44.5,0|0,0:0|2:0,0:0:0:0:
89,22,36796,5,4,0:3:0:0:
39,208,36939,1,0,0:0:0:0:
102,102,37081,2,0,L|199:78,1,89,2|0,0:3|0:0,0:0:0:0:
256,40,37296,1,0,0:0:0:0:
256,40,37367,2,0,L|238:183,1,133.5,4|0,0:3|2:0,0:0:0:0:
179,216,37653,2,0,L|187:273,1,44.5,2|0,0:3|0:0,0:0:0:0:
288,231,37796,2,0,L|265:283,1,44.5
215,353,37939,5,4,0:3:0:0:
239,172,38081,2,0,L|243:150,2,22.25,0|0|0,0:0|2:0|2:0,0:0:0:0:
267,121,38224,2,0,P|276:78|256:40,1,89,2|0,0:3|0:0,0:0:0:0:
153,6,38439,1,0,2:0:0:0:
153,6,38510,6,0,L|105:16,1,44.5,4|0,0:3|2:0,0:0:0:0:
35,80,38653,1,0,0:3:0:0:
35,80,38724,1,0,0:0:0:0:
35,80,38796,2,0,L|40:107,6,22.25,2|0|0|0|0|0|0,0:3|2:0|2:0|2:0|2:0|2:0|0:0,0:0:0:0:
43,120,39081,5,4,0:0:0:0:
85,368,48224,6,0,P|83:335|76:303,1,66.7500025463105,2|0,1:2|0:0,0:0:0:0:
195,329,48510,2,0,P|188:296|186:263,1,66.7500025463105,2|0,0:0|0:0,0:0:0:0:
66,238,48796,2,0,P|64:205|57:173,1,66.7500025463105,2|0,0:0|0:0,0:0:0:0:
179,199,49081,2,0,P|171:153|175:106,1,66.7500025463105,2|0,0:0|0:0,0:0:0:0:
52,26,49367,6,0,P|49:59|41:91,1,66.7500025463105,2|0,1:2|0:0,0:0:0:0:
9,170,49653,1,2,0:0:0:0:
103,136,49796,1,2,0:0:0:0:
179,199,49939,2,0,L|167:274,1,66.7500025463105,2|0,1:2|0:0,0:0:0:0:
222,349,50224,2,0,L|290:349,1,66.7500025463105,2|0,1:2|0:0,0:0:0:0:
427,368,50510,6,0,P|428:335|435:303,1,66.7500025463105,2|0,1:2|0:0,0:0:0:0:
322,331,50796,2,0,P|329:298|331:266,1,66.7500025463105,2|0,0:2|0:0,0:0:0:0:
445,237,51081,2,0,P|446:204|453:172,1,66.7500025463105,2|0,0:2|0:0,0:0:0:0:
333,199,51367,2,0,P|339:166|336:132,1,66.7500025463105,2|0,0:2|0:0,0:0:0:0:
431,26,51653,6,0,P|433:59|441:91,1,66.7500025463105,2|0,1:2|0:0,0:0:0:0:
503,170,51939,1,2,0:0:0:0:
512,51,52081,1,2,0:0:0:0:
402,94,52224,2,0,P|370:88|341:72,1,66.7500025463105,2|0,0:2|0:0,0:0:0:0:
240,31,52510,2,0,P|251:62|251:95,1,66.7500025463105,2|0,0:0|0:0,0:0:0:0:
266,203,52796,6,0,P|287:177|315:160,1,66.7500025463105,2|0,1:2|0:0,0:0:0:0:
474,332,53081,2,0,L|404:346,1,66.7500025463105,2|0,0:2|0:0,0:0:0:0:
245,202,53367,6,0,P|270:223|287:251,1,66.7500025463105,2|0,1:2|0:0,0:0:0:0:
74,367,53653,2,0,L|60:297,1,66.7500025463105,2|0,0:2|0:0,0:0:0:0:
246,181,53939,6,0,P|224:206|196:223,1,66.7500025463105,2|0,0:2|0:0,1:0:0:0:
38,52,54224,2,0,L|108:38,1,66.7500025463105,2|2,0:0|0:0,0:0:0:0:
267,182,54510,6,0,P|241:160|224:132,1,66.7500025463105,2|0,1:2|0:0,0:0:0:0:
438,17,54796,2,0,L|451:82,1,66.7500025463105,2|0,1:2|0:0,0:0:0:0:
266,203,55081,6,0,P|287:177|315:160,1,66.7500025463105,2|0,1:2|0:0,0:0:0:0:
38,52,55367,2,0,L|108:38,1,66.7500025463105,2|0,1:2|0:0,0:0:0:0:
275,209,55653,6,0,P|253:234|225:251,1,66.7500025463105,2|0,1:2|0:0,0:0:0:0:
48,45,55939,2,0,L|118:31,1,66.7500025463105,2|0,1:2|0:0,0:0:0:0:
365,5,56224,5,2,1:2:0:0:
365,5,56510,6,0,B|397:46|397:46|267:11,1,178,6|0,1:2|0:0,0:0:0:0:
275,13,57367,6,0,B|366:6|366:6|300:75|300:75|192:83|192:83|158:77|158:77|99:119|99:119|174:113,1,467.250017824174
163,113,58510,6,0,L|153:211,1,89,4|0,0:0|0:0,0:0:0:0:
35,130,58796,2,0,L|70:221,1,89
206,159,59081,6,0,L|170:250,1,89
12,186,59367,2,0,L|64:257,1,89
189,74,59653,6,0,B|209:111|209:111|206:159,1,89
5,99,59939,2,0,B|-4:138|-4:138|10:184,1,89
173,241,60224,6,0,B|188:287|188:287|179:327,1,89
63,256,60510,2,0,B|60:304|60:304|80:341,1,89
93,45,60796,6,0,L|105:145,1,89
125,311,61081,2,0,L|115:223,1,89
5,99,61367,6,0,L|17:199,1,89
216,247,61653,2,0,L|204:147,1,89
93,45,61939,5,0,0:0:0:0:
114,225,62081,1,0,0:0:0:0:
163,62,62224,5,0,0:0:0:0:
176,187,62367,1,0,0:0:0:0:
226,26,62510,5,0,0:0:0:0:
246,207,62653,1,0,0:0:0:0:
284,60,62796,6,0,L|333:68,1,44.5,0|0,0:0|2:0,0:0:0:0:
477,254,62939,2,0,L|430:260,1,44.5,0|0,0:0|2:0,0:0:0:0:
349,271,63081,6,0,L|359:173,1,89
477,254,63367,2,0,L|442:163,1,89
306,225,63653,6,0,L|342:134,1,89
500,198,63939,2,0,L|443:120,1,89
322,309,64224,6,0,B|303:273|303:273|306:225,1,89
507,285,64510,2,0,B|516:245|516:245|501:199,1,89
338,142,64796,6,0,B|323:96|323:96|333:57,1,89
448,127,65081,2,0,B|451:79|451:79|432:43,1,89
408,250,65367,6,0,L|419:339,1,89
397,161,65653,2,0,L|386:72,1,89
296,137,65939,6,0,L|306:225,1,89
507,285,66224,2,0,L|496:196,1,89
386,72,66510,5,0,0:0:0:0:
419,339,66653,1,0,0:0:0:0:
327,113,66796,5,0,0:0:0:0:
351,313,66939,1,0,0:0:0:0:
264,148,67081,5,0,0:0:0:0:
282,298,67224,1,0,0:0:0:0:
157,228,67367,6,0,B|125:222|92:239,1,66.75,8|0,0:3|0:0,0:0:0:0:
78,250,67653,6,0,L|88:196,1,44.5,4|0,0:0|2:0,0:0:0:0:
8,17,67796,2,0,L|0:60,1,44.5,0|0,0:0|2:0,0:0:0:0:
14,129,67939,2,0,B|61:143|61:143|143:125,1,133.5,0|0,0:0|2:0,0:0:0:0:
162,113,68224,6,0,L|154:206,1,89
2,217,68510,2,0,L|10:306,1,89
156,227,68796,6,0,B|198:212|198:212|154:202,1,89
36,126,69081,2,0,B|-5:142|-5:142|39:152,1,89
165,137,69367,2,0,B|138:101|138:101|95:94,1,89
30,217,69653,2,0,B|57:253|57:253|100:260,1,89
223,177,69939,6,0,L|210:87,1,89
48,37,70224,2,0,L|35:125,1,89
4,342,70510,1,0,0:0:0:0:
136,296,70653,2,0,P|177:309|204:344,1,89
0,317,70939,1,0,0:0:0:0:
100,228,71081,6,0,B|202:216|202:216|176:235,1,133.5,0|0,0:0|2:0,0:0:0:0:
4,342,71367,2,0,B|106:354|106:354|80:334,1,133.5,0|0,0:0|2:0,0:0:0:0:
124,157,71653,6,0,L|55:167,1,66.75
41,174,71939,6,0,L|71:134,1,44.5,0|0,1:0|2:0,0:0:0:0:
160,31,72081,2,0,L|190:71,1,44.5,0|0,1:0|2:0,0:0:0:0:
309,196,72224,6,0,B|320:228|320:228|310:290,1,89,4|0,0:0|0:0,0:0:0:0:
410,384,72510,2,0,B|399:352|399:352|409:290,1,89
469,196,72796,1,0,0:0:0:0:
506,85,72939,2,0,B|513:39|513:39|495:0,1,89
290,127,73224,1,0,0:0:0:0:
287,130,73296,1,0,0:0:0:0:
285,134,73367,6,0,L|384:128,1,89,4|0,0:0|0:0,0:0:0:0:
349,306,73653,2,0,L|448:300,1,89
506,85,73939,1,0,0:0:0:0:
285,134,74081,1,0,0:0:0:0:
438,301,74224,1,0,0:0:0:0:
489,51,74367,1,0,0:0:0:0:
490,46,74439,1,0,0:0:0:0:
491,41,74510,6,0,L|395:53,1,89,4|0,0:0|0:0,0:0:0:0:
269,170,74796,2,0,L|327:247,1,89
473,282,75081,2,0,L|510:192,1,89,4|0,0:0|0:0,0:0:0:0:
369,4,75367,2,0,P|351:68|372:130,1,133.5
386,141,75653,6,0,L|435:133,1,44.5,4|0,0:0|2:0,0:0:0:0:
496,121,75796,1,0,0:0:0:0:
368,6,75939,1,0,0:0:0:0:
255,197,76081,1,0,0:0:0:0:
144,6,76224,6,0,L|108:0,14,22.25,0|0|0|0|0|0|0|0|0|0|0|0|0|0|0,0:0|2:0|2:0|2:0|2:0|2:0|2:0|2:0|2:0|2:0|2:0|2:0|2:0|2:0|2:0,0:0:0:0:
91,0,76796,6,0,P|106:42|105:87,1,89,14|0,0:0|0:0,0:0:0:0:
50,222,77081,2,0,P|78:188|117:166,1,89,10|0,0:0|0:0,0:0:0:0:
262,146,77367,2,0,P|218:138|180:115,1,89,10|0,0:0|0:0,0:0:0:0:
2,36,77653,1,10,0:0:0:0:
197,46,77796,2,0,L|297:55,1,89,2|8,0:0|0:0,0:0:0:0:
64,74,78081,2,0,P|45:114|42:158,1,89,2|8,0:0|0:0,0:0:0:0:
103,312,78367,1,2,0:0:0:0:
144,219,78510,2,0,P|141:175|119:138,1,89,10|0,0:0|0:0,0:0:0:0:
2,222,78796,2,0,L|17:320,1,89,10|0,0:0|0:0,0:0:0:0:
216,377,79081,6,0,P|231:335|230:290,1,89,10|0,0:0|0:0,0:0:0:0:
175,155,79367,2,0,P|203:189|242:211,1,89,10|0,0:0|0:0,0:0:0:0:
387,231,79653,2,0,P|343:239|305:262,1,89,10|0,0:0|0:0,0:0:0:0:
152,325,79939,1,10,0:0:0:0:
318,349,80081,2,0,L|303:248,1,89,2|8,0:0|0:0,0:0:0:0:
199,206,80367,2,0,L|214:105,1,89,2|8,0:0|0:0,0:0:0:0:
256,10,80653,1,2,0:0:0:0:
300,178,80796,1,10,0:0:0:0:
342,35,80939,1,0,0:0:0:0:
409,192,81081,2,0,B|452:206|452:206|495:201,1,89,10|0,0:0|0:0,0:0:0:0:
510,37,81367,6,0,B|467:23|467:23|423:27,1,89,10|0,0:0|0:0,0:0:0:0:
331,148,81653,2,0,B|320:192|320:192|329:235,1,89,10|0,0:0|0:0,0:0:0:0:
423,356,81939,2,0,B|467:361|467:361|510:347,1,89,10|0,0:0|0:0,0:0:0:0:
505,192,82224,1,10,0:0:0:0:
404,103,82367,2,0,L|308:97,1,89,2|8,0:0|0:0,0:0:0:0:
312,270,82653,2,0,L|216:276,1,89,2|8,0:0|0:0,0:0:0:0:
120,86,82939,1,2,0:0:0:0:
271,55,83081,2,0,B|275:98|275:98|258:140,1,89,10|0,0:0|0:0,0:0:0:0:
121,195,83367,2,0,L|21:203,1,89,10|0,0:0|0:0,0:0:0:0:
2,347,83653,6,0,B|45:361|45:361|89:357,1,89,10|0,0:0|0:0,0:0:0:0:
181,236,83939,2,0,B|192:192|192:192|183:149,1,89,10|0,0:0|0:0,0:0:0:0:
89,28,84224,2,0,B|45:23|45:23|2:37,1,89,10|0,0:0|0:0,0:0:0:0:
1,193,84510,1,10,0:0:0:0:
183,149,84653,1,2,0:0:0:0:
0,174,84796,1,8,0:0:0:0:
186,168,84939,1,2,0:0:0:0:
5,150,85081,1,8,0:0:0:0:
186,192,85224,1,2,0:0:0:0:
12,131,85367,5,2,0:0:0:0:
158,364,85510,1,0,0:0:0:0:
162,362,85581,1,0,0:0:0:0:
165,359,85653,2,0,B|182:373|182:373|211:373,1,44.5,2|0,0:0|2:0,0:0:0:0:
311,278,85796,2,0,B|294:264|294:264|265:264,1,44.5,0|0,0:0|2:0,0:0:0:0:
186,192,85939,6,0,L|202:291,1,89,14|0,0:0|0:0,0:0:0:0:
296,365,86224,2,0,L|312:266,1,89,10|0,0:0|0:0,0:0:0:0:
287,143,86510,1,10,0:0:0:0:
200,279,86653,1,0,0:0:0:0:
167,122,86796,1,10,0:0:0:0:
276,240,86939,2,0,P|316:258|359:255,1,89,2|8,0:0|0:0,0:0:0:0:
492,115,87224,2,0,L|479:206,1,89,2|8,0:0|0:0,0:0:0:0:
466,333,87510,1,2,0:0:0:0:
415,172,87653,2,0,P|371:168|331:187,1,89,10|0,0:0|0:0,0:0:0:0:
321,328,87939,2,0,P|357:352|401:356,1,89,10|0,0:0|0:0,0:0:0:0:
512,273,88224,6,0,L|414:267,1,89,10|0,0:0|0:0,0:0:0:0:
326,166,88510,2,0,L|414:171,1,89,10|0,0:0|0:0,0:0:0:0:
257,213,88796,1,10,0:0:0:0:
159,168,88939,1,0,0:0:0:0:
97,255,89081,1,10,0:0:0:0:
6,144,89224,2,0,B|69:151|69:151|103:182|103:182|172:192,1,178,2|2,0:0|0:0,0:0:0:0:
286,108,89653,2,0,B|275:66|275:66|236:41,1,89,8|2,0:0|0:0,0:0:0:0:
183,1,89867,1,0,2:0:0:0:
183,1,89939,6,0,L|207:137,1,133.5,6|0,0:0|1:0,0:0:0:0:
210,153,90439,1,0,1:0:0:0:
210,153,90510,6,0,P|171:133|123:133,1,89,14|0,1:0|0:0,0:0:0:0:
67,261,90796,2,0,L|165:249,1,89,10|0,0:0|0:0,0:0:0:0:
333,229,91081,1,10,0:0:0:0:
126,132,91224,1,0,0:0:0:0:
138,357,91367,1,10,0:0:0:0:
182,246,91510,1,2,0:0:0:0:
182,246,91581,1,0,0:0:0:0:
182,246,91653,6,0,L|280:234,1,89,12|2,0:0|0:0,0:0:0:0:
273,14,91939,2,0,P|253:53|253:101,1,89,8|2,0:0|0:0,0:0:0:0:
312,312,92224,2,0,P|332:273|332:225,1,89,10|0,0:0|0:0,0:0:0:0:
333,229,92439,1,0,0:0:0:0:
333,229,92510,1,10,0:0:0:0:
375,366,92653,1,0,0:0:0:0:
248,241,92796,6,0,B|199:217|137:218|137:218|166:224|183:241,1,166.875,6|0,0:0|2:0,0:0:0:0:
236,312,93081,6,0,P|242:345|225:379,1,66.7500025463105,2|0,0:0|0:0,0:0:0:0:
30,227,93367,6,0,P|26:184|46:145,1,89,6|2,0:0|0:0,0:0:0:0:
113,117,93581,1,0,0:0:0:0:
172,84,93653,6,0,L|61:73,1,111.25,2|2,0:0|0:0,0:0:0:0:
247,63,93939,6,0,B|309:30|348:49|348:49|318:73,1,133.500005092621,6|0,0:0|0:0,0:0:0:0:
256,195,94224,6,0,P|235:168|227:137,1,66.7500025463105,6|0,0:0|0:0,0:0:0:0:
423,13,94439,1,0,0:0:0:0:
423,13,94510,6,0,L|451:20,14,16.6875006365776,6|0|0|0|2|0|0|0|2|0|0|0|2|0|0,0:0|2:0|2:0|2:0|2:0|2:0|2:0|2:0|2:0|2:0|2:0|2:0|2:0|2:0|2:0,0:0:0:0:
504,42,95081,5,14,0:0:0:0:
361,67,95224,1,0,0:0:0:0:
496,130,95367,2,0,L|486:228,1,89,10|0,0:0|0:0,0:0:0:0:
492,353,95653,2,0,B|439:338|439:338|455:367,1,89,10|0,0:0|0:0,0:0:0:0:
456,368,95867,1,0,0:0:0:0:
456,368,95939,1,10,0:0:0:0:
361,297,96081,2,0,P|322:277|278:275,1,89,2|8,0:0|0:0,0:0:0:0:
103,366,96367,2,0,P|142:345|186:343,1,89,2|8,0:0|0:0,0:0:0:0:
185,343,96653,1,2,0:0:0:0:
45,301,96796,1,10,0:0:0:0:
191,355,96939,1,0,0:0:0:0:
161,194,97081,1,10,0:0:0:0:
198,370,97224,1,0,0:0:0:0:
131,279,97367,6,0,P|124:236|134:193,1,89,10|0,0:0|0:0,0:0:0:0:
6,53,97653,2,0,L|99:71,1,89,10|0,0:0|0:0,0:0:0:0:
281,115,97939,2,0,P|236:119|197:139,1,89,10|0,0:0|0:0,0:0:0:0:
132,280,98224,1,10,0:0:0:0:
70,21,98367,2,2,L|248:33,1,178
129,53,98796,2,0,P|97:83|79:124,1,89,8|2,0:0|0:0,0:0:0:0:
1,10,99081,1,10,0:0:0:0:
95,143,99224,1,0,0:0:0:0:
264,115,99367,2,0,P|265:71|247:32,1,89,10|0,0:0|0:0,0:0:0:0:
13,119,99653,6,0,L|27:211,1,89,10|0,0:0|0:0,0:0:0:0:
163,323,99939,2,0,L|177:236,1,89,10|0,0:0|0:0,0:0:0:0:
143,30,100224,1,10,0:0:0:0:
109,191,100367,1,0,0:0:0:0:
52,15,100510,1,10,0:0:0:0:
217,91,100653,2,0,P|260:87|298:63,1,89,2|8,0:0|0:0,0:0:0:0:
97,135,100939,2,0,P|57:116|12:118,1,89,2|8,0:0|0:0,0:0:0:0:
12,118,101224,1,2,0:0:0:0:
143,30,101367,2,0,L|157:117,1,89,10|0,0:0|0:0,0:0:0:0:
77,199,101653,2,0,L|91:286,1,89,10|0,0:0|0:0,0:0:0:0:
23,384,101939,5,10,0:0:0:0:
91,286,102081,1,0,0:0:0:0:
183,364,102224,2,0,P|227:364|267:346,1,89,10|0,0:0|0:0,0:0:0:0:
444,382,102510,2,0,P|400:375|363:350,1,89,10|0,0:0|0:0,0:0:0:0:
317,227,102796,1,10,0:0:0:0:
374,114,102939,2,2,L|350:299,1,178
280,161,103367,1,8,0:0:0:0:
443,269,103510,1,2,0:0:0:0:
385,22,103653,5,2,0:0:0:0:
394,206,103796,1,2,0:0:0:0:
397,203,103867,1,0,0:0:0:0:
400,200,103939,2,0,L|344:210,1,44.5,2|0,0:0|2:0,0:0:0:0:
210,179,104081,2,0,L|154:169,1,44.5,2|0,0:0|2:0,0:0:0:0:
31,203,104224,5,14,0:0:0:0:
229,188,104367,1,0,0:0:0:0:
1,101,104510,1,10,0:0:0:0:
113,277,104653,1,0,0:0:0:0:
83,111,104796,1,10,0:0:0:0:
20,283,104939,1,0,0:0:0:0:
142,189,105081,1,10,0:0:0:0:
5,35,105224,2,0,P|24:75|31:119,1,89,2|8,0:0|0:0,0:0:0:0:
93,362,105510,2,0,P|96:317|112:276,1,89,2|8,0:0|0:0,0:0:0:0:
229,188,105796,1,2,0:0:0:0:
58,194,105939,2,0,B|-7:200|-7:200|11:185,1,89,10|0,0:0|0:0,0:0:0:0:
229,188,106224,2,0,B|294:182|294:182|275:196,1,89,10|0,0:0|0:0,0:0:0:0:
123,359,106510,6,0,P|118:314|128:271,1,89,10|0,0:0|0:0,0:0:0:0:
190,137,106796,2,0,L|278:147,1,89,10|0,0:0|0:0,0:0:0:0:
488,249,107081,2,0,P|492:204|482:161,1,89,10|0,0:0|0:0,0:0:0:0:
392,16,107367,1,10,0:0:0:0:
182,241,107510,2,2,B|146:277|146:277|270:249,1,178
471,105,107939,2,0,B|506:69|506:69|458:80,1,89,8|2,0:0|0:0,0:0:0:0:
338,18,108224,6,0,B|332:103|368:87|357:178,1,155.75,2|0,0:0|0:0,0:0:0:0:
365,185,108796,6,0,P|331:158|288:149,1,89,6|0,0:0|0:0,0:0:0:0:
82,89,109081,2,0,P|64:128|67:172,1,89,10|0,0:0|0:0,0:0:0:0:
36,347,109367,2,0,L|130:333,1,89,10|0,0:0|0:0,0:0:0:0:
256,318,109653,1,10,0:0:0:0:
52,236,109796,1,2,0:0:0:0:
241,74,109939,6,0,P|243:118|231:161,1,89,12|2,0:0|0:0,0:0:0:0:
124,333,110224,1,8,0:0:0:0:
76,135,110367,1,2,0:0:0:0:
256,318,110510,6,0,P|298:306|336:282,1,89,10|0,0:0|0:3,0:3:0:0:
469,41,110796,2,0,L|461:141,1,89,10|0,0:0|0:3,0:3:0:0:
192,365,111081,6,0,B|152:252|152:252|193:277,1,166.875,6|0,0:0|2:0,0:3:0:0:
310,267,111367,6,0,B|337:207|337:207|312:230,1,100.125003819466,2|0,0:1|2:0,0:3:0:0:
191,189,111653,6,0,B|176:123|176:123|191:137,1,89,6|2,0:0|0:0,0:3:0:0:
353,94,111867,1,0,0:0:0:0:
353,94,111939,6,0,B|371:15|371:15|345:38,1,111.25,2|2,0:0|0:1,0:3:0:0:
282,11,112153,1,0,0:0:0:0:
282,11,112224,6,0,L|294:143,1,133.500005092621,6|0,0:0|0:0,0:0:0:0:
230,373,112510,2,0,L|217:240,1,133.500005092621,4|2,0:0|0:0,0:0:0:0:
245,66,112724,1,0,0:0:0:0:
245,66,112796,6,0,L|275:74,14,22.25,6|0|0|0|2|0|0|0|2|0|0|0|2|0|0,0:1|2:0|2:0|2:0|2:1|2:0|2:0|2:0|2:1|2:0|2:0|2:0|2:1|2:0|2:0,0:0:0:0:
205,11,113367,5,12,0:0:0:0:
100,70,113510,1,0,0:0:0:0:
5,21,113653,1,8,0:0:0:0:
6,131,113796,1,0,0:0:0:0:
6,131,113867,1,0,0:0:0:0:
6,131,113939,2,0,L|56:125,1,44.5,8|0,0:0|2:0,0:0:0:0:
90,195,114081,2,0,L|140:189,1,44.5,0|0,0:0|2:0,0:0:0:0:
261,146,114224,2,0,L|248:246,1,89,8|0,0:0|0:0,0:0:0:0:
239,305,114439,1,0,0:0:0:0:
239,305,114510,5,8,0:0:0:0:
147,250,114653,1,0,0:0:0:0:
337,253,114796,1,8,0:0:0:0:
338,262,114867,1,0,0:0:0:0:
339,271,114939,1,0,0:0:0:0:
340,280,115010,1,0,0:0:0:0:
341,289,115081,1,8,0:0:0:0:
261,146,115224,1,0,0:0:0:0:
404,36,115367,2,0,P|403:58|397:79,1,44.5,8|0,0:0|2:0,0:0:0:0:
438,61,115510,2,0,P|426:80|410:95,1,44.5,8|0,0:0|2:0,0:0:0:0:
334,140,115653,5,8,0:0:0:0:
367,128,115724,1,0,0:0:0:0:
402,129,115796,1,0,0:0:0:0:
435,141,115867,1,0,0:0:0:0:
458,167,115939,2,0,L|441:255,1,89,8|0,0:0|0:0,0:0:0:0:
463,361,116224,2,0,P|424:341|380:345,1,89,8|0,0:0|0:0,0:0:0:0:
349,362,116439,1,0,0:0:0:0:
349,362,116510,2,0,L|366:312,1,44.5,8|0,0:0|2:0,0:0:0:0:
253,318,116653,2,0,L|243:268,1,44.5,8|0,0:0|2:0,0:0:0:0:
166,207,116796,5,8,0:0:0:0:
129,375,116939,1,0,0:0:0:0:
1,209,117081,1,8,0:0:0:0:
5,210,117153,1,0,0:0:0:0:
8,209,117224,2,0,P|30:216|47:229,1,44.5,0|0,0:0|2:0,0:0:0:0:
142,307,117367,2,0,L|127:219,1,89,8|0,0:0|0:0,0:0:0:0:
66,7,117653,2,0,L|73:50,1,44.5,8|0,0:0|2:0,0:0:0:0:
135,183,117796,2,0,L|127:139,1,44.5,8|0,0:0|2:0,0:0:0:0:
196,29,117939,6,0,L|250:37,1,44.5,12|0,0:0|2:0,0:0:0:0:
205,101,118081,2,0,L|257:81,1,44.5,8|0,0:0|2:0,0:0:0:0:
280,12,118224,6,0,L|344:21,1,44.5,8|0,0:0|2:0,0:0:0:0:
290,98,118367,2,0,L|352:74,1,44.5,8|0,0:0|2:0,0:0:0:0:
261,56,118510,6,0,L|393:44,1,133.5,12|0,0:0|2:0,0:0:0:0:
455,78,118796,2,0,B|470:118|470:118|459:163,1,89,8|0,0:0|0:0,0:0:0:0:
407,214,119010,1,0,0:0:0:0:
407,214,119081,6,0,L|318:221,1,89,8|0,0:0|0:0,0:0:0:0:
186,166,119367,1,8,0:0:0:0:
177,165,119439,1,0,0:0:0:0:
168,164,119510,1,0,0:0:0:0:
159,163,119581,1,0,0:0:0:0:
150,162,119653,1,8,0:0:0:0:
256,100,119796,1,0,0:0:0:0:
243,236,119939,1,8,0:0:0:0:
225,238,120010,1,0,0:0:0:0:
207,240,120081,1,0,0:0:0:0:
189,242,120153,1,0,0:0:0:0:
171,244,120224,6,0,L|183:298,1,44.5,8|0,0:0|2:0,0:0:0:0:
84,372,120367,1,0,0:0:0:0:
79,373,120439,1,0,0:0:0:0:
74,374,120510,1,8,0:0:0:0:
69,375,120581,1,0,0:0:0:0:
64,376,120653,1,0,0:0:0:0:
59,377,120724,1,0,0:0:0:0:
54,378,120796,6,0,L|62:325,1,44.5,8|0,0:0|2:0,0:0:0:0:
32,140,120939,1,0,0:0:0:0:
33,145,121010,1,0,0:0:0:0:
34,150,121081,1,8,0:0:0:0:
35,155,121153,1,0,0:0:0:0:
36,160,121224,1,0,0:0:0:0:
37,165,121296,1,0,0:0:0:0:
38,169,121367,6,0,B|90:163|90:163|133:185|133:185|198:174,1,166.875,2|0,0:0|2:0,0:0:0:0:
380,186,121653,2,0,B|327:191|327:191|285:170|285:170|219:180,1,166.875,2|0,0:0|2:0,0:0:0:0:
213,35,121939,6,0,B|244:8|244:8|268:62|268:62|244:159,1,200.250007638932,6|0,0:0|2:0,0:0:0:0:
205,341,122224,2,0,B|174:368|174:368|150:314|150:314|174:217,1,200.250007638932,6|0,0:0|0:0,0:0:0:0:
243,159,122510,6,0,L|300:168,1,44.5,12|0,0:0|2:0,0:0:0:0:
405,183,122653,2,0,L|362:177,1,44.5,8|0,0:0|2:0,0:0:0:0:
232,188,122796,6,0,L|300:177,1,44.5,8|0,0:0|2:0,0:0:0:0:
427,158,122939,2,0,L|374:166,1,44.5,8|0,0:0|2:0,0:0:0:0:
221,212,123081,5,8,0:0:0:0:
448,138,123224,1,0,0:0:0:0:
330,174,123367,1,8,0:0:0:0:
329,178,123439,1,0,0:0:0:0:
328,182,123510,1,0,0:0:0:0:
327,186,123581,1,0,0:0:0:0:
326,190,123653,6,0,L|311:138,1,44.5,8|0,0:0|2:0,0:0:0:0:
287,8,123796,1,0,0:0:0:0:
286,12,123867,1,0,0:0:0:0:
284,16,123939,2,0,L|264:65,1,44.5,8|0,0:0|2:0,0:0:0:0:
232,188,124081,2,0,L|217:136,1,44.5,0|0,0:0|2:0,0:0:0:0:
190,18,124224,6,0,L|175:70,1,44.5,8|0,0:0|2:0,0:0:0:0:
135,193,124367,1,0,0:0:0:0:
6,40,124510,1,8,0:0:0:0:
32,37,124581,1,8,0:0:0:0:
56,47,124653,1,8,0:0:0:0:
82,44,124724,1,8,0:0:0:0:
105,57,124796,6,0,L|97:113,1,44.5,8|0,0:0|2:0,0:0:0:0:
65,289,124939,1,0,0:0:0:0:
69,287,125010,1,0,0:0:0:0:
73,285,125081,1,8,0:0:0:0:
77,283,125153,1,0,0:0:0:0:
81,281,125224,1,0,0:0:0:0:
85,279,125296,1,0,0:0:0:0:
89,277,125367,6,0,L|141:255,1,44.5,8|0,0:0|2:0,0:0:0:0:
288,181,125510,1,0,0:0:0:0:
18,149,125653,6,0,B|112:144|85:184|180:175,1,166.875,10|0,0:0|0:0,0:0:0:0:
246,95,125939,6,0,P|255:116|254:138,1,44.5,8|0,0:0|2:0,0:0:0:0:
247,219,126081,1,0,0:0:0:0:
337,129,126224,6,0,B|379:78|446:86|446:86|416:121,1,166.875,10|0,0:0|2:0,0:0:0:0:
390,196,126510,6,0,L|400:247,1,44.5,8|0,0:0|0:0,0:0:0:0:
418,344,126724,1,0,0:0:0:0:
418,344,126796,6,0,B|445:315|445:315|357:336|357:336|329:362,1,166.875,10|0,0:0|2:0,0:0:0:0:
257,375,127081,6,0,L|157:368,1,89,12|0,0:0|0:0,0:0:0:0:
168,368,127296,1,0,0:0:0:0:
168,368,127367,1,8,0:0:0:0:
296,291,127510,1,0,0:0:0:0:
146,279,127653,1,8,0:0:0:0:
296,291,127796,1,0,0:0:0:0:
83,337,127939,1,8,0:0:0:0:
257,375,128081,1,8,0:0:0:0:
68,262,128224,5,8,0:0:0:0:
64,264,128296,1,0,0:0:0:0:
60,266,128367,2,0,L|72:208,1,44.5
224,232,128510,1,8,0:0:0:0:
228,234,128581,1,0,0:0:0:0:
232,236,128653,2,0,L|220:178,1,44.5
76,145,128796,6,0,B|54:107|54:107|65:40,1,111.25,8|0,0:0|0:0,0:0:0:0:
332,11,129081,2,0,B|322:66|322:66|335:101|335:101|325:174,1,166.875,8|0,0:0|2:0,0:0:0:0:
352,335,129367,2,0,L|360:364,6,22.25,12|0|0|0|0|0|0,0:0|2:0|2:0|2:0|2:0|2:0|2:0,0:0:0:0:
325,174,129653,2,0,L|317:145,6,22.25,8|0|0|0|0|0|0,0:0|2:0|2:0|2:0|2:0|2:0|2:0,0:0:0:0:
265,329,129939,6,0,L|239:339,6,27.8125,12|0|0|0|0|0|0,0:0|2:0|2:0|2:0|2:0|2:0|2:0,0:0:0:0:
434,301,130224,2,0,L|461:307,6,27.8125,8|0|0|0|0|0|0,0:0|2:0|2:0|2:0|2:0|2:0|2:0,0:0:0:0:
319,152,130510,6,0,L|325:174,6,22.25,12|0|0|0|0|4|0,0:0|2:0|2:0|2:0|0:0|2:0|2:0,0:0:0:0:
349,258,130796,2,0,L|343:279,6,22.25,12|0|0|0|0|0|0,0:0|2:0|2:0|2:0|2:0|2:0|2:0,0:0:0:0:
265,329,131081,2,0,L|240:339,6,22.25,12|0|0|0|0|0|0,0:0|2:0|2:0|2:0|0:0|2:0|2:0,0:0:0:0:
136,375,131367,6,0,L|92:372,6,33.3750012731553,12|0|0|0|0|0|0,0:0|2:0|2:0|2:0|0:0|2:0|0:0,0:0:0:0:
3,341,131653,5,12,0:0:0:0:
256,192,131724,12,0,136224,2:0:0:0:
256,192,149081,12,0,149867,2:0:0:0:
255,147,149939,6,0,L|166:157,1,89,4|0,1:2|0:0,0:0:0:0:
33,171,150510,1,2,1:2:0:0:
214,42,150796,2,0,L|208:96,1,44.5,0|0,1:0|0:0,0:0:0:0:
166,156,151081,2,0,B|32:171|32:171|79:191,1,178,0|2,1:2|1:2,0:0:0:0:
195,239,151939,1,0,0:2:0:0:
320,308,152224,6,0,P|323:265|303:225,1,89,2|0,1:2|0:1,0:0:0:0:
228,107,152796,2,0,P|224:150|244:189,1,89,2|0,1:2|0:1,0:0:0:0:
361,237,153367,2,0,B|310:208|310:208|194:238,1,178,2|0,1:2|0:1,0:0:0:0:
65,274,154224,1,0,1:0:0:0:
159,368,154510,6,0,P|201:380|244:370,1,89,0|0,1:0|0:0,0:0:0:0:
366,315,155081,1,0,1:0:0:0:
219,172,155367,1,0,0:0:0:0:
219,172,155510,1,0,0:0:0:0:
219,172,155653,2,0,L|233:270,1,89,0|0,1:0|0:0,0:0:0:0:
244,369,156224,2,0,L|321:307,1,89,0|0,1:0|0:0,0:0:0:0:
386,231,156796,6,0,L|294:194,1,89,0|0,1:0|0:0,0:0:0:0:
401,37,157367,2,0,P|423:75|424:119,1,89,0|0,1:0|0:0,0:0:0:0:
303,197,157796,1,0,0:0:0:0:
303,197,157939,2,0,B|407:170|376:218|478:192,1,178,0|0,1:0|1:0,0:0:0:0:
489,12,158796,1,0,1:0:0:0:
489,12,158939,1,0,1:0:0:0:
488,12,159081,6,0,P|454:39|443:82,1,89,0|0,1:0|1:0,0:0:0:0:
473,343,159653,2,0,P|498:307|497:263,1,89,0|0,1:0|1:0,0:0:0:0:
360,58,160224,6,0,L|255:71,1,89,0|0,1:0|1:0,0:0:0:0:
232,205,160796,2,0,L|147:217,1,66.75,0|0,1:0|0:0,0:0:0:0:
157,215,161081,2,0,L|139:217,6,11.125,0|0|0|0|0|0|0,1:0|0:0|0:0|0:0|0:0|0:0|0:0,0:0:0:0:
131,218,161367,5,0,1:0:0:0:
25,232,161653,1,0,1:0:0:0:
122,233,161939,5,0,1:0:0:0:
108,127,162224,1,0,1:0:0:0:
114,248,162510,5,0,1:0:0:0:
220,234,162796,1,0,1:0:0:0:
107,264,163081,5,0,1:0:0:0:
121,370,163367,1,0,1:0:0:0:
133,198,163510,5,0,1:0:0:0:
135,201,163581,1,0,1:0:0:0:
137,204,163653,1,0,1:0:0:0:
225,213,163939,1,0,1:0:0:0:
310,189,164224,1,0,1:0:0:0:
378,131,164510,1,0,1:0:0:0:
396,45,164796,5,0,1:0:0:0:
319,143,165081,1,0,1:0:0:0:
338,266,165367,1,0,1:0:0:0:
437,340,165653,1,0,1:0:0:0:
471,180,165796,5,0,1:0:0:0:
468,183,165867,1,0,1:0:0:0:
465,186,165939,1,0,1:0:0:0:
323,205,166224,1,0,1:0:0:0:
183,173,166510,1,0,1:0:0:0:
41,192,166796,1,0,1:0:0:0:
256,356,167081,5,0,0:0:0:0:
253,347,167153,1,0,0:0:0:0:
258,339,167224,1,0,0:0:0:0:
255,330,167296,1,0,0:0:0:0:
258,321,167367,1,0,0:0:0:0:
255,312,167439,1,0,0:0:0:0:
260,304,167510,1,0,0:0:0:0:
257,295,167581,1,0,0:0:0:0:
257,286,167653,5,0,0:0:0:0:
254,277,167724,1,0,0:0:0:0:
259,269,167796,1,0,0:0:0:0:
256,260,167867,1,0,0:0:0:0:
259,251,167939,1,0,0:0:0:0:
256,242,168010,1,0,0:0:0:0:
261,234,168081,1,0,0:0:0:0:
258,225,168153,1,0,0:0:0:0:
320,200,168224,6,0,B|294:165|294:165|249:154|249:154|207:173,1,133.5,4|0,0:0|0:0,0:0:0:0:
326,215,168796,6,0,L|329:162,1,44.5,0|0,0:0|2:0,0:0:0:0:
200,182,168939,2,0,L|226:133,1,44.5,0|0,0:0|2:0,0:0:0:0:
334,326,169081,2,0,L|338:246,1,44.5,2|0,0:0|2:0,0:0:0:0:
145,276,169224,2,0,L|184:202,1,44.5,0|0,0:0|2:0,0:0:0:0:
262,206,169367,5,0,0:0:0:0:
222,372,169510,1,0,0:0:0:0:
222,372,169581,1,0,0:0:0:0:
222,372,169653,2,0,B|206:357|206:357|199:335,1,44.5,2|0,0:0|2:0,0:0:0:0:
135,183,169796,1,0,0:0:0:0:
78,334,169939,2,0,B|69:354|69:354|52:368,1,44.5,0|0,0:0|2:0,0:0:0:0:
31,158,170081,1,0,0:0:0:0:
187,255,170224,1,2,0:0:0:0:
211,265,170296,1,0,0:0:0:0:
237,262,170367,1,0,0:0:0:0:
261,272,170439,1,0,0:0:0:0:
296,268,170510,6,0,B|283:298|283:298|285:331,1,66.75,0|0,0:0|2:0,0:0:0:0:
338,370,170796,6,0,B|303:354|303:354|285:300|285:300|321:250|321:250|366:251,1,200.250007638932,2|0,0:0|2:0,0:0:0:0:
498,303,171081,6,0,L|487:358,1,44.5,0|0,0:0|2:0,0:0:0:0:
395,343,171224,2,0,L|403:299,1,44.5,0|0,0:0|2:0,0:0:0:0:
487,283,171367,2,0,L|476:338,1,44.5,2|0,0:0|2:0,0:0:0:0:
384,323,171510,2,0,L|392:279,1,44.5,0|0,0:0|2:0,0:0:0:0:
493,98,171653,6,0,L|501:141,1,44.5,0|0,0:0|2:0,0:0:0:0:
407,367,171796,2,0,L|415:323,1,44.5,0|0,0:0|2:0,0:0:0:0:
373,220,171939,2,0,L|381:176,1,44.5,2|0,0:0|2:0,0:0:0:0:
339,73,172081,2,0,L|347:29,1,44.5,2|0,0:0|2:0,0:0:0:0:
256,186,172224,5,0,0:0:0:0:
347,29,172367,1,0,0:0:0:0:
383,235,172510,2,0,L|390:267,6,22.25,2|0|0|0|0|0|0,0:0|2:0|2:0|2:0|0:0|2:0|2:0,0:0:0:0:
321,174,172796,6,0,L|238:188,1,66.75,0|0,0:0|2:0,0:0:0:0:
215,118,173081,6,0,B|283:123|283:123|329:160|329:160|401:167,1,200.250007638932,2|0,0:0|2:0,0:0:0:0:
372,49,173367,6,0,L|360:91,1,44.5,0|0,0:0|2:0,0:0:0:0:
243,228,173510,2,0,L|254:185,1,44.5,0|0,0:0|2:0,0:0:0:0:
247,44,173653,2,0,L|289:55,1,44.5,2|0,0:0|2:0,0:0:0:0:
367,235,173796,2,0,L|324:223,1,44.5,0|0,0:0|2:0,0:0:0:0:
146,126,173939,5,0,0:0:0:0:
360,91,174081,1,0,0:0:0:0:
360,91,174153,1,0,0:0:0:0:
360,91,174224,1,2,0:0:0:0:
282,293,174367,1,0,0:0:0:0:
227,86,174510,6,0,L|270:79,1,44.5,0|0,0:0|2:0,0:0:0:0:
160,202,174653,2,0,L|203:195,1,44.5,0|0,0:0|2:0,0:0:0:0:
93,318,174796,1,2,0:0:0:0:
101,317,174867,1,0,0:0:0:0:
109,316,174939,1,0,0:0:0:0:
117,315,175010,1,0,0:0:0:0:
125,314,175081,6,0,L|141:266,1,44.5,0|0,0:0|2:0,0:0:0:0:
88,332,175224,2,0,L|104:284,1,44.5,0|0,0:0|2:0,0:0:0:0:
51,350,175367,2,0,L|67:302,1,44.5,2|0,0:0|2:0,0:0:0:0:
14,368,175510,2,0,L|30:320,1,44.5,0|0,0:0|2:0,0:0:0:0:
27,73,175653,6,0,L|13:31,1,44.5,0|0,0:0|2:0,0:0:0:0:
64,91,175796,2,0,L|50:49,1,44.5,0|0,0:0|2:0,0:0:0:0:
101,109,175939,2,0,L|87:67,1,44.5,2|0,0:0|2:0,0:0:0:0:
138,127,176081,2,0,L|124:85,1,44.5,0|0,0:0|2:0,0:0:0:0:
259,20,176224,6,0,P|307:62|309:127,1,133.5,2|0,0:0|0:0,0:0:0:0:
300,141,176724,5,0,0:0:0:0:
314,148,176796,2,0,P|334:175|335:208,1,66.7500025463105,2|0,0:0|2:0,0:0:0:0:
218,273,176939,2,0,L|191:345,1,66.7500025463105,0|0,0:0|2:0,0:0:0:0:
80,235,177081,2,0,L|68:201,6,33.3750012731553,0|0|0|0|0|0|0,0:0|2:0|2:0|2:0|0:0|2:0|2:0,0:0:0:0:
42,130,177367,2,0,P|14:147|0:177,1,66.75,4|0,0:0|2:0,0:0:0:0:
13,264,177653,6,0,L|217:271,1,200.250007638932,2|0,0:0|2:0,0:0:0:0:
113,300,177939,6,0,P|101:319|97:341,1,44.5,0|0,0:0|2:0,0:0:0:0:
205,205,178081,2,0,P|226:198|248:200,1,44.5,0|0,0:0|2:0,0:0:0:0:
225,333,178224,2,0,P|246:339|268:337,1,44.5,2|0,0:0|2:0,0:0:0:0:
350,234,178367,2,0,P|372:233|392:241,1,44.5,0|0,0:0|2:0,0:0:0:0:
466,366,178510,5,0,0:0:0:0:
455,183,178653,1,0,0:0:0:0:
455,183,178724,1,0,0:0:0:0:
455,183,178796,1,2,0:0:0:0:
349,363,178939,1,0,0:0:0:0:
361,146,179081,6,0,L|317:155,1,44.5,0|0,0:0|2:0,0:0:0:0:
268,342,179224,2,0,L|224:332,1,44.5,0|0,0:0|2:0,0:0:0:0:
110,156,179367,1,2,0:0:0:0:
117,162,179439,1,0,0:0:0:0:
124,168,179510,1,0,0:0:0:0:
131,174,179581,1,0,0:0:0:0:
138,180,179653,6,0,P|137:213|121:242,1,66.75,0|0,0:0|2:0,0:0:0:0:
63,259,179939,6,0,B|32:239|32:239|21:214|21:214|13:177|37:150|37:150|63:133|63:133|98:131,1,200.250007638932,2|0,0:0|2:0,0:0:0:0:
162,95,180224,6,0,B|174:76|174:76|173:53,1,44.5,0|0,0:0|2:0,0:0:0:0:
245,143,180367,2,0,L|295:137,1,44.5,0|0,0:0|2:0,0:0:0:0:
385,196,180510,2,0,L|438:200,1,44.5,2|0,0:0|2:0,0:0:0:0:
505,281,180653,2,0,B|508:303|508:303|499:323,1,44.5,0|0,0:0|2:0,0:0:0:0:
351,355,180796,6,0,L|295:350,1,44.5,2|0,0:0|2:0,0:0:0:0:
162,302,180939,2,0,L|206:305,1,44.5,2|0,0:0|2:0,0:0:0:0:
380,336,181081,6,0,L|312:342,1,44.5,2|0,1:0|2:0,1:0:0:0:
136,327,181224,2,0,L|189:322,1,44.5,2|0,1:0|2:0,1:0:0:0:
406,318,181367,5,0,0:0:0:0:
108,342,181510,1,0,0:0:0:0:
315,215,181653,2,0,L|321:194,6,22.25,2|0|0|0|0|0|0,0:0|2:0|2:0|2:0|0:0|2:0|2:0,0:0:0:0:
279,318,181939,6,0,B|257:343|257:343|232:320,1,66.75,0|0,0:0|2:0,0:0:0:0:
173,256,182224,6,0,B|254:266|254:266|283:298|283:298|357:308,1,200.250007638932,2|0,0:0|2:0,0:0:0:0:
364,320,182510,6,0,L|379:279,1,44.5,0|0,0:0|2:0,0:0:0:0:
264,359,182653,2,0,L|279:318,1,44.5,0|0,0:0|2:0,0:0:0:0:
172,255,182796,2,0,L|187:214,1,44.5,2|0,0:0|2:0,0:0:0:0:
72,294,182939,2,0,L|87:253,1,44.5,2|0,0:0|2:0,0:0:0:0:
0,183,183081,5,0,0:0:0:0:
11,336,183224,1,0,0:0:0:0:
11,336,183296,1,0,0:0:0:0:
11,336,183367,1,2,0:0:0:0:
142,126,183510,1,0,0:0:0:0:
160,373,183653,1,0,0:0:0:0:
240,243,183796,1,0,0:0:0:0:
113,258,183939,2,0,L|116:289,6,22.25,2|0|0|0|0|0|0,0:0|2:0|2:0|2:0|0:0|2:0|2:0,0:0:0:0:
82,238,184224,6,0,P|72:156|120:91,1,166.875,4|0,0:0|2:0,0:0:0:0:
213,9,184510,2,0,L|226:192,1,166.875,2|0,0:0|2:0,0:0:0:0:
391,292,184796,6,0,P|439:227|429:145,1,166.875,4|0,0:0|2:0,0:0:0:0:
287,208,185081,2,0,L|299:375,1,166.875,2|0,0:0|2:0,0:0:0:0:
172,105,185367,6,0,L|248:118,1,55.625,6|0,0:0|2:0,0:0:0:0:
129,171,185510,2,0,L|205:184,1,55.625,2|0,0:0|2:0,0:0:0:0:
86,237,185653,2,0,L|162:250,1,55.625,6|0,0:0|2:0,0:0:0:0:
43,303,185796,2,0,L|119:316,1,55.625,2|0,0:0|2:0,0:0:0:0:
0,369,185939,6,0,L|80:384,1,66.75,4|0,0:0|2:0,0:0:0:0:
164,352,186224,6,0,B|172:331|172:331|167:310,1,44.5,6|0,0:0|2:0,0:0:0:0:
17,194,186367,2,0,B|9:215|9:215|13:235,1,44.5,0|0,0:0|2:0,0:0:0:0:
39,296,186510,6,0,L|117:305,1,66.75,4|0,0:0|2:0,0:0:0:0:
194,337,186796,6,0,B|182:279|182:279|163:355,1,133.500005092621,2|0,0:0|0:0,0:0:0:0:
158,376,187010,1,0,0:0:0:0:
157,375,187081,6,0,P|178:383|200:386,1,44.5,0|0,0:0|2:0,0:0:0:0:
335,361,187224,2,0,P|351:346|365:328,1,44.5,0|0,0:0|2:0,0:0:0:0:
471,140,187367,2,0,L|467:194,1,44.5,2|0,0:0|2:0,0:0:0:0:
456,322,187510,2,0,L|452:376,1,44.5,0|0,0:0|2:0,0:0:0:0:
399,194,187653,6,0,L|350:206,1,44.5,0|0,0:0|2:0,0:0:0:0:
389,287,187796,2,0,L|341:266,1,44.5,0|0,0:0|2:0,0:0:0:0:
289,169,187939,2,0,L|238:183,1,44.5,2|0,0:0|2:0,0:0:0:0:
282,296,188081,2,0,L|238:274,1,44.5,2|0,0:0|2:0,0:0:0:0:
179,144,188224,5,0,0:0:0:0:
174,314,188367,1,0,0:0:0:0:
112,102,188510,1,2,0:0:0:0:
235,368,188653,1,0,0:0:0:0:
143,238,188796,6,0,P|97:244|59:278,1,89,0|2,0:0|0:0,0:0:0:0:
23,375,189224,1,0,0:0:0:0:
23,375,189296,1,0,0:0:0:0:
22,375,189367,6,0,P|38:358|45:337,1,44.5,0|0,0:0|2:0,0:0:0:0:
0,179,189510,2,0,P|6:200|20:216,1,44.5,0|0,0:0|2:0,0:0:0:0:
178,266,189653,2,0,P|156:261|134:265,1,44.5,2|0,0:0|2:0,0:0:0:0:
0,297,189796,2,0,L|45:307,1,44.5,0|0,0:0|2:0,0:0:0:0:
293,150,189939,6,0,L|290:195,1,44.5,0|0,0:0|2:0,0:0:0:0:
215,359,190081,2,0,L|218:314,1,44.5,0|0,0:0|2:0,0:0:0:0:
162,201,190224,2,0,L|207:204,1,44.5,2|0,0:0|2:0,0:0:0:0:
343,304,190367,2,0,L|298:307,1,44.5,2|0,0:0|2:0,0:0:0:0:
113,307,190510,6,0,L|121:259,1,44.5,0|0,0:0|2:0,0:0:0:0:
358,244,190653,2,0,L|350:196,1,44.5,0|0,0:0|2:0,0:0:0:0:
70,128,190796,2,0,L|74:104,6,22.25,2|0|0|0|0|0|0,0:0|2:0|2:0|2:0|0:0|2:0|2:0,0:0:0:0:
10,189,191081,6,0,B|-16:215|-16:215|102:201,1,155.75,0|0,0:0|2:0,0:0:0:0:
256,29,191653,6,0,L|260:72,1,44.5,0|0,0:0|2:0,0:0:0:0:
234,48,191796,2,0,L|248:88,1,44.5,0|0,0:0|2:0,0:0:0:0:
217,72,191939,2,0,L|241:106,1,44.5,2|0,0:0|2:0,0:0:0:0:
207,99,192081,2,0,L|240:126,1,44.5,0|0,0:0|2:0,0:0:0:0:
472,109,192224,6,0,L|463:161,1,44.5,0|0,0:0|2:0,0:0:0:0:
490,129,192367,2,0,L|481:181,1,44.5,0|0,0:0|2:0,0:0:0:0:
255,264,192510,6,0,L|262:307,1,44.5,2|0,0:0|2:0,0:0:0:0:
276,275,192653,2,0,L|283:318,1,44.5,0|0,0:0|2:0,0:0:0:0:
429,34,192796,6,0,L|475:25,1,44.5,0|0,0:0|2:0,0:0:0:0:
304,176,192939,2,0,L|260:184,1,44.5,0|0,0:0|2:0,0:0:0:0:
369,111,193081,5,2,0:0:0:0:
373,109,193153,1,0,0:0:0:0:
377,108,193224,1,0,0:0:0:0:
381,107,193296,1,0,0:0:0:0:
385,105,193367,6,0,P|380:83|361:56,1,44.5,0|0,0:0|2:0,0:0:0:0:
237,208,193510,2,0,P|229:187|228:165,1,44.5,0|0,0:0|2:0,0:0:0:0:
417,226,193653,2,0,P|412:204|393:177,1,44.5,2|0,0:0|2:0,0:0:0:0:
283,318,193796,2,0,P|275:297|274:275,1,44.5,0|0,0:0|2:0,0:0:0:0:
482,137,193939,6,0,P|489:157|490:179,1,44.5,0|0,0:0|2:0,0:0:0:0:
504,319,194081,2,0,P|483:315|463:304,1,44.5,0|0,0:0|2:0,0:0:0:0:
335,247,194224,2,0,P|348:230|368:218,1,44.5,2|0,0:0|2:0,0:0:0:0:
474,93,194367,2,0,P|481:113|482:135,1,44.5,2|0,0:0|2:0,0:0:0:0:
495,362,194510,6,0,L|506:305,1,44.5,0|0,0:0|2:0,0:0:0:0:
396,330,194653,2,0,L|391:272,1,44.5,0|0,0:0|2:0,0:0:0:0:
283,318,194796,2,0,L|264:263,1,44.5,2|0,0:0|2:0,0:0:0:0:
161,313,194939,2,0,L|128:264,1,44.5,0|0,0:0|2:0,0:0:0:0:
34,341,195081,6,0,B|0:311|0:311|26:318,1,66.75,0|0,0:0|2:0,0:0:0:0:
31,354,195367,5,2,0:0:0:0:
64,344,195439,1,0,0:0:0:0:
30,368,195510,5,2,0:0:0:0:
63,358,195581,1,0,0:0:0:0:
28,382,195653,6,0,B|12:338|12:338|28:290|28:290|11:234,1,155.75,4|0,0:0|2:0,0:0:0:0:
7,216,196224,6,0,L|65:226,1,44.5,0|0,0:0|2:0,0:0:0:0:
139,238,196367,2,0,L|182:245,1,44.5,0|0,0:0|2:0,0:0:0:0:
319,198,196510,6,0,L|261:208,1,44.5,2|0,0:0|2:0,0:0:0:0:
187,220,196653,2,0,L|144:227,1,44.5,0|0,0:0|2:0,0:0:0:0:
5,242,196796,5,0,0:0:0:0:
205,302,196939,2,0,P|207:258|186:219,1,89,0|2,0:0|0:0,0:0:0:0:
50,55,197224,1,0,0:0:0:0:
47,58,197296,1,0,0:0:0:0:
43,61,197367,6,0,B|65:98|65:98|117:119|174:58,1,166.875,0|0,0:0|2:0,0:0:0:0:
257,64,197653,6,0,P|191:51|159:160,1,200.250007638932,2|0,0:0|2:0,0:0:0:0:
160,175,197939,6,0,L|212:167,1,44.5,0|0,0:0|2:0,0:0:0:0:
327,85,198081,2,0,L|319:137,1,44.5,0|0,0:0|2:0,0:0:0:0:
251,281,198224,2,0,L|243:229,1,44.5,2|0,0:0|2:0,0:0:0:0:
166,43,198367,1,0,0:0:0:0:
162,40,198439,1,0,0:0:0:0:
158,37,198510,6,0,L|211:45,1,44.5,0|0,0:0|2:0,0:0:0:0:
354,88,198653,2,0,L|309:83,1,44.5,0|0,0:0|2:0,0:0:0:0:
121,67,198796,6,0,L|174:61,1,44.5,2|0,0:0|2:0,0:0:0:0:
391,63,198939,2,0,L|346:69,1,44.5,0|0,0:0|2:0,0:0:0:0:
93,106,199081,5,2,0:0:0:0:
419,27,199224,1,2,0:0:0:0:
75,24,199367,5,2,1:0:0:0:
433,110,199510,1,2,1:0:0:0:
161,86,199653,6,0,B|121:67|121:67|142:61,1,66.75,0|0,0:0|2:0,0:0:0:0:
369,61,199939,2,0,B|391:67|391:67|351:86,1,66.75,2|0,0:0|2:0,0:0:0:0:
264,107,200224,6,0,L|430:121,1,166.875,0|0,0:0|2:0,0:0:0:0:
442,127,200510,6,0,B|458:86|458:86|438:41|438:41|399:33,1,133.500005092621,2|0,0:0|0:0,0:0:0:0:
302,18,200724,1,0,0:0:0:0:
302,18,200796,2,0,L|308:79,1,55.625,0|0,0:0|2:0,0:0:0:0:
272,162,200939,2,0,L|277:217,1,55.625,0|0,0:0|2:0,0:0:0:0:
235,303,201081,2,0,L|240:358,1,55.625,2|0,0:1|2:0,0:0:0:0:
163,192,201224,1,0,0:0:0:0:
163,192,201296,1,0,0:0:0:0:
163,192,201367,6,0,L|107:186,1,55.625,0|0,0:0|2:0,0:0:0:0:
34,238,201510,2,0,L|28:293,1,55.625,0|0,0:0|2:0,0:0:0:0:
80,367,201653,2,0,L|135:372,1,55.625,2|0,0:0|2:0,0:0:0:0:
209,321,201796,2,0,L|214:265,1,55.625,0|0,0:0|2:0,0:0:0:0:
119,285,201939,6,0,B|28:293|28:293|65:269,1,133.500005092621,0|0,0:0|2:0,0:0:0:0:
153,306,202224,6,0,B|244:298|244:298|207:322,1,133.500005092621,2|0,0:0|2:0,0:0:0:0:
34,348,202510,6,0,L|28:282,1,55.625,4|0,0:0|2:0,0:0:0:0:
21,204,202653,2,0,L|15:138,1,55.625,0|0,0:0|2:0,0:0:0:0:
119,340,202796,6,0,L|118:273,1,55.625,2|0,0:0|2:0,0:0:0:0:
118,195,202939,2,0,L|117:128,1,55.625,0|0,0:0|2:0,0:0:0:0:
478,348,203081,6,0,L|484:282,1,55.625,4|0,0:0|2:0,0:0:0:0:
491,204,203224,2,0,L|497:138,1,55.625,0|0,0:0|2:0,0:0:0:0:
393,340,203367,6,0,L|393:273,1,55.625,2|0,0:0|2:0,0:0:0:0:
394,195,203510,2,0,L|394:128,1,55.625,0|0,0:0|2:0,0:0:0:0:
191,40,203653,6,0,B|179:65|179:65|184:92,1,55.625,6|0,0:0|2:0,0:0:0:0:
321,40,203796,2,0,B|333:65|333:65|327:92,1,55.625,0|0,0:0|2:0,0:0:0:0:
169,179,203939,6,0,B|171:212|171:212|193:237,1,55.625,6|0,0:0|2:0,0:0:0:0:
343,179,204081,2,0,B|340:212|340:212|318:237,1,55.625,2|0,0:0|2:0,0:0:0:0:
142,360,204224,6,0,L|154:298,1,55.625,4|0,0:0|2:0,0:0:0:0:
370,360,204367,2,0,L|358:298,1,55.625,0|0,0:0|2:0,0:0:0:0:
119,212,204510,6,0,L|133:138,1,55.625,2|0,0:0|2:0,0:0:0:0:
392,212,204653,2,0,L|378:138,1,55.625,0|0,0:0|2:0,0:0:0:0:
256,24,204796,5,4,0:0:0:0:
256,192,204867,12,0,205867,2:0:0:0:
255,192,205939,5,0,0:0:0:0:
256,192,206010,12,0,207010,2:0:0:0:
255,192,207081,5,0,0:0:0:0:
256,192,207153,12,0,208153,2:0:0:0:
255,192,208224,5,0,0:0:0:0:
256,192,208296,12,0,209296,2:0:0:0:
255,192,209367,5,0,0:0:0:0:
169,162,209939,5,0,0:0:0:0:
86,205,210510,5,0,0:0:0:0:
0,175,211081,5,0,0:0:0:0:
0,175,211653,6,0,L|8:242,1,66.7500025463105,4|0,0:0|0:0,0:0:0:0:
94,272,211939,2,0,L|86:205,1,66.7500025463105,4|0,0:0|0:0,0:0:0:0:
161,95,212224,6,0,L|169:162,1,66.7500025463105,4|0,0:0|0:0,0:0:0:0:
255,192,212510,2,0,L|247:125,1,66.7500025463105,4|0,0:0|0:0,0:0:0:0:
364,8,212796,5,4,0:0:0:0:
371,74,212939,1,0,0:0:0:0:
258,38,213081,1,0,0:0:0:0:
281,99,213224,1,0,0:0:0:0:
472,11,213367,1,0,0:0:0:0:
471,14,213439,1,0,0:0:0:0:
470,17,213510,1,0,0:0:0:0:
469,20,213581,1,0,0:0:0:0:
468,23,213653,1,0,0:0:0:0:
467,26,213724,1,0,0:0:0:0:
466,29,213796,1,0,0:0:0:0:
465,32,213867,1,0,0:0:0:0:
464,35,213939,5,0,0:0:0:0:
430,38,214010,1,0,0:0:0:0:
399,49,214081,1,0,0:0:0:0:
371,74,214153,1,0,0:0:0:0:
359,105,214224,1,0,0:0:0:0:
355,137,214296,1,0,0:0:0:0:
361,170,214367,1,0,0:0:0:0:
375,200,214439,1,0,0:0:0:0:
396,225,214510,5,0,0:0:0:0:
358,212,214581,1,0,0:0:0:0:
318,213,214653,1,0,0:0:0:0:
280,227,214724,1,0,0:0:0:0:
249,252,214796,1,0,0:0:0:0:
228,285,214867,1,0,0:0:0:0:
224,325,214939,1,0,0:0:0:0:
231,364,215010,1,0,0:0:0:0:
241,371,215081,6,0,L|279:364,30,33.3750012731553,2|0|0|0|0|0|0|0|0|0|0|0|0|0|0|0|0|0|0|0|0|0|0|0|0|0|0|0|0|0|0,0:0|2:0|2:0|2:0|2:0|2:0|2:0|2:0|2:0|2:0|2:0|2:0|2:0|2:0|2:0|2:0|2:0|2:0|2:0|2:0|2:0|2:0|2:0|2:0|2:0|2:0|2:0|2:0|2:0|2:0|2:0,0:0:0:0:
355,335,216224,6,0,L|393:342,30,33.3750012731553,2|0|0|0|0|0|0|0|0|0|0|0|0|0|0|0|0|0|0|0|0|0|0|0|0|0|0|0|0|0|0,0:0|2:0|2:0|2:0|2:0|2:0|2:0|2:0|2:0|2:0|2:0|2:0|2:0|2:0|2:0|2:0|2:0|2:0|2:0|2:0|2:0|2:0|2:0|2:0|2:0|2:0|2:0|2:0|2:0|2:0|2:0,0:0:0:0:
469,371,217367,5,6,0:0:0:0:
267,337,217510,1,0,0:0:0:0:
443,275,217653,1,2,0:0:0:0:
250,346,217796,1,2,0:0:0:0:
384,151,217939,2,0,B|332:146|332:146|290:165,1,97.900002987671,2|0,0:0|0:0,0:0:0:0:
64,339,218224,2,0,B|116:344|116:344|157:324,1,97.900002987671,2|0,0:0|0:0,0:0:0:0:
376,74,218510,6,0,L|278:82,1,97.900002987671,2|2,0:0|0:0,0:0:0:0:
103,266,218796,1,2,0:0:0:0:
191,87,218939,1,0,0:0:0:0:
216,364,219081,1,2,0:0:0:0:
146,178,219224,1,0,0:0:0:0:
72,348,219367,1,2,0:0:0:0:
142,162,219510,1,0,0:0:0:0:
0,214,219653,5,2,0:0:0:0:
194,249,219796,1,0,0:0:0:0:
0,307,219939,2,0,P|-11:259|1:213,1,97.900002987671,2|2,0:0|0:0,0:0:0:0:
108,0,220224,2,0,P|131:42|130:91,1,97.900002987671,2|0,0:0|0:0,0:0:0:0:
72,348,220510,2,0,P|73:299|97:257,1,97.900002987671,2|0,0:0|0:0,0:0:0:0:
194,129,220796,6,0,L|38:142,1,155.75,2|0,0:0|2:0,0:0:0:0:
29,133,221367,6,0,P|15:199|78:174,1,166.875,2|0,0:0|2:0,0:0:0:0:
129,103,221653,6,0,B|248:93|248:93|211:130,1,166.875,2|0,0:0|2:0,0:0:0:0:
160,181,221939,5,2,0:0:0:0:
204,9,222081,1,0,0:0:0:0:
347,55,222224,2,0,P|350:100|329:149,1,97.900002987671,2|2,0:0|0:0,0:0:0:0:
147,272,222510,2,0,P|184:245|237:239,1,97.900002987671,2|0,0:0|0:0,0:0:0:0:
435,337,222796,2,0,P|393:317|362:274,1,97.900002987671,2|0,0:0|0:0,0:0:0:0:
255,87,223081,5,2,0:0:0:0:
450,242,223224,1,2,0:0:0:0:
218,333,223367,1,2,0:0:0:0:
310,218,223510,1,0,0:0:0:0:
449,241,223653,2,0,L|434:338,1,97.900002987671,2|0,0:0|0:0,0:0:0:0:
248,175,223939,2,0,L|264:79,1,97.900002987671,2|0,0:0|0:0,0:0:0:0:
233,251,224224,5,2,0:0:0:0:
387,223,224367,1,0,0:0:0:0:
334,370,224510,1,2,0:0:0:0:
300,178,224653,1,0,0:0:0:0:
235,354,224796,5,2,0:0:0:0:
429,324,224939,1,0,0:0:0:0:
421,159,225081,1,2,0:0:0:0:
188,195,225224,1,0,0:0:0:0:
300,259,225367,6,0,B|377:256|377:256|351:233,1,100.125003819466,2|0,0:0|2:0,0:0:0:0:
297,101,225653,6,0,B|257:68|257:68|228:122|261:177,1,166.875,2|0,0:0|2:0,0:0:0:0:
270,343,225939,6,0,B|310:376|310:376|339:322|305:266,1,166.875,2|0,0:0|2:0,0:0:0:0:
268,186,226224,6,0,B|191:189|191:189|217:212,1,100.125003819466,2|0,0:0|2:0,0:0:0:0:
221,211,226510,6,0,L|330:202,1,97.900002987671,6|0,0:0|0:0,0:0:0:0:
140,325,226796,1,2,0:0:0:0:
206,140,226939,1,2,0:0:0:0:
319,309,227081,1,2,0:0:0:0:
368,170,227224,1,0,0:0:0:0:
213,338,227367,1,2,0:0:0:0:
457,297,227510,1,0,0:0:0:0:
362,97,227653,5,2,0:0:0:0:
325,233,227796,1,2,0:0:0:0:
457,297,227939,1,2,0:0:0:0:
494,161,228081,1,0,0:0:0:0:
390,2,228224,2,0,L|285:27,1,97.900002987671,2|0,0:0|0:0,0:0:0:0:
285,14,228439,1,0,0:0:0:0:
285,14,228510,2,0,L|270:68,1,48.9500014938355,2|0,0:0|2:0,0:0:0:0:
188,210,228653,2,0,L|200:162,1,48.9500014938355,0|0,0:0|2:0,0:0:0:0:
172,21,228796,5,2,0:0:0:0:
296,204,228939,1,0,0:0:0:0:
230,118,229081,2,0,L|123:112,1,97.900002987671,2|2,0:0|0:0,0:0:0:0:
10,102,229367,1,2,0:0:0:0:
188,211,229510,1,0,0:0:0:0:
188,211,229581,1,0,0:0:0:0:
188,211,229653,1,2,0:0:0:0:
389,152,229796,1,0,0:0:0:0:
230,118,229939,6,0,B|179:109|179:109|138:134,1,100.125003819466,2|0,0:0|2:0,0:0:0:0:
61,97,230224,6,0,L|46:196,1,100.125003819466,2|0,0:0|2:0,0:0:0:0:
75,286,230510,6,0,P|101:266|134:265,1,66.75,2|0,0:0|2:0,0:0:0:0:
239,302,230796,6,0,P|161:291|128:362,1,166.875,2|0,0:0|2:0,0:0:0:0:
103,387,231081,6,0,L|200:374,1,97.900002987671,2|0,0:0|0:0,0:0:0:0:
181,218,231367,2,0,L|278:205,1,97.900002987671,2|2,0:0|0:0,0:0:0:0:
283,384,231653,2,0,L|380:371,1,97.900002987671,2|0,0:0|0:0,0:0:0:0:
361,215,231939,2,0,L|458:202,1,97.900002987671,2|0,0:0|0:0,0:0:0:0:
283,384,232224,5,2,0:0:0:0:
181,218,232367,1,2,0:0:0:0:
107,384,232510,2,0,P|74:348|65:300,1,97.900002987671,2|0,0:0|0:0,0:0:0:0:
125,138,232796,2,0,L|222:125,1,97.900002987671,2|0,0:0|0:0,0:0:0:0:
318,281,233081,2,0,P|310:336|274:374,1,97.900002987671,2|0,0:0|0:0,0:0:0:0:
146,204,233367,6,0,B|208:195|208:195|181:217,1,97.900002987671,2|0,0:0|0:0,0:0:0:0:
477,297,233653,2,0,B|539:289|539:289|507:274,1,97.900002987671,2|0,0:0|0:0,0:0:0:0:
432,155,233939,1,2,0:0:0:0:
296,131,234081,1,2,0:0:0:0:
161,159,234224,1,2,0:0:0:0:
57,249,234367,1,0,0:0:0:0:
11,378,234510,6,0,L|48:375,6,24.4750007469177,2|0|0|0|0|0|0,0:0|2:0|2:0|2:0|2:0|2:0|2:0,0:0:0:0:
136,328,234796,2,0,L|173:331,6,24.4750007469177,2|0|0|0|0|0|0,0:0|2:0|2:0|2:0|2:0|2:0|2:0,0:0:0:0:
256,359,235081,6,2,B|226:243|277:262|242:129,1,233.625008912087,2|2,0:0|2:0,0:0:0:0:
238,107,235653,6,0,P|286:103|328:125,1,97.900002987671,6|0,0:0|0:0,0:0:0:0:
460,334,235939,1,2,0:0:0:0:
352,219,236081,1,2,0:0:0:0:
293,364,236224,6,0,L|241:376,1,48.9500014938355,2|0,0:0|2:0,0:0:0:0:
258,277,236367,2,0,L|246:225,1,48.9500014938355,0|0,0:0|2:0,0:0:0:0:
151,346,236510,2,0,L|99:358,1,48.9500014938355,2|0,0:0|2:0,0:0:0:0:
116,259,236653,2,0,L|104:207,1,48.9500014938355,0|0,0:0|2:0,0:0:0:0:
17,323,236796,5,2,0:0:0:0:
215,195,236939,1,2,0:0:0:0:
28,251,237081,1,2,0:0:0:0:
202,272,237224,1,0,0:0:0:0:
116,259,237367,5,2,0:0:0:0:
189,119,237510,2,0,L|177:65,1,48.9500014938355,0|0,0:0|2:0,0:0:0:0:
79,177,237653,1,2,0:0:0:0:
254,75,237796,2,0,L|242:21,1,48.9500014938355,0|0,0:0|2:0,0:0:0:0:
112,98,237939,5,2,0:0:0:0:
205,200,238081,1,0,0:0:0:0:
284,7,238224,1,2,0:0:0:0:
325,137,238367,1,2,0:0:0:0:
112,98,238510,5,2,0:0:0:0:
284,7,238653,1,0,0:0:0:0:
205,200,238796,1,2,0:0:0:0:
325,137,238939,1,0,0:0:0:0:
112,98,239081,6,0,B|65:58|65:58|94:91|161:99,1,155.75,2|0,0:0|2:0,0:0:0:0:
181,100,239653,6,0,P|224:92|255:62,1,89,2|0,0:0|0:0,0:0:0:0:
284,7,239867,1,0,0:0:0:0:
283,6,239939,6,0,P|310:16|337:19,1,55.625,2|0,0:0|2:0,0:0:0:0:
487,38,240081,2,0,P|459:42|434:54,1,55.625,0|0,0:0|2:0,0:0:0:0:
296,117,240224,5,2,0:0:0:0:
491,112,240367,1,0,0:0:0:0:
389,148,240510,2,0,P|383:175|401:249,1,97.900002987671,2|2,0:0|0:0,0:0:0:0:
492,340,240796,1,2,0:0:0:0:
479,243,240939,2,0,L|473:189,1,48.9500014938355,0|0,0:0|2:0,0:0:0:0:
278,334,241081,1,2,0:0:0:0:
299,238,241224,2,0,L|309:184,1,48.9500014938355,0|0,0:0|2:0,0:0:0:0:
387,369,241367,5,2,0:0:0:0:
389,148,241510,1,2,0:0:0:0:
410,332,241653,1,2,0:0:0:0:
367,171,241796,1,0,0:0:0:0:
420,307,241939,1,2,0:0:0:0:
358,198,242081,1,0,0:0:0:0:
430,43,242224,2,0,P|455:84|461:132,1,97.900002987671,2|0,0:0|0:0,0:0:0:0:
299,238,242510,5,2,0:0:0:0:
471,208,242653,1,0,0:0:0:0:
299,238,242796,2,0,P|279:282|280:331,1,97.900002987671,2|0,0:0|0:0,0:0:0:0:
341,67,243081,5,2,0:0:0:0:
389,236,243224,1,0,0:0:0:0:
341,67,243367,2,0,P|293:56|245:66,1,97.900002987671,2|0,0:0|0:0,0:0:0:0:
74,23,243653,6,0,B|116:32|116:32|148:81|103:157,1,166.875,2|0,0:0|2:0,0:0:0:0:
7,173,243939,6,0,P|83:181|127:274,1,166.875,2|0,0:0|2:0,0:0:0:0:
21,359,244224,6,0,P|13:310|33:265,1,100.125003819466,2|0,0:0|2:0,0:0:0:0:
32,254,244510,6,0,L|212:275,1,166.875,2|0,0:0|2:0,0:0:0:0:
213,280,244796,6,0,L|195:174,1,97.900002987671,6|0,0:0|0:0,0:0:0:0:
167,8,245081,1,2,0:0:0:0:
111,175,245224,1,2,0:0:0:0:
252,16,245367,5,2,0:0:0:0:
261,192,245510,2,0,L|316:207,1,48.9500014938355,0|0,0:0|2:0,0:0:0:0:
336,10,245653,1,2,0:0:0:0:
370,252,245796,2,0,L|382:204,1,48.9500014938355,0|0,0:0|2:0,0:0:0:0:
495,27,245939,6,0,B|446:24|446:24|400:42,1,97.900002987671,2|2,0:0|0:0,0:0:0:0:
292,261,246224,1,2,0:0:0:0:
255,102,246367,1,0,0:0:0:0:
268,333,246510,5,2,0:0:0:0:
376,133,246653,2,0,L|424:146,1,48.9500014938355,0|0,0:0|2:0,0:0:0:0:
217,275,246796,1,2,0:0:0:0:
302,133,246939,2,0,L|315:86,1,48.9500014938355,0|0,0:0|2:0,0:0:0:0:
292,261,247081,5,2,0:0:0:0:
198,86,247224,1,0,0:0:0:0:
161,212,247367,1,2,0:0:0:0:
336,118,247510,1,2,0:0:0:0:
292,261,247653,5,2,0:0:0:0:
267,100,247796,1,0,0:0:0:0:
154,310,247939,1,2,0:0:0:0:
178,148,248081,1,0,0:0:0:0:
292,261,248224,6,0,P|337:281|385:272,1,100.125003819466,2|0,0:0|2:0,0:0:0:0:
453,207,248510,2,0,P|413:236|395:282,1,100.125003819466,0|0,0:0|2:0,0:0:0:0:
419,373,248796,2,0,P|413:323|382:285,1,100.125003819466,2|0,0:0|2:0,0:0:0:0:
303,269,249081,6,0,L|487:278,1,166.875,2|0,0:0|2:0,0:0:0:0:
484,278,249367,5,6,0:0:0:0:
318,348,249510,1,0,0:0:0:0:
352,153,249653,2,0,P|376:196|385:244,1,97.900002987671,2|2,0:0|0:0,0:0:0:0:
203,365,249939,2,0,P|203:316|219:270,1,97.900002987671,2|0,0:0|0:0,0:0:0:0:
318,60,250224,2,0,P|293:102|256:133,1,97.900002987671,2|0,0:0|0:0,0:0:0:0:
8,197,250510,5,6,0:0:0:0:
256,133,250653,1,2,0:0:0:0:
73,313,250796,1,2,0:0:0:0:
150,67,250939,1,2,0:0:0:0:
256,299,251081,5,6,0:0:0:0:
362,67,251224,1,2,0:0:0:0:
150,67,251367,1,2,0:0:0:0:
256,299,251510,1,2,0:0:0:0:
362,67,251653,5,6,0:0:0:0:
439,313,251796,1,2,0:0:0:0:
256,133,251939,1,2,0:0:0:0:
504,197,252081,1,2,0:0:0:0:
203,235,252224,5,6,0:0:0:0:
491,56,252367,1,2,0:0:0:0:
383,361,252510,1,6,0:0:0:0:
256,69,252653,1,2,0:0:0:0:
129,361,252796,6,0,B|80:362|80:362|33:334,1,100.125003819466,6|0,0:0|2:0,0:0:0:0:
57,262,253081,2,0,B|106:261|106:261|153:289,1,100.125003819466,0|0,0:0|2:0,0:0:0:0:
36,335,253367,6,0,L|6:318,14,27.8125,2|0|0|0|0|0|0|0|0|0|0|0|0|0|0,1:0|2:0|2:0|2:0|2:0|2:0|2:0|2:0|2:0|2:0|2:0|2:0|2:0|2:0|2:0,2:0:0:0:
57,262,253939,5,4,0:0:0:0:
256,192,254010,12,0,260510,0:0:0:0:
72,66,260796,6,0,B|72:111|72:111|93:149,1,89
196,54,261081,2,0,B|201:98|201:98|188:139,1,89
92,305,261367,2,0,B|85:259|85:259|98:218,1,89
195,209,261653,2,0,B|215:247|215:247|217:293,1,89
14,186,261939,6,0,P|57:180|99:194,1,89
279,172,262224,2,0,P|234:170|194:188,1,89
79,369,262510,2,0,P|79:324|99:285,1,89
215,276,262796,2,0,P|239:312|245:356,1,89
79,369,263081,6,0,B|68:303|68:303|86:317,1,89
221,328,263367,2,0,B|232:262|232:262|214:276,1,89
37,216,263653,2,0,B|26:150|26:150|44:164,1,89
231,165,263939,2,0,B|242:99|242:99|224:113,1,89
0,43,264224,5,0,0:0:0:0:
221,6,264367,1,0,0:0:0:0:
70,166,264510,5,0,0:0:0:0:
222,96,264653,1,0,0:0:0:0:
169,261,264796,5,0,0:0:0:0:
265,181,264939,1,0,0:0:0:0:
272,319,265081,6,0,P|261:338|258:359,1,44.5,0|0,0:0|2:0,0:0:0:0:
328,241,265224,2,0,P|339:223|344:201,1,44.5,0|0,0:0|2:0,0:0:0:0:
422,233,265367,6,0,B|443:271|443:271|443:316,1,89
319,328,265653,2,0,B|314:284|314:284|327:243,1,89
423,77,265939,2,0,B|430:123|430:123|417:164,1,89
320,173,266224,2,0,B|300:135|300:135|298:89,1,89
503,190,266510,6,0,P|460:196|418:182,1,89
238,204,266796,2,0,P|283:206|323:188,1,89
438,7,267081,2,0,P|438:52|418:91,1,89
302,100,267367,2,0,P|278:64|272:20,1,89
438,8,267653,6,0,B|499:21|499:21|461:36,1,89
302,100,267939,2,0,B|241:87|241:87|279:72,1,89
474,30,268224,2,0,B|494:13|494:13|475:72,1,89
303,142,268510,2,0,B|282:158|282:158|301:99,1,89
365,13,268796,5,0,0:0:0:0:
439,243,268939,1,0,0:0:0:0:
301,99,269081,5,0,0:0:0:0:
309,279,269224,1,0,0:0:0:0:
208,136,269367,5,0,0:0:0:0:
178,267,269510,1,0,0:0:0:0:
81,122,269653,6,0,P|107:104|142:104,1,66.75,0|0,0:0|2:0,0:0:0:0:
208,136,269939,6,0,L|189:179,1,44.5,0|0,0:0|2:0,0:0:0:0:
178,267,270081,2,0,L|174:215,1,44.5,0|0,0:0|2:0,0:0:0:0:
81,122,270224,6,0,B|45:146|45:146|30:245,1,133.5,0|0,0:0|2:0,0:0:0:0:
25,252,270510,2,0,L|115:237,1,89
259,196,270796,2,0,L|244:286,1,89
98,325,271081,6,0,L|112:237,1,89
156,45,271367,2,0,L|142:133,1,89
25,252,271653,2,0,L|115:237,1,89
229,118,271939,2,0,L|141:132,1,89
35,154,272224,6,0,B|16:113|16:113|27:70,1,89
112,237,272510,2,0,B|131:278|131:278|119:320,1,89
23,367,272796,1,0,0:0:0:0:
112,237,272939,2,0,P|155:241|192:265,1,89
333,376,273224,1,0,0:0:0:0:
333,376,273296,1,0,0:0:0:0:
333,376,273367,6,0,L|195:386,1,133.5,0|0,0:0|2:0,0:0:0:0:
192,265,273653,2,0,L|325:255,1,133.5,0|0,0:0|2:0,0:0:0:0:
265,350,273939,6,0,P|253:319|262:287,1,66.75,0|0,0:0|2:0,0:0:0:0:
325,254,274224,6,0,L|369:250,1,44.5,0|0,0:0|2:0,0:0:0:0:
413,307,274367,2,0,P|412:329|403:349,1,44.5,0|0,0:0|2:0,0:0:0:0:
333,376,274510,6,0,L|244:370,1,89,4|0,0:0|0:0,0:0:0:0:
223,162,274796,2,0,L|312:168,1,89
419,173,275081,1,0,0:0:0:0:
512,41,275224,2,0,P|470:57|448:102,1,89
482,323,275510,1,0,0:0:0:0:
482,323,275581,1,0,0:0:0:0:
482,323,275653,6,0,P|489:278|461:237,1,89,4|0,0:0|0:0,0:0:0:0:
391,36,275939,2,0,P|362:70|366:120,1,89
412,294,276224,1,0,0:0:0:0:
302,170,276367,2,0,L|205:178,1,89
10,35,276653,1,0,0:0:0:0:
10,35,276724,1,0,0:0:0:0:
10,35,276796,6,0,B|43:64|43:64|50:108,1,89,4|0,0:0|0:0,0:0:0:0:
87,348,277081,2,0,B|84:304|84:304|110:267,1,89
206,118,277367,2,0,L|294:101,1,89,4|0,0:0|0:0,0:0:0:0:
324,311,277653,2,0,L|411:293,1,89
482,138,277939,5,4,0:0:0:0:
324,311,278081,1,0,0:0:0:0:
256,64,278224,1,4,0:0:0:0:
188,311,278367,1,0,0:0:0:0:
30,138,278510,6,0,L|40:106,14,22.25,4|0|0|0|0|0|0|0|0|0|0|0|0|0|0,1:0|2:0|2:0|2:0|2:0|2:0|2:0|2:0|2:0|2:0|2:0|2:0|2:0|2:0|2:0,2:0:0:0:
66,99,279081,6,0,L|43:190,1,89,14|0,0:0|0:0,0:0:0:0:
15,307,279367,2,0,L|121:291,1,89,10|0,0:0|0:0,0:0:0:0:
221,248,279653,2,0,L|153:182,1,89,10|0,0:0|0:0,0:0:0:0:
157,185,279939,1,10,0:0:0:0:
262,21,280081,6,0,P|279:62|277:107,1,89,2|8,0:0|0:0,0:0:0:0:
127,267,280367,2,0,P|133:223|156:185,1,89,2|8,0:0|0:0,0:0:0:0:
277,107,280653,1,2,0:0:0:0:
355,211,280796,2,0,P|367:253|362:297,1,89,10|0,0:0|0:0,0:0:0:0:
218,229,281081,2,0,P|248:197|288:179,1,89,10|0,0:0|0:0,0:0:0:0:
302,334,281367,6,0,P|259:323|224:297,1,89,10|0,0:0|0:0,0:0:0:0:
200,166,281653,2,0,L|288:178,1,89,10|0,0:0|0:0,0:0:0:0:
411,267,281939,2,0,L|499:254,1,89,10|0,0:0|0:0,0:0:0:0:
499,254,282153,1,0,0:0:0:0:
499,254,282224,1,10,0:0:0:0:
504,112,282367,6,0,P|468:137|452:177,1,89,2|8,0:0|0:0,0:0:0:0:
381,360,282653,2,0,P|364:319|327:294,1,89,2|8,0:0|0:0,0:0:0:0:
209,212,282939,1,2,0:0:0:0:
77,267,283081,2,0,L|92:366,1,89,10|0,0:0|0:0,0:0:0:0:
235,378,283367,2,0,L|221:290,1,89,10|0,0:0|0:0,0:0:0:0:
162,72,283653,6,0,B|145:114|145:114|149:158,1,89,10|0,0:0|0:0,0:0:0:0:
276,265,283939,2,0,B|248:229|248:229|207:211,1,89,10|0,0:0|0:0,0:0:0:0:
51,267,284224,2,0,B|95:260|95:260|131:234,1,89,10|0,0:0|0:0,0:0:0:0:
131,235,284510,1,10,0:0:0:0:
92,25,284653,6,0,B|70:92|70:92|86:83,1,89,2|8,0:0|0:0,0:0:0:0:
225,113,284939,2,0,B|246:180|246:180|230:171,1,89,2|8,0:0|0:0,0:0:0:0:
48,350,285224,1,2,0:0:0:0:
48,350,285296,1,0,0:0:0:0:
48,350,285367,2,0,B|34:321|34:321|50:266,1,89,10|0,0:0|0:0,0:0:0:0:
210,206,285653,2,0,B|224:177|224:177|207:122,1,89,10|0,0:0|0:0,0:0:0:0:
92,24,285939,5,10,0:0:0:0:
48,195,286081,1,0,0:0:0:0:
129,326,286224,1,10,0:0:0:0:
173,155,286367,1,0,0:0:0:0:
91,24,286510,2,0,P|74:64|77:108,1,89,10|0,0:0|0:0,0:0:0:0:
129,326,286796,1,10,0:0:0:0:
268,356,286939,6,0,P|271:312|260:270,1,89,2|8,0:0|0:0,0:0:0:0:
219,47,287224,2,0,P|208:89|212:134,1,89,2|8,0:0|0:0,0:0:0:0:
260,270,287510,1,2,0:0:0:0:
459,52,287653,5,2,0:0:0:0:
403,278,287796,1,0,0:0:0:0:
403,278,287867,1,0,0:0:0:0:
403,278,287939,2,0,L|351:270,1,44.5,2|0,0:0|2:0,0:0:0:0:
232,204,288081,2,0,L|180:212,1,44.5,0|0,0:0|2:0,0:0:0:0:
49,132,288224,5,14,0:0:0:0:
289,157,288367,1,0,0:0:0:0:
155,208,288510,2,0,P|153:164|172:123,1,89,10|0,0:0|0:0,0:0:0:0:
299,16,288796,2,0,P|323:52|328:98,1,89,10|0,3:1|0:0,0:0:0:0:
312,290,289081,1,10,0:0:0:0:
171,123,289224,6,0,L|279:136,1,89,2|8,0:0|0:0,0:0:0:0:
493,116,289510,2,0,L|404:105,1,89,2|8,0:0|0:0,0:0:0:0:
208,33,289796,1,2,0:0:0:0:
208,33,289867,1,0,0:0:0:0:
208,33,289939,2,0,B|219:78|219:78|257:43,1,89,10|0,0:0|0:0,0:0:0:0:
407,45,290224,2,0,B|438:16|438:16|449:61,1,89,10|0,0:0|0:0,0:0:0:0:
320,124,290510,6,0,L|331:25,1,89,10|0,0:0|0:0,0:0:0:0:
424,142,290796,2,0,P|453:173|457:225,1,89,10|0,0:0|0:0,0:0:0:0:
384,340,291081,1,10,0:0:0:0:
257,273,291224,1,0,0:0:0:0:
137,351,291367,1,10,0:0:0:0:
18,153,291510,6,0,B|108:146|85:192|190:183,1,178,2|2,0:0|0:0,0:0:0:0:
328,219,291939,2,0,P|335:175|320:134,1,89,8|2,0:0|0:0,0:0:0:0:
250,29,292224,6,0,P|205:79|205:180,1,155.75,2|0,0:0|2:0,0:0:0:0:
190,183,292796,6,0,L|282:162,1,89,14|0,0:0|0:0,0:0:0:0:
414,121,293081,2,0,L|386:211,1,89,10|0,0:0|0:0,0:0:0:0:
356,346,293367,2,0,L|291:276,1,89,10|0,0:0|0:0,0:0:0:0:
190,184,293653,5,10,0:0:0:0:
414,121,293796,1,2,0:0:0:0:
356,346,293939,1,12,0:0:0:0:
316,196,294081,5,2,0:0:0:0:
295,280,294224,1,8,0:0:0:0:
379,257,294367,1,2,0:0:0:0:
292,106,294510,5,10,0:0:0:0:
234,331,294653,1,0,0:0:0:0:
458,268,294796,1,10,0:0:0:0:
329,242,294939,1,0,0:0:0:0:
329,242,295010,1,0,0:0:0:0:
329,242,295081,6,0,B|265:231|265:231|232:248|232:248|168:234,1,166.875,6|0,0:0|2:0,0:0:0:0:
107,267,295367,6,0,P|128:224|109:179,1,100.125003819466,2|0,0:0|2:0,0:0:0:0:
22,42,295653,6,0,P|63:56|74:106,1,89,6|0,0:0|0:0,0:0:0:0:
8,130,295867,1,0,0:0:0:0:
8,130,295939,6,0,L|173:149,1,166.875,2|0,0:0|2:0,0:0:0:0:
317,158,296224,5,6,0:0:0:0:
150,324,296367,1,2,0:0:0:0:
466,352,296510,2,0,P|449:304|411:274,1,100.125003819466,6|0,0:0|2:0,0:0:0:0:
282,198,296795,6,2,L|256:191,14,27.8125,6|0|0|0|2|0|0|0|2|0|0|0|2|0|0,1:0|2:0|2:0|2:0|2:1|2:0|2:0|2:0|2:1|2:0|2:0|2:0|2:1|2:0|2:0,2:0:0:0:
256,192,297367,6,0,B|238:68|238:68|271:95,1,166.875,10|0,0:1|2:0,0:0:0:0:
256,192,297652,2,0,B|274:316|274:316|241:289,1,166.875,8|0,0:0|2:0,0:0:0:0:
256,192,297938,2,0,B|380:174|380:174|353:207,1,166.875,8|0,0:0|2:0,0:0:0:0:
256,192,298224,2,0,B|132:210|132:210|159:177,1,166.875,8|0,0:0|2:0,0:0:0:0:
182,101,298510,6,0,L|347:76,1,166.875,8|0,0:0|2:0,0:0:0:0:
331,276,298796,2,0,L|165:300,1,166.875,8|0,0:0|2:0,0:0:0:0:
347,76,299081,2,0,B|388:49|388:49|359:171,1,166.875,8|0,0:0|2:0,0:0:0:0:
165,300,299367,2,0,B|124:327|124:327|153:205,1,166.875,10|0,0:0|2:0,0:0:0:0:
168,13,299653,6,0,B|209:-14|209:-14|180:108,1,166.875,10|0,0:0|2:0,0:0:0:0:
165,300,299939,2,0,B|124:327|124:327|153:205,1,166.875,8|0,0:0|2:0,0:0:0:0:
309,157,300224,2,0,B|336:198|336:198|214:169,1,166.875,8|0,0:0|2:0,0:0:0:0:
28,156,300510,2,0,B|1:115|1:115|123:144,1,166.875,8|0,0:0|2:0,0:0:0:0:
239,18,300796,6,0,B|198:87|198:87|220:171,1,166.875,8|0,0:0|2:0,0:0:0:0:
273,366,301081,2,0,B|314:297|314:297|291:212,1,166.875,8|0,0:0|2:0,0:0:0:0:
139,198,301367,2,2,B|198:192|198:192|239:213|239:213|299:203,1,166.875,10|0,0:0|2:0,0:0:0:0:
309,192,301653,6,0,B|317:216|317:216|315:254,1,55.625,8|0,0:0|2:0,0:0:0:0:
273,366,301796,2,0,B|265:342|265:342|267:304,1,55.625,8|0,0:0|2:0,0:0:0:0:
266,102,301939,6,2,B|344:78|344:78|388:6,1,166.875,14|0,0:0|2:0,0:0:0:0:
445,38,302224,2,0,B|404:112|404:112|423:192,1,166.875,8|0,0:0|2:0,0:0:0:0:
385,250,302510,2,0,B|307:274|307:274|263:346,1,166.875,8|0,0:0|2:0,0:0:0:0:
205,313,302796,2,0,B|245:238|245:238|227:159,1,166.875,8|0,0:0|2:0,0:0:0:0:
301,87,303081,6,0,L|344:255,1,166.875,8|0,0:0|2:0,0:0:0:0:
426,299,303367,2,0,L|384:137,1,166.875,8|0,0:0|2:0,0:0:0:0:
229,65,303653,2,0,L|272:233,1,166.875,8|0,0:0|2:0,0:0:0:0:
498,312,303939,2,2,L|456:150,1,166.875,10|0,0:0|2:0,0:0:0:0:
229,65,304224,6,2,B|185:104|187:168|187:168|228:129,1,166.875,10|0,0:0|2:0,0:0:0:0:
237,303,304510,2,0,B|281:264|279:200|279:200|238:239,1,166.875,8|0,0:0|2:0,0:0:0:0:
102,192,304796,2,0,B|141:236|205:234|205:234|166:193,1,166.875,8|0,0:0|2:0,0:0:0:0:
360,174,305081,2,0,B|321:130|257:132|257:132|296:173,1,166.875,8|0,0:0|2:0,0:0:0:0:
229,65,305367,6,0,B|172:99|194:166|194:166|227:203,1,166.875,8|0,0:0|2:0,0:0:0:0:
231,305,305653,2,0,B|288:271|266:204|266:204|233:167,1,166.875,8|0,0:0|2:0,0:0:0:0:
125,183,305939,6,2,L|362:197,1,233.625008912087,2|0,0:0|2:0,0:0:0:0:
311,122,306510,6,2,B|266:190|266:190|301:268,1,166.875,14|0,0:0|2:0,0:0:0:0:
186,364,306796,2,0,B|231:296|231:296|196:218,1,166.875,8|0,0:0|2:0,0:0:0:0:
0,0,307081,2,0,B|11:61|11:61|35:83|35:83|54:152,1,166.875,8|0,0:0|2:0,0:0:0:0:
70,335,307367,2,0,B|81:274|81:274|105:252|105:252|124:182,1,166.875,8|0,0:0|2:0,0:0:0:0:
146,48,307653,6,0,B|165:91|165:91|291:113,1,166.875,8|0,0:0|2:0,0:0:0:0:
279,316,307939,2,0,B|298:272|298:272|424:250,1,166.875,0|0,0:3|2:3,0:3:0:0:
426,162,308224,2,0,L|252:190,1,166.875,8|0,0:0|2:0,0:0:0:0:
105,222,308510,2,2,L|269:195,1,166.875,10|0,0:0|2:0,0:0:0:0:
451,284,308796,6,2,B|383:241|383:241|277:259,1,166.875,10|0,0:0|2:0,0:0:0:0:
61,100,309081,2,0,B|129:143|129:143|235:125,1,166.875,8|0,0:0|2:0,0:0:0:0:
375,45,309367,2,0,B|333:30|333:30|308:78|308:78|328:156,1,166.875,8|0,0:0|2:0,0:0:0:0:
137,339,309653,2,0,B|179:354|179:354|204:306|204:306|184:228,1,166.875,8|0,0:0|2:0,0:0:0:0:
172,72,309939,6,0,B|137:45|137:45|171:167,1,166.875,8|0,0:0|2:0,0:0:0:0:
340,312,310224,2,0,B|375:339|375:339|341:217,1,166.875,8|0,0:0|2:0,0:0:0:0:
375,45,310510,2,2,B|325:29|325:29|215:62,1,166.875,10|0,0:0|2:0,0:0:0:0:
196,59,310795,6,8,B|205:82|205:82|200:112,1,55.625,8|0,0:0|2:0,0:0:0:0:
99,251,310939,2,8,B|96:226|96:226|110:194,1,55.625,8|0,0:0|2:0,0:0:0:0:
196,59,311081,6,2,L|190:237,1,166.875,14|0,0:0|2:0,0:0:0:0:
263,357,311367,2,0,P|234:301|289:331,1,166.875,8|0,0:0|2:0,0:0:0:0:
316,59,311653,2,0,L|321:225,1,166.875,8|0,0:0|2:0,0:0:0:0:
337,237,311939,2,0,P|257:259|177:240,1,166.875,8|0,0:0|2:0,0:0:0:0:
177,44,312224,6,0,P|256:22|337:41,1,166.875,8|0,0:0|2:0,0:0:0:0:
462,17,312510,2,0,L|437:206,1,166.875,8|0,0:0|2:0,0:0:0:0:
486,305,312796,6,0,P|463:289|436:284,1,55.625,8|0,0:0|2:0,0:0:0:0:
337,237,312939,2,0,L|346:297,1,55.625,8|0,0:0|2:0,0:0:0:0:
390,369,313081,2,0,P|345:325|233:311,1,166.875,10|0,0:0|2:0,0:0:0:0:
172,359,313367,6,2,L|184:248,1,111.25,14|0,0:0|2:0,0:0:0:0:
14,57,313653,2,0,L|26:167,1,111.25,8|0,0:0|2:0,0:0:0:0:
48,345,313939,1,12,0:0:0:0:
108,136,314081,1,0,0:0:0:0:
250,243,314224,2,0,B|343:231|317:280|412:261,1,166.875,12|0,0:0|2:0,0:0:0:0:
476,79,314510,6,0,P|409:96|372:182,1,166.875,12|0,0:0|2:0,0:0:0:0:
160,230,314796,2,0,P|204:162|284:155,1,166.875,12|0,0:0|2:0,0:0:0:0:
504,366,315081,6,2,P|479:294|411:260,1,155.75,10|0,1:0|2:0,0:0:0:0:
256,192,315653,12,0,317868,0:0:0:0:
256,192,317938,12,0,320153,0:0:0:0:
256,192,320224,12,0,322510,0:0:0:0:
329,287,322796,5,2,0:0:0:0:
244,259,323081,1,2,0:0:0:0:
244,170,323367,1,0,0:0:0:0:
329,142,323653,1,2,0:0:0:0:
381,214,323939,5,2,0:0:0:0:
381,214,324081,1,2,0:0:0:0:
381,214,324224,1,2,0:0:0:0:
256,355,324510,1,2,0:0:0:0:
131,214,324796,6,0,P|116:236|114:266,1,53.4534534534535,0|2,0:0|0:0,0:0:0:0:
142,343,325367,1,2,0:0:0:0:
28,261,325653,1,2,0:0:0:0:
86,132,325939,2,0,L|148:149,1,53.4534534534535,2|0,0:0|0:0,0:0:0:0:
205,167,326367,1,2,0:0:0:0:
205,167,326510,1,2,0:0:0:0:
2,97,326796,1,0,0:0:0:0:
86,133,327081,6,0,P|114:133|144:117,1,53.4534534534535,0|2,0:0|0:0,0:0:0:0:
203,69,327653,1,2,0:0:0:0:
135,212,327939,1,0,0:0:0:0:
205,167,328224,6,0,L|262:175,1,53.4534534534535,2|0,0:0|0:0,0:0:0:0:
327,187,328653,1,2,0:0:0:0:
327,187,328796,1,2,0:0:0:0:
135,212,329081,1,0,0:0:0:0:
252,350,329367,5,0,0:0:0:0:
297,277,329653,1,2,0:0:0:0:
378,251,329939,1,2,0:0:0:0:
461,270,330224,1,2,0:0:0:0:
508,340,330510,1,2,0:0:0:0:
386,369,330796,5,2,0:0:0:0:
386,369,330939,1,2,0:0:0:0:
386,369,331081,1,0,0:0:0:0:
297,277,331367,1,2,0:0:0:0:
359,165,331653,5,0,0:0:0:0:
475,253,331939,1,2,0:0:0:0:
386,369,332224,1,2,0:0:0:0:
271,280,332510,1,0,0:0:0:0:
359,165,332796,5,2,0:0:0:0:
374,266,333081,1,2,0:0:0:0:
374,266,333224,1,2,0:0:0:0:
374,266,333367,1,2,0:0:0:0:
430,81,333653,5,2,0:0:0:0:
