osu file format v14

[General]
AudioFilename: C18H27NO3.mp3
AudioLeadIn: 0
PreviewTime: 168208
Countdown: 0
SampleSet: Normal
StackLeniency: 0.5
Mode: 0
LetterboxInBreaks: 0
EpilepsyWarning: 1
WidescreenStoryboard: 1

[Editor]
Bookmarks: 28779,29922,39065,48208,57351,58494,76779,95065,113351,122494,131636,149922,168208,186494,204779,217351,235636,253922,260779,279065,297351,315636,322351,333636
DistanceSpacing: 1.3
BeatDivisor: 4
GridSize: 4
TimelineZoom: 1.3

[Metadata]
Title:C18H27NO3(extend)
TitleUnicode:C18H27NO3(extend)
Artist:Team Grimoire
ArtistUnicode:Team Grimoire
Creator:HighTec
Version:Pure Darkness
Source:
Tags:cheesecake grimoire of crimson pop'n music sunny park capsaicin sound voltex ii -infinite infection- sdvx
BeatmapID:881123
BeatmapSetID:405382

[Difficulty]
HPDrainRate:5
CircleSize:4
OverallDifficulty:9.3
ApproachRate:9.8
SliderMultiplier:2
SliderTickRate:1

[Events]
//Background and Video events
0,0,"kek baguette.jpg",0,0
//Break Periods
2,136408,149443
2,254122,258494
//Storyboard Layer 0 (Background)
//Storyboard Layer 1 (Fail)
//Storyboard Layer 2 (Pass)
//Storyboard Layer 3 (Foreground)
//Storyboard Sound Samples

[TimingPoints]
2494,285.714285714286,4,1,1,100,1,0
2494,-133.333333333333,4,1,1,100,0,0
11922,-133.333333333333,4,2,1,100,0,0
12208,-133.333333333333,4,1,1,100,0,0
12494,-133.333333333333,4,2,1,100,0,0
12779,-133.333333333333,4,1,1,100,0,0
13065,-133.333333333333,4,2,1,100,0,0
13351,-133.333333333333,4,1,1,100,0,0
13636,-133.333333333333,4,2,1,100,0,0
13922,-133.333333333333,4,1,1,100,0,0
16494,-133.333333333333,4,2,1,100,0,0
16779,-133.333333333333,4,1,1,100,0,0
17065,-133.333333333333,4,2,1,100,0,0
17351,-133.333333333333,4,1,1,100,0,0
17636,-133.333333333333,4,2,1,100,0,0
17922,-133.333333333333,4,1,1,100,0,0
18208,-133.333333333333,4,2,1,100,0,0
18494,-133.333333333333,4,1,1,100,0,0
21065,-133.333333333333,4,2,1,100,0,0
21351,-133.333333333333,4,1,1,100,0,0
21636,-133.333333333333,4,2,1,100,0,0
21922,-133.333333333333,4,1,1,100,0,0
22208,-133.333333333333,4,2,1,100,0,0
22494,-133.333333333333,4,1,1,100,0,0
22779,-133.333333333333,4,2,1,100,0,0
23065,-133.333333333333,4,1,1,100,0,0
25636,-133.333333333333,4,2,1,100,0,0
25922,-133.333333333333,4,1,1,100,0,0
26208,-133.333333333333,4,2,1,100,0,0
26494,-133.333333333333,4,1,1,100,0,0
26779,-133.333333333333,4,2,1,100,0,0
27065,-133.333333333333,4,1,1,100,0,0
27351,-133.333333333333,4,2,1,100,0,0
27636,-133.333333333333,4,1,1,100,0,0
28779,-133.333333333333,4,1,3,100,0,0
29922,-100,4,1,3,100,0,0
39065,-100,4,2,3,40,0,0
39136,-133.333333333333,4,2,3,40,0,0
48208,-133.333333333333,4,2,3,50,0,0
50494,-133.333333333333,4,2,3,65,0,0
52779,-133.333333333333,4,2,3,75,0,0
55065,-133.333333333333,4,2,3,85,0,0
55636,-100,4,2,3,95,0,0
56208,-133.333333333333,4,2,3,100,0,0
57351,-133.333333333333,4,1,0,5,0,0
58494,-66.6666666666667,4,1,4,90,0,1
58589,-66.6666666666667,4,1,4,90,0,0
67351,-100,4,1,4,90,0,0
67565,-100,4,1,4,5,0,0
67636,-100,4,1,4,90,0,0
67708,-66.6666666666667,4,1,4,90,0,0
76779,-66.6666666666667,4,1,4,75,0,0
95065,-66.6666666666667,4,1,4,100,0,1
113351,-66.6666666666667,4,1,4,80,0,0
126779,-66.6666666666667,4,1,4,100,0,0
127065,-66.6666666666667,4,1,4,80,0,0
131351,-66.6666666666667,4,1,4,100,0,0
131636,-133.333333333333,4,1,4,100,0,0
131708,-133.333333333333,4,2,1,50,0,0
149922,-133.333333333333,4,1,1,75,0,0
159065,-100,4,1,1,85,0,0
161136,-100,4,1,1,45,0,0
161351,-100,4,1,1,90,0,0
167065,-100,4,1,1,100,0,0
168208,-100,4,1,3,100,0,1
168303,-100,4,1,3,100,0,0
170494,-133.333333333333,4,1,3,100,0,0
174494,-133.333333333333,4,1,3,50,0,0
175065,-133.333333333333,4,1,3,60,0,0
175636,-133.333333333333,4,1,3,70,0,0
176208,-90.9090909090909,4,1,3,100,0,0
176779,-100,4,1,3,100,0,0
177351,-133.333333333333,4,1,3,100,0,0
183636,-100,4,1,3,50,0,0
184207,-100,4,1,3,60,0,0
184778,-100,4,1,3,70,0,0
185350,-100,4,1,3,100,0,0
186494,-133.333333333333,4,1,3,100,0,1
186589,-133.333333333333,4,1,3,100,0,0
192779,-133.333333333333,4,1,3,50,0,0
193350,-133.333333333333,4,1,3,60,0,0
193921,-133.333333333333,4,1,3,70,0,0
194493,-133.333333333333,4,1,3,100,0,0
194494,-90.9090909090909,4,1,3,100,0,0
195065,-100,4,1,3,100,0,0
195636,-133.333333333333,4,1,3,100,0,0
196779,-100,4,1,3,100,0,0
197922,-66.6666666666667,4,1,3,100,0,0
200208,-133.333333333333,4,1,3,100,0,0
201922,-133.333333333333,4,1,3,60,0,0
202493,-133.333333333333,4,1,3,70,0,0
203064,-133.333333333333,4,1,3,80,0,0
203636,-133.333333333333,4,1,3,100,0,0
215065,-100,4,1,3,100,0,0
215136,-100,4,1,3,40,0,0
215636,-100,4,1,3,45,0,0
216208,-100,4,1,3,60,0,0
216779,-100,4,1,3,65,0,0
217351,-66.6666666666667,4,1,4,100,0,1
234494,-66.6666666666667,4,1,4,100,0,0
235636,-66.6666666666667,4,1,4,100,0,1
253922,-66.6666666666667,4,1,4,100,0,0
253994,-66.6666666666667,4,2,4,100,0,0
260565,-66.6666666666667,4,2,4,100,0,0
260779,-66.6666666666667,4,1,4,90,0,1
260874,-66.6666666666667,4,1,4,90,0,0
269636,-100,4,1,4,90,0,0
269851,-100,4,1,4,5,0,0
269922,-66.6666666666667,4,1,4,90,0,0
279065,-66.6666666666667,4,1,4,75,0,0
283636,-66.6666666666667,4,1,4,80,0,0
288208,-66.6666666666667,4,1,4,90,0,0
292779,-66.6666666666667,4,1,4,95,0,0
296208,-66.6666666666667,4,1,4,75,0,0
297351,-66.6666666666667,4,1,4,100,0,1
305922,-100,4,1,4,100,0,0
306422,-100,4,1,4,5,0,0
306494,-66.6666666666667,4,1,4,100,0,1
315636,-133.333333333333,4,1,4,100,0,0
317779,-133.333333333333,4,1,4,5,0,0
317922,-133.333333333333,4,1,4,50,0,0
320065,-133.333333333333,4,1,4,5,0,0
320208,-133.333333333333,4,1,4,20,0,0
322208,-133.333333333333,4,2,4,20,0,0
322351,-133.333333333333,4,2,4,20,0,0
322422,-133.333333333333,4,2,4,20,0,0
324494,-133.333333333333,4,2,4,30,0,0
324779,-133.333333333333,4,2,4,20,0,0
329065,-133.333333333333,4,2,4,30,0,0
329351,-133.333333333333,4,2,4,20,0,0
333636,-133.333333333333,4,2,4,35,0,0

[Colours]
Combo1 : 83,183,72
Combo2 : 29,226,152
Combo3 : 33,162,239
Combo4 : 215,51,75

[HitObjects]
256,192,208,12,0,2351,0:0:0:0:
172,84,2494,5,8,0:0:0:0:
352,272,3065,1,8,0:0:0:0:
88,304,3636,5,8,0:0:0:0:
432,104,4208,1,8,0:0:0:0:
104,328,4779,5,8,0:0:0:0:
184,56,5351,1,8,0:0:0:0:
436,176,5922,5,8,0:0:0:0:
104,284,6494,1,8,0:0:0:0:
372,88,6779,1,8,0:0:0:0:
320,312,7065,1,8,0:0:0:0:
144,80,7636,1,8,0:0:0:0:
420,192,8208,5,8,0:0:0:0:
256,56,8779,1,8,0:0:0:0:
256,340,9351,5,8,0:0:0:0:
136,188,9922,1,8,0:0:0:0:
256,340,10494,5,8,0:0:0:0:
428,72,11065,1,8,0:0:0:0:
250,265,11351,1,8,0:0:0:0:
178,328,11494,1,8,0:0:0:0:
164,232,11636,5,8,0:0:0:0:
278,94,11922,1,0,0:0:0:0:
432,336,12208,2,0,P|432:232|396:204,1,150.000005722046,8|0,0:0|0:0,0:0:0:0:
204,92,12779,5,8,0:0:0:0:
116,268,13065,2,0,L|48:336,2,75.0000028610231,0|0|8,0:0|0:0|0:0,0:0:0:0:
312,52,13636,1,0,0:0:0:0:
364,296,13922,5,8,0:0:0:0:
120,88,14494,1,8,0:0:0:0:
400,148,15065,1,8,0:0:0:0:
152,320,15636,5,8,0:0:0:0:
288,112,15922,1,8,0:0:0:0:
56,280,16208,5,8,0:0:0:0:
76,104,16494,1,0,0:0:0:0:
240,284,16779,1,8,0:0:0:0:
436,280,17065,1,0,0:0:0:0:
380,64,17351,5,8,0:0:0:0:
152,140,17636,2,0,L|48:132,2,75.0000028610231,0|0|8,0:0|0:0|0:0,0:0:0:0:
428,216,18208,1,0,0:0:0:0:
56,56,18494,5,8,0:0:0:0:
288,280,19065,1,8,0:0:0:0:
384,60,19636,5,8,0:0:0:0:
148,240,20208,1,8,0:0:0:0:
424,128,20494,1,8,0:0:0:0:
396,272,20636,1,8,0:0:0:0:
424,128,20779,6,0,P|324:80|256:96,1,150.000005722046,8|0,0:0|0:0,0:0:0:0:
104,152,21351,1,8,0:0:0:0:
288,83,21636,1,0,0:0:0:0:
80,304,21922,5,8,0:0:0:0:
240,240,22208,2,0,L|324:232,2,75.0000028610231,0|0|8,0:0|0:0|0:0,0:0:0:0:
88,204,22779,1,0,0:0:0:0:
400,60,23065,5,8,0:0:0:0:
120,220,23636,1,8,0:0:0:0:
428,140,24208,1,8,0:0:0:0:
256,328,24779,5,8,0:0:0:0:
256,56,25065,1,8,0:0:0:0:
96,192,25351,5,8,0:0:0:0:
364,212,25636,1,0,0:0:0:0:
60,320,25922,1,8,0:0:0:0:
384,112,26208,1,0,0:0:0:0:
224,260,26494,5,8,0:0:0:0:
400,200,26779,2,0,L|476:176,2,75.0000028610231,0|0|8,0:0|0:0|0:0,0:0:0:0:
132,288,27351,1,0,0:0:0:0:
336,120,27636,5,8,0:0:0:0:
112,256,28208,1,8,0:0:0:0:
432,116,28779,5,0,0:0:0:0:
328,224,28922,1,0,0:0:0:0:
328,76,29065,2,0,L|264:128,1,75.0000028610231,4|0,0:0|0:0,0:0:0:0:
248,144,29279,1,0,0:0:0:0:
224,164,29351,1,0,0:0:0:0:
60,312,29494,2,0,L|64:217,1,75.0000028610231,4|0,0:0|0:0,0:0:0:0:
65,206,29708,1,0,0:0:0:0:
67,174,29780,1,8,0:0:0:0:
172,20,29922,5,4,0:0:0:0:
224,164,30065,1,0,0:0:0:0:
428,72,30208,1,8,0:0:0:0:
436,248,30351,1,0,0:0:0:0:
436,248,30422,1,0,0:0:0:0:
436,248,30494,1,4,0:0:0:0:
240,316,30636,5,0,0:0:0:0:
240,280,30708,1,0,0:0:0:0:
240,244,30779,1,0,0:0:0:0:
248,56,30922,1,8,0:0:0:0:
284,92,30994,1,0,0:0:0:0:
320,128,31065,1,8,0:0:0:0:
168,288,31208,5,0,0:0:0:0:
76,92,31351,2,0,P|100:152|148:184,1,100,0|0,0:0|0:0,0:0:0:0:
296,312,31636,5,8,0:0:0:0:
280,264,31708,1,0,0:0:0:0:
264,216,31779,1,0,0:0:0:0:
248,168,31851,1,0,0:0:0:0:
228,120,31922,2,0,L|212:80,6,25,0|0|0|0|0|0|0,0:0|0:0|0:0|0:0|0:0|0:0|0:0,0:0:0:0:
204,64,32208,5,2,0:0:0:0:
176,260,32351,1,0,0:0:0:0:
428,84,32494,2,0,L|400:200,1,100,8|0,0:0|0:0,0:0:0:0:
240,312,32779,2,0,L|268:196,1,100,4|0,0:0|0:0,0:0:0:0:
160,72,33065,1,0,0:0:0:0:
160,72,33136,1,0,0:0:0:0:
160,72,33208,1,8,0:0:0:0:
320,236,33351,5,8,0:0:0:0:
112,224,33494,1,0,0:0:0:0:
112,224,33565,1,0,0:0:0:0:
112,224,33636,2,0,L|144:200,6,25,0|0|0|0|0|0|0,0:0|0:0|0:0|0:0|0:0|0:0|0:0,0:0:0:0:
164,188,33922,1,8,0:0:0:0:
296,112,34065,1,0,0:0:0:0:
240,284,34208,1,0,0:0:0:0:
144,72,34351,1,0,0:0:0:0:
408,192,34494,5,2,0:0:0:0:
392,240,34565,1,0,0:0:0:0:
356,272,34636,2,0,L|304:312,2,50,0|0|8,0:0|0:0|0:0,0:0:0:0:
424,144,34922,1,0,0:0:0:0:
208,296,35065,5,4,0:0:0:0:
184,252,35136,1,0,0:0:0:0:
160,208,35208,1,0,0:0:0:0:
224,64,35351,1,0,0:0:0:0:
404,92,35494,2,0,L|400:152,1,50,8|0,0:0|0:0,0:0:0:0:
384,304,35636,1,8,0:0:0:0:
292,92,35779,5,0,0:0:0:0:
175,306,35922,2,0,L|159:202,1,100,0|0,0:0|0:0,0:0:0:0:
59,33,36208,1,8,0:0:0:0:
84,76,36279,1,0,0:0:0:0:
109,119,36351,1,0,0:0:0:0:
134,162,36422,1,0,0:0:0:0:
159,207,36494,2,0,L|182:244,6,25
192,264,36779,5,2,0:0:0:0:
384,112,36922,1,0,0:0:0:0:
408,340,37065,2,0,P|416:228|404:212,1,100,8|0,0:0|0:0,0:0:0:0:
304,112,37351,1,4,0:0:0:0:
304,112,37422,1,0,0:0:0:0:
304,112,37494,1,0,0:0:0:0:
176,280,37636,1,0,0:0:0:0:
108,96,37779,1,8,0:0:0:0:
176,280,37922,6,0,L|176:320,14,25,8|0|0|0|0|0|0|0|0|0|0|0|0|0|0,0:0|0:0|0:0|0:0|0:0|0:0|0:0|0:0|0:0|0:0|0:0|0:0|0:0|0:0|0:0,0:0:0:0:
240,176,38494,2,0,L|240:136,14,25,8|0|0|0|0|0|0|0|0|0|0|0|0|0|0,0:0|0:0|0:0|0:0|0:0|0:0|0:0|0:0|0:0|0:0|0:0|0:0|0:0|0:0|0:0,0:0:0:0:
240,212,39065,5,0,0:0:0:0:
104,356,39351,1,0,0:0:0:0:
440,96,39636,1,0,0:0:0:0:
412,296,39922,1,0,0:0:0:0:
116,124,40208,5,0,0:0:0:0:
184,312,40494,2,0,P|244:316|288:300,2,75.0000028610231
116,124,41065,1,0,0:0:0:0:
364,156,41351,6,0,L|288:300,1,150.000005722046,0|0,0:0|0:0,0:0:0:0:
173,252,41922,2,0,L|249:108,1,150.000005722046,0|0,0:0|0:0,0:0:0:0:
80,212,42494,5,0,0:0:0:0:
244,120,42779,2,0,L|256:208,2,75.0000028610231
272,344,43351,1,0,0:0:0:0:
92,132,43636,6,0,P|116:216|176:252,1,150.000005722046,0|0,0:0|0:0,0:0:0:0:
92,132,44208,1,0,0:0:0:0:
192,256,44494,1,0,0:0:0:0:
436,216,44779,5,0,0:0:0:0:
244,324,45065,1,0,0:0:0:0:
244,324,45208,1,0,0:0:0:0:
244,324,45351,1,0,0:0:0:0:
152,124,45636,1,0,0:0:0:0:
412,88,45922,5,0,0:0:0:0:
352,336,46208,1,0,0:0:0:0:
72,96,46494,2,0,P|88:160|176:208,1,150.000005722046,0|0,0:0|0:0,0:0:0:0:
440,96,47065,5,0,0:0:0:0:
292,336,47351,2,0,L|292:240,1,75.0000028610231,0|0,0:0|0:0,0:0:0:0:
292,120,47636,1,0,0:0:0:0:
292,336,47922,1,0,0:0:0:0:
80,84,48208,6,0,L|140:232,1,150.000005722046,2|2,1:0|1:0,0:0:0:0:
80,84,48779,1,2,1:0:0:0:
316,84,49065,1,2,1:0:0:0:
128,304,49351,5,2,1:0:0:0:
236,74,49636,1,2,1:0:0:0:
335,201,49779,1,2,1:0:0:0:
176,224,49922,1,2,1:0:0:0:
236,74,50208,1,2,1:0:0:0:
396,120,50494,6,0,P|416:196|392:264,1,150.000005722046,2|2,1:0|1:0,0:0:0:0:
209,241,51065,2,0,P|189:165|213:97,1,150.000005722046,2|2,1:0|1:0,0:0:0:0:
393,237,51636,5,2,1:0:0:0:
211,99,51922,1,2,1:0:0:0:
356,104,52065,1,2,1:0:0:0:
136,92,52208,1,2,1:0:0:0:
428,108,52494,1,2,1:0:0:0:
128,284,52779,5,10,1:0:0:0:
312,96,53065,1,10,1:0:0:0:
368,312,53351,1,10,1:0:0:0:
156,108,53636,1,10,1:0:0:0:
92,312,53922,6,0,L|268:256,1,150.000005722046,10|10,1:0|1:0,0:0:0:0:
384,212,54351,1,10,1:0:0:0:
420,72,54494,2,0,L|244:128,1,150.000005722046,10|10,1:0|1:0,0:0:0:0:
120,92,55065,6,0,L|100:124,7,37.5000014305115,0|0|0|0|0|0|0|0,1:0|1:0|1:0|1:0|1:0|1:0|1:0|1:0,0:0:0:0:
228,144,55636,2,0,L|288:180,7,50,0|0|0|0|0|0|0|0,1:0|1:0|1:0|1:0|1:0|1:0|1:0|1:0,0:0:0:0:
92,208,56208,5,8,1:0:0:0:
87,237,56279,1,8,1:0:0:0:
93,266,56351,1,8,1:0:0:0:
109,291,56422,1,2,1:0:0:0:
133,309,56494,1,2,1:0:0:0:
162,316,56565,1,2,1:0:0:0:
191,313,56636,1,8,1:0:0:0:
218,299,56708,1,8,1:0:0:0:
236,280,56779,5,2,1:0:0:0:
202,256,56851,1,2,1:0:0:0:
180,222,56922,1,8,1:0:0:0:
173,181,56994,1,8,1:0:0:0:
183,142,57065,1,2,1:0:0:0:
208,109,57136,1,2,1:0:0:0:
244,89,57208,1,2,1:0:0:0:
285,85,57279,1,2,1:0:0:0:
324,97,57351,5,0,0:0:0:0:
456,64,58494,6,0,L|376:212,1,150.000005722046,0|0,0:0|0:0,0:0:0:0:
236,380,58779,1,0,0:0:0:0:
252,56,58922,1,0,0:0:0:0:
328,340,59065,1,0,0:0:0:0:
160,136,59208,1,0,0:0:0:0:
368,340,59351,2,0,L|368:180,1,150.000005722046,0|0,0:0|0:0,0:0:0:0:
96,104,59636,5,0,0:0:0:0:
240,240,59779,1,0,0:0:0:0:
272,56,59922,2,0,P|360:136|356:192,1,150.000005722046
368,340,60208,1,0,0:0:0:0:
362,158,60351,1,0,0:0:0:0:
236,332,60494,2,0,P|148:252|152:196,1,150.000005722046
152,24,60779,5,0,0:0:0:0:
228,248,60922,1,0,0:0:0:0:
380,64,61065,1,0,0:0:0:0:
76,200,61208,1,0,0:0:0:0:
337,305,61351,1,0,0:0:0:0:
352,64,61494,1,0,0:0:0:0:
76,200,61636,1,0,0:0:0:0:
256,16,61779,1,0,0:0:0:0:
480,100,61922,6,0,L|368:208,1,150.000005722046
251,314,62208,1,0,0:0:0:0:
501,82,62351,1,0,0:0:0:0:
72,68,62494,2,0,P|76:164|148:224,1,150.000005722046,0|0,0:0|0:0,0:0:0:0:
416,360,62779,1,0,0:0:0:0:
144,4,62922,1,0,0:0:0:0:
120,304,63065,6,0,L|268:232,1,150.000005722046,0|0,0:0|0:0,0:0:0:0:
48,72,63351,1,0,0:0:0:0:
254,238,63494,1,0,0:0:0:0:
240,8,63636,1,0,0:0:0:0:
256,244,63779,1,0,0:0:0:0:
432,64,63922,1,0,0:0:0:0:
258,250,64065,1,0,0:0:0:0:
460,352,64208,6,0,L|424:200,1,150.000005722046,0|0,0:0|0:0,0:0:0:0:
156,132,64494,1,0,0:0:0:0:
425,206,64636,1,0,0:0:0:0:
160,320,64779,1,0,0:0:0:0:
240,76,64922,1,0,0:0:0:0:
312,328,65065,1,0,0:0:0:0:
84,192,65208,1,0,0:0:0:0:
368,76,65351,6,0,P|408:192|392:236,1,150.000005722046,0|0,0:0|0:0,0:0:0:0:
160,320,65636,1,0,0:0:0:0:
16,112,65779,1,0,0:0:0:0:
296,72,65922,1,0,0:0:0:0:
76,260,66065,1,0,0:0:0:0:
340,268,66208,1,0,0:0:0:0:
224,68,66351,1,0,0:0:0:0:
16,112,66494,6,0,B|8:192|8:192|71:259,1,150.000005722046
208,336,66779,1,0,0:0:0:0:
488,272,66922,1,0,0:0:0:0:
200,60,67065,1,0,1:0:0:0:
108,336,67208,1,0,0:0:0:0:
368,180,67351,6,0,P|416:256|348:300,1,150,0|0,2:0|0:0,0:0:0:0:
360,312,67636,1,0,0:0:0:0:
4,256,67779,5,0,0:0:0:0:
268,48,67922,1,0,0:0:0:0:
256,344,68065,1,0,0:0:0:0:
52,128,68208,1,0,0:0:0:0:
392,128,68351,1,0,0:0:0:0:
152,368,68494,1,0,0:0:0:0:
104,72,68636,1,0,0:0:0:0:
283,204,68779,6,0,P|289:277|256:344,1,150.000005722046
12,360,69065,1,0,0:0:0:0:
172,80,69208,1,0,0:0:0:0:
288,352,69351,1,0,0:0:0:0:
96,100,69494,1,0,0:0:0:0:
448,192,69636,1,0,0:0:0:0:
256,16,69779,1,0,0:0:0:0:
52,100,69922,6,0,P|96:188|156:208,1,150.000005722046,0|0,0:0|0:0,0:0:0:0:
452,264,70208,1,0,0:0:0:0:
196,56,70351,1,0,0:0:0:0:
160,271,70494,2,0,P|199:333|271:347,1,150.000005722046
332,76,70779,1,0,0:0:0:0:
271,347,70922,1,0,0:0:0:0:
496,204,71065,5,0,0:0:0:0:
244,272,71208,1,0,0:0:0:0:
80,68,71351,2,0,P|24:180|44:204,1,150.000005722046,0|0,0:0|0:0,0:0:0:0:
103,329,71636,5,0,0:0:0:0:
144,296,71707,1,0,0:0:0:0:
192,277,71778,1,0,0:0:0:0:
244,272,71850,1,0,0:0:0:0:
296,279,71921,5,0,0:0:0:0:
327,237,71993,1,0,0:0:0:0:
359,197,72064,1,8,0:0:0:0:
391,157,72135,1,0,0:0:0:0:
425,111,72208,6,0,P|344:67|263:79,1,150.000005722046,0|0,0:0|0:0,0:0:0:0:
192,277,72494,1,0,0:0:0:0:
101,17,72636,1,0,0:0:0:0:
359,197,72779,1,0,0:0:0:0:
166,366,72922,1,0,0:0:0:0:
470,290,73065,1,0,0:0:0:0:
288,69,73208,1,0,0:0:0:0:
300,366,73351,6,0,L|182:244,1,150.000005722046,0|0,0:0|0:0,0:0:0:0:
170,17,73636,1,0,0:0:0:0:
304,269,73779,1,0,0:0:0:0:
507,58,73922,1,0,0:0:0:0:
442,317,74065,1,0,0:0:0:0:
312,74,74208,1,0,0:0:0:0:
109,338,74351,1,0,0:0:0:0:
166,110,74494,5,0,0:0:0:0:
403,216,74636,1,0,0:0:0:0:
338,45,74779,1,0,0:0:0:0:
232,281,74922,1,0,0:0:0:0:
167,55,75065,5,0,0:0:0:0:
390,103,75208,1,0,0:0:0:0:
343,326,75351,1,0,0:0:0:0:
119,279,75494,1,0,0:0:0:0:
192,32,75636,5,0,0:0:0:0:
251,27,75707,1,0,0:0:0:0:
308,46,75778,1,0,0:0:0:0:
353,84,75850,1,0,0:0:0:0:
380,137,75921,1,8,0:0:0:0:
385,197,75993,1,0,0:0:0:0:
367,253,76064,1,8,0:0:0:0:
328,299,76135,1,0,0:0:0:0:
280,324,76208,6,0,L|220:340,14,37.5000014305115,10|0|0|0|0|0|0|0|10|0|8|0|8|0|8,0:0|0:0|0:0|0:0|0:0|0:0|0:0|0:0|0:0|0:0|0:0|0:0|0:0|0:0|0:0,0:0:0:0:
200,344,76779,5,4,0:0:0:0:
90,183,76922,1,0,0:0:0:0:
376,28,77065,2,0,B|460:80|412:172,1,150.000005722046,4|0,0:0|0:0,0:0:0:0:
216,240,77351,1,4,0:0:0:0:
448,304,77494,1,0,0:0:0:0:
96,92,77636,1,4,0:0:0:0:
448,304,77779,1,0,0:0:0:0:
72,204,77922,5,0,0:0:0:0:
212,16,78065,1,0,0:0:0:0:
128,328,78208,1,4,0:0:0:0:
384,220,78351,1,0,0:0:0:0:
36,120,78494,2,0,L|180:216,1,150.000005722046,4|0,0:0|0:0,0:0:0:0:
368,332,78779,1,4,0:0:0:0:
68,380,78922,1,0,0:0:0:0:
264,36,79065,6,0,P|312:140|292:204,1,150.000005722046,4|0,0:0|0:0,0:0:0:0:
184,368,79351,1,4,0:0:0:0:
448,72,79494,1,0,0:0:0:0:
512,344,79636,1,4,0:0:0:0:
320,24,79779,1,0,0:0:0:0:
364,376,79922,1,4,0:0:0:0:
508,104,80065,1,0,0:0:0:0:
184,8,80208,6,0,P|196:88|268:148,1,150.000005722046,4|0,0:0|0:0,0:0:0:0:
508,224,80494,1,4,0:0:0:0:
196,368,80636,1,0,0:0:0:0:
16,208,80779,2,0,P|72:108|116:104,1,150.000005722046,4|0,0:0|0:0,0:0:0:0:
280,320,81065,1,4,0:0:0:0:
332,80,81208,1,4,0:0:0:0:
76,28,81351,6,0,P|128:128|212:160,1,150.000005722046,4|0,0:0|0:0,0:0:0:0:
456,232,81636,1,4,0:0:0:0:
316,56,81779,1,0,0:0:0:0:
368,360,81922,2,0,P|428:260|424:188,1,150.000005722046,4|0,0:0|0:0,0:0:0:0:
304,32,82208,1,4,0:0:0:0:
80,56,82351,6,0,P|88:176|136:208,1,150.000005722046,0|4,0:0|0:0,0:0:0:0:
352,356,82636,1,4,0:0:0:0:
344,88,82779,1,0,0:0:0:0:
63,213,82922,1,0,0:0:0:0:
376,328,83065,2,0,P|388:216|344:172,1,150.000005722046,4|0,0:0|0:0,0:0:0:0:
96,92,83351,1,4,0:0:0:0:
368,12,83494,1,0,0:0:0:0:
120,256,83636,5,4,0:0:0:0:
348,368,83779,1,0,0:0:0:0:
452,192,83922,2,0,P|456:112|396:32,1,150.000005722046,4|0,0:0|0:0,0:0:0:0:
184,8,84208,1,4,0:0:0:0:
348,328,84351,1,0,0:0:0:0:
348,68,84494,1,4,0:0:0:0:
52,44,84636,6,0,P|120:64|152:156,1,150.000005722046,0|4,0:0|0:0,0:0:0:0:
160,364,84922,1,0,0:0:0:0:
409,317,85065,2,0,L|277:217,1,150.000005722046,4|0,0:0|0:0,0:0:0:0:
124,48,85351,5,6,0:0:0:0:
97,100,85422,1,0,0:0:0:0:
97,160,85493,1,0,0:0:0:0:
126,212,85565,1,0,0:0:0:0:
176,245,85636,1,0,0:0:0:0:
235,250,85708,1,0,0:0:0:0:
290,227,85779,1,0,0:0:0:0:
328,182,85850,1,0,0:0:0:0:
360,132,85922,6,0,P|452:184|412:252,1,150.000005722046,4|4,0:0|0:0,0:0:0:0:
288,376,86208,1,4,0:0:0:0:
232,112,86351,1,0,0:0:0:0:
80,372,86494,1,4,0:0:0:0:
256,76,86636,1,0,0:0:0:0:
496,268,86779,1,4,0:0:0:0:
97,160,86922,1,0,0:0:0:0:
320,364,87065,6,0,P|388:256|356:204,1,150.000005722046,4|0,0:0|0:0,0:0:0:0:
104,76,87351,1,4,0:0:0:0:
385,247,87494,1,0,0:0:0:0:
96,268,87636,2,0,B|156:316|248:260,1,150.000005722046,4|0,0:0|0:0,0:0:0:0:
340,76,87922,1,4,0:0:0:0:
456,360,88065,1,0,0:0:0:0:
124,364,88208,6,0,L|192:212,1,150.000005722046,4|0,0:0|0:0,0:0:0:0:
268,32,88494,1,4,0:0:0:0:
452,300,88636,1,0,0:0:0:0:
88,196,88779,1,4,0:0:0:0:
292,32,88922,1,0,0:0:0:0:
488,300,89064,5,4,0:0:0:0:
488,300,89136,1,0,0:0:0:0:
488,300,89208,2,0,P|352:296|300:140,1,300.000011444092,0|0,0:0|0:0,0:0:0:0:
60,60,89636,2,0,L|232:88,1,150.000005722046,4|0,0:0|0:0,0:0:0:0:
48,184,89922,5,0,0:0:0:0:
29,232,89993,1,0,0:0:0:0:
33,284,90064,1,0,0:0:0:0:
58,330,90136,1,0,0:0:0:0:
99,361,90207,1,0,0:0:0:0:
150,372,90279,1,0,0:0:0:0:
201,361,90350,1,8,0:0:0:0:
243,329,90421,1,0,0:0:0:0:
284,296,90494,6,0,P|290:183|227:160,1,150.000005722046,4|4,0:0|0:0,0:0:0:0:
58,330,90779,1,4,0:0:0:0:
336,128,90922,1,0,0:0:0:0:
64,88,91065,1,4,0:0:0:0:
284,296,91208,1,0,0:0:0:0:
29,232,91351,2,0,L|189:152,1,150.000005722046,4|0,0:0|0:0,0:0:0:0:
400,60,91636,5,4,0:0:0:0:
376,276,91779,1,0,0:0:0:0:
163,164,91922,1,4,0:0:0:0:
440,44,92065,1,4,0:0:0:0:
412,288,92208,1,0,0:0:0:0:
124,176,92351,1,0,0:0:0:0:
440,84,92494,2,0,P|400:168|336:200,1,150.000005722046,4|0,0:0|0:0,0:0:0:0:
127,251,92779,5,6,0:0:0:0:
135,301,92850,1,0,0:0:0:0:
171,339,92921,1,0,0:0:0:0:
222,348,92993,1,0,0:0:0:0:
269,327,93064,1,4,0:0:0:0:
295,283,93136,1,0,0:0:0:0:
292,231,93207,1,0,0:0:0:0:
259,191,93278,1,0,0:0:0:0:
216,152,93351,5,4,0:0:0:0:
210,210,93422,1,0,0:0:0:0:
241,261,93493,1,0,0:0:0:0:
295,283,93565,1,0,0:0:0:0:
352,268,93636,1,4,0:0:0:0:
390,223,93708,1,0,0:0:0:0:
392,164,93779,1,0,0:0:0:0:
359,115,93850,1,0,0:0:0:0:
316,88,93922,6,0,L|256:60,6,37.5000014305115,4|0|0|0|0|0|0,0:0|0:0|0:0|0:0|0:0|0:0|0:0,0:0:0:0:
216,144,94208,2,0,L|172:144,6,37.5000014305115,8|0|0|0|8|0|0,0:0|0:0|0:0|0:0|0:0|0:0|0:0,0:0:0:0:
320,188,94494,6,0,L|344:244,14,37.5000014305115,14|0|0|0|0|0|0|0|10|0|8|0|8|0|8,0:0|0:0|0:0|0:0|0:0|0:0|0:0|0:0|0:0|0:0|0:0|0:0|0:0|0:0|0:0,0:0:0:0:
352,264,95065,5,4,0:0:0:0:
168,328,95208,1,0,0:0:0:0:
56,68,95351,2,0,P|68:144|144:208,1,150.000005722046,4|0,0:0|0:0,0:0:0:0:
364,336,95636,1,4,0:0:0:0:
280,84,95779,1,0,0:0:0:0:
112,372,95922,1,4,0:0:0:0:
264,48,96065,6,0,P|304:136|292:200,1,150.000005722046,0|4,0:0|0:0,0:0:0:0:
256,380,96351,1,0,0:0:0:0:
172,60,96494,1,4,0:0:0:0:
8,308,96636,1,0,0:0:0:0:
256,120,96779,1,4,0:0:0:0:
256,380,96922,1,0,0:0:0:0:
432,248,97065,2,0,P|468:164|456:88,1,150.000005722046,4|0,0:0|0:0,0:0:0:0:
144,32,97351,6,0,L|172:188,1,150.000005722046,4|0,0:0|0:0,0:0:0:0:
192,327,97636,1,4,0:0:0:0:
12,208,97779,1,0,0:0:0:0:
144,32,97922,1,4,0:0:0:0:
192,327,98065,1,0,0:0:0:0:
292,48,98208,1,4,0:0:0:0:
12,136,98351,2,0,P|28:248|220:200,1,300.000011444092
448,184,98779,5,4,0:0:0:0:
169,97,98922,1,0,0:0:0:0:
328,360,99065,1,4,0:0:0:0:
396,52,99208,1,0,0:0:0:0:
102,242,99351,2,0,P|129:311|221:347,1,150.000005722046,4|4,0:0|0:0,0:0:0:0:
396,52,99636,5,4,0:0:0:0:
108,24,99779,1,0,0:0:0:0:
336,276,99922,2,0,B|352:196|352:196|276:120,1,150.000005722046,4|0,0:0|0:0,0:0:0:0:
16,144,100208,1,4,0:0:0:0:
200,368,100351,1,0,0:0:0:0:
424,76,100494,1,4,0:0:0:0:
192,24,100636,6,0,L|236:184,1,150.000005722046,0|4,0:0|0:0,0:0:0:0:
276,352,100922,1,0,0:0:0:0:
320,76,101065,1,4,0:0:0:0:
276,352,101208,1,0,0:0:0:0:
444,216,101351,2,0,B|452:136|452:136|384:72,1,150.000005722046,4|0,0:0|0:0,0:0:0:0:
276,352,101636,1,4,0:0:0:0:
444,216,101779,1,0,0:0:0:0:
44,76,101922,6,0,L|204:132,1,150.000005722046,4|0,0:0|0:0,0:0:0:0:
276,312,102208,1,4,0:0:0:0:
192,92,102351,1,0,0:0:0:0:
68,288,102494,1,4,0:0:0:0:
200,56,102636,1,0,0:0:0:0:
448,0,102779,1,4,0:0:0:0:
312,268,102922,2,0,P|332:344|440:388,2,150.000005722046,0|4|0,0:0|0:0|0:0,0:0:0:0:
460,120,103351,1,4,0:0:0:0:
232,64,103494,1,0,0:0:0:0:
68,48,103636,5,6,0:0:0:0:
39,91,103707,1,0,0:0:0:0:
31,143,103778,1,0,0:0:0:0:
44,193,103850,1,0,0:0:0:0:
76,234,103921,1,0,0:0:0:0:
122,258,103993,1,0,0:0:0:0:
174,262,104064,1,0,0:0:0:0:
223,245,104135,1,0,0:0:0:0:
268,216,104208,5,4,0:0:0:0:
472,92,104351,1,4,0:0:0:0:
68,48,104494,1,4,0:0:0:0:
223,245,104636,1,0,0:0:0:0:
472,132,104779,1,0,0:0:0:0:
108,48,104922,1,4,0:0:0:0:
244,336,105065,1,4,0:0:0:0:
304,40,105208,6,0,P|336:124|312:204,1,150.000005722046,0|4,0:0|0:0,0:0:0:0:
88,352,105494,1,4,0:0:0:0:
112,112,105636,1,0,0:0:0:0:
456,264,105779,1,0,0:0:0:0:
124,144,105922,1,4,0:0:0:0:
492,56,106065,1,0,0:0:0:0:
440,296,106208,2,0,P|368:312|304:264,1,150.000005722046,4|0,0:0|0:0,0:0:0:0:
88,140,106494,6,0,L|252:156,1,150.000005722046,4|0,0:0|0:0,0:0:0:0:
460,336,106779,1,4,0:0:0:0:
360,80,106922,1,0,0:0:0:0:
176,344,107065,2,0,B|120:292|120:292|136:200,1,150.000005722046,4|0,0:0|0:0,0:0:0:0:
232,8,107351,1,4,0:0:0:0:
364,344,107494,6,0,L|410:201,1,150.000005722046,4|4,0:0|0:0,0:0:0:0:
462,52,107779,1,0,0:0:0:0:
364,344,107922,1,0,0:0:0:0:
462,52,108065,1,0,0:0:0:0:
364,344,108208,5,0,0:0:0:0:
316,365,108279,1,0,0:0:0:0:
264,368,108350,1,0,0:0:0:0:
214,352,108422,1,0,0:0:0:0:
174,319,108493,1,0,0:0:0:0:
148,273,108565,1,0,0:0:0:0:
140,222,108636,1,8,0:0:0:0:
152,171,108707,1,0,0:0:0:0:
181,127,108779,5,4,0:0:0:0:
412,288,108922,1,4,0:0:0:0:
392,56,109065,2,0,L|284:212,1,150.000005722046,4|0,0:0|0:0,0:0:0:0:
174,319,109351,1,4,0:0:0:0:
412,288,109494,1,0,0:0:0:0:
181,127,109636,1,4,0:0:0:0:
392,56,109779,1,0,0:0:0:0:
92,156,109922,6,0,P|148:208|252:196,1,150.000005722046,4|0,0:0|0:0,0:0:0:0:
464,184,110208,1,4,0:0:0:0:
248,40,110351,1,4,0:0:0:0:
188,344,110494,1,0,0:0:0:0:
92,156,110636,1,0,0:0:0:0:
384,64,110779,2,0,P|344:184|268:208,1,150.000005722046,4|0,0:0|0:0,0:0:0:0:
173,272,111065,5,6,0:0:0:0:
122,286,111136,1,0,0:0:0:0:
72,274,111207,1,0,0:0:0:0:
33,240,111279,1,0,0:0:0:0:
15,191,111350,1,4,0:0:0:0:
22,140,111422,1,0,0:0:0:0:
54,98,111493,1,0,0:0:0:0:
101,77,111564,1,0,0:0:0:0:
152,84,111636,5,4,0:0:0:0:
127,149,111707,1,0,0:0:0:0:
137,215,111778,1,0,0:0:0:0:
173,272,111850,1,0,0:0:0:0:
228,310,111921,1,0,0:0:0:0:
294,323,111993,1,0,0:0:0:0:
360,309,112064,1,0,0:0:0:0:
416,268,112135,1,0,0:0:0:0:
440,204,112208,6,0,L|452:152,6,37.5000014305115,4|0|0|0|0|0|0,0:0|0:0|0:0|0:0|0:0|0:0|0:0,0:0:0:0:
332,104,112494,2,0,L|344:160,6,37.5000014305115,8|0|0|0|8|0|0,0:0|0:0|0:0|0:0|0:0|0:0|0:0,0:0:0:0:
212,208,112779,6,0,L|152:200,14,37.5000014305115,14|0|0|0|0|0|0|0|10|0|8|0|8|0|8,0:0|0:0|0:0|0:0|0:0|0:0|0:0|0:0|0:0|0:0|0:0|0:0|0:0|0:0|0:0,0:0:0:0:
248,216,113351,5,12,0:0:0:0:
380,176,113494,1,0,0:0:0:0:
224,288,113636,5,8,0:0:0:0:
428,148,113779,1,0,0:0:0:0:
174,203,113922,5,8,0:0:0:0:
476,120,114065,1,0,0:0:0:0:
120,120,114208,5,8,0:0:0:0:
356,20,114351,1,0,0:0:0:0:
224,264,114494,6,0,L|308:264,7,75.0000028610231,8|0|0|0|8|0|0|0,0:0|0:0|0:0|0:0|0:0|0:0|0:0|0:0,0:0:0:0:
223,136,115065,2,0,L|139:136,7,75.0000028610231,8|0|0|0|8|0|0|0,0:0|0:0|0:0|0:0|0:0|0:0|0:0|0:0,0:0:0:0:
223,136,115636,5,12,0:0:0:0:
188,320,115779,1,0,0:0:0:0:
372,80,115922,5,8,0:0:0:0:
416,316,116065,1,0,0:0:0:0:
236,120,116208,5,8,0:0:0:0:
480,356,116351,1,0,0:0:0:0:
464,140,116494,5,8,0:0:0:0:
228,312,116636,1,0,0:0:0:0:
64,62,116779,6,0,L|64:236,1,150.000005722046,8|0,0:0|0:0,0:0:0:0:
447,321,117065,2,0,L|447:171,1,150.000005722046,8|0,0:0|0:0,0:0:0:0:
126,383,117351,2,0,L|276:383,1,150.000005722046,8|0,0:0|0:0,0:0:0:0:
385,0,117636,2,0,L|211:0,1,150.000005722046,8|0,0:0|0:0,0:0:0:0:
64,212,117922,5,12,0:0:0:0:
240,36,118065,1,4,0:0:0:0:
220,332,118208,5,12,0:0:0:0:
352,56,118351,1,4,0:0:0:0:
84,300,118494,5,8,0:0:0:0:
192,104,118636,1,0,0:0:0:0:
404,288,118779,2,0,P|384:180|348:156,1,150.000005722046,8|0,0:0|0:0,0:0:0:0:
248,272,119065,6,0,L|176:316,7,75.0000028610231,8|0|0|0|8|0|0|0,0:0|0:0|0:0|0:0|0:0|0:0|0:0|0:0,0:0:0:0:
192,104,119636,2,0,L|264:60,7,75.0000028610231,8|0|0|0|8|0|0|0,0:0|0:0|0:0|0:0|0:0|0:0|0:0|0:0,0:0:0:0:
168,144,120208,5,12,0:0:0:0:
408,300,120351,1,0,0:0:0:0:
176,324,120494,1,8,0:0:0:0:
396,136,120636,1,0,0:0:0:0:
64,152,120779,2,0,P|160:236|208:248,1,150.000005722046,8|0,0:0|0:0,0:0:0:0:
456,64,121065,2,0,L|304:128,1,150.000005722046,8|0,0:0|0:0,0:0:0:0:
332,324,121351,5,8,0:0:0:0:
332,324,121494,1,0,0:0:0:0:
192,116,121636,1,8,0:0:0:0:
192,116,121779,1,0,0:0:0:0:
80,288,121922,5,10,0:0:0:0:
126,312,121994,1,8,0:0:0:0:
177,320,122065,1,8,0:0:0:0:
229,310,122136,1,8,0:0:0:0:
274,284,122208,1,0,0:0:0:0:
308,245,122279,1,0,0:0:0:0:
328,196,122351,1,0,0:0:0:0:
328,140,122422,1,0,0:0:0:0:
312,92,122494,6,0,L|260:32,1,75.0000028610231
28,48,122636,2,0,L|80:108,1,75.0000028610231
320,112,122779,2,0,L|272:44,1,75.0000028610231
40,64,122922,2,0,L|88:132,1,75.0000028610231
212,100,123065,5,8,0:0:0:0:
172,304,123208,1,0,0:0:0:0:
428,224,123351,1,8,0:0:0:0:
152,156,123494,1,0,0:0:0:0:
264,308,123636,6,0,P|308:324|364:312,7,75.0000028610231,8|0|0|0|8|0|0|0,0:0|0:0|0:0|0:0|0:0|0:0|0:0|0:0,0:0:0:0:
300,172,124208,2,0,P|256:156|200:168,3,75.0000028610231,8|0|0|0,0:0|0:0|0:0|0:0,0:0:0:0:
160,192,124494,5,12,0:0:0:0:
127,257,124565,1,4,0:0:0:0:
151,326,124636,1,4,0:0:0:0:
217,358,124708,1,4,0:0:0:0:
286,333,124779,5,12,0:0:0:0:
408,104,124922,1,0,0:0:0:0:
140,84,125065,1,8,0:0:0:0:
296,296,125208,1,0,0:0:0:0:
48,288,125351,2,0,L|200:156,1,150.000005722046,8|0,0:0|0:0,0:0:0:0:
480,96,125636,2,0,L|328:228,1,150.000005722046,8|0,0:0|0:0,0:0:0:0:
208,328,125922,5,8,0:0:0:0:
64,200,126065,1,0,0:0:0:0:
220,32,126208,2,0,B|196:112|196:112|256:224,1,150.000005722046,8|0,0:0|0:0,0:0:0:0:
344,324,126494,5,10,0:0:0:0:
385,292,126565,1,8,0:0:0:0:
411,247,126636,1,8,0:0:0:0:
417,195,126708,1,8,0:0:0:0:
402,145,126779,1,0,2:0:0:0:
368,105,126851,1,0,2:0:0:0:
322,81,126922,1,0,2:0:0:0:
270,78,126994,1,0,2:0:0:0:
220,92,127065,5,12,0:0:0:0:
136,228,127208,1,0,0:0:0:0:
24,28,127351,1,8,0:0:0:0:
16,232,127494,1,0,0:0:0:0:
300,292,127636,2,0,P|292:200|244:168,1,150.000005722046,8|0,0:0|0:0,0:0:0:0:
124,336,127922,1,8,0:0:0:0:
400,368,128065,1,0,0:0:0:0:
384,152,128208,6,0,P|348:96|296:84,7,75.0000028610231,8|0|0|0|8|0|0|0,0:0|0:0|0:0|0:0|0:0|0:0|0:0|0:0,0:0:0:0:
364,240,128779,1,8,0:0:0:0:
131,255,128922,1,0,0:0:0:0:
64,121,129065,2,0,L|136:265,1,150.000005722046,8|0,0:0|0:0,0:0:0:0:
420,352,129351,5,14,0:0:0:0:
369,338,129422,1,0,0:0:0:0:
326,309,129494,1,0,0:0:0:0:
305,262,129565,1,0,0:0:0:0:
304,209,129636,1,0,0:0:0:0:
302,157,129708,1,0,0:0:0:0:
280,110,129779,1,0,0:0:0:0:
236,83,129851,1,0,0:0:0:0:
216,132,129922,5,14,0:0:0:0:
203,197,129994,1,0,0:0:0:0:
229,258,130065,1,0,0:0:0:0:
285,294,130136,1,0,0:0:0:0:
351,291,130208,1,0,0:0:0:0:
405,252,130279,1,0,0:0:0:0:
427,189,130351,1,14,0:0:0:0:
409,125,130422,1,0,0:0:0:0:
356,100,130494,6,0,L|300:84,6,37.5000014305115,10|0|8|0|8|0|8,0:0|0:0|0:0|0:0|0:0|0:0|0:0,0:0:0:0:
220,156,130779,2,0,L|288:176,6,37.5000014305115,0|0|0|0|0|0|0,2:0|0:0|2:0|0:0|2:0|0:0|2:0,0:0:0:0:
352,200,131065,6,0,L|312:240,14,37.5000014305115,8|0|8|0|8|0|8|0|4|0|4|0|4|0|4,0:0|0:0|0:0|0:0|0:0|0:0|0:0|0:0|0:0|0:0|0:0|0:0|0:0|0:0|0:0,0:0:0:0:
424,240,131636,5,14,0:0:0:0:
256,192,131708,12,0,136208,0:0:0:0:
352,104,149922,5,8,0:0:0:0:
32,60,150494,1,8,0:0:0:0:
448,304,151065,6,0,B|388:320|388:320|304:296,1,150.000005722046,8|0,0:0|0:0,0:0:0:0:
96,184,151636,2,0,B|156:168|156:168|240:192,1,150.000005722046,8|0,0:0|0:0,0:0:0:0:
468,368,152208,6,0,L|420:220,1,150.000005722046,8|0,0:0|0:0,0:0:0:0:
180,30,152779,2,0,L|228:178,1,150.000005722046,8|0,0:0|0:0,0:0:0:0:
116,356,153351,5,8,0:0:0:0:
304,196,153922,1,8,0:0:0:0:
80,248,154208,1,8,0:0:0:0:
156,84,154494,5,8,0:0:0:0:
504,232,155065,1,8,0:0:0:0:
28,120,155636,2,0,P|44:212|92:256,1,150.000005722046,8|0,0:0|0:0,0:0:0:0:
304,368,156208,2,0,P|288:276|240:232,1,150.000005722046,8|0,0:0|0:0,0:0:0:0:
104,72,156779,5,8,0:0:0:0:
195,191,157065,2,0,L|91:55,2,150.000005722046,0|8|0,0:0|0:0|0:0,0:0:0:0:
132,324,157922,5,8,0:0:0:0:
376,324,158494,1,8,0:0:0:0:
140,160,158779,1,8,0:0:0:0:
140,160,158922,1,8,0:0:0:0:
140,160,159065,5,8,0:0:0:0:
392,80,159351,1,8,0:0:0:0:
252,308,159636,1,8,0:0:0:0:
280,68,159922,1,8,0:0:0:0:
380,336,160208,6,0,L|380:124,1,200,8|8,0:0|0:0,0:0:0:0:
196,232,160779,1,8,0:0:0:0:
344,80,161065,2,0,L|360:120,8,25,8|0|8|0|8|0|8|0|8,0:0|0:0|0:0|0:0|0:0|0:0|0:0|0:0|0:0,0:0:0:0:
144,300,161636,5,8,0:0:0:0:
368,364,161922,1,8,0:0:0:0:
360,144,162208,1,8,0:0:0:0:
104,256,162494,6,0,P|120:152|240:112,1,200,8|8,0:0|0:0,0:0:0:0:
496,296,163065,1,8,0:0:0:0:
392,112,163351,1,8,0:0:0:0:
328,300,163494,1,8,0:0:0:0:
332,252,163565,1,8,0:0:0:0:
336,200,163636,5,8,0:0:0:0:
124,292,163922,1,8,0:0:0:0:
112,100,164208,2,0,B|208:128|208:128|320:100,1,200,8|8,0:0|0:0,0:0:0:0:
208,44,164779,1,8,0:0:0:0:
260,312,165065,5,8,0:0:0:0:
56,192,165351,1,8,0:0:0:0:
152,56,165636,2,0,L|248:88,3,66.6666666666667,8|0|0|8,0:0|0:0|0:0|0:0,0:0:0:0:
108,332,166208,5,8,0:0:0:0:
468,128,166494,1,8,0:0:0:0:
308,352,166779,1,8,0:0:0:0:
108,124,167065,6,0,L|176:156,7,50,8|8|8|8|8|8|8|8,0:0|0:0|0:0|0:0|0:0|0:0|0:0|0:0,0:0:0:0:
280,72,167636,2,0,L|264:32,14,25,8|0|8|0|8|0|8|0|8|0|8|0|8|0|8,0:0|0:0|0:0|0:0|0:0|0:0|0:0|0:0|0:0|0:0|0:0|0:0|0:0|0:0|0:0,0:0:0:0:
288,104,168208,5,14,0:0:0:0:
332,232,168494,1,2,0:0:0:0:
72,120,168779,5,8,0:0:0:0:
368,320,168922,1,8,0:0:0:0:
80,280,169065,1,8,0:0:0:0:
372,132,169208,1,8,0:0:0:0:
212,120,169351,5,12,0:0:0:0:
204,276,169494,1,0,0:0:0:0:
252,264,169565,1,0,0:0:0:0:
300,256,169636,1,0,0:0:0:0:
308,48,169779,1,8,0:0:0:0:
496,60,169922,5,6,0:0:0:0:
420,316,170065,1,6,0:0:0:0:
180,96,170208,1,6,0:0:0:0:
420,200,170351,1,6,0:0:0:0:
268,344,170494,6,0,P|152:280|232:184,1,262.500010013581,14|0,0:0|0:0,0:0:0:0:
268,168,171065,5,8,0:0:0:0:
436,104,171208,1,8,0:0:0:0:
416,328,171351,1,8,0:0:0:0:
236,267,171494,1,8,0:0:0:0:
464,216,171636,1,12,0:0:0:0:
264,44,171779,5,12,0:0:0:0:
312,216,171922,1,0,0:0:0:0:
192,44,172065,5,8,0:0:0:0:
240,216,172208,1,8,0:0:0:0:
120,44,172351,5,8,0:0:0:0:
168,216,172494,1,8,0:0:0:0:
372,320,172636,1,8,0:0:0:0:
468,100,172779,6,0,B|471:148|471:148|444:191|444:191|380:207|380:207|332:179|332:179|312:138,1,262.500010013581,14|0,0:0|0:0,0:0:0:0:
292,76,173351,5,8,0:0:0:0:
168,288,173494,1,8,0:0:0:0:
440,300,173636,1,8,0:0:0:0:
292,76,173779,1,8,0:0:0:0:
48,128,173922,5,12,0:0:0:0:
96,324,174065,2,0,L|164:320,1,37.5000014305115
360,312,174208,5,0,0:0:0:0:
156,320,174351,1,8,0:0:0:0:
352,188,174494,5,6,0:0:0:0:
92,208,174636,1,6,0:0:0:0:
371,89,174779,5,6,0:0:0:0:
263,260,174922,1,6,0:0:0:0:
170,73,175065,5,6,0:0:0:0:
264,268,175208,1,6,0:0:0:0:
385,65,175351,5,6,0:0:0:0:
264,280,175494,1,6,0:0:0:0:
161,52,175636,5,6,0:0:0:0:
264,292,175779,1,6,0:0:0:0:
408,36,175922,5,6,0:0:0:0:
264,304,176065,1,6,0:0:0:0:
136,28,176208,6,0,B|132:128|132:128|212:228,1,220.000006713867,10|2,0:0|0:0,0:0:0:0:
376,356,176779,2,0,B|380:256|380:256|304:160,1,200,4|14,0:0|0:0,0:0:0:0:
96,228,177351,6,0,B|116:228|116:228|116:240|116:240|136:240|136:240|136:252|136:252|156:252|156:252|156:264|156:264|176:264|176:264|176:276|176:276|196:276|196:276|196:288|196:288|216:288|216:288|216:300|216:300|236:300|236:300|236:312|236:312|256:312|256:312|256:324|256:324|276:324,1,262.500010013581,14|0,0:0|0:0,0:0:0:0:
328,360,177922,5,8,0:0:0:0:
436,92,178065,1,8,0:0:0:0:
136,92,178208,1,8,0:0:0:0:
472,284,178351,1,8,0:0:0:0:
272,192,178494,5,12,0:0:0:0:
96,344,178636,1,0,0:0:0:0:
88,300,178708,1,0,0:0:0:0:
80,256,178779,1,0,0:0:0:0:
136,92,178922,1,8,0:0:0:0:
300,68,179065,5,6,0:0:0:0:
456,220,179208,1,6,0:0:0:0:
224,248,179351,1,6,0:0:0:0:
368,72,179494,1,6,0:0:0:0:
417,299,179636,6,0,B|385:291|349:203|401:151|401:151|409:87|357:67,1,262.500010013581,14|0,0:0|0:0,0:0:0:0:
300,60,180208,5,8,0:0:0:0:
320,312,180351,1,8,0:0:0:0:
88,180,180494,1,8,0:0:0:0:
272,60,180636,1,8,0:0:0:0:
288,312,180779,5,12,0:0:0:0:
56,180,180922,1,12,0:0:0:0:
288,240,181065,5,0,0:0:0:0:
56,112,181208,1,8,0:0:0:0:
160,352,181351,5,8,0:0:0:0:
364,92,181494,1,8,0:0:0:0:
56,248,181636,1,8,0:0:0:0:
256,52,181779,1,8,0:0:0:0:
40,276,181922,6,0,B|102:301|102:301|146:257|146:257|192:300|192:300|256:268,1,262.500010013581,14|0,0:0|0:0,0:0:0:0:
276,204,182494,5,8,0:0:0:0:
384,340,182636,1,8,0:0:0:0:
120,200,182779,1,8,0:0:0:0:
448,56,182922,1,8,0:0:0:0:
400,280,183065,5,12,0:0:0:0:
180,44,183208,1,0,0:0:0:0:
212,76,183279,1,0,0:0:0:0:
244,108,183351,1,0,0:0:0:0:
400,280,183494,1,8,0:0:0:0:
120,88,183636,6,0,L|200:176,1,100,6|6,0:0|0:0,0:0:0:0:
392,296,183922,2,0,L|312:208,1,100,6|6,0:0|0:0,0:0:0:0:
64,232,184208,5,6,0:0:0:0:
440,84,184351,1,6,0:0:0:0:
48,32,184494,5,6,0:0:0:0:
424,180,184636,1,6,0:0:0:0:
64,152,184779,5,6,0:0:0:0:
440,300,184922,1,6,0:0:0:0:
48,352,185065,5,6,0:0:0:0:
424,204,185208,1,6,0:0:0:0:
128,32,185351,5,10,0:0:0:0:
308,364,185494,1,0,0:0:0:0:
372,28,185636,5,2,0:0:0:0:
136,376,185779,1,0,0:0:0:0:
252,16,185922,5,4,0:0:0:0:
16,264,186065,1,4,0:0:0:0:
372,28,186208,5,14,0:0:0:0:
248,280,186351,1,0,0:0:0:0:
176,96,186494,6,0,P|224:196|360:176,1,262.500010013581,14|0,0:0|0:0,0:0:0:0:
404,128,187065,5,8,0:0:0:0:
348,288,187208,1,8,0:0:0:0:
276,116,187351,1,8,0:0:0:0:
472,256,187494,1,8,0:0:0:0:
172,300,187636,5,12,0:0:0:0:
80,100,187779,1,0,0:0:0:0:
100,140,187851,1,0,0:0:0:0:
120,180,187922,1,0,0:0:0:0:
172,300,188065,1,8,0:0:0:0:
372,312,188208,5,6,0:0:0:0:
396,72,188351,1,6,0:0:0:0:
200,240,188494,1,6,0:0:0:0:
68,24,188636,1,6,0:0:0:0:
304,24,188779,6,0,B|360:80|360:80|348:168,1,150.000005722046,14|2,0:0|0:0,0:0:0:0:
300,264,189208,5,0,0:0:0:0:
144,360,189351,1,8,0:0:0:0:
160,76,189494,5,8,0:0:0:0:
432,304,189636,1,8,0:0:0:0:
432,40,189779,5,8,0:0:0:0:
96,304,189922,1,12,0:0:0:0:
224,24,190065,5,12,0:0:0:0:
288,340,190208,1,0,0:0:0:0:
16,64,190351,5,8,0:0:0:0:
280,248,190494,1,8,0:0:0:0:
84,344,190636,5,8,0:0:0:0:
156,108,190779,1,8,0:0:0:0:
432,56,190922,1,8,0:0:0:0:
364,312,191065,6,0,B|364:284|364:284|336:284|336:284|336:256|336:256|308:256|308:256|308:228|308:228|280:228|280:228|280:200|280:200|252:200|252:200|252:160,1,262.500010013581,14|0,0:0|0:0,0:0:0:0:
252,92,191636,5,8,0:0:0:0:
72,316,191779,1,8,0:0:0:0:
356,156,191922,1,8,0:0:0:0:
52,180,192065,1,8,0:0:0:0:
364,336,192208,5,12,0:0:0:0:
128,56,192351,1,0,0:0:0:0:
212,340,192494,1,0,0:0:0:0:
332,24,192636,1,8,0:0:0:0:
457,201,192779,5,6,0:0:0:0:
419,273,192922,1,6,0:0:0:0:
87,230,193065,5,6,0:0:0:0:
59,139,193208,1,6,0:0:0:0:
220,20,193351,5,6,0:0:0:0:
288,92,193494,1,6,0:0:0:0:
204,288,193636,5,6,0:0:0:0:
280,180,193779,1,6,0:0:0:0:
500,100,193922,5,6,0:0:0:0:
500,272,194065,1,6,0:0:0:0:
216,372,194208,5,6,0:0:0:0:
112,152,194351,1,6,0:0:0:0:
428,104,194494,6,0,B|420:212|420:212|320:312,1,220.000006713867,10|2,0:0|0:0,0:0:0:0:
84,280,195065,2,0,B|92:172|92:172|176:80,1,200,10|2,0:0|0:0,0:0:0:0:
396,312,195636,6,0,B|464:268|464:268|440:240|440:200|464:172|464:172|396:128,1,262.500010013581,14|0,0:0|0:0,0:0:0:0:
332,108,196208,5,8,0:0:0:0:
120,328,196351,1,8,0:0:0:0:
128,88,196494,1,8,0:0:0:0:
316,352,196636,1,8,0:0:0:0:
240,48,196779,6,0,L|240:180,1,100,12|0,0:0|0:0,0:0:0:0:
240,312,197065,1,0,0:0:0:0:
432,236,197208,1,8,0:0:0:0:
140,148,197351,6,0,L|268:148,1,100,6|6,0:0|0:0,0:0:0:0:
460,144,197636,1,6,0:0:0:0:
240,312,197779,1,6,0:0:0:0:
60,52,197922,6,0,L|160:178,1,150.000005722046,14|8,0:0|0:0,0:0:0:0:
284,356,198208,5,2,0:0:0:0:
344,88,198351,1,0,0:0:0:0:
88,308,198494,5,8,0:0:0:0:
448,176,198636,1,8,0:0:0:0:
188,32,198779,5,8,0:0:0:0:
392,316,198922,1,8,0:0:0:0:
92,144,199065,5,12,0:0:0:0:
240,368,199208,1,12,0:0:0:0:
416,64,199351,5,0,0:0:0:0:
20,320,199494,1,8,0:0:0:0:
4,48,199636,5,8,0:0:0:0:
164,196,199779,1,8,0:0:0:0:
164,48,199922,1,8,0:0:0:0:
8,196,200065,1,8,0:0:0:0:
144,372,200208,6,0,B|156:372|156:372|155:364|155:364|164:364|164:364|164:356|164:356|172:356|172:356|172:348|172:348|180:348|180:348|180:340|180:340|188:340|188:340|187:332|187:332|196:332|196:332|196:324|196:324|204:324|204:324|300:316|304:220,1,262.500010013581,14|0,0:0|0:0,0:0:0:0:
308,160,200779,1,8,0:0:0:0:
177,328,200922,5,8,0:0:0:0:
334,55,201065,1,8,0:0:0:0:
334,328,201208,5,8,0:0:0:0:
177,55,201351,1,12,0:0:0:0:
413,191,201494,5,0,0:0:0:0:
98,192,201636,1,0,0:0:0:0:
144,302,201779,5,8,0:0:0:0:
366,79,201922,1,6,0:0:0:0:
296,343,202065,5,6,0:0:0:0:
215,39,202208,1,6,0:0:0:0:
407,231,202351,5,6,0:0:0:0:
103,151,202494,1,6,0:0:0:0:
408,360,202636,5,6,0:0:0:0:
280,40,202779,1,6,0:0:0:0:
64,360,202922,1,6,0:0:0:0:
356,120,203065,1,6,0:0:0:0:
28,76,203208,5,6,0:0:0:0:
344,328,203351,1,6,0:0:0:0:
184,88,203494,1,6,0:0:0:0:
152,360,203636,1,10,0:0:0:0:
364,96,203779,5,0,0:0:0:0:
272,368,203922,1,2,0:0:0:0:
28,192,204065,1,0,0:0:0:0:
432,112,204208,1,4,0:0:0:0:
232,280,204351,5,12,0:0:0:0:
112,68,204494,1,14,0:0:0:0:
464,232,204636,1,12,0:0:0:0:
160,280,204779,5,10,0:0:0:0:
360,40,205922,5,10,0:0:0:0:
8,208,207065,5,10,0:0:0:0:
500,320,208208,5,10,0:0:0:0:
164,12,209351,5,10,0:0:0:0:
344,336,209922,1,10,0:0:0:0:
12,236,210494,5,10,0:0:0:0:
432,84,211065,1,10,0:0:0:0:
144,296,211636,5,10,0:0:0:0:
304,72,211922,1,10,0:0:0:0:
388,320,212208,1,10,0:0:0:0:
104,108,212494,1,10,0:0:0:0:
76,276,212779,5,10,0:0:0:0:
292,156,212922,1,10,0:0:0:0:
76,276,213065,1,10,0:0:0:0:
52,52,213208,1,10,0:0:0:0:
220,14,213351,5,10,0:0:0:0:
233,41,213422,1,10,0:0:0:0:
252,65,213493,1,10,0:0:0:0:
278,85,213565,1,10,0:0:0:0:
306,97,213636,1,10,0:0:0:0:
338,103,213708,1,10,0:0:0:0:
369,100,213779,1,10,0:0:0:0:
399,91,213851,1,10,0:0:0:0:
426,74,213922,5,10,0:0:0:0:
466,44,213993,1,10,0:0:0:0:
492,81,214064,1,10,0:0:0:0:
508,122,214136,1,10,0:0:0:0:
512,167,214207,1,2,0:0:0:0:
504,210,214279,1,2,0:0:0:0:
484,251,214350,1,2,0:0:0:0:
454,285,214422,1,2,0:0:0:0:
416,310,214494,5,2,0:0:0:0:
412,256,214565,1,2,0:0:0:0:
395,204,214636,1,2,0:0:0:0:
366,159,214708,1,2,0:0:0:0:
326,122,214779,1,10,0:0:0:0:
281,95,214851,1,10,0:0:0:0:
228,81,214922,1,10,0:0:0:0:
174,78,214994,1,10,0:0:0:0:
122,90,215065,6,0,L|92:108,30,25,14|0|14|0|14|0|14|0|14|0|0|0|14|0|0|0|14|0|14|0|14|0|14|0|6|0|6|0|6|0|6,0:0|0:0|0:0|0:0|0:0|0:0|0:0|0:0|0:0|0:0|0:0|0:0|0:0|0:0|0:0|0:0|0:0|0:0|0:0|0:0|0:0|0:0|0:0|0:0|0:0|0:0|0:0|0:0|0:0|0:0|0:0,0:0:0:0:
230,220,216208,2,0,L|249:182,22,33.3333333333333,12|0|0|12|0|0|12|0|0|12|0|0|12|0|0|12|0|0|12|0|0|12|0,0:0|0:0|0:0|0:0|0:0|0:0|0:0|0:0|0:0|0:0|0:0|0:0|0:0|0:0|0:0|0:0|0:0|0:0|0:0|0:0|0:0|0:0|0:0,0:0:0:0:
226,240,217351,5,6,0:0:0:0:
368,356,217494,1,8,0:0:0:0:
76,240,217636,1,4,0:0:0:0:
416,144,217779,1,8,0:0:0:0:
88,48,217922,2,0,B|148:124|148:124|216:160,1,150.000005722046,4|8,0:0|0:0,0:0:0:0:
424,336,218208,2,0,B|364:260|364:260|296:224,1,150.000005722046,4|8,0:0|0:0,0:0:0:0:
104,320,218494,5,6,0:0:0:0:
56,152,218636,1,8,0:0:0:0:
276,108,218779,1,6,0:0:0:0:
332,332,218922,1,8,0:0:0:0:
460,164,219065,2,0,L|312:52,1,150.000005722046,6|8,0:0|0:0,0:0:0:0:
56,152,219351,2,0,L|204:264,1,150.000005722046,4|8,0:0|0:0,0:0:0:0:
420,372,219636,5,6,0:0:0:0:
272,164,219779,1,8,0:0:0:0:
124,328,219922,1,4,0:0:0:0:
224,108,220065,1,8,0:0:0:0:
328,320,220208,2,0,P|208:272|200:228,1,150.000005722046,4|8,0:0|0:0,0:0:0:0:
76,84,220494,2,0,L|224:108,1,150.000005722046,4|8,0:0|0:0,0:0:0:0:
440,228,220779,5,14,0:0:0:0:
430,286,220850,1,8,0:0:0:0:
391,330,220921,1,8,0:0:0:0:
333,344,220993,1,8,0:0:0:0:
278,325,221064,1,0,0:0:0:0:
242,278,221136,1,0,0:0:0:0:
238,219,221207,1,0,0:0:0:0:
267,167,221279,1,0,0:0:0:0:
325,140,221351,5,4,0:0:0:0:
317,183,221422,1,4,0:0:0:0:
289,219,221493,1,4,0:0:0:0:
248,236,221565,1,4,0:0:0:0:
204,231,221636,1,12,0:0:0:0:
167,207,221708,1,0,0:0:0:0:
146,168,221779,1,0,0:0:0:0:
146,123,221851,1,0,0:0:0:0:
168,84,221922,5,6,0:0:0:0:
428,308,222065,1,8,0:0:0:0:
432,96,222208,1,4,0:0:0:0:
164,332,222351,1,8,0:0:0:0:
260,64,222494,2,0,L|344:200,1,150.000005722046,4|8,0:0|0:0,0:0:0:0:
188,308,222779,2,0,P|120:256|116:172,1,150.000005722046,4|8,0:0|0:0,0:0:0:0:
468,64,223065,5,6,0:0:0:0:
352,324,223208,1,8,0:0:0:0:
184,144,223351,1,6,0:0:0:0:
472,208,223494,1,8,0:0:0:0:
176,336,223636,2,0,B|252:336|252:336|320:264,1,150.000005722046,6|8,0:0|0:0,0:0:0:0:
328,64,223922,2,0,B|252:64|252:64|184:136,1,150.000005722046,4|8,0:0|0:0,0:0:0:0:
302,282,224208,5,6,0:0:0:0:
136,152,224351,1,8,0:0:0:0:
440,152,224494,1,4,0:0:0:0:
168,324,224636,1,8,0:0:0:0:
380,88,224779,1,4,0:0:0:0:
168,324,224922,1,8,0:0:0:0:
26,58,225065,2,0,P|38:158|102:198,1,150.000005722046,4|8,0:0|0:0,0:0:0:0:
340,356,225351,5,14,0:0:0:0:
395,336,225422,1,8,0:0:0:0:
429,288,225493,1,8,0:0:0:0:
429,229,225565,1,8,0:0:0:0:
395,181,225636,1,0,0:0:0:0:
339,161,225708,1,0,0:0:0:0:
283,178,225779,1,0,0:0:0:0:
246,224,225851,1,0,0:0:0:0:
216,276,225922,5,4,0:0:0:0:
177,310,225993,1,4,0:0:0:0:
126,323,226064,1,4,0:0:0:0:
76,312,226136,1,4,0:0:0:0:
36,279,226207,1,12,0:0:0:0:
16,231,226279,1,4,0:0:0:0:
20,179,226350,1,4,0:0:0:0:
47,135,226422,1,4,0:0:0:0:
92,108,226493,5,6,0:0:0:0:
327,171,226636,1,8,0:0:0:0:
256,340,226779,1,4,0:0:0:0:
188,152,226922,1,8,0:0:0:0:
36,344,227065,2,0,L|224:300,1,150.000005722046,4|8,0:0|0:0,0:0:0:0:
474,137,227351,2,0,L|286:181,1,150.000005722046,4|8,0:0|0:0,0:0:0:0:
120,328,227636,5,6,0:0:0:0:
296,96,227779,1,8,0:0:0:0:
436,324,227922,1,6,0:0:0:0:
140,152,228065,1,8,0:0:0:0:
436,324,228208,2,0,P|428:200|400:176,1,150.000005722046,6|8,0:0|0:0,0:0:0:0:
100,152,228494,2,0,L|172:304,1,150.000005722046,4|8,0:0|0:0,0:0:0:0:
436,324,228779,5,6,0:0:0:0:
352,100,228922,1,8,0:0:0:0:
104,316,229065,1,4,0:0:0:0:
196,56,229208,1,8,0:0:0:0:
312,336,229351,2,0,P|376:276|384:200,1,150.000005722046,4|8,0:0|0:0,0:0:0:0:
56,120,229636,2,0,L|208:164,1,150.000005722046,4|8,0:0|0:0,0:0:0:0:
452,240,229922,5,14,0:0:0:0:
459,291,229993,1,8,0:0:0:0:
439,338,230064,1,8,0:0:0:0:
396,367,230136,1,8,0:0:0:0:
344,369,230207,1,0,0:0:0:0:
299,342,230279,1,0,0:0:0:0:
276,296,230350,1,0,0:0:0:0:
280,245,230422,1,0,0:0:0:0:
312,204,230493,5,4,0:0:0:0:
338,168,230565,1,4,0:0:0:0:
345,124,230636,1,4,0:0:0:0:
331,81,230708,1,4,0:0:0:0:
300,50,230779,1,12,0:0:0:0:
258,36,230851,1,4,0:0:0:0:
216,44,230922,1,4,0:0:0:0:
178,70,230994,1,4,0:0:0:0:
158,110,231065,5,6,0:0:0:0:
252,300,231208,1,8,0:0:0:0:
452,108,231351,1,4,0:0:0:0:
116,296,231494,1,8,0:0:0:0:
376,308,231636,2,0,L|388:148,1,150.000005722046,4|8,0:0|0:0,0:0:0:0:
136,76,231922,2,0,L|124:236,1,150.000005722046,4|8,0:0|0:0,0:0:0:0:
392,92,232208,5,6,0:0:0:0:
480,352,232351,1,8,0:0:0:0:
356,84,232494,1,6,0:0:0:0:
72,148,232636,1,8,0:0:0:0:
168,364,232779,2,0,L|276:252,1,150.000005722046,6|8,0:0|0:0,0:0:0:0:
344,20,233065,2,0,L|236:132,1,150.000005722046,4|8,0:0|0:0,0:0:0:0:
104,264,233351,5,6,0:0:0:0:
464,120,233494,1,8,0:0:0:0:
92,232,233636,1,4,0:0:0:0:
480,148,233779,1,8,0:0:0:0:
172,40,233922,5,4,0:0:0:0:
416,244,234065,1,8,0:0:0:0:
176,332,234208,1,4,0:0:0:0:
296,80,234351,1,8,0:0:0:0:
56,152,234494,5,14,0:0:0:0:
25,210,234565,1,8,0:0:0:0:
34,276,234636,1,8,0:0:0:0:
79,325,234708,1,8,0:0:0:0:
144,339,234779,1,0,0:0:0:0:
205,313,234851,1,0,0:0:0:0:
240,257,234922,1,0,0:0:0:0:
236,190,234994,1,0,0:0:0:0:
224,124,235065,5,4,0:0:0:0:
205,172,235136,1,4,0:0:0:0:
215,223,235207,1,4,0:0:0:0:
251,260,235279,1,4,0:0:0:0:
301,273,235350,1,12,0:0:0:0:
350,258,235422,1,4,0:0:0:0:
384,218,235493,1,4,0:0:0:0:
391,167,235565,1,4,0:0:0:0:
370,120,235636,5,6,0:0:0:0:
200,304,235779,1,8,0:0:0:0:
120,112,235922,1,4,0:0:0:0:
460,324,236065,1,8,0:0:0:0:
491,56,236208,2,0,B|443:116|443:116|355:120,1,150.000005722046,4|8,0:0|0:0,0:0:0:0:
44,224,236494,2,0,B|92:284|92:284|180:288,1,150.000005722046,4|8,0:0|0:0,0:0:0:0:
420,304,236779,5,6,0:0:0:0:
196,128,236922,1,8,0:0:0:0:
480,168,237065,1,6,0:0:0:0:
165,287,237208,1,8,0:0:0:0:
64,80,237351,2,0,P|124:176|188:216,1,150.000005722046,6|8,0:0|0:0,0:0:0:0:
448,304,237636,2,0,P|388:208|324:168,1,150.000005722046,4|8,0:0|0:0,0:0:0:0:
92,328,237922,5,6,0:0:0:0:
264,64,238065,1,8,0:0:0:0:
324,320,238208,1,4,0:0:0:0:
152,116,238351,1,8,0:0:0:0:
452,304,238494,2,0,L|352:176,1,150.000005722046,4|8,0:0|0:0,0:0:0:0:
72,256,238779,2,0,P|164:264|228:188,1,150.000005722046,4|8,0:0|0:0,0:0:0:0:
352,56,239065,5,14,0:0:0:0:
381,89,239136,1,8,0:0:0:0:
395,131,239207,1,8,0:0:0:0:
391,176,239279,1,8,0:0:0:0:
369,215,239350,1,0,0:0:0:0:
334,241,239422,1,0,0:0:0:0:
290,252,239493,1,0,0:0:0:0:
246,243,239565,1,0,0:0:0:0:
209,218,239636,5,4,0:0:0:0:
268,222,239707,1,4,0:0:0:0:
319,192,239778,1,4,0:0:0:0:
345,138,239850,1,4,0:0:0:0:
336,80,239921,1,12,0:0:0:0:
296,36,239993,1,4,0:0:0:0:
239,22,240064,1,4,0:0:0:0:
183,43,240136,1,4,0:0:0:0:
144,88,240208,5,6,0:0:0:0:
384,228,240351,1,8,0:0:0:0:
92,336,240494,1,4,0:0:0:0:
428,116,240636,1,8,0:0:0:0:
188,336,240779,2,0,L|188:152,1,150.000005722046,4|8,0:0|0:0,0:0:0:0:
428,116,241065,2,0,P|428:236|396:276,1,150.000005722046,4|8,0:0|0:0,0:0:0:0:
168,336,241351,5,6,0:0:0:0:
364,180,241494,1,8,0:0:0:0:
156,72,241636,1,6,0:0:0:0:
168,336,241779,1,8,0:0:0:0:
32,152,241922,2,0,P|104:200|216:204,1,150.000005722046,6|8,0:0|0:0,0:0:0:0:
479,48,242208,2,0,L|419:200,1,150.000005722046,4|8,0:0|0:0,0:0:0:0:
280,352,242494,5,6,0:0:0:0:
288,80,242636,1,8,0:0:0:0:
88,296,242779,1,4,0:0:0:0:
448,260,242922,1,8,0:0:0:0:
80,88,243065,1,4,0:0:0:0:
372,344,243208,1,8,0:0:0:0:
424,16,243351,2,0,P|376:100|320:116,1,150.000005722046,4|8,0:0|0:0,0:0:0:0:
86,159,243636,5,14,0:0:0:0:
76,211,243707,1,8,0:0:0:0:
95,261,243778,1,8,0:0:0:0:
136,293,243850,1,8,0:0:0:0:
189,298,243921,1,0,0:0:0:0:
238,275,243993,1,0,0:0:0:0:
265,229,244064,1,0,0:0:0:0:
265,176,244136,1,0,0:0:0:0:
263,123,244208,5,4,0:0:0:0:
317,85,244279,1,4,0:0:0:0:
383,83,244350,1,4,0:0:0:0:
439,119,244422,1,4,0:0:0:0:
465,180,244493,1,12,0:0:0:0:
452,245,244565,1,4,0:0:0:0:
406,292,244636,1,4,0:0:0:0:
341,305,244708,1,4,0:0:0:0:
279,280,244779,5,6,0:0:0:0:
156,104,244922,1,8,0:0:0:0:
406,292,245065,1,4,0:0:0:0:
32,240,245208,1,8,0:0:0:0:
406,292,245351,2,0,L|351:144,1,150.000005722046,4|8,0:0|0:0,0:0:0:0:
88,79,245636,2,0,L|144:228,1,150.000005722046,4|8,0:0|0:0,0:0:0:0:
384,364,245922,5,6,0:0:0:0:
120,312,246065,1,8,0:0:0:0:
376,160,246208,1,6,0:0:0:0:
160,24,246351,1,8,0:0:0:0:
8,176,246494,2,0,L|160:228,1,150.000005722046,6|8,0:0|0:0,0:0:0:0:
392,280,246779,2,0,P|496:188|504:144,1,150.000005722046,4|8,0:0|0:0,0:0:0:0:
149,224,247065,5,6,0:0:0:0:
456,340,247208,1,8,0:0:0:0:
432,64,247351,1,4,0:0:0:0:
145,204,247494,1,8,0:0:0:0:
427,372,247636,1,4,0:0:0:0:
451,96,247779,1,8,0:0:0:0:
145,204,247922,2,0,P|180:104|236:88,1,150.000005722046,4|8,0:0|0:0,0:0:0:0:
432,64,248208,5,14,0:0:0:0:
455,118,248279,1,8,0:0:0:0:
446,176,248350,1,8,0:0:0:0:
407,221,248422,1,8,0:0:0:0:
350,237,248493,1,0,0:0:0:0:
293,220,248565,1,0,0:0:0:0:
255,176,248636,1,0,0:0:0:0:
246,117,248708,1,0,0:0:0:0:
280,68,248779,5,4,0:0:0:0:
267,110,248850,1,4,0:0:0:0:
276,154,248921,1,4,0:0:0:0:
303,190,248993,1,4,0:0:0:0:
342,210,249064,1,12,0:0:0:0:
387,210,249136,1,4,0:0:0:0:
427,190,249207,1,4,0:0:0:0:
454,154,249279,1,4,0:0:0:0:
462,110,249351,5,6,0:0:0:0:
352,312,249494,1,8,0:0:0:0:
328,24,249636,1,4,0:0:0:0:
108,176,249779,1,8,0:0:0:0:
352,312,249922,2,0,L|188:264,1,150.000005722046,4|8,0:0|0:0,0:0:0:0:
160,72,250208,2,0,L|324:120,1,150.000005722046,4|8,0:0|0:0,0:0:0:0:
208,269,250494,5,6,0:0:0:0:
448,136,250636,1,12,0:0:0:0:
372,336,250779,2,0,L|336:164,1,150.000005722046,6|8,0:0|0:0,0:0:0:0:
144,112,251065,1,6,0:0:0:0:
280,324,251208,1,8,0:0:0:0:
21,197,251351,2,0,L|174:90,1,150.000005722046,4|8,0:0|0:0,0:0:0:0:
464,180,251636,5,6,0:0:0:0:
160,340,251779,1,8,0:0:0:0:
352,76,251922,1,4,0:0:0:0:
404,328,252065,1,8,0:0:0:0:
208,32,252208,1,4,0:0:0:0:
480,360,252351,1,8,0:0:0:0:
504,56,252494,1,4,0:0:0:0:
132,20,252636,1,8,0:0:0:0:
8,300,252779,5,14,0:0:0:0:
58,352,252850,1,8,0:0:0:0:
132,357,252921,1,8,0:0:0:0:
189,311,252993,1,8,0:0:0:0:
200,238,253064,5,0,0:0:0:0:
200,158,253136,1,0,0:0:0:0:
255,98,253207,1,0,0:0:0:0:
335,91,253279,1,0,0:0:0:0:
416,112,253351,2,0,P|436:120|460:136,14,37.5000014305115,4|0|4|0|4|0|4|0|12|0|6|0|6|0|0,0:0|0:0|0:0|0:0|0:0|0:0|0:0|0:0|0:0|0:0|0:0|0:0|0:0|0:0|0:0,0:0:0:0:
460,146,253922,1,0,0:0:0:0:
256,192,259351,12,0,260636,0:0:0:0:
144,80,260779,5,0,0:0:0:0:
396,272,260922,1,0,0:0:0:0:
120,332,261065,2,0,L|264:208,1,150.000005722046,0|0,0:0|0:0,0:0:0:0:
392,52,261351,2,0,L|248:176,1,150.000005722046,0|0,0:0|0:0,0:0:0:0:
120,332,261636,1,0,0:0:0:0:
88,64,261779,1,0,0:0:0:0:
340,304,261922,5,0,0:0:0:0:
432,108,262065,1,0,0:0:0:0:
96,184,262208,1,0,0:0:0:0:
288,348,262351,1,0,0:0:0:0:
432,108,262494,2,0,L|296:220,1,150.000005722046
104,368,262779,1,0,0:0:0:0:
12,96,262922,1,0,0:0:0:0:
224,368,263065,6,0,L|348:264,1,150.000005722046,0|0,0:0|0:0,0:0:0:0:
128,228,263351,1,0,0:0:0:0:
432,144,263494,1,0,0:0:0:0:
128,20,263636,2,0,B|116:92|116:92|176:148,1,150.000005722046
384,364,263922,2,0,B|396:292|396:292|336:236,1,150.000005722046
56,224,264208,5,0,0:0:0:0:
388,72,264351,1,0,0:0:0:0:
216,340,264494,1,0,0:0:0:0:
256,72,264636,1,0,0:0:0:0:
421,328,264779,2,0,P|475:280|472:208,1,150.000005722046
84,372,265065,1,0,0:0:0:0:
408,20,265208,1,0,0:0:0:0:
312,342,265351,6,0,P|360:254|348:186,1,150.000005722046,0|0,0:0|0:0,0:0:0:0:
104,120,265636,1,0,0:0:0:0:
355,207,265779,1,0,0:0:0:0:
112,340,265922,1,0,0:0:0:0:
240,60,266065,1,0,0:0:0:0:
360,324,266208,2,0,L|456:192,1,150.000005722046,0|0,0:0|0:0,0:0:0:0:
80,128,266494,5,0,0:0:0:0:
124,328,266636,1,0,0:0:0:0:
216,76,266779,1,0,0:0:0:0:
52,352,266922,1,0,0:0:0:0:
352,264,267065,2,0,L|384:96,1,150.000005722046,0|0,0:0|0:0,0:0:0:0:
40,76,267351,2,0,P|60:156|152:200,1,150.000005722046,0|0,0:0|0:0,0:0:0:0:
400,332,267636,5,0,0:0:0:0:
140,336,267779,1,0,0:0:0:0:
456,160,267922,1,0,0:0:0:0:
120,304,268065,1,0,0:0:0:0:
344,44,268208,1,0,0:0:0:0:
100,268,268351,1,0,0:0:0:0:
112,44,268494,2,0,L|272:144,1,150.000005722046,0|0,0:0|0:0,0:0:0:0:
332,360,268779,5,0,0:0:0:0:
88,180,268922,1,0,0:0:0:0:
452,104,269065,2,0,P|404:224|368:232,1,150.000005722046
128,332,269351,1,0,1:0:0:0:
56,32,269494,1,0,0:0:0:0:
212,256,269636,6,0,P|308:204|280:168,1,150,0|0,2:0|0:0,0:0:0:0:
296,168,269922,1,0,0:0:0:0:
64,248,270065,5,0,0:0:0:0:
360,348,270208,1,0,0:0:0:0:
400,88,270351,1,0,0:0:0:0:
136,240,270494,1,0,0:0:0:0:
452,368,270636,1,0,0:0:0:0:
504,40,270779,2,0,L|472:232,1,150.000005722046,0|0,0:0|0:0,0:0:0:0:
132,344,271065,6,0,P|208:332|252:252,1,150.000005722046
96,128,271351,1,0,0:0:0:0:
400,280,271494,1,0,0:0:0:0:
296,76,271636,1,0,0:0:0:0:
112,320,271779,1,0,0:0:0:0:
408,360,271922,1,0,0:0:0:0:
364,80,272065,1,0,0:0:0:0:
16,56,272208,6,0,P|36:132|124:188,1,150.000005722046,0|0,0:0|0:0,0:0:0:0:
248,356,272494,1,0,0:0:0:0:
88,176,272636,1,0,0:0:0:0:
12,368,272779,1,0,0:0:0:0:
392,152,272922,1,0,0:0:0:0:
96,52,273065,1,0,0:0:0:0:
128,360,273208,1,0,0:0:0:0:
424,332,273351,6,0,P|464:236|432:152,1,150.000005722046,0|0,0:0|0:0,0:0:0:0:
120,256,273636,2,0,L|200:112,1,150.000005722046,0|0,0:0|0:0,0:0:0:0:
432,32,273922,5,0,0:0:0:0:
408,87,273993,1,0,0:0:0:0:
384,142,274064,1,0,0:0:0:0:
361,197,274136,1,0,0:0:0:0:
336,252,274208,5,0,0:0:0:0:
294,292,274279,1,0,0:0:0:0:
237,286,274350,1,8,0:0:0:0:
206,237,274422,1,0,0:0:0:0:
212,176,274494,6,0,P|280:136|368:208,1,150.000005722046,0|0,0:0|0:0,0:0:0:0:
208,336,274779,1,0,0:0:0:0:
148,64,274922,1,0,0:0:0:0:
480,132,275065,1,0,0:0:0:0:
82,222,275208,1,0,0:0:0:0:
300,80,275351,2,0,L|376:220,1,150.000005722046,0|0,0:0|0:0,0:0:0:0:
88,352,275636,6,0,L|256:268,1,150.000005722046,0|0,0:0|0:0,0:0:0:0:
448,180,275922,1,0,0:0:0:0:
120,72,276065,1,0,0:0:0:0:
332,280,276208,2,0,P|372:152|348:96,1,150.000005722046,0|0,0:0|0:0,0:0:0:0:
68,280,276494,1,0,0:0:0:0:
369,141,276636,1,0,0:0:0:0:
179,323,276779,5,0,0:0:0:0:
331,59,276922,1,0,0:0:0:0:
123,115,277065,1,0,0:0:0:0:
387,267,277208,1,0,0:0:0:0:
76,294,277351,5,0,0:0:0:0:
152,12,277494,1,0,0:0:0:0:
433,88,277636,1,0,0:0:0:0:
358,369,277779,1,0,0:0:0:0:
56,212,277922,5,0,0:0:0:0:
70,155,277993,1,0,0:0:0:0:
103,105,278064,1,0,0:0:0:0:
150,69,278136,1,0,0:0:0:0:
207,50,278207,5,8,0:0:0:0:
267,52,278279,1,0,0:0:0:0:
323,73,278350,1,8,0:0:0:0:
368,111,278422,1,0,0:0:0:0:
404,160,278494,6,0,L|432:228,14,37.5000014305115,10|0|0|0|0|0|0|0|10|0|0|0|0|0|0,0:0|0:0|0:0|0:0|0:0|0:0|0:0|0:0|0:0|0:0|0:0|0:0|0:0|0:0|0:0,0:0:0:0:
428,224,279065,5,4,0:0:0:0:
240,356,279208,1,0,0:0:0:0:
84,120,279351,1,4,0:0:0:0:
240,356,279494,1,0,0:0:0:0:
128,60,279636,1,4,0:0:0:0:
464,132,279779,1,0,0:0:0:0:
124,320,279922,1,4,0:0:0:0:
16,34,280065,6,0,P|40:130|104:154,1,150.000005722046,0|4,0:0|0:0,0:0:0:0:
340,340,280351,1,0,0:0:0:0:
368,60,280494,2,0,P|312:160|236:180,1,150.000005722046,4|0,0:0|0:0,0:0:0:0:
16,244,280779,1,4,0:0:0:0:
180,64,280922,1,0,0:0:0:0:
200,360,281065,1,4,0:0:0:0:
436,152,281208,1,0,0:0:0:0:
236,16,281351,5,4,0:0:0:0:
136,248,281494,1,0,0:0:0:0:
376,360,281636,2,0,P|364:276|288:232,1,150.000005722046,4|0,0:0|0:0,0:0:0:0:
114,121,281922,1,4,0:0:0:0:
384,80,282065,1,0,0:0:0:0:
504,280,282208,1,4,0:0:0:0:
244,364,282351,6,0,P|236:284|180:208,1,150.000005722046,0|4,0:0|0:0,0:0:0:0:
104,96,282636,1,0,0:0:0:0:
399,215,282779,1,4,0:0:0:0:
36,324,282922,1,0,0:0:0:0:
370,358,283065,2,0,P|402:226|378:162,1,150.000005722046,4|0,0:0|0:0,0:0:0:0:
12,184,283351,2,0,L|196:140,1,150.000005722046,4|4,0:0|0:0,0:0:0:0:
420,76,283636,5,4,0:0:0:0:
260,328,283779,1,0,0:0:0:0:
508,180,283922,1,4,0:0:0:0:
208,28,284065,1,0,0:0:0:0:
88,336,284208,2,0,L|256:244,1,150.000005722046,4|0,0:0|0:0,0:0:0:0:
72,96,284494,1,4,0:0:0:0:
328,216,284636,1,0,0:0:0:0:
72,312,284779,5,4,0:0:0:0:
236,84,284922,1,0,0:0:0:0:
416,328,285065,2,0,P|472:228|448:160,1,150.000005722046,4|0,0:0|0:0,0:0:0:0:
192,336,285351,1,4,0:0:0:0:
392,88,285494,1,0,0:0:0:0:
88,28,285636,2,0,P|132:128|224:152,1,150.000005722046,4|0,0:0|0:0,0:0:0:0:
360,344,285922,5,4,0:0:0:0:
96,248,286065,1,0,0:0:0:0:
324,64,286208,1,4,0:0:0:0:
188,352,286351,1,0,0:0:0:0:
440,80,286494,2,0,B|413:149|413:149|340:200,1,150.000005722046,4|0,0:0|0:0,0:0:0:0:
104,332,286779,1,4,0:0:0:0:
232,84,286922,1,0,0:0:0:0:
268,316,287065,5,4,0:0:0:0:
132,24,287208,1,0,0:0:0:0:
8,232,287351,2,0,P|72:280|176:264,1,150.000005722046,4|0,0:0|0:0,0:0:0:0:
400,376,287636,5,6,0:0:0:0:
429,324,287707,1,0,0:0:0:0:
436,264,287778,1,0,0:0:0:0:
419,207,287850,1,0,0:0:0:0:
382,160,287921,5,0,0:0:0:0:
330,132,287993,1,0,0:0:0:0:
271,125,288064,1,0,0:0:0:0:
214,142,288136,1,0,0:0:0:0:
180,192,288208,5,4,0:0:0:0:
504,236,288351,1,4,0:0:0:0:
392,20,288494,2,0,P|276:96|208:88,1,150.000005722046,4|0,0:0|0:0,0:0:0:0:
36,192,288779,1,4,0:0:0:0:
320,280,288922,1,0,0:0:0:0:
136,80,289065,1,4,0:0:0:0:
424,88,289208,6,0,P|380:192|296:208,1,150.000005722046,0|4,0:0|0:0,0:0:0:0:
192,352,289494,1,0,0:0:0:0:
36,192,289636,1,4,0:0:0:0:
256,72,289779,1,0,0:0:0:0:
232,352,289922,1,4,0:0:0:0:
32,152,290065,1,0,0:0:0:0:
76,352,290208,2,0,L|224:276,1,150.000005722046,4|0,0:0|0:0,0:0:0:0:
32,72,290494,6,0,P|128:188|172:192,1,150.000005722046,4|0,0:0|0:0,0:0:0:0:
468,264,290779,1,4,0:0:0:0:
209,283,290922,1,0,0:0:0:0:
244,32,291065,1,4,0:0:0:0:
372,304,291208,1,0,0:0:0:0:
156,324,291351,5,4,0:0:0:0:
156,324,291423,1,0,0:0:0:0:
156,324,291494,2,0,P|72:312|76:108,1,300.000011444092,0|0,0:0|0:0,0:0:0:0:
304,252,291922,1,4,0:0:0:0:
112,28,292065,1,0,0:0:0:0:
188,232,292208,2,0,L|220:268,6,37.5000014305115
224,72,292494,2,0,L|272:48,6,37.5000014305115,0|0|0|0|8|0|0,0:0|0:0|0:0|0:0|0:0|0:0|0:0,0:0:0:0:
212,96,292779,5,4,0:0:0:0:
144,316,292922,1,4,0:0:0:0:
420,256,293065,2,0,B|401:181|401:181|317:149,1,150.000005722046,4|0,0:0|0:0,0:0:0:0:
80,356,293351,1,4,0:0:0:0:
333,155,293494,1,0,0:0:0:0:
96,96,293636,1,4,0:0:0:0:
280,316,293779,1,0,0:0:0:0:
216,24,293922,5,4,0:0:0:0:
468,244,294065,1,0,0:0:0:0:
72,168,294208,2,0,P|172:244|244:216,1,150.000005722046,4|0,0:0|0:0,0:0:0:0:
432,84,294494,1,4,0:0:0:0:
336,324,294636,1,0,0:0:0:0:
51,295,294779,2,0,P|143:275|207:219,1,150.000005722046,4|0,0:0|0:0,0:0:0:0:
320,48,295065,5,6,0:0:0:0:
371,53,295136,1,0,0:0:0:0:
414,83,295207,1,0,0:0:0:0:
437,129,295279,1,0,0:0:0:0:
435,181,295350,1,4,0:0:0:0:
409,226,295422,1,0,0:0:0:0:
364,252,295493,1,0,0:0:0:0:
312,254,295565,1,0,0:0:0:0:
266,230,295636,5,4,0:0:0:0:
292,291,295707,1,0,0:0:0:0:
347,329,295778,1,0,0:0:0:0:
413,333,295850,1,0,0:0:0:0:
472,301,295921,1,0,0:0:0:0:
505,243,295993,1,0,0:0:0:0:
502,176,296064,1,0,0:0:0:0:
465,121,296136,1,0,0:0:0:0:
404,92,296208,6,0,L|336:68,6,37.5000014305115,4|0|0|0|0|0|0,0:0|0:0|0:0|0:0|0:0|0:0|0:0,0:0:0:0:
256,184,296494,2,0,L|280:136,6,37.5000014305115,8|0|0|0|8|0|0,0:0|0:0|0:0|0:0|0:0|0:0|0:0,0:0:0:0:
408,216,296779,2,0,L|376:160,14,37.5000014305115,14|0|0|0|0|0|0|0|10|0|8|0|8|0|8,0:0|0:0|0:0|0:0|0:0|0:0|0:0|0:0|0:0|0:0|0:0|0:0|0:0|0:0|0:0,0:0:0:0:
400,248,297351,5,6,0:0:0:0:
176,312,297494,1,0,0:0:0:0:
72,64,297636,2,0,P|104:184|172:216,1,150.000005722046,6|0,0:0|0:0,0:0:0:0:
416,360,297922,1,6,0:0:0:0:
216,136,298065,1,0,0:0:0:0:
504,56,298208,1,6,0:0:0:0:
256,368,298351,1,0,0:0:0:0:
344,72,298494,5,6,0:0:0:0:
116,332,298636,1,0,0:0:0:0:
404,328,298779,2,0,P|432:244|376:192,1,150.000005722046,6|0,0:0|0:0,0:0:0:0:
116,116,299065,1,6,0:0:0:0:
336,364,299208,1,0,0:0:0:0:
48,328,299351,2,0,L|224:288,1,150.000005722046,12|0,0:0|0:0,0:0:0:0:
340,36,299636,6,0,L|248:200,1,150.000005722046,6|0,0:0|0:0,0:0:0:0:
144,376,299922,1,6,0:0:0:0:
92,96,300065,1,0,0:0:0:0:
456,128,300208,1,6,0:0:0:0:
56,256,300351,1,0,0:0:0:0:
436,56,300494,1,6,0:0:0:0:
92,320,300636,1,0,0:0:0:0:
392,352,300779,6,0,P|408:240|388:196,1,150.000005722046,6|0,0:0|0:0,0:0:0:0:
188,48,301065,1,6,0:0:0:0:
395,208,301208,1,0,0:0:0:0:
56,176,301351,2,0,P|100:296|152:320,1,150.000005722046,6|2,0:0|0:0,0:0:0:0:
456,160,301636,1,12,0:0:0:0:
124,152,301779,1,8,0:0:0:0:
368,300,301922,6,0,L|436:156,1,150.000005722046,6|0,0:0|0:0,0:0:0:0:
196,152,302208,1,6,0:0:0:0:
304,360,302351,1,0,0:0:0:0:
328,40,302494,1,6,0:0:0:0:
24,240,302636,1,0,0:0:0:0:
448,364,302779,2,0,B|456:284|456:284|416:208,1,150.000005722046,6|0,0:0|0:0,0:0:0:0:
144,336,303065,5,6,0:0:0:0:
104,24,303208,1,0,0:0:0:0:
320,236,303351,1,6,0:0:0:0:
16,340,303494,1,0,0:0:0:0:
40,100,303636,2,0,P|148:152|192:136,1,150.000005722046,6|0,0:0|0:0,0:0:0:0:
456,72,303922,2,0,L|384:232,1,150.000005722046,12|0,0:0|0:0,0:0:0:0:
24,232,304208,6,0,P|92:168|192:144,1,150.000005722046,6|0,0:0|0:0,0:0:0:0:
368,340,304494,1,6,0:0:0:0:
88,368,304636,1,0,0:0:0:0:
76,88,304779,1,6,0:0:0:0:
368,340,304922,1,0,0:0:0:0:
456,68,305065,2,0,L|296:96,1,150.000005722046,6|0,0:0|0:0,0:0:0:0:
32,256,305351,5,6,0:0:0:0:
308,93,305494,1,0,0:0:0:0:
340,368,305636,1,6,0:0:0:0:
484,132,305779,1,0,0:0:0:0:
232,316,305922,6,0,P|128:288|272:216,1,350
280,196,306494,1,14,0:0:0:0:
20,124,306636,5,0,0:0:0:0:
368,208,306779,1,6,0:0:0:0:
116,332,306922,1,0,0:0:0:0:
240,64,307065,2,0,L|392:112,1,150.000005722046,6|0,0:0|0:0,0:0:0:0:
40,264,307351,1,6,0:0:0:0:
356,360,307494,1,0,0:0:0:0:
56,68,307636,5,6,0:0:0:0:
196,360,307779,1,0,0:0:0:0:
224,48,307922,2,0,P|272:116|268:204,1,150.000005722046,6|0,0:0|0:0,0:0:0:0:
96,356,308208,1,6,0:0:0:0:
444,224,308351,1,0,0:0:0:0:
84,260,308494,2,0,B|88:180|88:180|152:112,1,150.000005722046,12|0,0:0|0:0,0:0:0:0:
428,124,308779,6,0,B|424:204|424:204|360:272,1,150.000005722046,6|0,0:0|0:0,0:0:0:0:
84,260,309065,1,6,0:0:0:0:
428,124,309208,1,0,0:0:0:0:
135,129,309351,1,6,0:0:0:0:
376,254,309494,1,0,0:0:0:0:
16,296,309636,1,6,0:0:0:0:
364,148,309779,1,0,0:0:0:0:
236,340,309922,6,0,L|156:168,1,150.000005722046,6|0,0:0|0:0,0:0:0:0:
500,208,310208,1,6,0:0:0:0:
88,344,310351,1,0,0:0:0:0:
288,44,310494,2,0,P|372:112|400:196,1,150.000005722046,6|0,0:0|0:0,0:0:0:0:
160,332,310779,1,14,0:0:0:0:
48,64,310922,1,0,0:0:0:0:
392,336,311065,6,0,P|436:272|404:176,1,150.000005722046,6|0,0:0|0:0,0:0:0:0:
144,296,311351,1,6,0:0:0:0:
328,60,311494,1,0,0:0:0:0:
272,364,311636,1,6,0:0:0:0:
56,136,311779,1,0,0:0:0:0:
432,348,311922,1,6,0:0:0:0:
248,88,312065,1,0,0:0:0:0:
76,328,312208,6,0,L|276:320,1,150.000005722046,6|0,0:0|0:0,0:0:0:0:
120,12,312494,2,0,L|128:212,1,150.000005722046,6|0,0:0|0:0,0:0:0:0:
436,56,312779,2,0,L|236:64,1,150.000005722046,6|0,0:0|0:0,0:0:0:0:
392,372,313065,2,0,L|384:172,1,150.000005722046,12|0,0:0|0:0,0:0:0:0:
112,292,313351,5,6,0:0:0:0:
216,72,313494,1,0,0:0:0:0:
408,296,313636,1,6,0:0:0:0:
92,272,313779,5,0,0:0:0:0:
196,52,313922,1,6,0:0:0:0:
388,276,314064,1,0,0:0:0:0:
68,256,314208,5,6,0:0:0:0:
172,36,314351,1,0,0:0:0:0:
364,260,314493,5,6,0:0:0:0:
28,344,314636,1,0,0:0:0:0:
424,84,314779,5,6,0:0:0:0:
232,372,314922,1,0,0:0:0:0:
84,20,315065,5,2,0:0:0:0:
484,188,315208,1,0,0:0:0:0:
32,216,315351,5,0,0:0:0:0:
352,20,315494,1,0,0:0:0:0:
400,376,315636,1,10,0:0:0:0:
256,192,315708,12,0,317779,0:0:0:0:
256,192,317922,5,8,0:0:0:0:
256,192,317994,12,8,320065,0:0:0:0:
256,192,320208,5,8,0:0:0:0:
256,192,320279,12,0,322208,0:0:0:0:
256,192,322494,5,0,0:1:0:0:
100,92,322779,1,0,0:0:0:0:
312,348,323065,2,0,P|384:204|344:136,1,150.000005722046,0|0,0:0|0:0,0:0:0:0:
72,292,323636,5,0,0:0:0:0:
228,128,323922,2,0,L|144:76,2,75.0000028610231
420,248,324494,1,2,0:1:0:0:
136,320,324779,6,0,P|136:212|176:196,1,150.000005722046,0|0,0:1|0:0,0:0:0:0:
376,64,325351,2,0,P|376:172|336:188,1,150.000005722046,0|0,0:0|0:0,0:0:0:0:
108,296,325922,5,0,0:0:0:0:
96,112,326208,2,0,P|64:70|55:46,2,75.0000028610231
276,172,326779,1,2,0:1:0:0:
96,356,327065,6,0,L|140:184,1,150.000005722046,0|0,0:0|0:0,0:0:0:0:
412,52,327636,1,0,0:0:0:0:
308,364,327922,1,0,0:0:0:0:
108,144,328208,5,0,0:0:0:0:
404,228,328494,1,0,0:0:0:0:
404,228,328636,1,0,0:0:0:0:
404,228,328779,1,0,0:0:0:0:
96,324,329065,1,2,0:1:0:0:
180,80,329351,5,0,0:0:0:0:
316,352,329636,2,0,L|196:248,1,150.000005722046,0|0,0:0|0:0,0:0:0:0:
360,72,330208,1,0,0:0:0:0:
202,253,330494,5,0,0:0:0:0:
396,288,330779,2,0,L|464:344,2,75.0000028610231,0|0|0,0:0|0:0|0:0,0:0:0:0:
224,156,331351,1,2,0:1:0:0:
368,16,331636,5,0,0:0:0:0:
252,312,331922,2,0,P|336:312|392:264,2,150.000005722046,0|0|0,0:0|0:0|0:0,0:0:0:0:
72,136,332779,5,0,0:0:0:0:
304,128,333065,1,0,0:0:0:0:
420,60,333208,1,0,0:0:0:0:
420,195,333351,1,0,0:0:0:0:
112,260,333636,5,2,0:1:0:0:
