osu file format v14

[General]
AudioFilename: C18H27NO3.mp3
AudioLeadIn: 0
PreviewTime: 89184
Countdown: 0
SampleSet: None
StackLeniency: 0.7
Mode: 3
LetterboxInBreaks: 0
EpilepsyWarning: 1
SpecialStyle: 1
WidescreenStoryboard: 1

[Editor]
DistanceSpacing: 1
BeatDivisor: 8
GridSize: 4
TimelineZoom: 2.699999

[Metadata]
Title:C18H27NO3
TitleUnicode:C18H27NO3
Artist:Team Grimoire
ArtistUnicode:Team Grimoire
Creator:[Shana Lesus]
Version:7K INFINITE
Source:SOUND VOLTEX II -infinite infection-
Tags:ikin5050 sir_ryv julie -bakari- freezebear murutattack kuo_kyoka nowsmart moph lunatic_raccoon p_a_n alexey ajiekceu de-cade darksider2442 arviejhay schwarzvgrune capsaicin sdvx booth bemani floor pop'n music sunny park
BeatmapID:909218
BeatmapSetID:223370

[Difficulty]
HPDrainRate:8
CircleSize:8
OverallDifficulty:8
ApproachRate:5
SliderMultiplier:1.4
SliderTickRate:1

[Events]
//Background and Video events
0,0,"c18h27no3.jpg",0,0
//Break Periods
//Storyboard Layer 0 (Background)
//Storyboard Layer 1 (Fail)
//Storyboard Layer 2 (Pass)
//Storyboard Layer 3 (Foreground)
//Storyboard Sound Samples

[TimingPoints]
1184,285.714285714286,4,2,1,50,1,0
2326,-125,4,2,1,50,0,0
11469,-111.111111111111,4,2,1,50,0,0
17755,-100,4,2,1,50,0,0
20612,-66.6666666666667,4,2,1,50,0,0
20755,-83.3333333333333,4,2,1,50,0,0
20898,-100,4,2,1,50,0,0
21041,-125,4,2,1,50,0,0
21184,-133.333333333333,4,2,1,50,0,0
21326,-66.6666666666667,4,2,1,50,0,0
21684,-400,4,2,1,50,0,0
21755,-100,4,2,1,50,0,1
30326,-100,4,2,1,50,0,0
30612,-66.6666666666667,4,2,1,50,0,0
30826,-400,4,2,1,50,0,0
30898,-100,4,2,1,50,0,1
40041,-100,4,2,1,50,0,0
48612,-66.6666666666667,4,2,1,50,0,0
48826,-400,4,2,1,50,0,0
48898,-66.6666666666667,4,2,1,50,0,0
49112,-400,4,2,1,50,0,0
49184,-100,4,2,1,50,0,0
56041,-66.6666666666667,4,2,1,50,0,0
56255,-400,4,2,1,50,0,0
56326,-66.6666666666667,4,2,1,50,0,0
56541,-400,4,2,1,50,0,0
56612,-66.6666666666667,4,2,1,50,0,0
56826,-400,4,2,1,50,0,0
56898,-66.6666666666667,4,2,1,50,0,0
57112,-400,4,2,1,50,0,0
57184,-66.6666666666667,4,2,1,50,0,0
57398,-400,4,2,1,50,0,0
57469,-66.6666666666667,4,2,1,50,0,0
57684,-400,4,2,1,50,0,0
57755,-66.6666666666667,4,2,1,50,0,0
57969,-400,4,2,1,50,0,0
58041,-100,4,2,1,50,0,0
89184,-100,4,2,1,50,0,1
92612,-83.3333333333333,4,2,1,50,0,0
92898,-133.333333333333,4,2,1,50,0,0
93184,-100,4,2,1,50,0,0
93755,-100,4,2,1,50,0,1
97184,-100,4,2,1,50,0,0
97469,-133.333333333333,4,2,1,50,0,0
98041,-100,4,2,1,50,0,0
98326,-100,4,2,1,50,0,1
101755,-100,4,2,1,50,0,0
102898,-100,4,2,1,50,0,1
106898,-90.9090909090909,4,2,1,50,0,1
107041,-76.9230769230769,4,2,1,50,0,1
107184,-66.6666666666667,4,2,1,50,0,1
107398,-400,4,2,1,50,0,1
107469,-100,4,2,1,50,0,0

[HitObjects]
96,192,2326,5,0,0:0:0:1:
32,192,2326,1,0,0:0:0:1:
288,192,2326,1,0,0:0:0:1:
480,192,2612,1,0,0:0:0:1:
352,192,2898,1,0,0:0:0:1:
160,192,2898,1,0,0:0:0:1:
96,192,3184,1,0,0:0:0:1:
480,192,3469,1,0,0:0:0:1:
224,192,3469,1,0,0:0:0:1:
480,192,3755,1,0,0:0:0:1:
416,192,3898,1,0,0:0:0:1:
288,192,4041,1,0,0:0:0:1:
160,192,4041,1,0,0:0:0:1:
96,192,4326,1,0,0:0:0:1:
352,192,4612,1,0,0:0:0:1:
160,192,4612,1,0,0:0:0:1:
480,192,4898,1,0,0:0:0:1:
288,192,5184,1,0,0:0:0:1:
96,192,5184,1,0,0:0:0:1:
160,192,5469,1,0,0:0:0:1:
352,192,5755,1,0,0:0:0:1:
224,192,5755,1,0,0:0:0:1:
416,192,6041,1,0,0:0:0:1:
480,192,6184,1,0,0:0:0:1:
352,192,6326,1,0,0:0:0:1:
96,192,6326,1,0,0:0:0:1:
288,192,6612,1,0,0:0:0:1:
352,192,6898,1,0,0:0:0:1:
160,192,6898,1,0,0:0:0:1:
416,192,7184,1,0,0:0:0:1:
480,192,7469,1,0,0:0:0:1:
224,192,7469,1,0,0:0:0:1:
96,192,7755,1,0,0:0:0:1:
416,192,8041,1,0,0:0:0:1:
224,192,8041,1,0,0:0:0:1:
416,192,8326,1,0,0:0:0:1:
352,192,8469,1,0,0:0:0:1:
288,192,8612,1,0,0:0:0:1:
96,192,8612,1,0,0:0:0:1:
160,192,8898,1,0,0:0:0:1:
352,192,9184,1,0,0:0:0:1:
224,192,9184,1,0,0:0:0:1:
416,192,9469,1,0,0:0:0:1:
352,192,9755,1,0,0:0:0:1:
160,192,9755,1,0,0:0:0:1:
224,192,10041,1,0,0:0:0:1:
288,192,10326,1,0,0:0:0:1:
96,192,10326,1,0,0:0:0:1:
416,192,10612,1,0,0:0:0:1:
480,192,10755,1,0,0:0:0:1:
352,192,10898,1,0,0:0:0:1:
224,192,10898,1,0,0:0:0:1:
160,192,11184,1,0,0:0:0:1:
352,192,11469,1,0,0:0:0:1:
32,192,11469,1,0,0:0:0:1:
96,192,11469,1,0,0:0:0:1:
288,192,11469,1,0,0:0:0:1:
480,192,11755,1,0,0:0:0:1:
416,192,12041,1,0,0:0:0:1:
224,192,12041,1,0,0:0:0:1:
288,192,12326,1,0,0:0:0:1:
96,192,12326,1,0,0:0:0:1:
480,192,12612,1,0,0:0:0:1:
288,192,12612,1,0,0:0:0:1:
416,192,12898,1,0,0:0:0:1:
288,192,12898,1,0,0:0:0:1:
352,192,13041,1,0,0:0:0:1:
224,192,13041,1,0,0:0:0:1:
288,192,13184,1,0,0:0:0:1:
160,192,13184,1,0,0:0:0:1:
224,192,13469,1,0,0:0:0:1:
96,192,13469,1,0,0:0:0:1:
480,192,13755,1,0,0:0:0:1:
160,192,13755,1,0,0:0:0:1:
416,192,14041,1,0,0:0:0:1:
224,192,14041,1,0,0:0:0:1:
352,192,14326,1,0,0:0:0:1:
160,192,14326,1,0,0:0:0:1:
224,192,14612,1,0,0:0:0:1:
96,192,14612,1,0,0:0:0:1:
480,192,14898,1,0,0:0:0:1:
224,192,14898,1,0,0:0:0:1:
288,192,15184,1,0,0:0:0:1:
160,192,15184,1,0,0:0:0:1:
416,192,15326,1,0,0:0:0:1:
288,192,15326,1,0,0:0:0:1:
288,192,15469,1,0,0:0:0:1:
160,192,15469,1,0,0:0:0:1:
224,192,15755,1,0,0:0:0:1:
96,192,15755,1,0,0:0:0:1:
480,192,16041,1,0,0:0:0:1:
352,192,16041,1,0,0:0:0:1:
160,192,16041,1,0,0:0:0:1:
288,192,16326,1,0,0:0:0:1:
352,192,16612,1,0,0:0:0:1:
224,192,16612,1,0,0:0:0:1:
96,192,16898,1,0,0:0:0:1:
480,192,17184,1,0,0:0:0:1:
288,192,17184,1,0,0:0:0:1:
352,192,17469,1,0,0:0:0:1:
224,192,17612,1,0,0:0:0:1:
480,192,17755,1,0,0:0:0:1:
416,192,17755,1,0,0:0:0:1:
96,192,17755,1,0,0:0:0:1:
224,192,18041,1,0,0:0:0:1:
96,192,18041,1,0,0:0:0:1:
480,192,18326,1,0,0:0:0:1:
288,192,18326,1,0,0:0:0:1:
160,192,18326,1,0,0:0:0:1:
352,192,18612,1,0,0:0:0:1:
224,192,18612,1,0,0:0:0:1:
288,192,18898,1,0,0:0:0:1:
160,192,18898,1,0,0:0:0:1:
480,192,19184,1,0,0:0:0:1:
224,192,19184,1,0,0:0:0:1:
96,192,19184,1,0,0:0:0:1:
416,192,19326,1,0,0:0:0:1:
352,192,19469,1,0,0:0:0:1:
480,192,19469,1,0,0:0:0:1:
96,192,19469,1,0,0:0:0:1:
224,192,19469,1,0,0:0:0:1:
416,192,19755,1,0,0:0:0:1:
288,192,19755,1,0,0:0:0:1:
160,192,19755,1,0,0:0:0:1:
480,192,19898,1,0,0:0:0:1:
352,192,19898,1,0,0:0:0:1:
224,192,19898,1,0,0:0:0:1:
416,192,20041,1,0,0:0:0:1:
288,192,20041,1,0,0:0:0:1:
160,192,20041,1,0,0:0:0:1:
416,192,20326,1,0,0:0:0:1:
224,192,20326,1,0,0:0:0:1:
96,192,20326,1,0,0:0:0:1:
32,192,20612,128,0,21148:0:0:0:1:
32,192,21184,1,0,0:0:0:1:
352,192,21755,1,0,0:0:0:1:
416,192,21755,1,0,0:0:0:1:
96,192,21755,1,0,0:0:0:1:
224,192,21755,1,0,0:0:0:1:
288,192,21898,1,0,0:0:0:1:
160,192,21898,1,0,0:0:0:1:
352,192,22041,1,0,0:0:0:1:
416,192,22041,1,0,0:0:0:1:
96,192,22041,1,0,0:0:0:1:
224,192,22041,1,0,0:0:0:1:
288,192,22184,1,0,0:0:0:1:
160,192,22184,1,0,0:0:0:1:
480,192,22326,1,0,0:0:0:1:
352,192,22326,1,0,0:0:0:1:
224,192,22326,1,0,0:0:0:1:
416,192,22469,1,0,0:0:0:1:
288,192,22469,1,0,0:0:0:1:
352,192,22612,1,0,0:0:0:1:
480,192,22612,1,0,0:0:0:1:
160,192,22612,1,0,0:0:0:1:
288,192,22612,1,0,0:0:0:1:
224,192,22755,1,0,0:0:0:1:
96,192,22755,1,0,0:0:0:1:
352,192,22898,1,0,0:0:0:1:
416,192,22898,1,0,0:0:0:1:
96,192,22898,1,0,0:0:0:1:
224,192,22898,1,0,0:0:0:1:
288,192,23041,1,0,0:0:0:1:
160,192,23041,1,0,0:0:0:1:
352,192,23184,1,0,0:0:0:1:
416,192,23184,1,0,0:0:0:1:
96,192,23184,1,0,0:0:0:1:
224,192,23184,1,0,0:0:0:1:
288,192,23326,1,0,0:0:0:1:
160,192,23326,1,0,0:0:0:1:
480,192,23469,1,0,0:0:0:1:
352,192,23469,1,0,0:0:0:1:
224,192,23469,1,0,0:0:0:1:
416,192,23612,1,0,0:0:0:1:
288,192,23612,1,0,0:0:0:1:
352,192,23755,1,0,0:0:0:1:
480,192,23755,1,0,0:0:0:1:
160,192,23755,1,0,0:0:0:1:
288,192,23755,1,0,0:0:0:1:
352,192,24041,1,0,0:0:0:1:
416,192,24041,1,0,0:0:0:1:
96,192,24041,1,0,0:0:0:1:
224,192,24041,1,0,0:0:0:1:
288,192,24184,1,0,0:0:0:1:
160,192,24184,1,0,0:0:0:1:
352,192,24326,1,0,0:0:0:1:
416,192,24326,1,0,0:0:0:1:
96,192,24326,1,0,0:0:0:1:
224,192,24326,1,0,0:0:0:1:
288,192,24469,1,0,0:0:0:1:
160,192,24469,1,0,0:0:0:1:
480,192,24612,1,0,0:0:0:1:
352,192,24612,1,0,0:0:0:1:
224,192,24612,1,0,0:0:0:1:
416,192,24755,1,0,0:0:0:1:
288,192,24755,1,0,0:0:0:1:
352,192,24898,1,0,0:0:0:1:
480,192,24898,1,0,0:0:0:1:
160,192,24898,1,0,0:0:0:1:
288,192,24898,1,0,0:0:0:1:
224,192,25041,1,0,0:0:0:1:
96,192,25041,1,0,0:0:0:1:
352,192,25184,1,0,0:0:0:1:
416,192,25184,1,0,0:0:0:1:
96,192,25184,1,0,0:0:0:1:
224,192,25184,1,0,0:0:0:1:
288,192,25326,1,0,0:0:0:1:
160,192,25326,1,0,0:0:0:1:
352,192,25469,1,0,0:0:0:1:
416,192,25469,1,0,0:0:0:1:
96,192,25469,1,0,0:0:0:1:
224,192,25469,1,0,0:0:0:1:
288,192,25612,1,0,0:0:0:1:
160,192,25612,1,0,0:0:0:1:
480,192,25755,1,0,0:0:0:1:
352,192,25755,1,0,0:0:0:1:
224,192,25755,1,0,0:0:0:1:
416,192,25898,1,0,0:0:0:1:
288,192,25898,1,0,0:0:0:1:
352,192,26041,1,0,0:0:0:1:
480,192,26041,1,0,0:0:0:1:
160,192,26041,1,0,0:0:0:1:
288,192,26041,1,0,0:0:0:1:
352,192,26326,1,0,0:0:0:1:
416,192,26326,1,0,0:0:0:1:
96,192,26326,1,0,0:0:0:1:
224,192,26326,1,0,0:0:0:1:
288,192,26469,1,0,0:0:0:1:
160,192,26469,1,0,0:0:0:1:
416,192,26612,1,0,0:0:0:1:
480,192,26612,1,0,0:0:0:1:
96,192,26612,1,0,0:0:0:1:
224,192,26612,1,0,0:0:0:1:
288,192,26755,1,0,0:0:0:1:
160,192,26755,1,0,0:0:0:1:
480,192,26898,1,0,0:0:0:1:
352,192,26898,1,0,0:0:0:1:
224,192,26898,1,0,0:0:0:1:
416,192,27041,1,0,0:0:0:1:
288,192,27041,1,0,0:0:0:1:
160,192,27041,1,0,0:0:0:1:
352,192,27184,1,0,0:0:0:1:
480,192,27184,1,0,0:0:0:1:
96,192,27184,1,0,0:0:0:1:
224,192,27184,1,0,0:0:0:1:
416,192,27326,1,0,0:0:0:1:
288,192,27326,1,0,0:0:0:1:
352,192,27469,1,0,0:0:0:1:
416,192,27469,1,0,0:0:0:1:
96,192,27469,1,0,0:0:0:1:
224,192,27469,1,0,0:0:0:1:
288,192,27612,1,0,0:0:0:1:
160,192,27612,1,0,0:0:0:1:
416,192,27755,1,0,0:0:0:1:
480,192,27755,1,0,0:0:0:1:
96,192,27755,1,0,0:0:0:1:
224,192,27755,1,0,0:0:0:1:
288,192,27898,1,0,0:0:0:1:
160,192,27898,1,0,0:0:0:1:
480,192,28041,1,0,0:0:0:1:
352,192,28041,1,0,0:0:0:1:
224,192,28041,1,0,0:0:0:1:
416,192,28184,1,0,0:0:0:1:
288,192,28184,1,0,0:0:0:1:
160,192,28184,1,0,0:0:0:1:
352,192,28326,1,0,0:0:0:1:
480,192,28326,1,0,0:0:0:1:
96,192,28326,1,0,0:0:0:1:
224,192,28326,1,0,0:0:0:1:
352,192,28612,1,0,0:0:0:1:
416,192,28612,1,0,0:0:0:1:
96,192,28612,1,0,0:0:0:1:
224,192,28612,1,0,0:0:0:1:
288,192,28755,1,0,0:0:0:1:
160,192,28755,1,0,0:0:0:1:
416,192,28898,1,0,0:0:0:1:
480,192,28898,1,0,0:0:0:1:
96,192,28898,1,0,0:0:0:1:
224,192,28898,1,0,0:0:0:1:
288,192,29041,1,0,0:0:0:1:
160,192,29041,1,0,0:0:0:1:
480,192,29184,1,0,0:0:0:1:
352,192,29184,1,0,0:0:0:1:
224,192,29184,1,0,0:0:0:1:
416,192,29326,1,0,0:0:0:1:
288,192,29326,1,0,0:0:0:1:
160,192,29326,1,0,0:0:0:1:
352,192,29469,1,0,0:0:0:1:
480,192,29469,1,0,0:0:0:1:
96,192,29469,1,0,0:0:0:1:
224,192,29469,1,0,0:0:0:1:
416,192,29612,1,0,0:0:0:1:
288,192,29612,1,0,0:0:0:1:
352,192,29755,1,0,0:0:0:1:
416,192,29755,1,0,0:0:0:1:
96,192,29755,1,0,0:0:0:1:
224,192,29755,1,0,0:0:0:1:
288,192,29898,1,0,0:0:0:1:
160,192,29898,1,0,0:0:0:1:
416,192,30041,1,0,0:0:0:1:
480,192,30041,1,0,0:0:0:1:
96,192,30041,1,0,0:0:0:1:
224,192,30041,1,0,0:0:0:1:
288,192,30184,1,0,0:0:0:1:
160,192,30184,1,0,0:0:0:1:
480,192,30326,1,0,0:0:0:1:
352,192,30326,1,0,0:0:0:1:
224,192,30326,1,0,0:0:0:1:
288,192,30469,1,0,0:0:0:1:
416,192,30612,1,0,0:0:0:1:
96,192,30612,1,0,0:0:0:1:
416,192,30898,1,0,0:0:0:1:
480,192,30898,1,0,0:0:0:1:
288,192,30898,1,0,0:0:0:1:
352,192,30898,1,0,0:0:0:1:
160,192,31041,1,0,0:0:0:1:
416,192,31184,1,0,0:0:0:1:
352,192,31184,1,0,0:0:0:1:
224,192,31184,1,0,0:0:0:1:
160,192,31326,1,0,0:0:0:1:
416,192,31469,1,0,0:0:0:1:
288,192,31469,1,0,0:0:0:1:
96,192,31469,1,0,0:0:0:1:
160,192,31612,1,0,0:0:0:1:
416,192,31755,1,0,0:0:0:1:
224,192,31755,1,0,0:0:0:1:
96,192,31755,1,0,0:0:0:1:
480,192,31898,1,0,0:0:0:1:
288,192,31898,1,0,0:0:0:1:
352,192,32041,1,0,0:0:0:1:
160,192,32041,1,0,0:0:0:1:
416,192,32184,1,0,0:0:0:1:
288,192,32184,1,0,0:0:0:1:
96,192,32184,1,0,0:0:0:1:
224,192,32326,1,0,0:0:0:1:
160,192,32326,1,0,0:0:0:1:
480,192,32469,1,0,0:0:0:1:
352,192,32469,1,0,0:0:0:1:
96,192,32469,1,0,0:0:0:1:
416,192,32612,1,0,0:0:0:1:
288,192,32612,1,0,0:0:0:1:
96,192,32612,1,0,0:0:0:1:
160,192,32755,1,0,0:0:0:1:
352,192,32898,1,0,0:0:0:1:
224,192,32898,1,0,0:0:0:1:
96,192,32898,1,0,0:0:0:1:
96,192,33041,1,0,0:0:0:1:
416,192,33184,1,0,0:0:0:1:
288,192,33184,1,0,0:0:0:1:
224,192,33184,1,0,0:0:0:1:
160,192,33326,1,0,0:0:0:1:
480,192,33469,1,0,0:0:0:1:
352,192,33469,1,0,0:0:0:1:
288,192,33469,1,0,0:0:0:1:
160,192,33612,1,0,0:0:0:1:
416,192,33755,1,0,0:0:0:1:
288,192,33755,1,0,0:0:0:1:
96,192,33755,1,0,0:0:0:1:
160,192,33898,1,0,0:0:0:1:
416,192,34041,1,0,0:0:0:1:
224,192,34041,1,0,0:0:0:1:
96,192,34041,1,0,0:0:0:1:
480,192,34184,1,0,0:0:0:1:
352,192,34184,1,0,0:0:0:1:
288,192,34326,1,0,0:0:0:1:
480,192,34469,1,0,0:0:0:1:
352,192,34469,1,0,0:0:0:1:
224,192,34469,1,0,0:0:0:1:
288,192,34612,1,0,0:0:0:1:
224,192,34612,1,0,0:0:0:1:
416,192,34755,1,0,0:0:0:1:
352,192,34755,1,0,0:0:0:1:
160,192,34755,1,0,0:0:0:1:
352,192,34898,1,0,0:0:0:1:
32,192,34898,1,0,0:0:0:1:
96,192,34898,1,0,0:0:0:1:
288,192,34898,1,0,0:0:0:1:
160,192,35041,1,0,0:0:0:1:
480,192,35184,1,0,0:0:0:1:
352,192,35184,1,0,0:0:0:1:
224,192,35184,1,0,0:0:0:1:
32,192,35469,1,0,0:0:0:1:
416,192,35469,1,0,0:0:0:1:
224,192,35469,1,0,0:0:0:1:
288,192,35469,1,0,0:0:0:1:
160,192,35612,1,0,0:0:0:1:
480,192,35755,1,0,0:0:0:1:
352,192,35755,1,0,0:0:0:1:
224,192,35755,1,0,0:0:0:1:
160,192,35898,1,0,0:0:0:1:
416,192,36041,1,0,0:0:0:1:
288,192,36041,1,0,0:0:0:1:
96,192,36041,1,0,0:0:0:1:
160,192,36184,1,0,0:0:0:1:
480,192,36326,1,0,0:0:0:1:
288,192,36326,1,0,0:0:0:1:
224,192,36326,1,0,0:0:0:1:
416,192,36469,1,0,0:0:0:1:
352,192,36469,1,0,0:0:0:1:
480,192,36612,1,0,0:0:0:1:
32,192,36612,1,0,0:0:0:1:
288,192,36612,1,0,0:0:0:1:
416,192,36755,1,0,0:0:0:1:
352,192,36755,1,0,0:0:0:1:
224,192,36755,1,0,0:0:0:1:
288,192,36898,1,0,0:0:0:1:
224,192,36898,1,0,0:0:0:1:
480,192,37041,1,0,0:0:0:1:
352,192,37041,1,0,0:0:0:1:
160,192,37041,1,0,0:0:0:1:
416,192,37184,1,0,0:0:0:1:
288,192,37184,1,0,0:0:0:1:
96,192,37184,1,0,0:0:0:1:
160,192,37326,1,0,0:0:0:1:
352,192,37469,1,0,0:0:0:1:
288,192,37469,1,0,0:0:0:1:
224,192,37469,1,0,0:0:0:1:
416,192,37755,1,0,0:0:0:1:
480,192,37755,1,0,0:0:0:1:
288,192,37755,1,0,0:0:0:1:
32,192,37755,1,0,0:0:0:1:
416,192,38041,1,0,0:0:0:1:
288,192,38041,1,0,0:0:0:1:
160,192,38041,1,0,0:0:0:1:
288,192,38326,1,0,0:0:0:1:
32,192,38326,1,0,0:0:0:1:
96,192,38326,1,0,0:0:0:1:
160,192,38326,1,0,0:0:0:1:
224,192,38612,1,0,0:0:0:1:
160,192,38612,1,0,0:0:0:1:
416,192,38755,1,0,0:0:0:1:
352,192,38755,1,0,0:0:0:1:
32,192,38898,1,0,0:0:0:1:
160,192,38898,1,0,0:0:0:1:
416,192,39041,1,0,0:0:0:1:
288,192,39041,1,0,0:0:0:1:
32,192,39184,1,0,0:0:0:1:
160,192,39184,1,0,0:0:0:1:
416,192,39326,1,0,0:0:0:1:
288,192,39326,1,0,0:0:0:1:
32,192,39469,1,0,0:0:0:1:
480,192,39469,1,0,0:0:0:1:
160,192,39469,1,0,0:0:0:1:
352,192,39469,1,0,0:0:0:1:
32,192,39612,1,0,0:0:0:1:
416,192,39612,1,0,0:0:0:1:
224,192,39612,1,0,0:0:0:1:
288,192,39612,1,0,0:0:0:1:
32,192,39755,1,0,0:0:0:1:
480,192,39755,1,0,0:0:0:1:
160,192,39755,1,0,0:0:0:1:
352,192,39755,1,0,0:0:0:1:
32,192,39898,1,0,0:0:0:1:
416,192,39898,1,0,0:0:0:1:
96,192,39898,1,0,0:0:0:1:
288,192,39898,1,0,0:0:0:1:
352,192,40041,1,0,0:0:0:1:
224,192,40041,1,0,0:0:0:1:
96,192,40041,1,0,0:0:0:1:
352,192,40184,1,0,0:0:0:1:
224,192,40184,1,0,0:0:0:1:
352,192,40326,1,0,0:0:0:1:
224,192,40326,1,0,0:0:0:1:
352,192,40469,1,0,0:0:0:1:
160,192,40469,1,0,0:0:0:1:
224,192,40541,1,0,0:0:0:1:
480,192,40612,1,0,0:0:0:1:
288,192,40612,1,0,0:0:0:1:
160,192,40612,1,0,0:0:0:1:
416,192,40755,1,0,0:0:0:1:
288,192,40755,1,0,0:0:0:1:
416,192,40898,1,0,0:0:0:1:
288,192,40898,1,0,0:0:0:1:
96,192,40898,1,0,0:0:0:1:
288,192,41041,1,0,0:0:0:1:
160,192,41041,1,0,0:0:0:1:
352,192,41112,1,0,0:0:0:1:
480,192,41184,1,0,0:0:0:1:
416,192,41184,1,0,0:0:0:1:
224,192,41184,1,0,0:0:0:1:
480,192,41326,1,0,0:0:0:1:
416,192,41326,1,0,0:0:0:1:
480,192,41469,1,0,0:0:0:1:
352,192,41469,1,0,0:0:0:1:
416,192,41612,1,0,0:0:0:1:
288,192,41612,1,0,0:0:0:1:
224,192,41684,1,0,0:0:0:1:
352,192,41755,1,0,0:0:0:1:
288,192,41755,1,0,0:0:0:1:
160,192,41755,1,0,0:0:0:1:
416,192,41898,1,0,0:0:0:1:
288,192,41898,1,0,0:0:0:1:
224,192,41898,1,0,0:0:0:1:
352,192,42041,1,0,0:0:0:1:
288,192,42041,1,0,0:0:0:1:
160,192,42041,1,0,0:0:0:1:
288,192,42184,1,0,0:0:0:1:
224,192,42184,1,0,0:0:0:1:
96,192,42184,1,0,0:0:0:1:
224,192,42326,1,0,0:0:0:1:
96,192,42326,1,0,0:0:0:1:
288,192,42398,1,0,0:0:0:1:
160,192,42469,1,0,0:0:0:1:
288,192,42541,1,0,0:0:0:1:
352,192,42612,1,0,0:0:0:1:
160,192,42612,1,0,0:0:0:1:
416,192,42684,1,0,0:0:0:1:
352,192,42755,1,0,0:0:0:1:
480,192,42898,1,0,0:0:0:1:
288,192,42898,1,0,0:0:0:1:
416,192,43041,1,0,0:0:0:1:
352,192,43112,1,0,0:0:0:1:
416,192,43184,1,0,0:0:0:1:
224,192,43184,1,0,0:0:0:1:
352,192,43255,1,0,0:0:0:1:
416,192,43326,1,0,0:0:0:1:
288,192,43469,1,0,0:0:0:1:
224,192,43469,1,0,0:0:0:1:
352,192,43541,1,0,0:0:0:1:
288,192,43612,1,0,0:0:0:1:
224,192,43612,1,0,0:0:0:1:
416,192,43755,1,0,0:0:0:1:
288,192,43755,1,0,0:0:0:1:
480,192,43898,1,0,0:0:0:1:
160,192,43898,1,0,0:0:0:1:
416,192,43969,1,0,0:0:0:1:
224,192,44041,1,0,0:0:0:1:
352,192,44112,1,0,0:0:0:1:
224,192,44184,1,0,0:0:0:1:
352,192,44255,1,0,0:0:0:1:
224,192,44326,1,0,0:0:0:1:
96,192,44326,1,0,0:0:0:1:
416,192,44469,1,0,0:0:0:1:
288,192,44469,1,0,0:0:0:1:
96,192,44469,1,0,0:0:0:1:
224,192,44612,1,0,0:0:0:1:
96,192,44612,1,0,0:0:0:1:
480,192,44755,1,0,0:0:0:1:
160,192,44755,1,0,0:0:0:1:
96,192,44755,1,0,0:0:0:1:
416,192,44826,1,0,0:0:0:1:
480,192,44898,1,0,0:0:0:1:
160,192,44898,1,0,0:0:0:1:
96,192,44898,1,0,0:0:0:1:
480,192,45041,1,0,0:0:0:1:
224,192,45041,1,0,0:0:0:1:
96,192,45041,1,0,0:0:0:1:
352,192,45112,1,0,0:0:0:1:
288,192,45184,1,0,0:0:0:1:
32,192,45184,1,0,0:0:0:1:
96,192,45184,1,0,0:0:0:1:
224,192,45184,1,0,0:0:0:1:
352,192,45326,1,0,0:0:0:1:
416,192,45398,1,0,0:0:0:1:
160,192,45469,1,0,0:0:0:1:
224,192,45541,1,0,0:0:0:1:
480,192,45612,1,0,0:0:0:1:
352,192,45755,1,0,0:0:0:1:
160,192,45755,1,0,0:0:0:1:
416,192,45826,1,0,0:0:0:1:
288,192,45898,1,0,0:0:0:1:
352,192,45969,1,0,0:0:0:1:
480,192,46041,1,0,0:0:0:1:
160,192,46041,1,0,0:0:0:1:
224,192,46184,1,0,0:0:0:1:
96,192,46184,1,0,0:0:0:1:
352,192,46255,1,0,0:0:0:1:
480,192,46326,1,0,0:0:0:1:
416,192,46326,1,0,0:0:0:1:
352,192,46469,1,0,0:0:0:1:
224,192,46469,1,0,0:0:0:1:
416,192,46541,1,0,0:0:0:1:
288,192,46612,1,0,0:0:0:1:
160,192,46612,1,0,0:0:0:1:
480,192,46755,1,0,0:0:0:1:
224,192,46755,1,0,0:0:0:1:
416,192,46898,1,0,0:0:0:1:
224,192,46898,1,0,0:0:0:1:
352,192,46969,1,0,0:0:0:1:
416,192,47041,1,0,0:0:0:1:
352,192,47112,1,0,0:0:0:1:
480,192,47184,1,0,0:0:0:1:
224,192,47184,1,0,0:0:0:1:
96,192,47184,1,0,0:0:0:1:
416,192,47255,1,0,0:0:0:1:
352,192,47326,1,0,0:0:0:1:
288,192,47398,1,0,0:0:0:1:
480,192,47469,1,0,0:0:0:1:
224,192,47469,1,0,0:0:0:1:
160,192,47469,1,0,0:0:0:1:
288,192,47612,1,0,0:0:0:1:
352,192,47755,1,0,0:0:0:1:
224,192,47755,1,0,0:0:0:1:
96,192,47755,1,0,0:0:0:1:
160,192,47898,1,0,0:0:0:1:
288,192,48041,1,0,0:0:0:1:
224,192,48041,1,0,0:0:0:1:
96,192,48041,1,0,0:0:0:1:
416,192,48326,1,0,0:0:0:1:
288,192,48326,1,0,0:0:0:1:
224,192,48326,1,0,0:0:0:1:
32,192,48612,1,0,0:0:0:1:
480,192,48612,1,0,0:0:0:1:
288,192,48612,1,0,0:0:0:1:
352,192,48612,1,0,0:0:0:1:
32,192,48898,1,0,0:0:0:1:
480,192,48898,1,0,0:0:0:1:
288,192,48898,1,0,0:0:0:1:
352,192,48898,1,0,0:0:0:1:
32,192,49184,1,0,0:0:0:1:
416,192,49184,1,0,0:0:0:1:
160,192,49184,1,0,0:0:0:1:
288,192,49184,1,0,0:0:0:1:
416,192,49326,1,0,0:0:0:1:
352,192,49326,1,0,0:0:0:1:
96,192,49326,1,0,0:0:0:1:
224,192,49398,1,0,0:0:0:1:
416,192,49469,1,0,0:0:0:1:
288,192,49469,1,0,0:0:0:1:
96,192,49469,1,0,0:0:0:1:
224,192,49541,1,0,0:0:0:1:
416,192,49612,1,0,0:0:0:1:
352,192,49612,1,0,0:0:0:1:
96,192,49612,1,0,0:0:0:1:
224,192,49684,1,0,0:0:0:1:
416,192,49755,1,0,0:0:0:1:
288,192,49755,1,0,0:0:0:1:
224,192,49826,1,0,0:0:0:1:
480,192,49898,1,0,0:0:0:1:
96,192,49898,1,0,0:0:0:1:
416,192,50041,1,0,0:0:0:1:
288,192,50041,1,0,0:0:0:1:
224,192,50041,1,0,0:0:0:1:
160,192,50112,1,0,0:0:0:1:
224,192,50184,1,0,0:0:0:1:
288,192,50255,1,0,0:0:0:1:
480,192,50326,1,0,0:0:0:1:
352,192,50326,1,0,0:0:0:1:
96,192,50326,1,0,0:0:0:1:
224,192,50398,1,0,0:0:0:1:
96,192,50469,1,0,0:0:0:1:
352,192,50612,1,0,0:0:0:1:
160,192,50612,1,0,0:0:0:1:
288,192,50684,1,0,0:0:0:1:
160,192,50755,1,0,0:0:0:1:
288,192,50826,1,0,0:0:0:1:
480,192,50898,1,0,0:0:0:1:
352,192,50898,1,0,0:0:0:1:
416,192,51041,1,0,0:0:0:1:
288,192,51184,1,0,0:0:0:1:
160,192,51184,1,0,0:0:0:1:
352,192,51255,1,0,0:0:0:1:
288,192,51326,1,0,0:0:0:1:
160,192,51326,1,0,0:0:0:1:
352,192,51398,1,0,0:0:0:1:
480,192,51469,1,0,0:0:0:1:
288,192,51469,1,0,0:0:0:1:
224,192,51541,1,0,0:0:0:1:
160,192,51612,1,0,0:0:0:1:
224,192,51684,1,0,0:0:0:1:
480,192,51755,1,0,0:0:0:1:
288,192,51755,1,0,0:0:0:1:
352,192,51826,1,0,0:0:0:1:
416,192,51898,1,0,0:0:0:1:
352,192,51969,1,0,0:0:0:1:
224,192,52041,1,0,0:0:0:1:
96,192,52041,1,0,0:0:0:1:
96,192,52184,1,0,0:0:0:1:
32,192,52326,1,0,0:0:0:1:
416,192,52326,1,0,0:0:0:1:
288,192,52326,1,0,0:0:0:1:
352,192,52326,1,0,0:0:0:1:
224,192,52469,1,0,0:0:0:1:
416,192,52612,1,0,0:0:0:1:
160,192,52612,1,0,0:0:0:1:
160,192,52755,1,0,0:0:0:1:
32,192,52898,1,0,0:0:0:1:
480,192,52898,1,0,0:0:0:1:
288,192,52898,1,0,0:0:0:1:
352,192,52898,1,0,0:0:0:1:
480,192,53041,1,0,0:0:0:1:
416,192,53184,1,0,0:0:0:1:
224,192,53184,1,0,0:0:0:1:
96,192,53255,1,0,0:0:0:1:
416,192,53326,1,0,0:0:0:1:
224,192,53326,1,0,0:0:0:1:
352,192,53398,1,0,0:0:0:1:
96,192,53398,1,0,0:0:0:1:
288,192,53469,1,0,0:0:0:1:
224,192,53469,1,0,0:0:0:1:
96,192,53469,1,0,0:0:0:1:
32,192,53755,1,0,0:0:0:1:
160,192,53755,1,0,0:0:0:1:
96,192,53755,1,0,0:0:0:1:
288,192,53826,1,0,0:0:0:1:
224,192,53898,1,0,0:0:0:1:
352,192,53969,1,0,0:0:0:1:
224,192,54041,1,0,0:0:0:1:
96,192,54041,1,0,0:0:0:1:
352,192,54112,1,0,0:0:0:1:
288,192,54184,1,0,0:0:0:1:
416,192,54255,1,0,0:0:0:1:
224,192,54326,1,0,0:0:0:1:
160,192,54326,1,0,0:0:0:1:
416,192,54398,1,0,0:0:0:1:
288,192,54469,1,0,0:0:0:1:
352,192,54541,1,0,0:0:0:1:
224,192,54612,1,0,0:0:0:1:
96,192,54612,1,0,0:0:0:1:
352,192,54684,1,0,0:0:0:1:
288,192,54755,1,0,0:0:0:1:
416,192,54826,1,0,0:0:0:1:
480,192,54898,1,0,0:0:0:1:
288,192,54898,1,0,0:0:0:1:
416,192,54969,1,0,0:0:0:1:
352,192,55041,1,0,0:0:0:1:
224,192,55112,1,0,0:0:0:1:
480,192,55184,1,0,0:0:0:1:
288,192,55184,1,0,0:0:0:1:
416,192,55255,1,0,0:0:0:1:
352,192,55326,1,0,0:0:0:1:
224,192,55398,1,0,0:0:0:1:
352,192,55469,1,0,0:0:0:1:
288,192,55469,1,0,0:0:0:1:
160,192,55469,1,0,0:0:0:1:
416,192,55755,1,0,0:0:0:1:
480,192,55755,1,0,0:0:0:1:
96,192,55755,1,0,0:0:0:1:
160,192,55755,1,0,0:0:0:1:
416,192,56041,1,0,0:0:0:1:
32,192,56041,1,0,0:0:0:1:
160,192,56041,1,0,0:0:0:1:
288,192,56112,1,0,0:0:0:1:
416,192,56184,1,0,0:0:0:1:
224,192,56255,1,0,0:0:0:1:
352,192,56326,1,0,0:0:0:1:
96,192,56326,1,0,0:0:0:1:
224,192,56398,1,0,0:0:0:1:
352,192,56469,1,0,0:0:0:1:
224,192,56541,1,0,0:0:0:1:
32,192,56612,1,0,0:0:0:1:
288,192,56612,1,0,0:0:0:1:
96,192,56612,1,0,0:0:0:1:
160,192,56684,1,0,0:0:0:1:
288,192,56755,1,0,0:0:0:1:
224,192,56826,1,0,0:0:0:1:
352,192,56898,1,0,0:0:0:1:
96,192,56898,1,0,0:0:0:1:
224,192,56969,1,0,0:0:0:1:
352,192,57041,1,0,0:0:0:1:
160,192,57112,1,0,0:0:0:1:
416,192,57184,1,0,0:0:0:1:
480,192,57184,1,0,0:0:0:1:
288,192,57184,1,0,0:0:0:1:
32,192,57184,1,0,0:0:0:1:
416,192,57469,1,0,0:0:0:1:
480,192,57469,1,0,0:0:0:1:
288,192,57469,1,0,0:0:0:1:
32,192,57469,1,0,0:0:0:1:
352,192,57755,1,0,0:0:0:1:
32,192,57755,1,0,0:0:0:1:
96,192,57755,1,0,0:0:0:1:
224,192,57755,1,0,0:0:0:1:
32,192,57898,1,0,0:0:0:1:
416,192,57898,1,0,0:0:0:1:
160,192,57898,1,0,0:0:0:1:
288,192,57898,1,0,0:0:0:1:
32,192,58041,1,0,0:0:0:1:
480,192,58041,1,0,0:0:0:1:
224,192,58041,1,0,0:0:0:1:
352,192,58041,1,0,0:0:0:1:
32,192,58326,1,0,0:0:0:1:
416,192,58326,1,0,0:0:0:1:
480,192,58326,1,0,0:0:0:1:
352,192,58326,1,0,0:0:0:1:
96,192,58326,1,0,0:0:0:1:
160,192,58326,1,0,0:0:0:1:
224,192,58326,1,0,0:0:0:1:
288,192,58898,1,0,0:0:0:1:
224,192,58898,1,0,0:0:0:1:
160,192,58898,1,0,0:0:0:1:
416,192,59041,1,0,0:0:0:1:
224,192,59041,1,0,0:0:0:1:
224,192,59184,1,0,0:0:0:1:
96,192,59184,1,0,0:0:0:1:
416,192,59326,1,0,0:0:0:1:
224,192,59326,1,0,0:0:0:1:
480,192,59469,1,0,0:0:0:1:
160,192,59469,1,0,0:0:0:1:
352,192,59541,1,0,0:0:0:1:
160,192,59612,1,0,0:0:0:1:
288,192,59755,1,0,0:0:0:1:
416,192,59755,1,0,0:0:0:1:
96,192,59755,1,0,0:0:0:1:
160,192,59755,1,0,0:0:0:1:
160,192,59898,1,0,0:0:0:1:
480,192,60041,1,0,0:0:0:1:
352,192,60041,1,0,0:0:0:1:
96,192,60041,1,0,0:0:0:1:
32,192,60612,1,0,0:0:0:1:
416,192,60612,1,0,0:0:0:1:
352,192,60612,1,0,0:0:0:1:
160,192,60612,1,0,0:0:0:1:
224,192,60612,1,0,0:0:0:1:
288,192,61184,1,0,0:0:0:1:
224,192,61184,1,0,0:0:0:1:
160,192,61184,1,0,0:0:0:1:
416,192,61326,1,0,0:0:0:1:
224,192,61326,1,0,0:0:0:1:
224,192,61469,1,0,0:0:0:1:
96,192,61469,1,0,0:0:0:1:
416,192,61612,1,0,0:0:0:1:
224,192,61612,1,0,0:0:0:1:
288,192,61755,1,0,0:0:0:1:
480,192,61898,1,0,0:0:0:1:
96,192,61898,1,0,0:0:0:1:
288,192,62041,1,0,0:0:0:1:
480,192,62184,1,0,0:0:0:1:
96,192,62184,1,0,0:0:0:1:
288,192,62326,1,0,0:0:0:1:
96,192,62469,1,0,0:0:0:1:
480,192,62612,1,0,0:0:0:1:
32,192,62898,1,0,0:0:0:1:
416,192,62898,1,0,0:0:0:1:
160,192,62898,1,0,0:0:0:1:
352,192,62898,1,0,0:0:0:1:
480,192,63469,1,0,0:0:0:1:
352,192,63469,1,0,0:0:0:1:
352,192,63612,1,0,0:0:0:1:
160,192,63612,1,0,0:0:0:1:
480,192,63755,1,0,0:0:0:1:
352,192,63755,1,0,0:0:0:1:
352,192,63898,1,0,0:0:0:1:
160,192,63898,1,0,0:0:0:1:
416,192,64041,1,0,0:0:0:1:
288,192,64041,1,0,0:0:0:1:
416,192,64184,1,0,0:0:0:1:
480,192,64255,1,0,0:0:0:1:
352,192,64255,1,0,0:0:0:1:
224,192,64255,1,0,0:0:0:1:
416,192,64326,1,0,0:0:0:1:
416,192,64469,1,0,0:0:0:1:
480,192,64612,1,0,0:0:0:1:
352,192,64612,1,0,0:0:0:1:
288,192,64612,1,0,0:0:0:1:
288,192,65184,1,0,0:0:0:1:
32,192,65184,1,0,0:0:0:1:
96,192,65184,1,0,0:0:0:1:
224,192,65184,1,0,0:0:0:1:
288,192,65326,1,0,0:0:0:1:
416,192,65469,1,0,0:0:0:1:
288,192,65469,1,0,0:0:0:1:
288,192,65612,1,0,0:0:0:1:
288,192,65755,1,0,0:0:0:1:
352,192,65755,1,0,0:0:0:1:
96,192,65755,1,0,0:0:0:1:
224,192,65755,1,0,0:0:0:1:
352,192,65898,1,0,0:0:0:1:
288,192,65898,1,0,0:0:0:1:
224,192,65898,1,0,0:0:0:1:
352,192,66041,1,0,0:0:0:1:
480,192,66041,1,0,0:0:0:1:
224,192,66041,1,0,0:0:0:1:
288,192,66041,1,0,0:0:0:1:
352,192,66184,1,0,0:0:0:1:
288,192,66184,1,0,0:0:0:1:
224,192,66184,1,0,0:0:0:1:
416,192,66326,1,0,0:0:0:1:
288,192,66326,1,0,0:0:0:1:
160,192,66326,1,0,0:0:0:1:
352,192,66612,1,0,0:0:0:1:
352,192,66755,1,0,0:0:0:1:
288,192,66898,1,0,0:0:0:1:
32,192,66898,1,0,0:0:0:1:
96,192,66898,1,0,0:0:0:1:
224,192,66898,1,0,0:0:0:1:
160,192,67041,1,0,0:0:0:1:
160,192,67184,1,0,0:0:0:1:
416,192,67469,1,0,0:0:0:1:
480,192,67469,1,0,0:0:0:1:
288,192,67469,1,0,0:0:0:1:
32,192,67469,1,0,0:0:0:1:
288,192,68041,1,0,0:0:0:1:
416,192,68041,1,0,0:0:0:1:
96,192,68041,1,0,0:0:0:1:
224,192,68041,1,0,0:0:0:1:
352,192,68184,1,0,0:0:0:1:
160,192,68184,1,0,0:0:0:1:
480,192,68326,1,0,0:0:0:1:
352,192,68326,1,0,0:0:0:1:
352,192,68469,1,0,0:0:0:1:
160,192,68469,1,0,0:0:0:1:
416,192,68612,1,0,0:0:0:1:
160,192,68612,1,0,0:0:0:1:
160,192,68755,1,0,0:0:0:1:
352,192,68826,1,0,0:0:0:1:
224,192,68826,1,0,0:0:0:1:
96,192,68826,1,0,0:0:0:1:
160,192,68898,1,0,0:0:0:1:
160,192,69041,1,0,0:0:0:1:
416,192,69184,1,0,0:0:0:1:
288,192,69184,1,0,0:0:0:1:
96,192,69184,1,0,0:0:0:1:
32,192,69755,1,0,0:0:0:1:
480,192,69755,1,0,0:0:0:1:
352,192,69755,1,0,0:0:0:1:
96,192,69755,1,0,0:0:0:1:
224,192,69755,1,0,0:0:0:1:
416,192,70041,1,0,0:0:0:1:
288,192,70041,1,0,0:0:0:1:
160,192,70041,1,0,0:0:0:1:
352,192,70326,1,0,0:0:0:1:
288,192,70326,1,0,0:0:0:1:
96,192,70326,1,0,0:0:0:1:
416,192,70469,1,0,0:0:0:1:
224,192,70469,1,0,0:0:0:1:
224,192,70612,1,0,0:0:0:1:
96,192,70612,1,0,0:0:0:1:
416,192,70755,1,0,0:0:0:1:
224,192,70755,1,0,0:0:0:1:
416,192,70898,1,0,0:0:0:1:
352,192,70898,1,0,0:0:0:1:
160,192,70898,1,0,0:0:0:1:
416,192,71041,1,0,0:0:0:1:
224,192,71041,1,0,0:0:0:1:
160,192,71041,1,0,0:0:0:1:
416,192,71184,1,0,0:0:0:1:
352,192,71184,1,0,0:0:0:1:
160,192,71184,1,0,0:0:0:1:
416,192,71326,1,0,0:0:0:1:
224,192,71326,1,0,0:0:0:1:
160,192,71326,1,0,0:0:0:1:
352,192,71469,1,0,0:0:0:1:
480,192,71469,1,0,0:0:0:1:
96,192,71469,1,0,0:0:0:1:
224,192,71469,1,0,0:0:0:1:
480,192,71612,1,0,0:0:0:1:
96,192,71612,1,0,0:0:0:1:
480,192,71755,1,0,0:0:0:1:
96,192,71755,1,0,0:0:0:1:
32,192,72041,1,0,0:0:0:1:
416,192,72041,1,0,0:0:0:1:
352,192,72041,1,0,0:0:0:1:
96,192,72041,1,0,0:0:0:1:
288,192,72041,1,0,0:0:0:1:
288,192,72326,1,0,0:0:0:1:
160,192,72326,1,0,0:0:0:1:
96,192,72326,1,0,0:0:0:1:
352,192,72612,1,0,0:0:0:1:
224,192,72612,1,0,0:0:0:1:
96,192,72612,1,0,0:0:0:1:
288,192,72755,1,0,0:0:0:1:
288,192,72898,1,0,0:0:0:1:
160,192,72898,1,0,0:0:0:1:
96,192,72898,1,0,0:0:0:1:
288,192,73041,1,0,0:0:0:1:
416,192,73184,1,0,0:0:0:1:
288,192,73184,1,0,0:0:0:1:
160,192,73184,1,0,0:0:0:1:
416,192,73326,1,0,0:0:0:1:
416,192,73469,1,0,0:0:0:1:
352,192,73469,1,0,0:0:0:1:
224,192,73469,1,0,0:0:0:1:
416,192,73612,1,0,0:0:0:1:
480,192,73755,1,0,0:0:0:1:
352,192,73755,1,0,0:0:0:1:
288,192,73755,1,0,0:0:0:1:
352,192,74041,1,0,0:0:0:1:
288,192,74041,1,0,0:0:0:1:
224,192,74041,1,0,0:0:0:1:
352,192,74326,1,0,0:0:0:1:
32,192,74326,1,0,0:0:0:1:
96,192,74326,1,0,0:0:0:1:
224,192,74326,1,0,0:0:0:1:
288,192,74469,1,0,0:0:0:1:
96,192,74469,1,0,0:0:0:1:
352,192,74612,1,0,0:0:0:1:
160,192,74612,1,0,0:0:0:1:
480,192,74755,1,0,0:0:0:1:
288,192,74755,1,0,0:0:0:1:
288,192,74898,1,0,0:0:0:1:
32,192,74898,1,0,0:0:0:1:
96,192,74898,1,0,0:0:0:1:
160,192,74898,1,0,0:0:0:1:
288,192,75041,1,0,0:0:0:1:
224,192,75041,1,0,0:0:0:1:
352,192,75184,1,0,0:0:0:1:
160,192,75184,1,0,0:0:0:1:
480,192,75326,1,0,0:0:0:1:
288,192,75326,1,0,0:0:0:1:
288,192,75469,1,0,0:0:0:1:
32,192,75469,1,0,0:0:0:1:
96,192,75469,1,0,0:0:0:1:
224,192,75469,1,0,0:0:0:1:
352,192,75612,1,0,0:0:0:1:
288,192,75612,1,0,0:0:0:1:
160,192,75612,1,0,0:0:0:1:
416,192,75755,1,0,0:0:0:1:
288,192,75755,1,0,0:0:0:1:
224,192,75755,1,0,0:0:0:1:
480,192,75898,1,0,0:0:0:1:
352,192,75898,1,0,0:0:0:1:
288,192,75898,1,0,0:0:0:1:
32,192,76041,1,0,0:0:0:1:
160,192,76041,1,0,0:0:0:1:
96,192,76041,1,0,0:0:0:1:
416,192,76112,1,0,0:0:0:1:
288,192,76184,1,0,0:0:0:1:
224,192,76184,1,0,0:0:0:1:
480,192,76255,1,0,0:0:0:1:
416,192,76326,1,0,0:0:0:1:
352,192,76326,1,0,0:0:0:1:
224,192,76398,1,0,0:0:0:1:
160,192,76469,1,0,0:0:0:1:
96,192,76469,1,0,0:0:0:1:
416,192,76541,1,0,0:0:0:1:
352,192,76612,1,0,0:0:0:1:
32,192,76612,1,0,0:0:0:1:
288,192,76612,1,0,0:0:0:1:
96,192,76612,1,0,0:0:0:1:
160,192,76612,1,0,0:0:0:1:
480,192,76898,1,0,0:0:0:1:
416,192,77184,1,0,0:0:0:1:
288,192,77469,1,0,0:0:0:1:
480,192,77612,1,0,0:0:0:1:
352,192,77755,1,0,0:0:0:1:
32,192,77755,1,0,0:0:0:1:
288,192,77755,1,0,0:0:0:1:
96,192,77755,1,0,0:0:0:1:
160,192,77755,1,0,0:0:0:1:
480,192,78041,1,0,0:0:0:1:
416,192,78326,1,0,0:0:0:1:
288,192,78612,1,0,0:0:0:1:
480,192,78755,1,0,0:0:0:1:
352,192,78898,1,0,0:0:0:1:
32,192,78898,1,0,0:0:0:1:
288,192,78898,1,0,0:0:0:1:
96,192,78898,1,0,0:0:0:1:
160,192,78898,1,0,0:0:0:1:
480,192,79184,1,0,0:0:0:1:
416,192,79469,1,0,0:0:0:1:
288,192,79755,1,0,0:0:0:1:
480,192,79898,1,0,0:0:0:1:
352,192,80041,1,0,0:0:0:1:
32,192,80041,1,0,0:0:0:1:
288,192,80041,1,0,0:0:0:1:
96,192,80041,1,0,0:0:0:1:
160,192,80041,1,0,0:0:0:1:
480,192,80326,1,0,0:0:0:1:
416,192,80612,1,0,0:0:0:1:
288,192,80898,1,0,0:0:0:1:
480,192,81041,1,0,0:0:0:1:
352,192,81184,1,0,0:0:0:1:
32,192,81184,1,0,0:0:0:1:
288,192,81184,1,0,0:0:0:1:
96,192,81184,1,0,0:0:0:1:
160,192,81184,1,0,0:0:0:1:
480,192,81469,1,0,0:0:0:1:
352,192,81755,1,0,0:0:0:1:
32,192,81755,1,0,0:0:0:1:
288,192,81755,1,0,0:0:0:1:
96,192,81755,1,0,0:0:0:1:
160,192,81755,1,0,0:0:0:1:
480,192,82041,1,0,0:0:0:1:
352,192,82326,1,0,0:0:0:1:
32,192,82326,1,0,0:0:0:1:
288,192,82326,1,0,0:0:0:1:
96,192,82326,1,0,0:0:0:1:
160,192,82326,1,0,0:0:0:1:
480,192,82612,1,0,0:0:0:1:
352,192,82898,1,0,0:0:0:1:
32,192,82898,1,0,0:0:0:1:
288,192,82898,1,0,0:0:0:1:
96,192,82898,1,0,0:0:0:1:
160,192,82898,1,0,0:0:0:1:
480,192,83184,1,0,0:0:0:1:
352,192,83469,1,0,0:0:0:1:
480,192,83469,1,0,0:0:0:1:
288,192,83469,1,0,0:0:0:1:
96,192,83469,1,0,0:0:0:1:
160,192,83469,1,0,0:0:0:1:
352,192,83755,1,0,0:0:0:1:
480,192,83755,1,0,0:0:0:1:
288,192,83755,1,0,0:0:0:1:
96,192,83755,1,0,0:0:0:1:
160,192,83755,1,0,0:0:0:1:
352,192,84041,1,0,0:0:0:1:
480,192,84041,1,0,0:0:0:1:
288,192,84041,1,0,0:0:0:1:
96,192,84041,1,0,0:0:0:1:
160,192,84041,1,0,0:0:0:1:
352,192,84326,1,0,0:0:0:1:
480,192,84326,1,0,0:0:0:1:
288,192,84326,1,0,0:0:0:1:
96,192,84326,1,0,0:0:0:1:
160,192,84326,1,0,0:0:0:1:
224,192,84612,1,0,0:0:0:1:
160,192,84612,1,0,0:0:0:1:
96,192,84612,1,0,0:0:0:1:
288,192,84755,1,0,0:0:0:1:
224,192,84755,1,0,0:0:0:1:
96,192,84755,1,0,0:0:0:1:
352,192,84898,1,0,0:0:0:1:
288,192,84898,1,0,0:0:0:1:
96,192,84898,1,0,0:0:0:1:
416,192,85041,1,0,0:0:0:1:
352,192,85041,1,0,0:0:0:1:
96,192,85041,1,0,0:0:0:1:
416,192,85184,1,0,0:0:0:1:
288,192,85184,1,0,0:0:0:1:
160,192,85184,1,0,0:0:0:1:
352,192,85326,1,0,0:0:0:1:
224,192,85326,1,0,0:0:0:1:
96,192,85326,1,0,0:0:0:1:
416,192,85469,1,0,0:0:0:1:
288,192,85469,1,0,0:0:0:1:
160,192,85469,1,0,0:0:0:1:
480,192,85612,1,0,0:0:0:1:
352,192,85612,1,0,0:0:0:1:
224,192,85612,1,0,0:0:0:1:
288,192,85755,1,0,0:0:0:1:
224,192,85755,1,0,0:0:0:1:
160,192,85826,1,0,0:0:0:1:
96,192,85826,1,0,0:0:0:1:
416,192,85898,1,0,0:0:0:1:
288,192,85898,1,0,0:0:0:1:
224,192,85969,1,0,0:0:0:1:
96,192,85969,1,0,0:0:0:1:
416,192,86041,1,0,0:0:0:1:
352,192,86041,1,0,0:0:0:1:
288,192,86112,1,0,0:0:0:1:
224,192,86112,1,0,0:0:0:1:
480,192,86184,1,0,0:0:0:1:
416,192,86184,1,0,0:0:0:1:
288,192,86255,1,0,0:0:0:1:
160,192,86255,1,0,0:0:0:1:
352,192,86326,1,0,0:0:0:1:
288,192,86326,1,0,0:0:0:1:
224,192,86398,1,0,0:0:0:1:
160,192,86398,1,0,0:0:0:1:
480,192,86469,1,0,0:0:0:1:
352,192,86469,1,0,0:0:0:1:
288,192,86541,1,0,0:0:0:1:
160,192,86541,1,0,0:0:0:1:
480,192,86612,1,0,0:0:0:1:
416,192,86612,1,0,0:0:0:1:
352,192,86684,1,0,0:0:0:1:
288,192,86684,1,0,0:0:0:1:
480,192,86755,1,0,0:0:0:1:
352,192,86755,1,0,0:0:0:1:
224,192,86826,1,0,0:0:0:1:
96,192,86826,1,0,0:0:0:1:
480,192,86898,1,0,0:0:0:1:
32,192,86898,128,0,88005:0:0:0:1:
288,192,86898,1,0,0:0:0:1:
416,192,86898,1,0,0:0:0:1:
32,192,88041,1,0,0:0:0:1:
32,192,88112,1,0,0:0:0:1:
32,192,88184,1,0,0:0:0:1:
32,192,88255,1,0,0:0:0:1:
32,192,88326,1,0,0:0:0:1:
32,192,88398,1,0,0:0:0:1:
32,192,88469,1,0,0:0:0:1:
32,192,88541,1,0,0:0:0:1:
32,192,88612,1,0,0:0:0:1:
32,192,88684,1,0,0:0:0:1:
32,192,88755,1,0,0:0:0:1:
32,192,88826,1,0,0:0:0:1:
32,192,88898,1,0,0:0:0:1:
32,192,88969,1,0,0:0:0:1:
32,192,89041,1,0,0:0:0:1:
32,192,89112,1,0,0:0:0:1:
288,192,89184,1,0,0:0:0:1:
416,192,89326,1,0,0:0:0:1:
32,192,89326,1,0,0:0:0:1:
288,192,89469,1,0,0:0:0:1:
352,192,89469,1,0,0:0:0:1:
224,192,89469,1,0,0:0:0:1:
96,192,89469,1,0,0:0:0:1:
160,192,89469,1,0,0:0:0:1:
480,192,89612,1,0,0:0:0:1:
32,192,89612,1,0,0:0:0:1:
352,192,89612,1,0,0:0:0:1:
416,192,89755,1,0,0:0:0:1:
288,192,89755,1,0,0:0:0:1:
32,192,89898,1,0,0:0:0:1:
160,192,89898,1,0,0:0:0:1:
352,192,90041,1,0,0:0:0:1:
480,192,90041,1,0,0:0:0:1:
96,192,90041,1,0,0:0:0:1:
224,192,90041,1,0,0:0:0:1:
32,192,90184,1,0,0:0:0:1:
288,192,90184,1,0,0:0:0:1:
352,192,90326,1,0,0:0:0:1:
480,192,90326,1,0,0:0:0:1:
96,192,90326,1,0,0:0:0:1:
224,192,90326,1,0,0:0:0:1:
32,192,90469,1,0,0:0:0:1:
416,192,90469,1,0,0:0:0:1:
224,192,90469,1,0,0:0:0:1:
288,192,90469,1,0,0:0:0:1:
352,192,90612,1,0,0:0:0:1:
480,192,90612,1,0,0:0:0:1:
160,192,90612,1,0,0:0:0:1:
224,192,90612,1,0,0:0:0:1:
416,192,90755,1,0,0:0:0:1:
32,192,90755,1,0,0:0:0:1:
352,192,90898,1,0,0:0:0:1:
224,192,90898,1,0,0:0:0:1:
96,192,90898,1,0,0:0:0:1:
416,192,91041,1,0,0:0:0:1:
32,192,91041,1,0,0:0:0:1:
352,192,91184,1,0,0:0:0:1:
224,192,91184,1,0,0:0:0:1:
96,192,91184,1,0,0:0:0:1:
416,192,91326,1,0,0:0:0:1:
32,192,91326,1,0,0:0:0:1:
352,192,91469,1,0,0:0:0:1:
480,192,91469,1,0,0:0:0:1:
96,192,91469,1,0,0:0:0:1:
224,192,91469,1,0,0:0:0:1:
32,192,91612,1,0,0:0:0:1:
160,192,91612,1,0,0:0:0:1:
288,192,91755,1,0,0:0:0:1:
416,192,91755,1,0,0:0:0:1:
96,192,91755,1,0,0:0:0:1:
224,192,91755,1,0,0:0:0:1:
352,192,91898,1,0,0:0:0:1:
32,192,91898,1,0,0:0:0:1:
160,192,91898,1,0,0:0:0:1:
224,192,91898,1,0,0:0:0:1:
288,192,92041,1,0,0:0:0:1:
416,192,92041,1,0,0:0:0:1:
96,192,92041,1,0,0:0:0:1:
224,192,92041,1,0,0:0:0:1:
32,192,92184,1,0,0:0:0:1:
160,192,92184,1,0,0:0:0:1:
288,192,92326,1,0,0:0:0:1:
416,192,92326,1,0,0:0:0:1:
96,192,92326,1,0,0:0:0:1:
224,192,92326,1,0,0:0:0:1:
32,192,92469,1,0,0:0:0:1:
160,192,92469,1,0,0:0:0:1:
416,192,92612,1,0,0:0:0:1:
480,192,92612,1,0,0:0:0:1:
352,192,92612,1,0,0:0:0:1:
96,192,92612,1,0,0:0:0:1:
224,192,92612,1,0,0:0:0:1:
32,192,92755,1,0,0:0:0:1:
416,192,92755,1,0,0:0:0:1:
288,192,92755,1,0,0:0:0:1:
352,192,92755,1,0,0:0:0:1:
352,192,92898,1,0,0:0:0:1:
480,192,92898,1,0,0:0:0:1:
288,192,92898,1,0,0:0:0:1:
96,192,92898,1,0,0:0:0:1:
224,192,92898,1,0,0:0:0:1:
288,192,93041,1,0,0:0:0:1:
32,192,93041,1,0,0:0:0:1:
160,192,93041,1,0,0:0:0:1:
224,192,93041,1,0,0:0:0:1:
416,192,93184,1,0,0:0:0:1:
480,192,93184,1,0,0:0:0:1:
96,192,93184,1,0,0:0:0:1:
352,192,93184,1,0,0:0:0:1:
32,192,93326,1,0,0:0:0:1:
416,192,93469,1,0,0:0:0:1:
480,192,93469,1,0,0:0:0:1:
160,192,93469,1,0,0:0:0:1:
224,192,93469,1,0,0:0:0:1:
32,192,93612,1,0,0:0:0:1:
288,192,93755,1,0,0:0:0:1:
416,192,93898,1,0,0:0:0:1:
32,192,93898,1,0,0:0:0:1:
288,192,94041,1,0,0:0:0:1:
352,192,94041,1,0,0:0:0:1:
224,192,94041,1,0,0:0:0:1:
96,192,94041,1,0,0:0:0:1:
160,192,94041,1,0,0:0:0:1:
480,192,94184,1,0,0:0:0:1:
32,192,94184,1,0,0:0:0:1:
352,192,94184,1,0,0:0:0:1:
416,192,94326,1,0,0:0:0:1:
288,192,94326,1,0,0:0:0:1:
32,192,94469,1,0,0:0:0:1:
160,192,94469,1,0,0:0:0:1:
352,192,94612,1,0,0:0:0:1:
480,192,94612,1,0,0:0:0:1:
96,192,94612,1,0,0:0:0:1:
224,192,94612,1,0,0:0:0:1:
32,192,94755,1,0,0:0:0:1:
160,192,94755,1,0,0:0:0:1:
416,192,94898,1,0,0:0:0:1:
480,192,94898,1,0,0:0:0:1:
160,192,94898,1,0,0:0:0:1:
352,192,94898,1,0,0:0:0:1:
288,192,95041,1,0,0:0:0:1:
32,192,95041,1,0,0:0:0:1:
160,192,95041,1,0,0:0:0:1:
224,192,95041,1,0,0:0:0:1:
352,192,95184,1,0,0:0:0:1:
416,192,95184,1,0,0:0:0:1:
96,192,95184,1,0,0:0:0:1:
160,192,95184,1,0,0:0:0:1:
480,192,95326,1,0,0:0:0:1:
32,192,95326,1,0,0:0:0:1:
288,192,95469,1,0,0:0:0:1:
160,192,95469,1,0,0:0:0:1:
96,192,95469,1,0,0:0:0:1:
32,192,95612,1,0,0:0:0:1:
224,192,95612,1,0,0:0:0:1:
480,192,95755,1,0,0:0:0:1:
352,192,95755,1,0,0:0:0:1:
160,192,95755,1,0,0:0:0:1:
32,192,95898,1,0,0:0:0:1:
224,192,95898,1,0,0:0:0:1:
352,192,96041,1,0,0:0:0:1:
416,192,96041,1,0,0:0:0:1:
96,192,96041,1,0,0:0:0:1:
160,192,96041,1,0,0:0:0:1:
32,192,96184,1,0,0:0:0:1:
96,192,96184,1,0,0:0:0:1:
352,192,96326,1,0,0:0:0:1:
416,192,96326,1,0,0:0:0:1:
160,192,96326,1,0,0:0:0:1:
224,192,96326,1,0,0:0:0:1:
32,192,96469,1,0,0:0:0:1:
480,192,96469,1,0,0:0:0:1:
96,192,96469,1,0,0:0:0:1:
224,192,96469,1,0,0:0:0:1:
288,192,96612,1,0,0:0:0:1:
416,192,96612,1,0,0:0:0:1:
160,192,96612,1,0,0:0:0:1:
224,192,96612,1,0,0:0:0:1:
32,192,96755,1,0,0:0:0:1:
160,192,96755,1,0,0:0:0:1:
288,192,96898,1,0,0:0:0:1:
416,192,96898,1,0,0:0:0:1:
96,192,96898,1,0,0:0:0:1:
224,192,96898,1,0,0:0:0:1:
32,192,97041,1,0,0:0:0:1:
160,192,97041,1,0,0:0:0:1:
416,192,97184,1,0,0:0:0:1:
480,192,97184,1,0,0:0:0:1:
352,192,97184,1,0,0:0:0:1:
224,192,97184,1,0,0:0:0:1:
288,192,97184,1,0,0:0:0:1:
32,192,97326,1,0,0:0:0:1:
352,192,97469,1,0,0:0:0:1:
416,192,97469,1,0,0:0:0:1:
288,192,97469,1,0,0:0:0:1:
96,192,97469,1,0,0:0:0:1:
160,192,97469,1,0,0:0:0:1:
32,192,97612,1,0,0:0:0:1:
416,192,97755,1,0,0:0:0:1:
480,192,97755,1,0,0:0:0:1:
96,192,97755,1,0,0:0:0:1:
224,192,97755,1,0,0:0:0:1:
32,192,97898,1,0,0:0:0:1:
352,192,98041,1,0,0:0:0:1:
480,192,98041,1,0,0:0:0:1:
224,192,98041,1,0,0:0:0:1:
288,192,98041,1,0,0:0:0:1:
32,192,98184,128,0,98326:0:0:0:1:
352,192,98326,1,0,0:0:0:1:
224,192,98326,1,0,0:0:0:1:
96,192,98326,1,0,0:0:0:1:
480,192,98469,1,0,0:0:0:1:
32,192,98469,1,0,0:0:0:1:
416,192,98612,1,0,0:0:0:1:
288,192,98612,1,0,0:0:0:1:
96,192,98612,1,0,0:0:0:1:
352,192,98755,1,0,0:0:0:1:
32,192,98755,1,0,0:0:0:1:
160,192,98755,1,0,0:0:0:1:
224,192,98755,1,0,0:0:0:1:
416,192,98898,1,0,0:0:0:1:
288,192,98898,1,0,0:0:0:1:
96,192,98898,1,0,0:0:0:1:
480,192,99041,1,0,0:0:0:1:
32,192,99041,1,0,0:0:0:1:
416,192,99184,1,0,0:0:0:1:
288,192,99184,1,0,0:0:0:1:
96,192,99184,1,0,0:0:0:1:
32,192,99326,1,0,0:0:0:1:
224,192,99326,1,0,0:0:0:1:
160,192,99326,1,0,0:0:0:1:
480,192,99469,1,0,0:0:0:1:
416,192,99469,1,0,0:0:0:1:
288,192,99469,1,0,0:0:0:1:
352,192,99612,1,0,0:0:0:1:
32,192,99612,1,0,0:0:0:1:
160,192,99612,1,0,0:0:0:1:
224,192,99612,1,0,0:0:0:1:
352,192,99755,1,0,0:0:0:1:
288,192,99755,1,0,0:0:0:1:
96,192,99755,1,0,0:0:0:1:
32,192,99898,1,0,0:0:0:1:
224,192,99898,1,0,0:0:0:1:
160,192,99898,1,0,0:0:0:1:
480,192,100041,1,0,0:0:0:1:
416,192,100041,1,0,0:0:0:1:
288,192,100041,1,0,0:0:0:1:
32,192,100184,1,0,0:0:0:1:
224,192,100184,1,0,0:0:0:1:
160,192,100184,1,0,0:0:0:1:
480,192,100326,1,0,0:0:0:1:
416,192,100326,1,0,0:0:0:1:
288,192,100326,1,0,0:0:0:1:
32,192,100469,1,0,0:0:0:1:
224,192,100469,1,0,0:0:0:1:
160,192,100469,1,0,0:0:0:1:
352,192,100612,1,0,0:0:0:1:
288,192,100612,1,0,0:0:0:1:
96,192,100612,1,0,0:0:0:1:
32,192,100755,1,0,0:0:0:1:
224,192,100755,1,0,0:0:0:1:
160,192,100755,1,0,0:0:0:1:
480,192,100898,1,0,0:0:0:1:
352,192,100898,1,0,0:0:0:1:
96,192,100898,1,0,0:0:0:1:
32,192,101041,1,0,0:0:0:1:
416,192,101041,1,0,0:0:0:1:
288,192,101041,1,0,0:0:0:1:
160,192,101041,1,0,0:0:0:1:
224,192,101041,1,0,0:0:0:1:
480,192,101184,1,0,0:0:0:1:
352,192,101184,1,0,0:0:0:1:
288,192,101184,1,0,0:0:0:1:
32,192,101326,1,0,0:0:0:1:
224,192,101326,1,0,0:0:0:1:
160,192,101326,1,0,0:0:0:1:
480,192,101469,1,0,0:0:0:1:
352,192,101469,1,0,0:0:0:1:
288,192,101469,1,0,0:0:0:1:
32,192,101612,1,0,0:0:0:1:
224,192,101612,1,0,0:0:0:1:
160,192,101612,1,0,0:0:0:1:
416,192,101755,1,0,0:0:0:1:
480,192,101755,1,0,0:0:0:1:
352,192,101755,1,0,0:0:0:1:
96,192,101755,1,0,0:0:0:1:
224,192,101755,1,0,0:0:0:1:
416,192,101898,1,0,0:0:0:1:
352,192,101898,1,0,0:0:0:1:
288,192,101898,1,0,0:0:0:1:
352,192,102041,1,0,0:0:0:1:
288,192,102041,1,0,0:0:0:1:
224,192,102041,1,0,0:0:0:1:
288,192,102184,1,0,0:0:0:1:
224,192,102184,1,0,0:0:0:1:
160,192,102184,1,0,0:0:0:1:
352,192,102326,1,0,0:0:0:1:
416,192,102326,1,0,0:0:0:1:
96,192,102326,1,0,0:0:0:1:
160,192,102326,1,0,0:0:0:1:
416,192,102612,1,0,0:0:0:1:
480,192,102612,1,0,0:0:0:1:
160,192,102612,1,0,0:0:0:1:
224,192,102612,1,0,0:0:0:1:
32,192,102898,1,0,0:0:0:1:
352,192,102898,1,0,0:0:0:1:
96,192,102898,1,0,0:0:0:1:
288,192,103041,1,0,0:0:0:1:
224,192,103041,1,0,0:0:0:1:
160,192,103041,1,0,0:0:0:1:
480,192,103184,1,0,0:0:0:1:
352,192,103184,1,0,0:0:0:1:
96,192,103184,1,0,0:0:0:1:
288,192,103326,1,0,0:0:0:1:
224,192,103326,1,0,0:0:0:1:
160,192,103326,1,0,0:0:0:1:
480,192,103469,1,0,0:0:0:1:
352,192,103469,1,0,0:0:0:1:
96,192,103469,1,0,0:0:0:1:
288,192,103612,1,0,0:0:0:1:
224,192,103612,1,0,0:0:0:1:
160,192,103612,1,0,0:0:0:1:
416,192,103755,1,0,0:0:0:1:
480,192,103755,1,0,0:0:0:1:
96,192,103755,1,0,0:0:0:1:
352,192,103755,1,0,0:0:0:1:
224,192,103898,1,0,0:0:0:1:
160,192,103898,1,0,0:0:0:1:
32,192,104041,1,0,0:0:0:1:
416,192,104041,1,0,0:0:0:1:
288,192,104041,1,0,0:0:0:1:
96,192,104041,1,0,0:0:0:1:
224,192,104041,1,0,0:0:0:1:
352,192,104184,1,0,0:0:0:1:
480,192,104184,1,0,0:0:0:1:
160,192,104184,1,0,0:0:0:1:
224,192,104184,1,0,0:0:0:1:
416,192,104326,1,0,0:0:0:1:
288,192,104326,1,0,0:0:0:1:
96,192,104326,1,0,0:0:0:1:
352,192,104469,1,0,0:0:0:1:
480,192,104469,1,0,0:0:0:1:
160,192,104469,1,0,0:0:0:1:
224,192,104469,1,0,0:0:0:1:
480,192,104612,1,0,0:0:0:1:
288,192,104612,1,0,0:0:0:1:
96,192,104612,1,0,0:0:0:1:
416,192,104755,1,0,0:0:0:1:
288,192,104755,1,0,0:0:0:1:
160,192,104755,1,0,0:0:0:1:
352,192,104898,1,0,0:0:0:1:
224,192,104898,1,0,0:0:0:1:
96,192,104898,1,0,0:0:0:1:
288,192,105041,1,0,0:0:0:1:
416,192,105041,1,0,0:0:0:1:
160,192,105041,1,0,0:0:0:1:
224,192,105041,1,0,0:0:0:1:
32,192,105184,1,0,0:0:0:1:
480,192,105184,1,0,0:0:0:1:
352,192,105184,1,0,0:0:0:1:
96,192,105184,1,0,0:0:0:1:
224,192,105184,1,0,0:0:0:1:
352,192,105326,1,0,0:0:0:1:
416,192,105326,1,0,0:0:0:1:
160,192,105326,1,0,0:0:0:1:
288,192,105326,1,0,0:0:0:1:
352,192,105469,1,0,0:0:0:1:
224,192,105469,1,0,0:0:0:1:
96,192,105469,1,0,0:0:0:1:
288,192,105612,1,0,0:0:0:1:
416,192,105612,1,0,0:0:0:1:
160,192,105612,1,0,0:0:0:1:
224,192,105612,1,0,0:0:0:1:
352,192,105755,1,0,0:0:0:1:
480,192,105755,1,0,0:0:0:1:
96,192,105755,1,0,0:0:0:1:
224,192,105755,1,0,0:0:0:1:
352,192,105898,1,0,0:0:0:1:
288,192,105898,1,0,0:0:0:1:
224,192,105898,1,0,0:0:0:1:
288,192,106041,1,0,0:0:0:1:
480,192,106041,1,0,0:0:0:1:
96,192,106041,1,0,0:0:0:1:
160,192,106041,1,0,0:0:0:1:
416,192,106184,1,0,0:0:0:1:
288,192,106184,1,0,0:0:0:1:
32,192,106326,1,0,0:0:0:1:
480,192,106326,1,0,0:0:0:1:
352,192,106326,1,0,0:0:0:1:
96,192,106326,1,0,0:0:0:1:
224,192,106326,1,0,0:0:0:1:
352,192,106612,1,0,0:0:0:1:
32,192,106612,1,0,0:0:0:1:
288,192,106612,1,0,0:0:0:1:
96,192,106612,1,0,0:0:0:1:
160,192,106612,1,0,0:0:0:1:
416,192,106898,1,0,0:0:0:1:
480,192,106898,1,0,0:0:0:1:
32,192,106898,1,0,0:0:0:1:
224,192,106898,1,0,0:0:0:1:
288,192,106898,1,0,0:0:0:1:
32,192,107184,1,0,0:0:0:1:
288,192,107184,1,0,0:0:0:1:
288,192,107469,1,0,0:0:0:1:
32,192,107469,1,0,0:0:0:1:
96,192,107469,1,0,0:0:0:1:
160,192,107469,1,0,0:0:0:1:
480,192,108041,1,0,0:0:0:1:
288,192,108041,1,0,0:0:0:1:
416,192,108612,1,0,0:0:0:1:
224,192,108612,1,0,0:0:0:1:
480,192,109184,1,0,0:0:0:1:
352,192,109184,1,0,0:0:0:1:
416,192,109755,1,0,0:0:0:1:
96,192,109755,1,0,0:0:0:1:
480,192,110326,1,0,0:0:0:1:
224,192,110326,1,0,0:0:0:1:
416,192,110612,1,0,0:0:0:1:
160,192,110612,1,0,0:0:0:1:
352,192,110898,1,0,0:0:0:1:
224,192,110898,1,0,0:0:0:1:
480,192,111469,1,0,0:0:0:1:
288,192,111469,1,0,0:0:0:1:
288,192,112041,1,0,0:0:0:1:
96,192,112041,1,0,0:0:0:1:
416,192,112898,1,0,0:0:0:1:
160,192,113469,1,0,0:0:0:1:
480,192,114041,1,0,0:0:0:1:
288,192,114326,1,0,0:0:0:1:
32,192,114326,1,0,0:0:0:1:
224,192,114326,1,0,0:0:0:1:
96,192,114326,1,0,0:0:0:1:
160,192,114326,1,0,0:0:0:1:
