osu file format v14

[General]
AudioFilename: C18H27NO3.mp3
AudioLeadIn: 0
PreviewTime: 76612
Countdown: 0
SampleSet: Normal
StackLeniency: 0.4
Mode: 0
LetterboxInBreaks: 0
WidescreenStoryboard: 0

[Editor]
DistanceSpacing: 2
BeatDivisor: 4
GridSize: 8
TimelineZoom: 1.8

[Metadata]
Title:C18H27NO3
TitleUnicode:C18H27NO3
Artist:Team Grimoire
ArtistUnicode:Team Grimoire
Creator:[Crz]Sword
Version:Insane
Source:SOUND VOLTEX II -infinite infection-
Tags:sdvx drumstep hardcore sahuang Gyro Zeppeli getche JQKing SnowNiNo_
BeatmapID:957697
BeatmapSetID:445836

[Difficulty]
HPDrainRate:5
CircleSize:4
OverallDifficulty:7
ApproachRate:9
SliderMultiplier:1.9
SliderTickRate:1

[Events]
//Background and Video events
0,0,"C18H27NO3-bg.png",0,0
//Break Periods
//Storyboard Layer 0 (Background)
//Storyboard Layer 1 (Fail)
//Storyboard Layer 2 (Pass)
//Storyboard Layer 3 (Foreground)
//Storyboard Sound Samples

[TimingPoints]
1184,285.714285714286,4,1,1,60,1,0
2326,-200,4,2,1,30,0,0
11469,-166.666666666667,4,2,1,40,0,0
13755,-142.857142857143,4,2,1,40,0,0
16041,-125,4,2,1,50,0,0
18326,-111.111111111111,4,2,1,50,0,0
21755,-100,4,1,1,60,0,0
34898,-66.6666666666667,4,1,1,60,0,0
35183,-100,4,1,1,60,0,0
37755,-90.9090909090909,4,1,1,60,0,0
38041,-83.3333333333333,4,1,1,60,0,0
38326,-76.9230769230769,4,1,1,60,0,0
38612,-100,4,1,1,60,0,0
48041,-133.333333333333,4,1,1,60,0,0
48326,-100,4,1,1,60,0,0
48612,-66.6666666666667,4,1,1,60,0,0
48898,-57.1428571428571,4,1,1,60,0,0
49183,-100,4,1,1,60,0,0
52326,-66.6666666666667,4,1,1,60,0,0
52612,-100,4,1,1,60,0,0
52898,-66.6666666666667,4,1,1,60,0,0
53183,-100,4,1,1,60,0,0
57183,-133.333333333333,4,1,1,60,0,0
57469,-100,4,1,1,60,0,0
58041,-66.6666666666667,4,1,1,60,0,0
58326,-133.333333333333,4,1,1,60,0,0
58898,-66.6666666666667,4,1,1,60,0,0
59469,-100,4,1,1,60,0,0
60041,-66.6666666666667,4,1,1,60,0,0
60612,-133.333333333333,4,1,1,60,0,0
61183,-66.6666666666667,4,1,1,60,0,0
61755,-100,4,1,1,60,0,0
62898,-133.333333333333,4,1,1,60,0,0
63469,-66.6666666666667,4,1,1,60,0,0
64041,-100,4,1,1,60,0,0
64612,-66.6666666666667,4,1,1,60,0,0
65183,-133.333333333333,4,1,1,60,0,0
65755,-100,4,1,1,60,0,0
66326,-66.6666666666667,4,1,1,60,0,0
66612,-100,4,1,1,60,0,0
66898,-200,4,1,1,60,0,0
67469,-133.333333333333,4,1,1,60,0,0
68041,-66.6666666666667,4,1,1,60,0,0
68612,-100,4,1,1,60,0,0
69183,-200,4,1,1,60,0,0
69755,-133.333333333333,4,1,1,60,0,0
70326,-100,4,1,1,60,0,0
71469,-200,4,1,1,60,0,0
72041,-133.333333333333,4,1,1,60,0,0
72612,-66.6666666666667,4,1,1,60,0,0
73183,-100,4,1,1,60,0,0
73755,-66.6666666666667,4,1,1,60,0,0
74041,-100,4,1,1,60,0,0
74326,-133.333333333333,4,1,1,60,0,0
74898,-100,4,1,1,60,0,0
76041,-200,4,1,1,60,0,0
76612,-100,4,1,1,60,0,0
77755,-90.9090909090909,4,1,1,60,0,0
78898,-83.3333333333333,4,1,1,60,0,0
80041,-76.9230769230769,4,1,1,60,0,0
81183,-71.4285714285714,4,1,1,60,0,0
81755,-68.9655172413793,4,1,1,60,0,0
82326,-66.6666666666667,4,1,1,60,0,0
82898,-64.5161290322581,4,1,1,60,0,0
83469,-62.5,4,1,1,60,0,0
84898,-58.8235294117647,4,1,1,60,0,0
85183,-55.5555555555556,4,1,1,60,0,0
85469,-52.6315789473684,4,1,1,60,0,0
85755,-100,4,1,1,60,0,0
89184,-90.9090909090909,4,1,1,60,0,1
92612,-66.6666666666667,4,1,1,60,0,1
93041,-90.9090909090909,4,1,1,60,0,1
97183,-200,4,1,1,60,0,1
97469,-100,4,1,1,60,0,1
97755,-66.6666666666667,4,1,1,60,0,1
98041,-50,4,1,1,60,0,1
98326,-90.9090909090909,4,1,1,60,0,1
104041,-66.6666666666667,4,1,1,60,0,1
105183,-90.9090909090909,4,1,1,60,0,1
107469,-90.9090909090909,4,1,1,60,0,0

[Colours]
Combo1 : 117,0,234
Combo2 : 0,255,255
Combo3 : 255,255,0
Combo4 : 0,223,0

[HitObjects]
91,317,2326,6,0,P|90:245|105:207,1,95,6|0,0:0|0:0,0:0:0:0:
236,69,2898,2,0,P|237:141|222:179,1,95
273,316,3469,1,8,0:0:0:0:
400,222,3755,2,0,L|447:189,2,47.5
307,83,4326,1,0,0:0:0:0:
146,52,4612,6,0,P|101:44|42:51,1,95,2|0,0:0|0:0,0:0:0:0:
132,191,5183,2,0,P|177:199|236:192,1,95
341,77,5755,1,8,0:0:0:0:
413,214,6041,2,0,L|460:166,2,47.5
292,334,6612,1,0,0:0:0:0:
82,331,6898,6,0,P|81:277|90:233,1,95,2|0,0:0|0:0,0:0:0:0:
225,180,7469,2,0,P|226:126|217:82,1,95
53,50,8041,1,8,0:0:0:0:
150,194,8326,2,0,L|151:243,2,47.5
232,46,8898,1,0,0:0:0:0:
423,59,9183,6,0,P|429:133|412:183,1,95,2|0,0:0|0:0,0:0:0:0:
324,238,9755,2,0,P|318:312|335:362,1,95
483,282,10326,1,8,0:0:0:0:
300,143,10612,1,0,0:0:0:0:
300,143,10755,1,0,0:0:0:0:
300,143,10898,2,0,P|238:145|191:181,1,95
108,348,11469,6,0,P|104:278|118:225,1,113.999996520996,6|0,0:0|0:0,0:0:0:0:
58,83,12041,2,0,P|144:75|204:96,1,113.999996520996
287,209,12612,1,8,0:0:0:0:
382,85,12898,2,0,L|420:24,2,56.9999982604981
475,212,13469,1,0,0:0:0:0:
381,344,13755,6,0,P|324:350|244:342,1,132.999995941162,2|0,0:0|0:0,0:0:0:0:
177,194,14326,2,0,P|243:188|309:196,1,132.999995941162
124,348,14898,1,8,0:0:0:0:
23,221,15183,2,0,L|64:145,2,66.4999979705811
116,54,15755,1,0,0:0:0:0:
271,85,16041,5,2,0:0:0:0:
271,85,16326,1,0,0:0:0:0:
476,215,16612,1,8,0:0:0:0:
476,215,16898,1,0,0:0:0:0:
251,334,17183,1,2,0:0:0:0:
251,334,17469,2,0,L|298:252,2,76,0|0|8,0:0|0:0|0:0,0:0:0:0:
367,115,18041,1,0,0:0:0:0:
167,41,18326,6,0,P|102:110|72:199,1,170.999994781494,2|8,0:0|0:0,0:0:0:0:
150,335,18898,2,0,P|215:266|245:177,1,170.999994781494,2|8,0:0|0:0,0:0:0:0:
291,30,19469,1,2,0:0:0:0:
457,127,19755,5,8,0:0:0:0:
471,317,19898,1,0,0:0:0:0:
297,235,20041,1,2,0:0:0:0:
297,235,20326,1,8,0:0:0:0:
256,192,20469,12,0,21469,0:0:0:0:
84,333,21755,6,0,P|78:259|90:216,1,95,2|0,0:0|0:0,0:0:0:0:
207,72,22041,2,0,P|213:146|201:189,1,95,8|0,0:0|0:0,0:0:0:0:
181,327,22326,2,0,P|243:338|295:313,1,95
477,239,22612,2,0,P|415:228|363:253,1,95,8|0,0:0|0:0,0:0:0:0:
276,242,22898,2,0,L|326:131,1,95
494,51,23183,2,0,L|444:162,1,95,8|0,0:0|0:0,0:0:0:0:
344,48,23469,2,0,P|281:44|227:55,1,95
118,136,23755,2,0,P|165:141|213:137,1,95,8|0,0:0|0:0,0:0:0:0:
15,89,24041,6,0,P|7:146|14:206,1,95,2|0,0:0|0:0,0:0:0:0:
86,384,24326,2,0,P|94:327|87:267,1,95,8|0,0:0|0:0,0:0:0:0:
92,213,24612,2,0,P|171:215|197:226,1,95
301,329,24898,2,0,P|256:344|209:343,1,95,8|0,0:0|0:0,0:0:0:0:
329,244,25183,2,0,P|382:283|393:325,1,95
480,348,25469,2,0,L|458:241,1,95,8|0,0:0|0:0,0:0:0:0:
458,145,25755,2,0,L|351:145,1,95
319,61,26041,2,0,L|271:61,3,47.5,8|0|0|0,0:0|0:0|0:0|0:0,0:0:0:0:
222,62,26326,6,0,P|174:59|122:62,1,95,2|0,0:0|0:0,0:0:0:0:
162,166,26612,2,0,P|165:241|149:279,1,95,8|0,0:0|0:0,0:0:0:0:
64,356,26898,2,0,P|131:362|171:352,1,95
377,295,27184,2,0,P|330:291|283:297,1,95,8|0,0:0|0:0,0:0:0:0:
480,349,27469,2,0,P|482:271|477:228,1,95
389,206,27755,2,0,P|386:158|389:111,1,95,8|0,0:0|0:0,0:0:0:0:
442,33,28041,2,0,L|331:32,1,95
185,130,28326,2,0,L|280:131,1,95,8|0,0:0|0:0,0:0:0:0:
29,116,28612,6,0,L|100:41,1,95,2|0,0:0|0:0,0:0:0:0:
118,194,28898,2,0,L|49:268,1,95,8|0,0:0|0:0,0:0:0:0:
159,328,29183,2,0,P|218:340|261:326,1,95
393,229,29469,2,0,P|334:217|291:231,1,95,8|0,0:0|0:0,0:0:0:0:
212,238,29755,2,0,P|239:165|268:140,1,95
273,59,30041,2,0,P|327:94|346:137,1,95,8|0,0:0|0:0,0:0:0:0:
439,71,30326,2,0,L|438:184,1,95
489,215,30612,2,0,L|444:242,3,47.5,8|0|8|0,0:0|0:0|0:0|0:0,0:0:0:0:
402,265,30898,6,0,P|350:291|302:283,1,95,6|0,0:0|0:0,0:0:0:0:
240,222,31183,2,0,P|292:196|340:204,1,95,8|0,0:0|0:0,0:0:0:0:
400,384,31469,1,0,0:0:0:0:
85,343,31755,2,0,L|86:245,1,95,8|0,0:0|0:0,0:0:0:0:
36,169,32041,2,0,P|69:112|100:87,1,95
230,88,32326,2,0,P|197:145|166:170,1,95,8|0,0:0|0:0,0:0:0:0:
309,120,32612,2,0,P|342:63|373:39,1,95
511,36,32898,2,0,P|478:93|445:121,1,95,8|0,0:0|0:0,0:0:0:0:
336,208,33183,6,0,L|447:208,1,95,2|0,0:0|0:0,0:0:0:0:
495,331,33469,2,0,L|384:330,1,95,8|0,0:0|0:0,0:0:0:0:
250,327,33755,1,0,0:0:0:0:
44,195,34041,2,0,L|96:101,1,95,8|0,0:0|0:0,0:0:0:0:
241,41,34326,2,0,P|212:94|207:134,1,95
271,220,34612,2,0,P|300:167|305:127,1,95,8|0,0:0|0:0,0:0:0:0:
427,101,34898,6,0,P|398:154|396:256,1,142.500005435944
481,255,35183,6,0,L|459:298,3,47.5,8|0|8|0,0:0|0:0|0:0|0:0,0:0:0:0:
424,345,35469,6,0,P|373:350|318:343,1,95,6|0,0:0|0:0,0:0:0:0:
194,246,35755,2,0,P|241:241|289:247,1,95,8|0,0:0|0:0,0:0:0:0:
95,360,36041,2,0,L|96:247,1,95
60,205,36326,2,0,L|107:173,3,47.5,8|0|0|0,0:0|0:0|0:0|0:0,0:0:0:0:
149,133,36612,6,0,P|171:71|200:37,1,95,2|0,0:0|0:0,0:0:0:0:
330,19,36898,2,0,P|308:81|279:115,1,95,8|0,0:0|0:0,0:0:0:0:
239,181,37183,2,0,P|300:191|341:175,1,95,4|0,0:0|0:0,0:0:0:0:
396,147,37469,2,0,L|425:205,3,47.5,8|0|8|0,0:0|0:0|0:0|0:0,0:0:0:0:
482,212,37755,6,0,P|455:261|389:286,1,104.500003189087,2|0,0:0|0:0,0:0:0:0:
344,290,38041,6,0,L|218:289,1,113.999996520996,6|0,0:0|0:0,0:0:0:0:
154,288,38326,6,0,P|96:230|95:180,1,123.499994346619,2|0,0:0|0:0,0:0:0:0:
134,119,38612,6,0,L|169:155,3,47.5,2|0|0|0,0:0|0:0|0:0|0:0,0:0:0:0:
236,127,38898,6,0,L|254:172,1,47.5,6|0,0:0|0:0,0:0:0:0:
313,86,39041,2,0,L|315:143,1,47.5,2|0,0:0|0:0,0:0:0:0:
401,91,39183,2,0,L|386:136,1,47.5,2|0,0:0|0:0,0:0:0:0:
469,143,39326,2,0,L|435:187,1,47.5,2|0,0:0|0:0,0:0:0:0:
396,250,39469,6,0,L|454:250,1,47.5,2|0,0:0|0:0,0:0:0:0:
361,335,39612,2,0,L|302:335,1,47.5,2|0,0:0|0:0,0:0:0:0:
262,253,39755,2,0,L|318:254,1,47.5,2|0,0:0|0:0,0:0:0:0:
235,334,39898,2,0,L|184:334,1,47.5,2|0,0:0|0:0,0:0:0:0:
106,332,40041,6,0,L|84:239,1,95,2|0,0:3|0:0,0:0:0:0:
57,123,40326,1,8,0:0:0:0:
147,72,40469,2,0,L|133:23,2,47.5
257,102,40755,1,0,0:0:0:0:
257,102,40898,2,0,L|335:48,1,95,8|0,0:0|0:0,0:0:0:0:
443,48,41183,6,0,P|449:141|440:179,1,95,2|0,0:0|0:0,0:0:0:0:
348,245,41469,2,0,P|346:197|354:151,1,95,8|0,0:0|0:0,0:0:0:0:
460,272,41755,1,0,0:0:0:0:
460,272,41898,1,0,0:0:0:0:
320,357,42041,1,8,0:0:0:0:
320,357,42183,1,0,0:0:0:0:
181,300,42326,6,0,L|142:342,4,47.5,2|0|0|0|8,0:0|0:0|0:0|0:0|0:0,0:0:0:0:
45,235,42755,1,0,0:0:0:0:
45,235,42898,2,0,P|47:154|64:125,1,95
189,33,43183,2,0,P|187:114|170:143,1,95,8|0,0:0|0:0,0:0:0:0:
133,210,43469,6,0,P|185:221|239:204,1,95,2|0,0:0|0:0,0:0:0:0:
307,158,43755,2,0,L|356:59,1,95,8|0,0:0|0:0,0:0:0:0:
440,54,43969,1,0,0:0:0:0:
440,54,44041,2,0,L|391:153,1,95
346,247,44326,2,0,L|469:247,2,95,8|0|2,0:0|0:0|0:0,0:0:0:0:
287,322,44755,6,0,L|287:372,4,47.5,0|0|8|0|0,0:0|0:0|0:0|0:0|0:0,0:0:0:0:
243,261,45184,2,0,P|201:254|139:261,1,95
154,333,45398,1,0,0:0:0:0:
154,333,45469,2,0,P|106:337|60:330,1,95,8|0,0:0|0:0,0:0:0:0:
50,238,45755,6,0,L|50:134,1,95,2|0,0:0|0:0,0:0:0:0:
165,28,46041,2,0,L|165:132,1,95,8|0,0:0|0:0,0:0:0:0:
193,175,46255,1,0,0:0:0:0:
193,175,46326,2,0,P|273:163|304:130,1,95
267,30,46612,2,0,P|347:42|378:75,1,95,8|0,0:0|0:0,0:0:0:0:
437,113,46898,5,2,0:0:0:0:
437,113,47041,1,0,0:0:0:0:
437,113,47183,2,0,P|438:188|431:218,1,95,8|0,0:0|0:0,0:0:0:0:
323,343,47469,1,0,0:0:0:0:
323,343,47612,1,0,0:0:0:0:
323,343,47755,2,0,P|322:268|329:238,1,95,8|0,0:0|0:0,0:0:0:0:
286,164,48041,6,0,P|247:161|209:165,1,71.2500027179719,2|0,0:0|0:0,0:0:0:0:
128,313,48326,6,0,P|181:321|234:314,1,106.875004076958,2|0,0:0|0:0,0:0:0:0:
48,270,48612,6,0,L|48:117,1,142.500005435944,6|0,0:0|0:0,0:0:0:0:
134,16,48898,6,0,L|134:191,1,166.250001585484,6|0,0:0|0:0,0:0:0:0:
191,248,49183,6,0,P|269:221|286:200,1,95,2|0,0:3|0:0,0:0:0:0:
225,95,49469,2,0,P|263:67|309:60,1,95,8|0,0:0|0:0,0:0:0:0:
384,81,49683,1,0,0:0:0:0:
384,81,49755,2,0,L|396:34,3,47.5
453,106,50041,2,0,L|442:152,3,47.5,8|0|0|0,0:0|0:0|0:0|0:0,0:0:0:0:
424,216,50326,5,2,0:0:0:0:
424,216,50469,1,0,0:0:0:0:
498,301,50612,1,8,0:0:0:0:
498,301,50755,1,0,0:0:0:0:
373,324,50898,2,0,P|326:330|275:324,1,95
270,256,51183,2,0,L|262:206,3,47.5,8|0|0|0,0:0|0:0|0:0|0:0,0:0:0:0:
196,194,51469,6,0,L|173:247,3,47.5,2|0|0|0,0:0|0:0|0:0|0:0,0:0:0:0:
187,304,51755,2,0,L|102:358,1,95,8|0,0:0|0:0,0:0:0:0:
51,256,52041,5,0,0:0:0:0:
51,256,52183,1,0,0:0:0:0:
51,256,52326,6,0,L|51:110,1,142.500005435944,10|0,0:0|0:0,0:0:0:0:
118,57,52612,6,0,P|173:53|222:59,1,95,4|0,0:0|0:0,0:0:0:0:
201,181,52898,6,0,L|333:96,1,142.500005435944,2|0,0:0|0:0,0:0:0:0:
399,49,53183,6,0,L|453:49,1,47.5,2|0,0:0|0:0,0:0:0:0:
470,103,53326,2,0,L|416:103,1,47.5,2|0,0:0|0:0,0:0:0:0:
396,154,53469,2,0,L|450:154,1,47.5,2|0,0:0|0:0,0:0:0:0:
467,208,53612,2,0,L|413:208,1,47.5,2|0,0:0|0:0,0:0:0:0:
394,259,53755,6,0,L|431:296,3,47.5,2|0|0|0,0:3|0:0|0:0|0:0,0:0:0:0:
421,354,54041,2,0,P|370:365|315:349,1,95,8|0,0:0|0:0,0:0:0:0:
207,244,54326,2,0,P|254:235|300:247,1,95
231,337,54612,2,0,L|196:379,2,47.5,8|0|0,0:0|0:0|0:0,0:0:0:0:
33,357,54898,6,0,L|53:252,1,95,2|0,0:0|0:0,0:0:0:0:
131,249,55183,2,0,L|118:154,1,95,8|0,0:0|0:0,0:0:0:0:
87,65,55469,1,0,0:0:0:0:
87,65,55612,2,0,B|144:26|144:26|210:92|210:92|257:83|309:99,1,237.5
345,87,56041,2,0,L|352:34,2,47.5,2|0|0,0:0|0:0|0:0,0:0:0:0:
472,138,56326,1,8,0:0:0:0:
472,138,56469,1,0,0:0:0:0:
426,257,56612,2,0,L|456:297,2,47.5,2|0|0,0:0|0:0|0:0,0:0:0:0:
326,182,56898,1,8,0:0:0:0:
326,182,57041,1,0,0:0:0:0:
325,272,57183,6,0,P|323:325|313:353,1,71.2500027179719,2|0,0:0|0:0,0:0:0:0:
208,384,57469,6,0,P|210:331|220:286,1,95,2|0,0:0|0:0,0:0:0:0:
171,195,57755,5,8,0:0:0:0:
171,195,57898,1,8,0:0:0:0:
171,195,58041,2,0,L|82:330,1,142.5,10|0,0:0|0:0,0:0:0:0:
29,250,58326,6,0,P|81:136|112:156,1,213.750008153916,2|0,0:3|0:0,0:0:0:0:
142,74,58898,6,0,P|211:41|283:39,1,142.500005435944,2|0,0:0|0:0,0:0:0:0:
396,158,59183,2,0,P|327:191|255:193,1,142.500005435944,2|0,0:0|0:0,0:0:0:0:
362,47,59469,1,8,0:0:0:0:
467,83,59612,2,0,L|499:36,2,47.5,0|0|8,0:0|0:0|0:0,0:0:0:0:
478,192,59898,1,0,0:0:0:0:
446,310,60041,6,0,P|355:330|306:308,1,142.500005435944,10|0,0:0|0:0,0:0:0:0:
230,218,60326,2,0,P|297:198|364:221,1,142.500005435944,10|0,0:0|0:0,0:0:0:0:
139,320,60612,6,0,P|63:296|108:193,1,213.750008153916,2|0,0:3|0:0,0:0:0:0:
94,44,61183,6,0,L|178:163,1,142.500005435944,2|0,0:0|0:0,0:0:0:0:
352,217,61469,2,0,L|268:98,1,142.500005435944,2|0,0:0|0:0,0:0:0:0:
334,40,61755,6,0,L|351:91,1,47.5,2|0,0:0|0:0,0:0:0:0:
425,46,61898,2,0,L|391:93,1,47.5,2|0,0:0|0:0,0:0:0:0:
475,113,62041,2,0,L|418:125,1,47.5,2|0,0:0|0:0,0:0:0:0:
463,200,62183,2,0,L|420:168,1,47.5,2|0,0:0|0:0,0:0:0:0:
353,151,62326,2,0,P|303:227|428:341,1,285,10|0,0:0|0:0,0:0:0:0:
389,250,62898,6,0,P|322:214|300:332,1,213.750008153916,2|0,0:3|0:0,0:0:0:0:
163,384,63469,6,0,L|306:384,1,142.500005435944,2|0,0:0|0:0,0:0:0:0:
191,309,63755,2,0,L|44:309,1,142.500005435944,2|0,0:0|0:0,0:0:0:0:
71,203,64041,1,8,0:0:0:0:
137,112,64183,2,0,L|169:166,2,47.5,0|0|8,0:0|0:0|0:0,0:0:0:0:
239,70,64469,1,0,0:0:0:0:
355,63,64612,6,0,P|443:92|482:143,1,142.500005435944,10|0,0:0|0:0,0:0:0:0:
490,287,64898,2,0,P|402:258|363:207,1,142.500005435944,10|0,0:0|0:0,0:0:0:0:
272,156,65183,6,0,P|198:161|269:237,1,213.750008153916,2|0,0:3|0:0,0:0:0:0:
318,274,65755,6,0,L|318:335,1,47.5,2|0,0:0|0:0,0:0:0:0:
249,366,65898,2,0,L|249:305,1,47.5,2|0,0:0|0:0,0:0:0:0:
178,288,66041,2,0,L|178:349,1,47.5,2|0,0:0|0:0,0:0:0:0:
109,380,66184,2,0,L|109:319,1,47.5,2|0,0:0|0:0,0:0:0:0:
44,299,66326,6,0,P|50:152|98:112,1,213.750008153916,2|0,0:0|0:0,0:0:0:0:
166,63,66612,2,0,L|166:142,1,47.5,2|0,0:0|0:0,0:0:0:0:
241,141,66755,2,0,L|241:62,1,47.5,2|0,0:0|0:0,0:0:0:0:
304,61,66898,6,0,P|389:70|371:137,1,166.25,6|0,0:0|0:0,0:0:0:0:
305,190,67469,6,0,P|317:256|421:213,1,213.750008153916,2|0,0:3|0:0,0:0:0:0:
469,133,68041,6,0,P|493:205|481:281,1,142.500005435944,2|0,0:0|0:0,0:0:0:0:
477,355,68326,2,0,P|418:364|332:352,1,142.500005435944,2|0,0:0|0:0,0:0:0:0:
246,294,68612,1,8,0:0:0:0:
181,200,68755,2,0,L|128:239,2,47.5,0|0|8,0:0|0:0|0:0,0:0:0:0:
176,91,69041,1,0,0:0:0:0:
274,52,69183,6,0,P|318:88|336:131,1,95,12|8,0:0|0:0,0:0:0:0:
404,81,69755,6,0,P|359:202|273:187,1,213.750008153916,2|0,0:3|0:0,0:0:0:0:
218,148,70326,2,0,L|218:216,1,47.5,2|0,0:0|0:0,0:0:0:0:
142,172,70469,2,0,L|142:104,1,47.5,2|0,0:0|0:0,0:0:0:0:
70,105,70612,2,0,L|70:160,3,47.5,2|0|2|0,0:0|0:0|0:0|0:0,0:0:0:0:
36,218,70898,6,0,L|86:239,1,47.5,2|0,0:0|0:0,0:0:0:0:
37,309,71041,2,0,L|92:287,1,47.5,2|0,0:0|0:0,0:0:0:0:
104,366,71183,2,0,L|128:317,1,47.5,2|0,0:0|0:0,0:0:0:0:
202,351,71326,2,0,L|179:307,1,47.5,2|0,0:0|0:0,0:0:0:0:
156,234,71469,6,0,B|174:211|174:211|194:212|194:212|204:191|204:191|227:189|227:189|237:168|237:168|262:164|262:164|279:147,1,166.25,6|0,0:0|0:0,0:0:0:0:
285,63,72041,6,0,P|375:68|351:176,1,213.750008153916,2|0,0:3|0:0,0:0:0:0:
291,235,72612,6,0,P|343:305|396:327,1,142.500005435944,2|0,0:0|0:0,0:0:0:0:
512,331,72898,2,0,P|460:261|407:239,1,142.500005435944,2|0,0:0|0:0,0:0:0:0:
264,343,73183,1,8,0:0:0:0:
158,308,73326,2,0,L|125:361,2,47.5,0|0|8,0:0|0:0|0:0,0:0:0:0:
116,209,73612,1,0,0:0:0:0:
105,101,73755,6,0,P|181:97|213:164,1,142.500005435944,10|0,0:0|0:0,0:0:0:0:
277,215,74041,2,0,L|297:269,3,47.5,8|0|0|0,0:0|0:0|0:0|0:0,0:0:0:0:
301,127,74326,6,0,P|280:59|384:76,1,213.750008153916,2|0,0:3|0:0,0:0:0:0:
458,19,74898,6,0,L|458:75,1,47.5,2|0,0:0|0:0,0:0:0:0:
496,71,75041,2,0,L|496:134,1,47.5,2|0,0:0|0:0,0:0:0:0:
449,106,75184,2,0,L|449:162,1,47.5,2|0,0:0|0:0,0:0:0:0:
487,158,75326,2,0,L|487:221,1,47.5,2|0,0:0|0:0,0:0:0:0:
476,283,75469,1,8,0:0:0:0:
476,283,75612,1,8,0:0:0:0:
366,226,75755,1,8,0:0:0:0:
366,226,75898,1,8,0:0:0:0:
371,356,76041,6,0,P|302:356|297:281,1,142.5,4|0,0:0|0:0,0:0:0:0:
215,231,76612,6,0,L|65:351,2,190,6|0|8,0:0|0:0|0:0,0:0:0:0:
161,45,77469,1,0,0:0:0:0:
161,45,77612,1,0,0:0:0:0:
161,45,77755,6,0,L|58:229,2,209.000006378174,6|0|8,0:0|0:0|0:0,0:0:0:0:
269,170,78612,1,0,0:0:0:0:
269,170,78755,1,0,0:0:0:0:
269,170,78898,6,0,L|466:54,2,227.999993041992,6|0|8,0:0|0:0|0:0,0:0:0:0:
245,290,79755,1,0,0:0:0:0:
245,290,79898,1,0,0:0:0:0:
245,290,80041,6,0,L|491:358,2,246.999988693238,6|0|8,0:0|0:0|0:0,0:0:0:0:
165,115,80898,1,0,0:0:0:0:
165,115,81041,1,0,0:0:0:0:
165,115,81184,6,0,L|79:368,1,265.999991882324,6|8,0:0|0:0,0:0:0:0:
235,348,81755,6,0,L|467:187,1,275.500008407593,6|8,0:0|0:0,0:0:0:0:
454,61,82326,6,0,L|161:47,1,285.000010871888,6|8,0:0|0:0,0:0:0:0:
32,81,82898,6,0,L|138:359,1,294.500002246857,6|8,0:0|0:0,0:0:0:0:
323,301,83469,5,12,0:0:0:0:
323,301,83755,1,8,0:0:0:0:
323,301,84041,1,8,0:0:0:0:
323,301,84326,1,8,0:0:0:0:
323,301,84612,6,0,P|401:223|413:170,1,152,2|8,0:0|0:0,0:0:0:0:
353,75,84898,6,0,P|275:153|261:220,1,161.500003080368,2|8,0:0|0:0,0:0:0:0:
231,292,85184,6,0,L|53:292,1,170.999994781494,2|8,0:0|0:0,0:0:0:0:
0,201,85469,6,0,L|186:201,1,180.49999518013,2|8,0:0|0:0,0:0:0:0:
169,98,85755,6,2,L|142:50,1,47.5
212,80,85898,2,2,L|207:27,1,47.5
260,76,86041,2,2,L|270:24,1,47.5
306,86,86183,2,2,L|336:37,1,47.5
347,110,86326,2,2,L|391:83,1,47.5
380,144,86469,2,2,L|437:139,1,47.5
401,186,86612,2,2,L|451:207,1,47.5
408,233,86755,2,2,L|439:273,1,47.5
256,192,86898,12,4,88041,0:0:0:0:
389,296,88112,6,0,L|383:350,14,47.5
372,222,89184,6,0,P|320:197|257:209,1,104.500003189087,2|8,0:3|0:0,0:0:0:0:
174,312,89469,1,2,0:0:0:0:
174,312,89612,2,0,P|220:335|271:333,1,104.500003189087,8|2,0:0|0:0,0:0:0:0:
104,133,89898,2,0,L|103:262,1,104.500003189087,8|2,0:0|0:0,0:0:0:0:
17,368,90184,1,8,0:0:0:0:
17,368,90327,6,0,L|18:239,1,104.500003189087,2|8,0:0|0:0,0:0:0:0:
4,105,90612,2,0,P|51:32|96:24,1,104.500003189087,2|8,0:0|0:0,0:0:0:0:
254,16,90898,2,0,P|207:89|162:97,1,104.500003189087,2|8,0:0|0:0,0:0:0:0:
107,254,91183,1,2,0:0:0:0:
107,254,91326,1,8,0:0:0:0:
107,254,91469,6,0,L|229:254,1,104.500003189087,2|8,0:3|0:0,0:0:0:0:
302,142,91755,1,2,0:0:0:0:
302,142,91898,2,0,L|180:142,1,104.500003189087,8|2,0:0|0:0,0:0:0:0:
375,27,92184,1,8,0:0:0:0:
375,27,92326,2,0,L|497:27,1,104.500003189087,2|8,0:0|0:0,0:0:0:0:
434,125,92612,6,0,B|421:147|421:147|442:161|442:161|421:182|421:182|442:196|442:196|419:209|419:209|440:223|440:223|418:243|418:243|439:255|439:255|417:273|417:273|437:287|437:287|427:308,1,285.000010871888,2|2,0:0|0:0,0:0:0:0:
309,356,93041,1,8,0:0:0:0:
309,356,93183,2,0,P|261:364|199:357,1,104.500003189087,2|8,0:0|0:0,0:0:0:0:
149,217,93469,2,0,P|200:210|252:220,1,104.500003189087,2|8,0:0|0:0,0:0:0:0:
14,324,93755,6,0,P|10:257|17:203,1,104.500003189087,2|8,0:3|0:0,0:0:0:0:
101,21,94041,2,0,P|105:88|98:142,1,104.500003189087,2|8,0:0|0:0,0:0:0:0:
162,246,94326,1,2,0:0:0:0:
162,246,94469,2,0,L|242:139,1,104.500003189087,8|2,0:0|0:0,0:0:0:0:
400,33,94755,1,8,0:0:0:0:
400,33,94898,6,0,L|320:140,1,104.500003189087,2|8,0:0|0:0,0:0:0:0:
276,252,95184,2,0,P|333:260|384:250,1,104.500003189087,2|8,0:0|0:0,0:0:0:0:
511,158,95469,2,0,P|463:152|403:161,1,104.500003189087,2|8,0:0|0:0,0:0:0:0:
345,334,95755,1,2,0:0:0:0:
345,334,96041,6,0,L|229:348,1,104.500003189087,2|8,0:3|0:0,0:0:0:0:
164,216,96326,2,0,L|268:204,1,104.500003189087,2|8,0:0|0:0,0:0:0:0:
50,292,96612,2,0,P|41:225|54:175,1,104.500003189087,2|8,0:0|0:0,0:0:0:0:
35,58,96898,2,0,P|102:67|152:97,1,104.500003189087,2|8,0:2|0:2,0:2:0:0:
207,200,97112,1,0,0:0:0:0:
207,200,97184,6,0,L|223:136,1,47.5,6|8,0:0|0:0,0:0:0:0:
323,47,97398,1,0,0:0:0:0:
323,47,97469,6,0,L|301:139,1,95,6|8,0:0|0:0,0:0:0:0:
356,250,97684,1,0,0:0:0:0:
356,250,97755,6,0,L|390:105,1,142.500005435944,6|8,0:0|0:0,0:0:0:0:
486,28,97969,1,0,0:0:0:0:
486,28,98041,6,0,L|439:227,1,190,6|8,0:0|0:0,0:0:0:0:
503,326,98326,6,0,P|451:351|388:339,1,104.500003189087,2|8,0:3|0:0,0:0:0:0:
258,270,98612,2,0,P|304:247|356:250,1,104.500003189087,2|8,0:0|0:0,0:0:0:0:
145,357,98898,2,0,L|144:228,1,104.500003189087,2|8,0:0|0:0,0:0:0:0:
14,95,99184,2,0,L|14:221,1,104.500003189087,2|8,0:0|0:0,0:0:0:0:
129,145,99469,5,2,0:0:0:0:
129,145,99612,1,8,0:0:0:0:
221,42,99755,1,2,0:0:0:0:
221,42,99898,1,8,0:0:0:0:
268,196,100041,2,0,L|344:107,1,104.500003189087,2|8,0:0|0:0,0:0:0:0:
506,51,100326,2,0,L|438:146,1,104.500003189087,2|8,0:0|0:0,0:0:0:0:
358,253,100612,6,0,P|425:262|475:251,1,104.500003189087,2|8,0:3|0:0,0:0:0:0:
268,196,100898,2,0,P|255:274|275:320,1,104.500003189087,2|8,0:0|0:0,0:0:0:0:
379,351,101183,2,0,L|273:387,1,104.500003189087,2|8,0:0|0:0,0:0:0:0:
165,383,101469,2,0,L|77:309,1,104.500003189087,2|8,0:0|0:0,0:0:0:0:
16,152,101755,5,2,0:0:0:0:
200,76,101898,1,8,0:0:0:0:
96,247,102041,1,2,0:0:0:0:
82,47,102184,1,8,0:0:0:0:
209,198,102326,2,0,L|318:198,1,104.500003189087,2|8,0:0|0:0,0:0:0:0:
446,77,102612,2,0,L|333:77,1,104.500003189087,2|8,0:0|0:0,0:0:0:0:
418,175,102898,6,0,L|468:276,1,104.500003189087,2|8,0:3|0:0,0:0:0:0:
317,384,103183,2,0,L|267:283,1,104.500003189087,2|8,0:0|0:0,0:0:0:0:
260,158,103469,2,0,P|209:175|157:228,1,104.500003189087,2|8,0:0|0:0,0:0:0:0:
90,359,103755,2,0,L|195:360,1,104.500003189087,2|8,0:0|0:0,0:0:0:0:
15,231,104041,5,2,0:0:0:0:
15,231,104184,1,8,0:0:0:0:
74,75,104326,1,2,0:0:0:0:
74,75,104469,1,8,0:0:0:0:
179,209,104612,2,2,L|230:67,1,142.500005435944,2|8,0:0|0:0,0:0:0:0:
381,0,104898,2,2,L|321:162,1,142.500005435944,2|8,0:0|0:0,0:0:0:0:
444,156,105184,6,2,L|393:167,1,52.2500015945435,2|2,0:3|0:0,0:0:0:0:
439,227,105326,2,2,L|383:218,1,52.2500015945435
399,292,105469,2,2,L|358:260,1,52.2500015945435
336,335,105612,2,2,L|312:289,1,52.2500015945435
251,282,105755,6,2,L|189:282,1,52.2500015945435
149,211,105898,2,2,L|201:211,1,52.2500015945435
165,135,106041,2,2,L|103:135,1,52.2500015945435
72,63,106184,2,2,L|124:63,1,52.2500015945435
220,28,106326,6,0,P|414:130|88:187,1,836.000025512696,2|4,0:0|0:0,0:0:0:0:
256,192,107541,12,4,114326,0:0:0:0:
