osu file format v14

[General]
AudioFilename: C18H27NO3.mp3
AudioLeadIn: 0
PreviewTime: 76612
Countdown: 0
SampleSet: Normal
StackLeniency: 0.4
Mode: 0
LetterboxInBreaks: 0
WidescreenStoryboard: 0

[Editor]
DistanceSpacing: 1.2
BeatDivisor: 4
GridSize: 8
TimelineZoom: 1.8

[Metadata]
Title:C18H27NO3
TitleUnicode:C18H27NO3
Artist:Team Grimoire
ArtistUnicode:Team Grimoire
Creator:[Crz]Sword
Version:Hard
Source:SOUND VOLTEX II -infinite infection-
Tags:sdvx drumstep hardcore sahuang Gyro Zeppeli getche JQKing SnowNiNo_
BeatmapID:968179
BeatmapSetID:445836

[Difficulty]
HPDrainRate:5
CircleSize:4
OverallDifficulty:6.5
ApproachRate:8
SliderMultiplier:1.5
SliderTickRate:1

[Events]
//Background and Video events
0,0,"C18H27NO3-bg.png",0,0
//Break Periods
//Storyboard Layer 0 (Background)
//Storyboard Layer 1 (Fail)
//Storyboard Layer 2 (Pass)
//Storyboard Layer 3 (Foreground)
//Storyboard Sound Samples

[TimingPoints]
1184,285.714285714286,4,1,1,60,1,0
2326,-100,4,1,1,30,0,0
11469,-100,4,1,1,40,0,0
16041,-100,4,1,1,50,0,0
21755,-100,4,1,1,60,0,0
30826,-100,4,1,1,10,0,0
30898,-100,4,1,1,60,0,0
62326,-133.333333333333,4,1,1,60,0,0
62898,-100,4,1,1,60,0,0
89184,-100,4,1,1,60,0,1
107469,-100,4,1,1,60,0,0

[Colours]
Combo1 : 117,0,234
Combo2 : 0,255,255
Combo3 : 255,255,0
Combo4 : 0,223,0

[HitObjects]
104,86,2326,6,0,L|258:86,1,150
360,232,2898,2,0,L|209:232,1,150
37,179,3469,2,0,P|37:254|91:323,1,150
168,316,3898,1,0,0:0:0:0:
168,316,4041,2,0,B|240:329|240:329|320:317,1,150
459,208,4612,6,0,L|459:367,1,150
318,243,5184,2,0,L|318:81,1,150
486,29,5755,2,0,L|433:181,1,150
386,94,6184,1,0,0:0:0:0:
386,94,6326,2,0,B|318:110|318:110|219:90,1,150
70,30,6898,6,0,P|61:122|92:192,1,150
167,332,7469,2,0,P|191:236|166:174,1,150
266,33,8041,2,0,P|356:50|393:101,1,150
351,174,8469,1,0,0:0:0:0:
351,174,8612,2,0,B|353:234|353:234|402:320,1,150
439,134,9184,6,0,P|357:83|289:98,1,150
362,265,9755,2,0,P|282:293|220:261,1,150
62,195,10326,2,0,B|27:270|27:270|62:350,1,150
148,325,10755,1,0,0:0:0:0:
148,325,10898,2,0,B|138:276|138:276|184:175,1,150
334,87,11469,5,0,0:0:0:0:
471,202,11755,1,0,0:0:0:0:
403,369,12041,1,0,0:0:0:0:
225,356,12326,1,0,0:0:0:0:
180,182,12612,1,0,0:0:0:0:
180,182,12898,2,0,L|181:94,2,75
180,182,13469,1,0,0:0:0:0:
183,362,13755,5,0,0:0:0:0:
46,247,14041,1,0,0:0:0:0:
114,80,14327,1,0,0:0:0:0:
292,93,14612,1,0,0:0:0:0:
337,267,14898,1,0,0:0:0:0:
337,267,15184,2,0,L|336:355,2,75
337,267,15755,1,0,0:0:0:0:
365,89,16041,6,0,L|188:89,1,150
113,238,16612,2,0,L|296:238,1,150
431,173,17184,2,0,P|439:277|413:340,1,150
341,352,17612,1,0,0:0:0:0:
251,365,17755,2,0,P|160:364|97:336,1,150
56,168,18326,5,0,0:0:0:0:
56,168,18612,1,0,0:0:0:0:
183,70,18898,1,0,0:0:0:0:
183,70,19184,1,0,0:0:0:0:
207,247,19469,2,0,L|326:153,1,150
321,63,19898,1,0,0:0:0:0:
321,63,20041,2,0,P|393:101|409:187,1,150
256,192,20469,12,0,21469,0:0:0:0:
416,304,21755,6,0,L|311:304,1,75
289,229,22041,2,0,L|369:230,1,75
314,154,22326,2,0,L|209:154,2,75
267,76,22755,1,0,0:0:0:0:
267,76,23041,2,0,P|176:80|162:163,1,150
76,169,23469,2,0,L|76:94,1,75
0,44,23755,2,0,L|0:121,1,75
4,209,24041,6,0,L|29:287,1,75
115,314,24326,2,0,L|93:242,1,75
179,263,24613,2,0,L|204:341,2,75
266,284,25041,1,0,0:0:0:0:
266,284,25326,2,0,P|244:196|184:179,1,150
120,127,25755,2,0,L|173:61,1,75
288,46,26041,2,0,L|240:109,1,75
304,171,26326,6,0,P|344:147|380:147,1,75
393,233,26612,2,0,P|443:222|476:199,1,75
460,119,26898,2,0,L|414:57,2,75
460,119,27326,1,0,0:0:0:0:
293,49,27612,1,0,0:0:0:0:
123,111,27898,1,0,0:0:0:0:
123,111,28041,2,0,L|123:205,1,75
203,226,28326,2,0,L|203:139,1,75
289,123,28612,6,0,P|329:168|339:214,1,75
401,241,28898,2,0,P|353:265|314:265,1,75
246,294,29184,2,0,P|273:345|315:356,2,75
246,294,29612,1,0,0:0:0:0:
423,326,29898,1,0,0:0:0:0:
496,161,30184,1,0,0:0:0:0:
496,161,30326,2,0,L|443:81,1,75
469,10,30612,2,0,L|363:58,1,112.5
367,57,30898,6,0,P|339:106|342:148,1,75
401,187,31184,2,0,P|363:205|312:203,1,75
257,154,31469,2,0,P|195:173|177:192,1,75
250,245,31755,1,0,0:0:0:0:
250,245,31898,2,0,P|284:291|320:296,1,75
385,321,32184,1,0,0:0:0:0:
385,321,32326,2,0,L|329:378,1,75
245,367,32612,2,0,L|187:305,1,75
103,308,32898,2,0,P|131:249|150:232,1,75
168,156,33184,6,0,L|228:221,1,75
259,130,33469,2,0,L|190:64,1,75
119,47,33755,2,0,L|85:122,2,75
29,59,34184,2,0,P|14:119|94:190,1,150
140,191,34612,2,0,L|216:179,1,75
264,103,34898,2,0,L|340:91,1,75
392,18,35184,2,0,L|468:6,1,75
473,96,35469,6,0,B|468:124|468:124|473:194,1,75
391,214,35755,2,0,B|396:186|396:186|391:116,1,75
315,187,36041,2,0,P|316:243|346:277,1,75
408,290,36326,2,0,L|482:244,1,75
472,357,36612,1,0,0:0:0:0:
472,357,36755,2,0,L|380:382,1,75
310,358,37041,1,0,0:0:0:0:
310,358,37184,2,0,L|242:316,1,75
261,229,37469,2,0,L|194:186,1,75
112,220,37755,6,0,P|134:134|160:116,1,112.5
193,111,38041,2,0,L|319:112,1,112.5
344,134,38326,2,0,P|359:200|330:257,1,112.5
309,269,38612,2,0,L|189:268,1,112.5
152,277,38898,6,0,L|152:365,1,75
65,323,39184,2,0,L|65:237,1,75
26,166,39469,2,0,L|96:103,1,75
137,187,39755,2,0,L|196:140,1,75
217,54,40041,6,0,L|142:54,2,75
306,65,40469,1,0,0:0:0:0:
306,65,40612,2,0,P|362:76|391:65,1,75
464,42,40898,2,0,P|464:108|459:122,1,75
382,161,41184,1,0,0:0:0:0:
382,161,41326,2,0,P|380:219|389:247,1,75
471,209,41612,1,0,0:0:0:0:
471,209,41755,2,0,P|474:268|462:299,1,75
397,338,42041,2,0,L|316:338,1,75
271,263,42326,6,0,L|229:296,3,37.5
203,310,42612,2,0,P|160:340|123:340,1,75
64,290,42898,2,0,B|62:236|91:206,1,75
160,174,43184,2,0,P|204:190|228:224,1,75
274,283,43469,2,0,L|178:283,1,75
156,362,43755,2,0,L|61:362,1,75
10,305,44041,2,0,L|11:217,1,75
94,263,44326,2,0,L|95:171,1,75
174,25,44755,6,0,L|134:44,4,37.5
94,68,45184,2,0,L|20:108,1,75
102,153,45469,2,0,L|185:111,1,75
255,144,45755,1,0,0:0:0:0:
255,144,45898,1,0,0:0:0:0:
255,144,46041,2,0,L|280:64,1,75
366,54,46327,2,0,L|341:134,1,75
400,195,46612,2,0,P|350:212|315:211,1,75
265,147,46898,6,0,P|227:149|191:158,1,75
237,236,47184,2,0,L|238:313,1,75
310,364,47469,2,0,P|361:322|367:305,1,75
379,226,47755,2,0,P|335:196|300:190,1,75
236,236,48041,5,0,0:0:0:0:
236,236,48326,1,0,0:0:0:0:
236,236,48612,2,0,L|151:235,1,75
96,322,48898,2,0,L|190:323,1,75
253,361,49184,6,0,P|295:325|306:294,1,75
287,220,49469,2,0,P|345:230|371:252,1,75
388,323,49755,2,0,L|387:365,3,37.5
458,334,50041,2,0,L|458:293,3,37.5
458,251,50326,1,0,0:0:0:0:
458,251,50469,1,0,0:0:0:0:
458,251,50612,2,0,L|458:172,1,75
400,105,50898,1,0,0:0:0:0:
400,105,51041,1,0,0:0:0:0:
400,105,51184,2,0,L|342:156,1,75
296,76,51469,6,0,L|269:35,4,37.5
232,139,51898,1,0,0:0:0:0:
232,139,52041,2,0,L|231:228,2,75
342,281,52612,2,0,L|408:199,2,75
383,104,53184,2,0,L|311:65,1,75
227,71,53469,2,0,L|148:122,1,75
83,69,53755,5,0,0:0:0:0:
83,69,53898,1,0,0:0:0:0:
83,69,54041,2,0,P|77:137|83:161,1,75
151,195,54326,1,0,0:0:0:0:
151,195,54469,1,0,0:0:0:0:
151,195,54612,2,0,P|148:250|142:279,1,75
96,346,54898,2,0,L|153:345,4,37.5
186,347,55326,1,0,0:0:0:0:
268,309,55469,2,0,L|269:231,1,75
187,193,55755,2,0,L|187:276,1,75
100,239,56041,6,0,L|80:155,1,75
138,95,56326,1,0,0:0:0:0:
138,95,56469,1,0,0:0:0:0:
226,76,56612,2,0,L|301:107,1,75
365,179,56898,1,0,0:0:0:0:
365,179,57041,1,0,0:0:0:0:
374,317,57184,2,0,L|301:282,1,75
270,201,57469,2,0,P|220:233|207:268,1,75
216,335,57755,1,0,0:0:0:0:
216,335,57898,1,0,0:0:0:0:
216,335,58041,2,0,L|123:335,1,75
59,372,58326,6,0,P|37:291|104:238,1,150
224,81,58898,2,0,L|302:80,1,75
288,170,59184,2,0,L|378:170,1,75
419,100,59469,1,0,0:0:0:0:
419,100,59612,2,0,L|431:156,2,37.5
478,197,59898,1,0,0:0:0:0:
478,197,60041,2,0,L|429:223,7,37.5
384,165,60612,6,0,P|357:232|431:299,1,150
427,378,61184,2,0,L|340:376,1,75
298,304,61469,2,0,L|204:303,1,75
157,366,61755,1,0,0:0:0:0:
139,332,61898,1,0,0:0:0:0:
135,295,62041,1,0,0:0:0:0:
143,259,62184,1,0,0:0:0:0:
163,227,62326,2,0,P|172:150|149:56,1,168.750006437302
70,21,62898,6,0,P|56:99|87:187,1,150
144,332,63469,2,0,L|227:332,1,75
233,242,63755,2,0,L|324:243,1,75
362,325,64041,1,0,0:0:0:0:
385,275,64184,2,0,L|429:296,2,37.5
400,224,64469,1,0,0:0:0:0:
411,172,64612,2,0,L|411:97,1,75
489,142,64898,2,0,L|489:59,1,75
416,12,65184,6,0,P|337:43|321:116,1,150
308,279,65755,2,0,L|227:279,1,75
182,194,66041,2,0,L|257:194,1,75
214,108,66326,2,0,P|226:67|136:47,1,150
116,69,66755,1,0,0:0:0:0:
96,98,66898,2,0,B|80:125|80:125|100:145|100:145|77:165|77:165|100:186|100:186|74:207|74:207|98:222|98:222|83:265,1,225
115,299,67469,6,0,P|128:316|50:336,1,150
205,377,68041,2,0,L|294:377,1,75
248,292,68326,2,0,L|353:292,1,75
407,259,68612,1,0,0:0:0:0:
429,211,68755,2,0,L|480:211,2,37.5
411,164,69041,1,0,0:0:0:0:
396,119,69184,2,0,L|358:47,1,75
271,44,69469,2,0,L|309:123,1,75
235,172,69755,6,0,P|217:139|178:207,1,150
50,58,70326,2,0,L|50:136,1,75
139,116,70612,2,0,L|139:203,1,75
56,272,70898,2,0,L|147:272,3,75
225,230,71469,2,0,P|228:286|94:357,1,225
291,333,72041,6,0,P|334:309|310:377,1,150
466,256,72612,2,0,L|380:255,1,75
409,166,72898,2,0,L|321:166,1,75
330,74,73184,1,0,0:0:0:0:
250,33,73326,2,0,L|251:96,2,37.5
169,74,73612,1,0,0:0:0:0:
214,152,73755,2,0,L|289:152,3,75
147,166,74326,6,0,P|115:161|153:218,1,150
322,213,74898,2,0,L|251:243,1,75
179,295,75184,2,0,L|263:334,1,75
336,321,75469,1,0,0:0:0:0:
384,311,75611,1,0,0:0:0:0:
422,279,75754,1,0,0:0:0:0:
438,233,75897,1,0,0:0:0:0:
436,183,76041,2,0,P|366:125|377:212,1,225
372,210,76612,5,0,0:0:0:0:
303,66,77469,2,0,L|338:144,1,75
376,214,77755,5,0,0:0:0:0:
203,168,78612,2,0,L|285:194,1,75
376,214,78898,5,0,0:0:0:0:
221,307,79755,2,0,L|293:268,1,75
376,214,80041,5,0,0:0:0:0:
334,383,80898,2,0,L|356:300,1,75
376,214,81184,6,0,L|223:214,1,150
138,60,81755,2,0,L|297:60,1,150
459,101,82326,2,0,P|420:188|360:217,1,150
216,155,82898,2,0,L|216:319,1,150
358,188,83469,5,0,0:0:0:0:
333,160,83754,1,0,0:0:0:0:
309,131,84040,1,0,0:0:0:0:
285,103,84326,1,0,0:0:0:0:
257,76,84612,6,0,L|197:122,1,75
80,119,84898,2,0,L|157:184,1,75
257,178,85184,2,0,L|197:224,1,75
80,221,85470,2,0,L|157:286,1,75
216,297,85755,6,0,L|256:296,15,37.5
256,192,86898,12,0,87755,0:0:0:0:
184,139,88041,6,0,L|184:185,15,37.5
182,225,89184,6,0,L|239:275,1,75
380,275,89469,2,0,L|314:210,1,75
348,136,89755,2,0,L|436:136,1,75
356,48,90041,2,0,L|273:48,1,75
189,39,90326,2,0,P|148:55|121:80,2,75
197,130,90755,1,0,0:0:0:0:
197,130,90898,2,0,L|278:130,1,75
322,236,91184,2,0,L|237:236,1,75
144,203,91469,6,0,P|140:258|153:297,1,75
209,341,91755,2,0,P|170:367|122:362,1,75
31,314,92041,2,0,L|72:238,1,75
18,179,92326,2,0,L|52:111,1,75
118,51,92612,5,0,0:0:0:0:
118,51,92755,1,0,0:0:0:0:
118,51,92898,1,0,0:0:0:0:
118,51,93041,1,0,0:0:0:0:
118,51,93184,2,0,L|193:50,1,75
171,154,93469,2,0,L|246:154,1,75
282,71,93755,6,0,P|327:107|331:133,1,75
353,210,94041,2,0,L|433:210,1,75
483,305,94326,2,0,L|394:305,1,75
297,354,94612,2,0,P|294:307|298:272,1,75
265,203,94898,2,0,L|187:203,2,75
334,145,95326,2,0,L|267:85,1,75
69,81,95755,5,0,0:0:0:0:
69,81,96041,2,0,L|158:83,1,75
206,184,96326,2,0,L|110:181,1,75
45,274,96612,2,0,L|134:276,1,75
183,377,96898,2,0,L|87:374,1,75
224,311,97184,5,0,0:0:0:0:
157,140,97469,1,0,0:0:0:0:
328,75,97755,1,0,0:0:0:0:
391,244,98041,1,0,0:0:0:0:
240,286,98326,6,0,L|318:286,1,75
419,378,98612,2,0,L|329:377,1,75
402,294,98898,2,0,L|413:212,1,75
502,209,99184,2,0,L|481:121,1,75
418,75,99469,2,0,L|341:75,2,75
382,158,99898,1,0,0:0:0:0:
382,158,100041,2,0,L|298:201,1,75
225,193,100326,2,0,L|152:153,1,75
94,105,100612,6,0,L|94:25,1,75
10,95,100898,2,0,L|10:182,1,75
93,266,101184,2,0,L|92:190,1,75
9,258,101469,2,0,L|9:344,1,75
92,362,101755,2,0,L|166:334,1,75
223,268,102041,1,0,0:0:0:0:
223,268,102184,1,0,0:0:0:0:
223,268,102326,2,0,L|180:198,1,75
199,70,102612,2,0,L|244:145,1,75
359,222,102898,6,0,L|317:155,1,75
346,34,103184,2,0,L|396:112,1,75
442,167,103469,2,0,L|441:259,1,75
486,320,103755,2,0,L|404:358,1,75
327,353,104041,5,0,0:0:0:0:
327,353,104184,1,0,0:0:0:0:
327,353,104326,2,0,L|246:354,1,75
161,257,104612,5,0,0:0:0:0:
161,257,104755,1,0,0:0:0:0:
161,257,104898,2,0,L|242:256,1,75
347,251,105184,5,0,0:0:0:0:
347,251,105327,1,0,0:0:0:0:
347,251,105469,2,0,L|348:170,1,75
251,85,105755,5,0,0:0:0:0:
251,85,105898,1,0,0:0:0:0:
251,85,106041,2,0,L|250:166,1,75
256,192,106326,12,0,107469,0:0:0:0:
256,192,107541,12,0,114326,0:0:0:0:
