osu file format v14

[General]
AudioFilename: audio.mp3
AudioLeadIn: 0
PreviewTime: -1
Countdown: 0
SampleSet: Soft
StackLeniency: 0.2
Mode: 0
LetterboxInBreaks: 0
WidescreenStoryboard: 0

[Editor]
Bookmarks: 195725
DistanceSpacing: 1
BeatDivisor: 4
GridSize: 8
TimelineZoom: 1.9

[Metadata]
Title:- Mei - Thanatos remix -
TitleUnicode:- 冥 - Θάνατος remix -
Artist:Team Grimoire
ArtistUnicode:Team Grimoire
Creator:Weriko
Version:Death
Source:
Tags:
BeatmapID:1276206
BeatmapSetID:604121

[Difficulty]
HPDrainRate:1
CircleSize:4
OverallDifficulty:9.5
ApproachRate:10
SliderMultiplier:2.2
SliderTickRate:1

[Events]
//Background and Video events
0,0,"324146.jpg",0,0
//Break Periods
//Storyboard Layer 0 (Background)
//Storyboard Layer 1 (Fail)
//Storyboard Layer 2 (Pass)
//Storyboard Layer 3 (Foreground)
//Storyboard Sound Samples

[TimingPoints]
200,300,4,2,1,70,1,0
200,-400,4,2,1,25,0,0
38600,-100,4,2,1,70,0,0
39500,-76.9230769230769,4,2,1,70,0,0
53000,-100,4,2,1,70,0,0
54200,-76.9230769230769,4,2,1,70,0,0
60200,-100,4,2,1,70,0,0
61400,-76.9230769230769,4,2,1,70,0,0
67400,-74.0740740740741,4,2,1,70,0,0
68600,-71.4285714285714,4,2,1,70,0,0
69800,-68.9655172413793,4,2,1,70,0,0
71000,-66.6666666666667,4,2,1,70,0,0
72200,-64.5161290322581,4,2,1,70,0,0
72800,-62.5,4,2,1,70,0,0
73400,-58.8235294117647,4,2,1,70,0,0
74000,-55.5555555555556,4,2,1,70,0,0
74600,-52.6315789473684,4,2,1,70,0,0
75200,-50,4,2,1,70,0,0
76400,-200,4,2,1,70,0,0
77000,-100,4,2,1,70,0,1
79100,-90.9090909090909,4,2,1,70,0,1
79400,-100,4,2,1,70,0,1
95600,-100,4,2,1,70,0,0
96200,-86.9565217391304,4,2,1,70,0,1
98300,-80,4,2,1,70,0,1
98600,-86.9565217391304,4,2,1,70,0,1
110750,-76.9230769230769,4,2,1,70,0,1
113000,-66.6666666666667,4,2,1,70,0,1
114200,-60.6060606060606,4,2,1,70,0,1
115400,-60.6060606060606,4,2,1,70,0,0
120200,-200,4,2,1,70,0,0
134600,-133.333333333333,4,2,1,70,0,0
145400,-100,4,2,1,70,0,0
149000,-80,4,2,1,70,0,0
151400,-66.6666666666667,4,2,1,70,0,0
152600,-57.1428571428571,4,2,1,70,0,0
153800,-66.6666666666667,4,2,1,70,0,0
154100,-133.333333333333,4,2,1,70,0,0
156200,-66.6666666666667,4,2,1,70,0,0
158150,-133.333333333333,4,2,1,70,0,0
159200,-66.6666666666667,4,2,1,70,0,0
160550,-133.333333333333,4,2,1,70,0,0
161000,-66.6666666666667,4,2,1,70,0,0
162800,-200,4,2,1,70,0,0
163400,-66.6666666666667,4,2,1,70,0,0
163700,-133.333333333333,4,2,1,70,0,0
164000,-66.6666666666667,4,2,1,70,0,0
164900,-133.333333333333,4,2,1,70,0,0
165200,-66.6666666666667,4,2,1,70,0,0
165800,-66.6666666666667,4,2,1,70,0,0
166100,-133.333333333333,4,2,1,70,0,0
166400,-66.6666666666667,4,2,1,70,0,0
168500,-133.333333333333,4,2,1,70,0,0
168800,-66.6666666666667,4,2,1,70,0,0
170900,-133.333333333333,4,2,1,70,0,0
171200,-66.6666666666667,4,2,1,70,0,0
178100,-133.333333333333,4,2,1,70,0,0
178400,-62.5,4,2,1,70,0,0
178700,-117.647058823529,4,2,1,70,0,0
179000,-58.8235294117647,4,2,1,70,0,0
179300,-105.263157894737,4,2,1,70,0,0
179600,-55.5555555555556,4,2,1,70,0,0
179900,-95.2380952380952,4,2,1,70,0,0
180200,-76.9230769230769,4,2,1,70,0,0
180800,-71.4285714285714,4,2,1,70,0,0
181400,-66.6666666666667,4,2,1,70,0,0
181700,-62.5,4,2,1,70,0,0
181850,-58.8235294117647,4,2,1,70,0,0
182300,-55.5555555555556,4,2,1,70,0,0
183800,-90.9090909090909,4,2,1,70,0,1
185900,-83.3333333333333,4,2,1,70,0,1
186200,-90.9090909090909,4,2,1,70,0,1
203750,-66.6666666666667,4,2,1,70,0,1
205400,-86.9565217391304,4,2,1,70,0,1
206000,-66.6666666666667,4,2,1,70,0,1
207800,-86.9565217391304,4,2,1,70,0,1
208700,-66.6666666666667,4,2,1,70,0,1
210200,-86.9565217391304,4,2,1,70,0,1
210800,-66.6666666666667,4,2,1,70,0,1
212000,-86.9565217391304,4,2,1,70,0,1
212600,-66.6666666666667,4,2,1,70,0,1
213800,-86.9565217391304,4,2,1,70,0,1
214400,-66.6666666666667,4,2,1,70,0,1
218000,-62.5,4,2,1,70,0,1
220400,-58.8235294117647,4,2,1,70,0,1
221000,-66.6666666666667,4,2,1,70,0,1
221300,-62.5,4,2,1,70,0,1
221600,-58.8235294117647,4,2,1,70,0,1
221900,-55.5555555555556,4,2,1,70,0,1
223400,-200,4,2,1,70,0,0
241400,-200,4,2,1,70,0,0
252200,-166.666666666667,4,2,1,70,0,0
253400,-142.857142857143,4,2,1,70,0,0
254600,-125,4,2,1,70,0,0
255800,-111.111111111111,4,2,1,70,0,0
257000,-100,4,2,1,70,0,0
258200,-86.9565217391304,4,2,1,70,0,0
259400,-66.6666666666667,4,2,1,70,0,0
260600,-66.6666666666667,4,2,1,70,0,0
260900,-133.333333333333,4,2,1,70,0,0
263000,-66.6666666666667,4,2,1,70,0,0
264950,-133.333333333333,4,2,1,70,0,0
266000,-66.6666666666667,4,2,1,70,0,0
267350,-133.333333333333,4,2,1,70,0,0
267800,-66.6666666666667,4,2,1,70,0,0
269600,-200,4,2,1,70,0,0
270200,-66.6666666666667,4,2,1,70,0,0
270500,-133.333333333333,4,2,1,70,0,0
270800,-66.6666666666667,4,2,1,70,0,0
271400,-133.333333333333,4,2,1,70,0,0
272000,-66.6666666666667,4,2,1,70,0,0
275300,-133.333333333333,4,2,1,70,0,0
275600,-66.6666666666667,4,2,1,70,0,0
277700,-133.333333333333,4,2,1,70,0,0
278000,-66.6666666666667,4,2,1,70,0,0
284900,-133.333333333333,4,2,1,70,0,0
285200,-62.5,4,2,1,70,0,0
285200,-66.6666666666667,4,2,1,70,0,0
285500,-117.647058823529,4,2,1,70,0,0
285800,-66.6666666666667,4,2,1,70,0,0
286100,-105.263157894737,4,2,1,70,0,0
286400,-58.8235294117647,4,2,1,70,0,0
286700,-95.2380952380952,4,2,1,70,0,0
290900,-133.333333333333,4,2,1,70,0,0
319400,-76.9230769230769,4,2,1,70,0,1
320000,-57.1428571428571,4,2,1,70,0,1
320300,-76.9230769230769,4,2,1,70,0,1
320600,-57.1428571428571,4,2,1,70,0,1
320900,-76.9230769230769,4,2,1,70,0,1
321950,-57.1428571428571,4,2,1,70,0,1
325550,-66.6666666666667,4,2,1,70,0,1
326750,-57.1428571428571,4,2,1,70,0,1
327650,-76.9230769230769,4,2,1,70,0,1
329000,-57.1428571428571,4,2,1,70,0,1
338600,-66.6666666666667,4,2,1,70,0,1
341000,-57.1428571428571,4,2,1,70,0,1
343400,-76.9230769230769,4,2,1,70,0,1
344600,-71.4285714285714,4,2,1,70,0,1
345200,-66.6666666666667,4,2,1,70,0,1
346400,-62.5,4,2,1,70,0,1
347000,-58.8235294117647,4,2,1,70,0,1
347600,-55.5555555555556,4,2,1,70,0,1
348200,-55.5555555555556,4,2,1,70,0,0
349400,-200,4,2,1,70,0,0
353000,300,4,2,1,70,1,0
353000,-200,4,2,1,70,0,0
353600,315.789473684211,4,2,1,70,1,0
353600,-200,4,2,1,70,0,0
354231,333.333333333333,4,2,1,70,1,0
354675,405.405405405405,4,2,1,70,1,0
354675,-200,4,2,1,70,0,0
355485,428.571428571429,4,2,1,70,1,0
356342,400,4,2,1,70,1,0
356342,-200,4,2,1,70,0,0
357142,375,4,2,1,70,1,0
358267,750,4,2,1,70,1,0
359767,666.666666666667,4,2,1,70,1,0
359767,-200,4,2,1,70,0,0
361100,666.666666666667,4,2,1,70,1,0
361100,-181.818181818182,4,2,1,70,0,0

[Colours]
Combo1 : 197,29,220
Combo2 : 255,0,0
Combo3 : 247,68,9
Combo4 : 230,204,26
Combo5 : 182,217,100
Combo6 : 95,203,157
Combo7 : 56,107,169
Combo8 : 103,79,155

[HitObjects]
0,160,200,6,0,B|128:32|224:288|373:138,1,398.75
398,120,2450,5,0,0:0:0:0:
398,120,2525,1,0,0:0:0:0:
398,120,2600,2,0,L|399:151,1,27.5
494,222,2900,2,0,L|493:253,1,27.5
416,154,3200,2,0,L|417:185,1,27.5
512,256,3500,2,0,L|511:287,1,27.5
91,201,5000,6,0,B|119:172|119:172|62:143|62:85|119:85|119:85|148:57|148:57|177:85|177:85|234:85|234:143|177:172|177:172|206:201,1,426.25
234,216,7400,6,0,L|265:217,1,27.5
336,312,7700,2,0,L|367:311,1,27.5
268,234,8000,2,0,L|299:235,1,27.5
370,330,8300,2,0,L|401:329,1,27.5
448,64,9800,6,0,B|416:32|416:32|352:64|352:64|256:32|256:32|224:32|224:32|256:64|320:96|272:158,1,398.75
252,197,12050,5,0,0:0:0:0:
252,197,12125,1,0,0:0:0:0:
252,197,12200,2,0,L|221:198,1,27.5
150,293,12500,2,0,L|119:292,1,27.5
218,215,12800,2,0,L|187:216,1,27.5
116,311,13100,2,0,L|85:310,1,27.5
109,165,13400,6,0,P|114:118|154:77,1,96.25
145,81,14000,2,0,P|140:128|100:169,1,96.25
108,164,14600,6,0,B|97:123|143:155|145:77,1,96.25
144,81,15200,2,0,B|143:155|112:112|108:164,1,96.25
108,163,15800,2,0,L|12:187,1,96.25
75,248,16400,2,0,L|145:228,1,68.75
206,205,16850,5,0,0:0:0:0:
206,205,16925,1,0,0:0:0:0:
206,205,17000,2,0,L|207:236,1,27.5
302,307,17300,2,0,L|301:338,1,27.5
224,239,17600,2,0,L|225:270,1,27.5
320,341,17900,2,0,L|319:372,1,27.5
463,273,18200,6,0,P|454:241|437:218,1,55
362,145,18650,2,0,P|347:121|340:95,1,55
210,78,19100,1,0,0:0:0:0:
206,205,19250,5,0,0:0:0:0:
206,205,19325,1,0,0:0:0:0:
206,205,19400,2,0,L|207:236,1,27.5
302,307,19700,2,0,L|301:338,1,27.5
224,239,20000,2,0,L|225:270,1,27.5
320,341,20300,2,0,L|319:372,1,27.5
158,341,20600,6,0,P|133:305|128:291,1,55
94,185,21050,2,0,P|82:160|65:138,1,55
171,41,21500,1,0,0:0:0:0:
325,81,21650,5,0,0:0:0:0:
325,81,21725,1,0,0:0:0:0:
325,81,21800,2,0,L|356:82,1,27.5
427,177,22100,2,0,L|458:176,1,27.5
359,99,22400,2,0,L|390:100,1,27.5
461,195,22700,2,0,L|492:194,1,27.5
373,303,23000,6,0,L|343:302,1,27.5
236,241,23300,1,0,0:0:0:0:
141,161,23450,2,0,L|111:162,1,27.5
4,223,23750,1,0,0:0:0:0:
111,307,23900,1,0,0:0:0:0:
236,241,24050,5,0,0:0:0:0:
236,241,24125,1,0,0:0:0:0:
236,241,24200,2,0,L|267:242,1,27.5
338,337,24500,2,0,L|369:336,1,27.5
270,259,24800,2,0,L|301:260,1,27.5
372,355,25100,2,0,L|403:354,1,27.5
428,224,25400,6,0,P|406:186|401:164,1,55
243,86,25850,1,0,0:0:0:0:
174,209,26000,2,0,P|192:211|204:208,1,27.5
243,86,26300,1,0,0:0:0:0:
87,45,26450,5,0,0:0:0:0:
87,45,26525,1,0,0:0:0:0:
87,45,26600,2,0,L|88:76,1,27.5
183,147,26900,2,0,L|182:178,1,27.5
105,79,27200,2,0,L|106:110,1,27.5
201,181,27500,2,0,L|200:212,1,27.5
75,299,27800,6,0,L|103:313,1,27.5
233,329,28100,1,0,0:0:0:0:
199,208,28250,1,0,0:0:0:0:
199,208,28325,1,0,0:0:0:0:
199,208,28400,2,0,L|228:189,1,27.5
386,118,28700,1,0,0:0:0:0:
335,251,28850,1,0,0:0:0:0:
221,87,29000,6,0,L|222:118,1,27.5
317,189,29300,2,0,L|316:220,1,27.5
239,121,29600,2,0,L|240:152,1,27.5
335,223,29900,2,0,L|334:254,1,27.5
211,303,30200,5,0,0:0:0:0:
241,148,30350,1,0,0:0:0:0:
333,250,30500,2,0,L|300:251,1,27.5
145,210,30800,2,0,L|144:177,1,27.5
177,35,31100,1,0,0:0:0:0:
340,148,31250,5,0,0:0:0:0:
340,148,31325,1,0,0:0:0:0:
340,148,31400,2,0,L|309:147,1,27.5
238,52,31700,2,0,L|207:53,1,27.5
306,130,32000,2,0,L|275:129,1,27.5
204,34,32300,2,0,L|173:35,1,27.5
25,73,32600,5,0,0:0:0:0:
133,191,32750,1,0,0:0:0:0:
178,35,32900,1,0,0:0:0:0:
25,73,33050,1,0,0:0:0:0:
133,191,33200,2,0,L|167:188,1,27.5
311,174,33500,1,0,0:0:0:0:
226,324,33650,5,0,0:0:0:0:
226,324,33725,1,0,0:0:0:0:
226,324,33800,2,0,L|221:289,1,27.5
311,174,34100,2,0,L|306:139,1,27.5
244,305,34400,2,0,L|239:270,1,27.5
329,155,34700,2,0,L|324:120,1,27.5
150,40,35000,5,0,0:0:0:0:
243,278,35150,1,0,0:0:0:0:
326,129,35300,1,0,0:0:0:0:
78,180,35450,1,0,0:0:0:0:
331,157,35600,1,0,0:0:0:0:
150,40,35750,1,0,0:0:0:0:
243,278,35900,1,0,0:0:0:0:
59,139,36050,1,0,0:0:0:0:
326,129,36200,6,0,L|366:125,1,27.5
72,296,36500,2,0,L|32:292,1,27.5
368,217,36800,5,0,0:0:0:0:
72,296,36950,1,0,0:0:0:0:
354,125,37100,1,0,0:0:0:0:
237,348,37250,1,0,0:0:0:0:
190,40,37400,1,0,0:0:0:0:
356,226,37550,1,0,0:0:0:0:
14,104,37700,6,0,L|52:95,1,27.5
245,269,38000,2,0,L|207:260,1,27.5
381,57,38300,2,0,L|419:48,1,27.5
449,246,38600,6,0,B|366:257|333:188|333:188|368:182,1,165
394,186,38900,1,0,0:0:0:0:
242,310,39050,1,0,0:0:0:0:
292,120,39200,1,0,0:0:0:0:
362,303,39350,1,0,0:0:0:0:
198,197,39500,1,0,0:0:0:0:
395,299,39650,1,0,0:0:0:0:
171,175,39800,6,0,B|103:160|74:137|74:137|74:211|19:237,1,214.49999018097
1,234,40100,1,0,0:0:0:0:
185,298,40250,1,0,0:0:0:0:
73,136,40400,1,0,0:0:0:0:
70,332,40550,1,0,0:0:0:0:
188,176,40700,1,0,0:0:0:0:
38,340,40850,1,0,0:0:0:0:
206,146,41000,6,0,B|273:102|359:114|359:114|349:187,1,214.49999018097
342,197,41300,1,0,0:0:0:0:
247,349,41450,1,0,0:0:0:0:
216,173,41600,1,0,0:0:0:0:
356,292,41750,1,0,0:0:0:0:
160,264,41900,1,0,0:0:0:0:
391,299,42050,1,0,0:0:0:0:
131,234,42200,6,0,P|118:150|216:68,1,214.49999018097
265,71,42500,1,0,0:0:0:0:
360,223,42650,1,0,0:0:0:0:
391,47,42800,1,0,0:0:0:0:
251,166,42950,1,0,0:0:0:0:
447,138,43100,1,0,0:0:0:0:
216,173,43250,1,0,0:0:0:0:
484,138,43400,6,0,B|445:214|445:214|465:276|465:276|430:348,1,214.49999018097
412,358,43700,1,0,0:0:0:0:
212,207,43850,1,0,0:0:0:0:
473,109,44000,6,0,P|432:70|321:71,1,142.99999345398
128,248,44300,2,0,P|169:287|280:286,1,142.99999345398
385,143,44600,2,0,L|330:290,1,142.99999345398
128,248,44900,2,0,L|183:101,1,142.99999345398
31,251,45200,2,0,P|54:324|160:338,1,142.99999345398
277,117,45500,2,0,P|254:44|148:30,1,142.99999345398
37,222,45800,6,0,B|80:177|80:177|153:234|226:197|226:197|278:214,1,214.49999018097
259,163,46100,1,0,0:0:0:0:
411,287,46250,1,0,0:0:0:0:
361,97,46400,1,0,0:0:0:0:
291,280,46550,1,0,0:0:0:0:
470,169,46700,1,0,0:0:0:0:
258,276,46850,1,0,0:0:0:0:
488,162,47000,6,0,B|480:95|480:95|427:101|385:53|396:-1,1,214.49999018097
474,17,47300,1,0,0:0:0:0:
269,135,47450,1,0,0:0:0:0:
504,160,47600,1,0,0:0:0:0:
328,2,47750,1,0,0:0:0:0:
377,232,47900,1,0,0:0:0:0:
297,3,48050,1,0,0:0:0:0:
381,272,48200,6,0,B|337:266|316:222|316:222|268:278|268:278|250:251|163:262,1,214.49999018097
166,251,48500,1,0,0:0:0:0:
42,99,48650,1,0,0:0:0:0:
232,149,48800,1,0,0:0:0:0:
49,219,48950,1,0,0:0:0:0:
160,40,49100,1,0,0:0:0:0:
53,252,49250,1,0,0:0:0:0:
199,19,49400,6,0,B|220:68|300:45|300:45|346:98|403:99,1,214.49999018097
425,98,49700,1,0,0:0:0:0:
235,148,49850,1,0,0:0:0:0:
418,218,50000,1,0,0:0:0:0:
307,39,50150,1,0,0:0:0:0:
301,250,50300,1,0,0:0:0:0:
344,18,50450,1,0,0:0:0:0:
283,282,50600,6,0,B|218:292|186:240|186:240|164:298|112:316,1,214.49999018097
103,222,50900,1,0,0:0:0:0:
301,250,51050,1,0,0:0:0:0:
125,335,51200,1,0,0:0:0:0:
220,147,51350,1,0,0:0:0:0:
244,357,51500,1,0,0:0:0:0:
181,130,51650,1,0,0:0:0:0:
374,51,51800,6,0,P|405:133|384:189,1,142.99999345398
121,61,52100,2,0,P|90:143|111:199,1,142.99999345398
390,60,52400,2,0,P|421:124|405:192,1,142.99999345398
123,182,52700,1,0,0:0:0:0:
332,127,52850,5,0,0:0:0:0:
332,127,52925,1,0,0:0:0:0:
332,127,53000,2,0,L|330:245,1,110
201,235,53300,2,0,L|199:353,1,110
318,139,53600,2,0,L|316:257,1,110
187,247,53900,2,0,L|185:365,1,110
31,195,54200,6,0,B|50:148|86:153|86:153|85:104|103:73|103:73|153:23,1,214.49999018097
187,15,54500,1,0,0:0:0:0:
266,184,54650,1,0,0:0:0:0:
301,0,54800,1,0,0:0:0:0:
165,127,54950,1,0,0:0:0:0:
348,105,55100,1,0,0:0:0:0:
123,122,55250,1,0,0:0:0:0:
421,240,55400,5,0,0:0:0:0:
31,195,55550,1,0,0:0:0:0:
446,235,55700,2,0,B|466:266|492:233|486:206|459:195|459:195|453:142|453:142|477:95|477:95|477:-6,1,285.99998690796
128,82,56150,1,0,0:0:0:0:
333,96,56300,6,0,B|381:86|406:122|359:193|288:190|220:145|214:45|340:9,1,285.99998690796
495,189,56750,1,0,0:0:0:0:
87,192,56900,1,0,0:0:0:0:
506,165,57050,6,0,B|471:167|433:114|433:114|373:148|373:148|330:169|263:156|254:101,1,285.99998690796
103,12,57500,6,0,B|46:59|46:59|94:93|94:93|123:152|110:196,1,214.49999018097
37,192,57800,2,0,B|95:166|115:172|115:172|154:247|234:218,1,214.49999018097
263,218,58100,1,0,0:0:0:0:
390,42,58250,1,0,0:0:0:0:
390,259,58400,1,0,0:0:0:0:
263,84,58550,1,0,0:0:0:0:
467,151,58700,1,0,0:0:0:0:
220,57,58850,1,0,0:0:0:0:
511,154,59000,6,0,B|454:155|487:268|487:268|470:324|470:324|432:348,1,214.49999018097
415,339,59300,1,0,0:0:0:0:
385,155,59450,1,0,0:0:0:0:
301,320,59600,1,0,0:0:0:0:
466,236,59750,1,0,0:0:0:0:
283,207,59900,1,0,0:0:0:0:
502,229,60050,1,0,0:0:0:0:
239,195,60200,6,0,L|110:179,1,110
109,65,60500,2,0,L|-20:49,1,110
241,185,60800,2,0,L|112:169,1,110
111,55,61100,2,0,L|-18:39,1,110
235,39,61400,6,0,B|294:61|359:24|359:24|328:106|360:164,1,214.49999018097
374,149,61700,1,0,0:0:0:0:
344,333,61850,1,0,0:0:0:0:
260,168,62000,1,0,0:0:0:0:
425,252,62150,1,0,0:0:0:0:
242,281,62300,1,0,0:0:0:0:
461,259,62450,1,0,0:0:0:0:
210,278,62600,6,0,P|146:242|136:130,1,142.99999345398
302,106,62900,2,0,P|366:142|376:254,1,142.99999345398
198,303,63200,2,0,B|120:333|120:333|11:333,1,142.99999345398
314,81,63500,2,0,B|392:51|392:51|501:51,1,142.99999345398
314,303,63800,6,0,B|392:333|392:333|501:333,1,142.99999345398
198,81,64100,2,0,B|120:51|120:51|11:51,1,142.99999345398
180,212,64400,2,0,P|120:138|160:48,1,142.99999345398
332,212,64700,2,0,P|392:138|352:48,1,142.99999345398
200,268,65000,6,0,B|148:262|148:262|74:273|74:273|-6:216,1,214.49999018097
3,165,65300,1,0,0:0:0:0:
177,98,65450,1,0,0:0:0:0:
84,242,65600,1,0,0:0:0:0:
66,69,65750,1,0,0:0:0:0:
187,237,65900,1,0,0:0:0:0:
54,34,66050,1,0,0:0:0:0:
200,268,66200,6,0,B|252:262|252:262|326:273|326:273|406:216,1,214.49999018097
397,165,66500,1,0,0:0:0:0:
223,98,66650,1,0,0:0:0:0:
316,242,66800,1,0,0:0:0:0:
334,69,66950,1,0,0:0:0:0:
213,237,67100,1,0,0:0:0:0:
346,34,67250,1,0,0:0:0:0:
202,270,67400,6,0,B|118:323|118:323|152:257|73:211,1,222.750000849724
52,197,67700,1,0,0:0:0:0:
192,65,67850,1,0,0:0:0:0:
1,89,68000,1,0,0:0:0:0:
169,182,68150,1,0,0:0:0:0:
87,24,68300,1,0,0:0:0:0:
189,211,68450,1,0,0:0:0:0:
60,0,68600,6,0,B|125:-2|125:-2|162:13|250:20|250:20|330:52,1,230.99999295044
322,52,68900,1,0,0:0:0:0:
322,252,69050,1,0,0:0:0:0:
204,90,69200,1,0,0:0:0:0:
394,152,69350,1,0,0:0:0:0:
204,213,69500,1,0,0:0:0:0:
425,138,69650,1,0,0:0:0:0:
170,211,69800,6,0,B|110:258|110:258|148:305|148:305|210:290|235:364,1,239.250007301331
241,382,70100,1,0,0:0:0:0:
374,191,70250,1,0,0:0:0:0:
154,267,70400,1,0,0:0:0:0:
376,335,70550,1,0,0:0:0:0:
236,149,70700,1,0,0:0:0:0:
407,351,70850,1,0,0:0:0:0:
212,108,71000,6,0,B|234:146|297:124|314:91|280:45|280:45|395:63,1,247.500009441376
399,67,71300,1,0,0:0:0:0:
399,321,71450,1,0,0:0:0:0:
249,116,71600,1,0,0:0:0:0:
491,194,71750,1,0,0:0:0:0:
249,273,71900,1,0,0:0:0:0:
507,164,72050,1,0,0:0:0:0:
218,273,72200,6,0,P|144:258|97:137,1,170.500001300812
397,203,72500,2,0,P|353:131|273:112,1,170.500001300812
307,332,72800,2,0,P|378:288|396:201,1,176
204,331,73100,2,0,P|131:285|114:201,1,176
388,40,73400,6,0,B|416:90|416:90|467:126|467:126|501:231,1,187.000003566742
124,40,73700,2,0,B|96:90|96:90|45:126|45:126|11:231,1,187.000003566742
447,293,74000,2,0,B|373:277|373:277|309:275|309:275|255:196,1,197.99999395752
65,293,74300,2,0,B|139:277|139:277|203:275|203:275|257:196,1,197.99999395752
483,305,74600,6,0,B|455:257|455:257|485:197|485:197|463:97,1,208.999994419098
29,305,74900,2,0,B|57:257|57:257|27:197|27:197|49:97,1,208.999994419098
446,311,75200,2,0,B|481:306|481:306|455:257|455:257|486:194|486:194|470:142|470:142|473:84,1,220
66,311,75500,2,0,B|30:306|30:306|57:257|57:257|26:194|26:194|42:142|42:142|39:84,1,220
256,192,75800,1,0,0:0:0:0:
393,120,76400,5,0,0:0:0:0:
401,109,76475,1,0,0:0:0:0:
407,100,76550,1,0,0:0:0:0:
414,91,76625,1,0,0:0:0:0:
420,82,76700,1,0,0:0:0:0:
426,73,76775,1,0,0:0:0:0:
433,64,76850,1,0,0:0:0:0:
439,55,76925,1,0,0:0:0:0:
459,16,77000,5,0,0:0:0:0:
406,0,77075,1,0,0:0:0:0:
352,9,77150,1,0,0:0:0:0:
308,40,77225,1,0,0:0:0:0:
282,88,77300,1,0,0:0:0:0:
279,142,77375,1,0,0:0:0:0:
300,193,77450,5,0,0:0:0:0:
258,157,77525,1,0,0:0:0:0:
206,142,77600,1,0,0:0:0:0:
152,151,77675,1,0,0:0:0:0:
107,182,77750,1,0,0:0:0:0:
53,190,77825,1,0,0:0:0:0:
7,169,77900,5,0,0:0:0:0:
59,156,77975,1,0,0:0:0:0:
107,182,78050,1,0,0:0:0:0:
149,216,78125,1,0,0:0:0:0:
201,231,78200,1,0,0:0:0:0:
255,222,78275,1,0,0:0:0:0:
300,191,78350,5,0,0:0:0:0:
246,200,78425,1,0,0:0:0:0:
201,231,78500,1,0,0:0:0:0:
182,281,78575,1,0,0:0:0:0:
197,333,78650,1,0,0:0:0:0:
240,367,78725,1,0,0:0:0:0:
297,374,78800,5,0,0:0:0:0:
313,322,78875,1,0,0:0:0:0:
297,270,78950,1,0,0:0:0:0:
255,236,79025,1,0,0:0:0:0:
201,231,79100,1,0,0:0:0:0:
154,194,79175,1,0,0:0:0:0:
141,136,79250,1,0,0:0:0:0:
168,83,79325,1,0,0:0:0:0:
222,59,79400,5,0,0:0:0:0:
225,86,79475,1,0,0:0:0:0:
246,137,79550,5,0,0:0:0:0:
242,164,79625,1,0,0:0:0:0:
197,204,79700,5,0,0:0:0:0:
201,231,79775,1,0,0:0:0:0:
237,272,79850,5,0,0:0:0:0:
284,244,79925,1,0,0:0:0:0:
338,239,80000,1,0,0:0:0:0:
390,256,80075,1,0,0:0:0:0:
338,293,80150,5,0,0:0:0:0:
338,239,80225,1,0,0:0:0:0:
365,192,80300,1,0,0:0:0:0:
418,185,80375,1,0,0:0:0:0:
466,210,80450,1,0,0:0:0:0:
489,259,80525,1,0,0:0:0:0:
480,312,80600,1,0,0:0:0:0:
441,350,80675,1,0,0:0:0:0:
387,358,80750,1,0,0:0:0:0:
336,337,80825,1,0,0:0:0:0:
282,325,80900,1,0,0:0:0:0:
228,322,80975,1,0,0:0:0:0:
173,327,81050,1,0,0:0:0:0:
120,341,81125,1,0,0:0:0:0:
70,363,81200,5,0,0:0:0:0:
65,336,81275,1,0,0:0:0:0:
98,292,81350,5,0,0:0:0:0:
93,265,81425,1,0,0:0:0:0:
47,234,81500,5,0,0:0:0:0:
42,207,81575,1,0,0:0:0:0:
81,168,81650,5,0,0:0:0:0:
76,141,81725,1,0,0:0:0:0:
32,102,81800,5,0,0:0:0:0:
66,60,81875,1,0,0:0:0:0:
117,41,81950,1,0,0:0:0:0:
171,50,82025,1,0,0:0:0:0:
213,85,82100,1,0,0:0:0:0:
253,122,82175,1,0,0:0:0:0:
306,138,82250,1,0,0:0:0:0:
360,131,82325,1,0,0:0:0:0:
407,101,82400,5,0,0:0:0:0:
354,86,82475,1,0,0:0:0:0:
300,93,82550,1,0,0:0:0:0:
253,122,82625,1,0,0:0:0:0:
236,173,82700,1,0,0:0:0:0:
241,228,82775,1,0,0:0:0:0:
267,276,82850,1,0,0:0:0:0:
310,310,82925,1,0,0:0:0:0:
361,324,83000,5,0,0:0:0:0:
320,288,83075,1,0,0:0:0:0:
267,276,83150,1,0,0:0:0:0:
213,276,83225,1,0,0:0:0:0:
163,253,83300,1,0,0:0:0:0:
127,212,83375,1,0,0:0:0:0:
110,160,83450,1,0,0:0:0:0:
116,106,83525,1,0,0:0:0:0:
143,59,83600,5,0,0:0:0:0:
134,113,83675,1,0,0:0:0:0:
146,166,83750,1,0,0:0:0:0:
176,212,83825,1,0,0:0:0:0:
220,244,83900,1,0,0:0:0:0:
273,257,83975,1,0,0:0:0:0:
327,250,84050,1,0,0:0:0:0:
375,224,84125,1,0,0:0:0:0:
410,180,84200,1,0,0:0:0:0:
357,167,84275,1,0,0:0:0:0:
303,175,84350,1,0,0:0:0:0:
255,202,84425,1,0,0:0:0:0:
220,244,84500,5,0,0:0:0:0:
274,239,84575,1,0,0:0:0:0:
322,212,84650,1,0,0:0:0:0:
350,154,84725,5,0,0:0:0:0:
298,172,84800,1,0,0:0:0:0:
256,206,84875,1,0,0:0:0:0:
227,256,84950,5,0,0:0:0:0:
279,241,85025,1,0,0:0:0:0:
322,207,85100,1,0,0:0:0:0:
342,143,85175,5,0,0:0:0:0:
294,169,85250,1,0,0:0:0:0:
258,211,85325,1,0,0:0:0:0:
239,266,85400,5,0,0:0:0:0:
217,315,85475,1,0,0:0:0:0:
171,344,85550,1,0,0:0:0:0:
117,342,85625,1,0,0:0:0:0:
73,310,85700,1,0,0:0:0:0:
56,259,85775,1,0,0:0:0:0:
70,207,85850,1,0,0:0:0:0:
111,171,85925,1,0,0:0:0:0:
155,140,86000,1,0,0:0:0:0:
168,87,86075,1,0,0:0:0:0:
144,39,86150,1,0,0:0:0:0:
95,17,86225,1,0,0:0:0:0:
43,31,86300,1,0,0:0:0:0:
13,76,86375,1,0,0:0:0:0:
18,129,86450,1,0,0:0:0:0:
56,167,86525,1,0,0:0:0:0:
111,171,86600,5,0,0:0:0:0:
72,209,86675,1,0,0:0:0:0:
61,262,86750,1,0,0:0:0:0:
81,312,86825,1,0,0:0:0:0:
126,342,86900,1,0,0:0:0:0:
181,341,86975,1,0,0:0:0:0:
225,310,87050,1,0,0:0:0:0:
244,260,87125,1,0,0:0:0:0:
231,209,87200,5,0,0:0:0:0:
210,258,87275,1,0,0:0:0:0:
225,310,87350,1,0,0:0:0:0:
274,333,87425,1,0,0:0:0:0:
328,323,87500,1,0,0:0:0:0:
367,286,87575,1,0,0:0:0:0:
378,233,87650,1,0,0:0:0:0:
357,183,87725,1,0,0:0:0:0:
318,151,87800,5,0,0:0:0:0:
334,202,87875,1,0,0:0:0:0:
378,233,87950,1,0,0:0:0:0:
432,231,88025,1,0,0:0:0:0:
473,197,88100,1,0,0:0:0:0:
485,144,88175,1,0,0:0:0:0:
462,95,88250,1,0,0:0:0:0:
414,70,88325,1,0,0:0:0:0:
361,79,88400,5,0,0:0:0:0:
361,106,88475,1,0,0:0:0:0:
405,138,88550,5,0,0:0:0:0:
405,166,88625,1,0,0:0:0:0:
378,205,88700,5,0,0:0:0:0:
378,233,88775,1,0,0:0:0:0:
418,270,88850,5,0,0:0:0:0:
418,298,88925,1,0,0:0:0:0:
389,345,89000,5,0,0:0:0:0:
340,319,89075,1,0,0:0:0:0:
286,306,89150,1,0,0:0:0:0:
232,306,89225,1,0,0:0:0:0:
178,319,89300,5,0,0:0:0:0:
176,291,89375,1,0,0:0:0:0:
214,252,89450,1,0,0:0:0:0:
212,225,89525,1,0,0:0:0:0:
163,198,89600,5,0,0:0:0:0:
192,152,89675,1,0,0:0:0:0:
237,121,89750,1,0,0:0:0:0:
291,110,89825,1,0,0:0:0:0:
348,98,89900,5,0,0:0:0:0:
322,88,89975,1,0,0:0:0:0:
277,56,90050,5,0,0:0:0:0:
251,65,90125,1,0,0:0:0:0:
201,88,90200,5,0,0:0:0:0:
175,79,90275,1,0,0:0:0:0:
124,58,90350,5,0,0:0:0:0:
69,55,90425,1,0,0:0:0:0:
19,76,90500,5,0,0:0:0:0:
72,69,90575,1,0,0:0:0:0:
117,99,90650,1,0,0:0:0:0:
132,151,90725,1,0,0:0:0:0:
110,200,90800,5,0,0:0:0:0:
160,181,90875,1,0,0:0:0:0:
207,207,90950,1,0,0:0:0:0:
217,260,91025,1,0,0:0:0:0:
181,302,91100,5,0,0:0:0:0:
173,249,91175,1,0,0:0:0:0:
207,207,91250,1,0,0:0:0:0:
220,155,91325,1,0,0:0:0:0:
192,110,91400,5,0,0:0:0:0:
240,136,91475,1,0,0:0:0:0:
294,144,91550,1,0,0:0:0:0:
348,134,91625,1,0,0:0:0:0:
397,111,91700,1,0,0:0:0:0:
448,126,91775,1,0,0:0:0:0:
478,171,91850,1,0,0:0:0:0:
470,224,91925,1,0,0:0:0:0:
429,260,92000,5,0,0:0:0:0:
378,241,92075,1,0,0:0:0:0:
324,250,92150,1,0,0:0:0:0:
283,286,92225,1,0,0:0:0:0:
359,292,92300,5,0,0:0:0:0:
324,250,92375,1,0,0:0:0:0:
273,230,92450,1,0,0:0:0:0:
219,241,92525,1,0,0:0:0:0:
283,286,92600,5,0,0:0:0:0:
273,230,92675,1,0,0:0:0:0:
232,192,92750,1,0,0:0:0:0:
178,178,92825,1,0,0:0:0:0:
219,241,92900,5,0,0:0:0:0:
232,192,92975,1,0,0:0:0:0:
221,133,93050,1,0,0:0:0:0:
181,94,93125,1,0,0:0:0:0:
130,66,93200,5,0,0:0:0:0:
77,74,93275,1,0,0:0:0:0:
42,115,93350,1,0,0:0:0:0:
44,169,93425,1,0,0:0:0:0:
82,207,93500,5,0,0:0:0:0:
39,238,93575,1,0,0:0:0:0:
38,291,93650,1,0,0:0:0:0:
80,324,93725,1,0,0:0:0:0:
131,309,93800,5,0,0:0:0:0:
171,272,93875,1,0,0:0:0:0:
222,251,93950,1,0,0:0:0:0:
276,250,94025,5,0,0:0:0:0:
236,287,94100,1,0,0:0:0:0:
185,308,94175,1,0,0:0:0:0:
127,297,94250,5,0,0:0:0:0:
173,266,94325,1,0,0:0:0:0:
226,255,94400,1,0,0:0:0:0:
280,263,94475,5,0,0:0:0:0:
234,292,94550,1,0,0:0:0:0:
180,304,94625,1,0,0:0:0:0:
124,278,94700,5,0,0:0:0:0:
88,238,94775,1,0,0:0:0:0:
35,244,94850,1,0,0:0:0:0:
8,289,94925,1,0,0:0:0:0:
29,338,95000,5,0,0:0:0:0:
82,326,95075,1,0,0:0:0:0:
137,323,95150,1,0,0:0:0:0:
192,330,95225,1,0,0:0:0:0:
239,339,95300,1,0,0:0:0:0:
185,348,95375,1,0,0:0:0:0:
137,323,95450,1,0,0:0:0:0:
114,275,95525,1,0,0:0:0:0:
121,225,95600,5,0,0:0:0:0:
123,197,95675,1,0,0:0:0:0:
125,170,95750,1,0,0:0:0:0:
127,142,95825,1,0,0:0:0:0:
129,115,95900,1,0,0:0:0:0:
132,87,95975,1,0,0:0:0:0:
134,60,96050,1,0,0:0:0:0:
136,33,96125,1,0,0:0:0:0:
138,5,96200,1,0,0:0:0:0:
180,47,96275,1,0,0:0:0:0:
238,50,96350,6,0,P|283:48|316:23,1,63.250001206398
118,262,96500,2,0,P|72:263|39:288,1,63.250001206398
294,179,96650,2,0,P|318:218|356:234,1,63.250001206398
70,160,96800,2,0,P|46:121|8:105,1,63.250001206398
229,271,96950,2,0,P|208:312|214:353,1,63.250001206398
135,68,97100,2,0,P|156:27|150:-13,1,63.250001206398
118,262,97250,2,0,P|72:263|39:288,1,63.250001206398
247,74,97400,5,0,0:0:0:0:
299,40,97475,1,0,0:0:0:0:
361,44,97550,1,0,0:0:0:0:
407,85,97625,1,0,0:0:0:0:
417,147,97700,1,0,0:0:0:0:
388,201,97775,1,0,0:0:0:0:
333,225,97850,5,0,0:0:0:0:
359,169,97925,1,0,0:0:0:0:
417,147,98000,1,0,0:0:0:0:
474,170,98075,1,0,0:0:0:0:
498,226,98150,1,0,0:0:0:0:
476,284,98225,1,0,0:0:0:0:
420,310,98300,5,0,0:0:0:0:
352,302,98375,1,0,0:0:0:0:
283,302,98450,1,0,0:0:0:0:
215,310,98525,1,0,0:0:0:0:
148,325,98600,5,0,0:0:0:0:
147,294,98675,1,0,0:0:0:0:
189,247,98750,5,0,0:0:0:0:
188,215,98825,1,0,0:0:0:0:
135,179,98900,5,0,0:0:0:0:
133,147,98975,1,0,0:0:0:0:
175,100,99050,5,0,0:0:0:0:
174,68,99125,1,0,0:0:0:0:
131,21,99200,5,0,0:0:0:0:
190,3,99275,1,0,0:0:0:0:
250,19,99350,1,0,0:0:0:0:
293,65,99425,1,0,0:0:0:0:
304,127,99500,1,0,0:0:0:0:
293,188,99575,1,0,0:0:0:0:
319,244,99650,1,0,0:0:0:0:
374,274,99725,1,0,0:0:0:0:
436,266,99800,1,0,0:0:0:0:
481,224,99875,1,0,0:0:0:0:
493,163,99950,1,0,0:0:0:0:
468,106,100025,1,0,0:0:0:0:
413,76,100100,5,0,0:0:0:0:
352,82,100175,1,0,0:0:0:0:
304,127,100250,1,0,0:0:0:0:
293,188,100325,1,0,0:0:0:0:
319,244,100400,5,0,0:0:0:0:
335,217,100475,1,0,0:0:0:0:
395,195,100550,5,0,0:0:0:0:
412,168,100625,1,0,0:0:0:0:
396,103,100700,5,0,0:0:0:0:
413,76,100775,1,0,0:0:0:0:
355,48,100850,5,0,0:0:0:0:
338,21,100925,1,0,0:0:0:0:
275,26,101000,5,0,0:0:0:0:
246,11,101075,1,0,0:0:0:0:
198,13,101150,6,0,P|188:56|221:103,1,63.250001206398
250,268,101300,2,0,P|261:238|256:208,1,63.250001206398
137,62,101450,6,0,P|160:99|217:109,1,63.250001206398
355,205,101600,2,0,P|342:176|316:158,1,63.250001206398
129,139,101750,6,0,P|172:149|219:116,1,63.250001206398
384,86,101900,2,0,P|355:76|324:81,1,63.250001206398
139,240,102050,6,0,P|162:277|218:287,1,63.250001206398
344,302,102200,5,0,0:0:0:0:
400,329,102275,1,0,0:0:0:0:
460,314,102350,1,0,0:0:0:0:
495,263,102425,1,0,0:0:0:0:
490,202,102500,1,0,0:0:0:0:
446,158,102575,1,0,0:0:0:0:
418,102,102650,1,0,0:0:0:0:
434,43,102725,1,0,0:0:0:0:
486,8,102800,5,0,0:0:0:0:
469,68,102875,1,0,0:0:0:0:
418,102,102950,1,0,0:0:0:0:
360,126,103025,1,0,0:0:0:0:
297,126,103100,1,0,0:0:0:0:
238,104,103175,1,0,0:0:0:0:
176,93,103250,1,0,0:0:0:0:
118,117,103325,1,0,0:0:0:0:
81,167,103400,5,0,0:0:0:0:
135,135,103475,1,0,0:0:0:0:
198,130,103550,1,0,0:0:0:0:
256,152,103625,1,0,0:0:0:0:
297,196,103700,5,0,0:0:0:0:
235,204,103775,1,0,0:0:0:0:
177,182,103850,1,0,0:0:0:0:
135,135,103925,5,0,0:0:0:0:
205,127,104000,1,0,0:0:0:0:
258,160,104075,1,0,0:0:0:0:
290,209,104150,5,0,0:0:0:0:
228,206,104225,1,0,0:0:0:0:
174,174,104300,1,0,0:0:0:0:
141,121,104375,5,0,0:0:0:0:
205,127,104450,1,0,0:0:0:0:
258,160,104525,1,0,0:0:0:0:
288,209,104600,5,0,0:0:0:0:
313,265,104675,1,0,0:0:0:0:
369,292,104750,1,0,0:0:0:0:
429,276,104825,1,0,0:0:0:0:
465,225,104900,1,0,0:0:0:0:
460,164,104975,1,0,0:0:0:0:
416,120,105050,1,0,0:0:0:0:
354,114,105125,1,0,0:0:0:0:
303,150,105200,1,0,0:0:0:0:
288,209,105275,1,0,0:0:0:0:
261,265,105350,1,0,0:0:0:0:
209,301,105425,1,0,0:0:0:0:
147,306,105500,1,0,0:0:0:0:
90,280,105575,1,0,0:0:0:0:
54,229,105650,1,0,0:0:0:0:
52,165,105725,1,0,0:0:0:0:
72,110,105800,5,0,0:0:0:0:
90,51,105875,1,0,0:0:0:0:
56,0,105950,6,0,P|19:18|-4:50,1,63.250001206398
261,179,106100,6,0,P|298:161|321:129,1,63.250001206398
24,63,106250,6,0,P|1:97|-1:136,1,63.250001206398
292,115,106400,6,0,P|315:81|318:42,1,63.250001206398
29,133,106550,6,0,P|26:174|43:210,1,63.250001206398
287,45,106700,6,0,P|290:4|273:-31,1,63.250001206398
24,63,106850,6,0,P|1:97|-1:136,1,63.250001206398
245,345,107000,5,0,0:0:0:0:
307,337,107075,1,0,0:0:0:0:
361,304,107150,1,0,0:0:0:0:
397,253,107225,1,0,0:0:0:0:
409,191,107300,1,0,0:0:0:0:
396,130,107375,1,0,0:0:0:0:
359,79,107450,5,0,0:0:0:0:
375,140,107525,1,0,0:0:0:0:
371,203,107600,1,0,0:0:0:0:
346,261,107675,1,0,0:0:0:0:
305,308,107750,5,0,0:0:0:0:
300,276,107825,1,0,0:0:0:0:
255,232,107900,5,0,0:0:0:0:
251,201,107975,1,0,0:0:0:0:
296,156,108050,5,0,0:0:0:0:
292,125,108125,1,0,0:0:0:0:
246,80,108200,5,0,0:0:0:0:
184,71,108275,1,0,0:0:0:0:
126,95,108350,1,0,0:0:0:0:
89,145,108425,1,0,0:0:0:0:
82,207,108500,5,0,0:0:0:0:
114,211,108575,1,0,0:0:0:0:
170,241,108650,5,0,0:0:0:0:
202,244,108725,1,0,0:0:0:0:
251,201,108800,5,0,0:0:0:0:
308,179,108875,1,0,0:0:0:0:
367,199,108950,1,0,0:0:0:0:
399,252,109025,1,0,0:0:0:0:
390,313,109100,5,0,0:0:0:0:
414,291,109175,1,0,0:0:0:0:
434,232,109250,5,0,0:0:0:0:
410,210,109325,1,0,0:0:0:0:
382,152,109400,5,0,0:0:0:0:
406,130,109475,1,0,0:0:0:0:
456,90,109550,5,0,0:0:0:0:
414,42,109625,1,0,0:0:0:0:
357,16,109700,1,0,0:0:0:0:
295,15,109775,1,0,0:0:0:0:
237,41,109850,1,0,0:0:0:0:
196,88,109925,1,0,0:0:0:0:
177,148,110000,5,0,0:0:0:0:
159,89,110075,1,0,0:0:0:0:
104,61,110150,1,0,0:0:0:0:
45,80,110225,1,0,0:0:0:0:
18,135,110300,5,0,0:0:0:0:
39,193,110375,1,0,0:0:0:0:
94,219,110450,1,0,0:0:0:0:
157,222,110525,1,0,0:0:0:0:
211,253,110600,5,0,0:0:0:0:
244,306,110675,1,0,0:0:0:0:
248,369,110750,6,0,P|284:332|364:322,1,71.4999967269899
439,145,110900,2,0,P|408:126|386:99,1,71.4999967269899
381,315,111050,2,0,P|381:350|395:384,1,71.4999967269899
295,106,111200,2,0,P|264:123|228:128,1,71.4999967269899
423,248,111350,2,0,P|454:265|490:271,1,71.4999967269899
199,218,111500,2,0,P|199:254|186:287,1,71.4999967269899
439,145,111650,2,0,P|408:126|386:99,1,71.4999967269899
162,30,111800,5,0,0:0:0:0:
92,40,111875,1,0,0:0:0:0:
48,94,111950,1,0,0:0:0:0:
52,164,112025,1,0,0:0:0:0:
102,212,112100,1,0,0:0:0:0:
139,153,112175,1,0,0:0:0:0:
205,132,112250,1,0,0:0:0:0:
269,161,112325,1,0,0:0:0:0:
298,224,112400,1,0,0:0:0:0:
334,284,112475,1,0,0:0:0:0:
400,308,112550,1,0,0:0:0:0:
466,283,112625,1,0,0:0:0:0:
504,221,112700,5,0,0:0:0:0:
437,199,112775,1,0,0:0:0:0:
371,224,112850,1,0,0:0:0:0:
334,284,112925,1,0,0:0:0:0:
343,353,113000,5,0,0:0:0:0:
303,281,113075,1,0,0:0:0:0:
236,235,113150,1,0,0:0:0:0:
155,224,113225,1,0,0:0:0:0:
75,211,113300,1,0,0:0:0:0:
29,146,113375,1,0,0:0:0:0:
42,67,113450,1,0,0:0:0:0:
108,20,113525,1,0,0:0:0:0:
187,34,113600,1,0,0:0:0:0:
233,100,113675,1,0,0:0:0:0:
218,179,113750,1,0,0:0:0:0:
155,224,113825,1,0,0:0:0:0:
135,301,113900,1,0,0:0:0:0:
185,363,113975,1,0,0:0:0:0:
265,361,114050,1,0,0:0:0:0:
311,296,114125,1,0,0:0:0:0:
287,220,114200,5,0,0:0:0:0:
342,289,114275,1,0,0:0:0:0:
430,289,114350,1,0,0:0:0:0:
484,220,114425,1,0,0:0:0:0:
464,135,114500,1,0,0:0:0:0:
385,97,114575,1,0,0:0:0:0:
306,135,114650,1,0,0:0:0:0:
287,220,114725,1,0,0:0:0:0:
235,292,114800,1,0,0:0:0:0:
149,313,114875,1,0,0:0:0:0:
70,273,114950,1,0,0:0:0:0:
37,190,115025,1,0,0:0:0:0:
65,106,115100,1,0,0:0:0:0:
141,61,115175,1,0,0:0:0:0:
229,77,115250,1,0,0:0:0:0:
312,96,115325,1,0,0:0:0:0:
359,25,115400,5,0,0:0:0:0:
416,228,116600,5,0,0:0:0:0:
416,228,117800,1,0,0:0:0:0:
416,228,119000,1,0,0:0:0:0:
136,321,119900,1,0,0:0:0:0:
0,136,120200,6,0,L|64:128,1,55
111,48,120500,2,0,L|175:56,1,55
33,146,120800,2,0,L|97:138,1,55
144,58,121100,2,0,L|208:66,1,55
405,136,121400,6,0,P|388:184|375:196,1,55
385,186,121700,2,0,P|337:169|325:156,1,55
334,166,122000,2,0,P|351:118|364:106,1,55
353,115,122300,2,0,P|401:132|413:145,1,55
407,155,122600,6,0,P|368:188|351:192,1,55
365,189,122900,2,0,P|332:150|328:133,1,55
331,146,123200,2,0,P|369:113|387:109,1,55
373,111,123500,2,0,P|406:150|410:167,1,55
399,174,123800,6,0,P|349:183|332:178,1,55
346,182,124100,2,0,P|337:131|342:115,1,55
338,127,124400,2,0,P|388:118|405:123,1,55
391,119,124700,1,0,0:0:0:0:
208,291,124850,5,0,0:0:0:0:
208,291,124925,1,0,0:0:0:0:
208,291,125000,2,0,L|203:231,1,55
86,189,125300,2,0,L|81:129,1,55
208,291,125600,2,0,L|203:231,1,55
86,189,125900,2,0,L|81:129,1,55
171,119,126200,6,0,P|188:71|201:59,1,55
191,69,126500,2,0,P|239:86|251:99,1,55
242,89,126800,2,0,P|225:137|212:149,1,55
223,140,127100,2,0,P|175:123|163:110,1,55
169,100,127400,6,0,P|208:67|225:63,1,55
211,66,127700,2,0,P|244:105|248:122,1,55
245,109,128000,2,0,P|207:142|189:146,1,55
203,144,128300,2,0,P|170:105|166:88,1,55
177,81,128600,6,0,P|227:72|244:77,1,55
230,73,128900,2,0,P|239:124|234:140,1,55
238,128,129200,2,0,P|188:137|171:132,1,55
185,136,129500,2,0,P|176:86|181:69,1,55
348,44,129800,2,0,L|341:116,1,55
433,182,130100,2,0,L|426:254,1,55
356,49,130400,2,0,L|349:121,1,55
441,187,130700,2,0,L|434:259,1,55
317,316,131000,6,0,P|269:299|257:286,1,55
267,296,131300,2,0,P|284:248|297:236,1,55
287,245,131600,2,0,P|335:262|347:275,1,55
338,264,131900,2,0,P|321:312|308:324,1,55
298,318,132200,6,0,P|265:279|261:262,1,55
264,276,132500,2,0,P|303:243|320:239,1,55
307,242,132800,2,0,P|340:280|344:298,1,55
342,284,133100,2,0,P|303:317|286:321,1,55
279,310,133400,6,0,P|270:260|275:243,1,55
271,257,133700,2,0,P|322:248|338:253,1,55
326,249,134000,2,0,P|335:299|330:316,1,55
334,302,134300,1,0,0:0:0:0:
161,262,134450,5,0,0:0:0:0:
161,262,134525,1,0,0:0:0:0:
161,262,134600,2,0,L|141:179,1,82.5000031471254
243,144,134900,2,0,L|223:61,1,82.5000031471254
168,233,135200,2,0,L|148:150,1,82.5000031471254
250,115,135500,2,0,L|230:32,1,82.5000031471254
35,165,135800,6,0,P|93:214|119:220,1,82.5000031471254
97,215,136100,2,0,P|146:156|152:131,1,82.5000031471254
147,152,136400,2,0,P|90:102|63:96,1,82.5000031471254
84,100,136700,2,0,P|34:158|28:184,1,82.5000031471254
45,191,137000,6,0,P|121:205|146:198,1,82.5000031471254
124,204,137300,2,0,P|138:128|130:103,1,82.5000031471254
136,124,137600,2,0,P|62:110|35:118,1,82.5000031471254
55,111,137900,2,0,P|42:186|49:211,1,82.5000031471254
68,209,138200,6,0,P|141:183|159:164,1,82.5000031471254
143,181,138500,2,0,P|117:108|98:91,1,82.5000031471254
113,106,138800,2,0,P|42:130|23:151,1,82.5000031471254
38,134,139100,1,0,0:0:0:0:
210,310,139250,5,0,0:0:0:0:
210,310,139325,1,0,0:0:0:0:
210,310,139400,2,0,L|214:207,1,82.5000031471254
321,173,139700,2,0,L|325:70,1,82.5000031471254
242,288,140000,2,0,L|246:185,1,82.5000031471254
353,151,140300,2,0,L|357:48,1,82.5000031471254
193,30,140600,6,0,P|144:88|138:114,1,82.5000031471254
143,92,140900,2,0,P|202:141|227:147,1,82.5000031471254
206,142,141200,2,0,P|256:85|262:58,1,82.5000031471254
258,79,141500,2,0,P|200:29|174:23,1,82.5000031471254
167,40,141800,6,0,P|153:116|160:141,1,82.5000031471254
154,119,142100,2,0,P|230:133|255:125,1,82.5000031471254
234,131,142400,2,0,P|248:57|240:30,1,82.5000031471254
247,50,142700,2,0,P|172:37|147:44,1,82.5000031471254
149,63,143000,6,0,P|175:136|194:154,1,82.5000031471254
177,138,143300,2,0,P|250:112|267:93,1,82.5000031471254
252,108,143600,2,0,P|228:37|207:18,1,82.5000031471254
224,33,143900,1,0,0:0:0:0:
195,318,144050,5,0,0:0:0:0:
195,318,144125,1,0,0:0:0:0:
195,318,144200,2,0,L|175:233,1,82.5000031471254
46,246,144500,2,0,L|26:153,1,82.5000031471254
171,301,144800,2,0,L|152:207,1,82.5000031471254
22,229,145100,2,0,L|1:135,1,82.5000031471254
212,55,145400,6,0,P|290:101|299:144,1,110
295,114,145700,2,0,P|249:192|206:201,1,110
235,197,146000,2,0,P|157:151|148:108,1,110
151,137,146300,2,0,P|197:59|240:50,1,110
248,58,146600,6,0,P|293:137|279:179,1,110
291,151,146900,2,0,P|212:195|170:182,1,110
197,193,147200,2,0,P|153:114|166:72,1,110
155,99,147500,2,0,P|233:54|275:68,1,110
278,80,147800,6,0,P|278:171|245:200,1,110
269,182,148100,2,0,P|178:181|149:148,1,110
167,171,148400,2,0,P|168:81|200:51,1,110
177,68,148700,2,0,P|267:69|297:102,1,110
182,358,149000,2,0,P|116:323|74:249,1,137.5
81,272,149300,2,0,P|116:206|190:164,1,137.5
166,171,149600,2,0,P|232:206|274:280,1,137.5
266,256,149900,2,0,P|231:322|157:364,1,137.5
113,336,150200,6,0,P|91:264|113:182,1,137.5
102,204,150500,2,0,P|174:182|256:204,1,137.5
234,192,150800,2,0,P|256:264|233:346,1,137.5
244,323,151100,2,0,P|173:345|91:322,1,137.5
269,65,151400,2,0,P|359:68|409:140,1,165.000006294251
404,121,151700,2,0,P|401:211|329:261,1,165.000006294251
347,256,152000,2,0,P|257:253|207:181,1,165.000006294251
211,199,152300,2,0,P|214:109|286:59,1,165.000006294251
367,18,152600,2,0,P|459:116|436:245,1,192.500001835823
451,220,152900,2,0,P|352:312|223:289,1,192.500001835823
143,55,153200,1,0,0:0:0:0:
19,98,153800,6,0,P|122:48|234:175,1,247.500009441376
231,174,154100,6,0,P|181:67|71:57,1,206.250007867813
57,64,154550,5,0,0:0:0:0:
74,241,154700,1,0,0:0:0:0:
225,118,154850,1,0,0:0:0:0:
57,64,155000,1,0,0:0:0:0:
184,237,155150,1,0,0:0:0:0:
90,47,155300,1,0,0:0:0:0:
150,253,155450,1,0,0:0:0:0:
31,90,155600,5,0,0:0:0:0:
209,210,155750,2,0,L|163:175,1,41.2500015735627
31,90,155900,1,0,0:0:0:0:
314,285,156050,1,0,0:0:0:0:
309,59,156200,6,0,P|254:35|314:93,1,247.500009441376
300,45,156500,2,0,P|219:92|312:100,1,247.500009441376
279,36,156800,2,0,L|399:32,1,82.5000031471254
476,177,156950,5,0,0:0:0:0:
268,212,157100,1,0,0:0:0:0:
401,351,157250,1,0,0:0:0:0:
476,177,157400,1,0,0:0:0:0:
268,212,157550,1,0,0:0:0:0:
475,213,157700,1,0,0:0:0:0:
268,175,157850,1,0,0:0:0:0:
463,142,158000,5,0,0:0:0:0:
280,246,158150,2,0,L|347:209,1,41.2500015735627
463,142,158300,1,0,0:0:0:0:
164,310,158450,1,0,0:0:0:0:
157,76,158600,6,0,P|213:15|173:107,1,288.750011014939
209,69,159200,2,0,P|208:116|357:69,1,247.500009441376
284,92,159500,5,0,0:0:0:0:
275,312,159650,1,0,0:0:0:0:
82,208,159800,1,0,0:0:0:0:
302,217,159950,1,0,0:0:0:0:
168,301,160100,1,0,0:0:0:0:
177,81,160250,1,0,0:0:0:0:
275,312,160400,5,0,0:0:0:0:
59,300,160550,2,0,L|128:302,1,41.2500015735627
308,311,160700,1,0,0:0:0:0:
10,297,160850,1,0,0:0:0:0:
177,81,161000,6,0,P|232:57|172:115,1,247.500009441376
186,67,161300,2,0,P|246:63|170:97,1,247.500009441376
207,58,161600,2,0,L|87:54,1,82.5000031471254
10,199,161750,5,0,0:0:0:0:
218,234,161900,1,0,0:0:0:0:
85,373,162050,1,0,0:0:0:0:
10,199,162200,1,0,0:0:0:0:
218,234,162350,1,0,0:0:0:0:
11,235,162500,1,0,0:0:0:0:
218,197,162650,1,0,0:0:0:0:
23,164,162800,6,0,L|49:157,1,27.5
307,308,162950,2,0,L|281:315,1,27.5
21,131,163100,2,0,L|47:124,1,27.5
305,275,163250,2,0,L|279:282,1,27.5
132,111,163400,6,0,L|117:30,1,82.5000031471254
378,112,163550,2,0,L|393:193,1,82.5000031471254
167,286,163700,6,0,L|23:288,1,123.750004720688
8,291,164000,6,0,L|5:180,1,82.5000031471254
247,221,164150,2,0,L|244:110,1,82.5000031471254
34,236,164300,2,0,L|31:125,1,82.5000031471254
273,166,164450,2,0,L|270:55,1,82.5000031471254
470,208,164600,2,0,P|483:302|356:237,1,247.500009441376
424,264,164900,6,0,L|311:183,1,123.750004720688
273,166,165200,6,0,P|259:228|270:269,1,82.5000031471254
78,260,165350,2,0,P|92:322|81:363,1,82.5000031471254
240,169,165500,2,0,P|226:231|237:272,1,82.5000031471254
45,263,165650,2,0,P|59:325|48:366,1,82.5000031471254
107,95,165800,6,0,P|92:67|130:65,1,82.5000031471254
323,191,165950,2,0,P|338:219|300:221,1,82.5000031471254
9,193,166100,6,0,L|156:190,1,123.750004720688
182,206,166400,6,0,P|197:234|159:236,1,82.5000031471254
25,66,166550,2,0,P|10:94|48:96,1,82.5000031471254
323,191,166700,2,0,P|338:219|300:221,1,82.5000031471254
166,51,166850,5,0,0:0:0:0:
166,51,166925,1,0,0:0:0:0:
166,51,167000,2,0,P|151:79|189:81,1,82.5000031471254
428,99,167150,2,0,P|443:127|405:129,1,82.5000031471254
203,248,167300,2,0,P|188:276|226:278,1,82.5000031471254
401,229,167450,2,0,P|435:227|423:259,1,82.5000031471254
188,81,167600,6,0,P|173:109|211:111,1,82.5000031471254
225,278,167750,2,0,P|240:306|202:308,1,82.5000031471254
19,175,167900,2,0,P|4:203|42:205,1,82.5000031471254
211,114,168050,5,0,0:0:0:0:
211,114,168125,1,0,0:0:0:0:
211,114,168200,2,0,L|347:116,1,82.5000031471254
474,251,168350,2,0,L|338:253,1,82.5000031471254
78,306,168500,6,0,L|218:309,1,123.750004720688
239,315,168800,6,0,P|234:231|261:186,1,82.5000031471254
293,115,168950,2,0,P|298:199|271:244,1,82.5000031471254
159,33,169100,2,0,P|154:73|165:113,1,82.5000031471254
313,228,169250,2,0,P|229:233|184:206,1,82.5000031471254
129,54,169400,6,0,P|124:94|135:134,1,82.5000031471254
283,249,169550,2,0,P|199:254|154:227,1,82.5000031471254
14,218,169700,2,0,P|54:213|94:224,1,82.5000031471254
242,345,169850,2,0,P|201:349|161:338,1,82.5000031471254
14,218,170000,2,0,P|10:177|21:137,1,82.5000031471254
252,71,170150,5,0,0:0:0:0:
252,71,170225,1,0,0:0:0:0:
252,71,170300,2,0,P|256:112|245:152,1,82.5000031471254
154,257,170450,2,0,P|150:298|161:338,1,82.5000031471254
365,95,170600,6,0,L|374:203,1,82.5000031471254
512,263,170750,2,0,L|503:371,1,82.5000031471254
284,337,170900,6,0,L|130:337,1,123.750004720688
108,336,171200,6,0,L|183:233,1,82.5000031471254
313,53,171350,2,0,L|221:141,1,82.5000031471254
85,317,171500,2,0,L|160:214,1,82.5000031471254
290,34,171650,2,0,L|198:122,1,82.5000031471254
24,155,171800,6,0,P|120:133|246:252,1,247.500009441376
256,247,172100,2,0,P|347:324|466:307,1,247.500009441376
499,284,172400,2,0,P|459:239|414:233,1,82.5000031471254
234,215,172550,2,0,P|197:197|174:163,1,82.5000031471254
462,152,172700,2,0,P|403:164|375:200,1,82.5000031471254
270,346,172850,2,0,P|236:370|196:373,1,82.5000031471254
21,175,173000,6,0,P|115:145|251:252,1,247.500009441376
260,246,173300,2,0,P|358:316|475:288,1,247.500009441376
506,262,173600,2,0,P|462:221|416:219,1,82.5000031471254
236,216,173750,2,0,P|197:202|172:171,1,82.5000031471254
458,134,173900,2,0,P|400:151|376:189,1,82.5000031471254
283,345,174050,2,0,P|252:371|212:377,1,82.5000031471254
17,199,174200,6,0,P|108:161|253:256,1,247.500009441376
262,249,174500,2,0,P|365:310|479:272,1,247.500009441376
508,243,174800,2,0,P|460:206|415:208,1,82.5000031471254
235,221,174950,2,0,P|195:211|167:182,1,82.5000031471254
449,120,175100,2,0,P|393:142|372:182,1,82.5000031471254
293,345,175250,2,0,P|265:374|225:384,1,82.5000031471254
16,223,175400,6,0,P|103:177|255:259,1,247.500009441376
264,252,175700,2,0,P|372:303|482:256,1,247.500009441376
508,225,176000,2,0,P|458:192|413:197,1,82.5000031471254
234,227,176150,2,0,P|194:220|163:193,1,82.5000031471254
439,107,176300,2,0,P|385:134|367:176,1,82.5000031471254
303,345,176450,2,0,P|277:376|239:389,1,82.5000031471254
16,247,176600,6,0,P|99:194|258:263,1,247.500009441376
266,254,176900,2,0,P|378:296|484:239,1,247.500009441376
507,206,177200,2,0,P|454:177|409:187,1,82.5000031471254
234,232,177350,2,0,P|194:228|161:204,1,82.5000031471254
427,94,177500,2,0,P|376:126|362:169,1,82.5000031471254
313,343,177650,2,0,P|290:377|253:393,1,82.5000031471254
121,191,177800,6,0,L|123:56,1,82.5000031471254
366,144,177950,2,0,L|364:9,1,82.5000031471254
101,323,178100,6,0,L|235:252,1,123.750004720688
107,190,178400,6,0,L|109:42,1,88
377,139,178550,2,0,L|374:-9,1,88
85,336,178700,6,0,L|229:257,1,140.250002675057
92,190,179000,6,0,L|95:27,1,93.500001783371
389,133,179150,2,0,L|386:-29,1,93.500001783371
68,350,179300,6,0,L|228:259,1,156.749995814324
75,189,179600,6,0,L|78:10,1,98.9999969787599
402,127,179750,2,0,L|399:-51,1,98.9999969787599
49,365,179900,6,0,L|214:268,1,173.24999471283
401,125,180200,5,0,0:0:0:0:
469,141,180275,1,0,0:0:0:0:
512,195,180350,1,0,0:0:0:0:
512,265,180425,1,0,0:0:0:0:
487,326,180500,1,0,0:0:0:0:
423,355,180575,1,0,0:0:0:0:
354,342,180650,1,0,0:0:0:0:
305,292,180725,1,0,0:0:0:0:
294,222,180800,5,0,0:0:0:0:
288,298,180875,1,0,0:0:0:0:
236,353,180950,1,0,0:0:0:0:
162,364,181025,1,0,0:0:0:0:
96,327,181100,1,0,0:0:0:0:
68,257,181175,1,0,0:0:0:0:
90,184,181250,1,0,0:0:0:0:
151,141,181325,1,0,0:0:0:0:
227,146,181400,5,0,0:0:0:0:
296,189,181475,1,0,0:0:0:0:
376,181,181550,1,0,0:0:0:0:
436,127,181625,1,0,0:0:0:0:
446,42,181700,1,0,0:0:0:0:
380,96,181775,1,0,0:0:0:0:
376,181,181850,1,0,0:0:0:0:
396,270,181925,1,0,0:0:0:0:
346,346,182000,5,0,0:0:0:0:
256,361,182075,1,0,0:0:0:0:
183,307,182150,1,0,0:0:0:0:
172,217,182225,1,0,0:0:0:0:
227,146,182300,1,0,0:0:0:0:
215,51,182375,1,0,0:0:0:0:
131,6,182450,1,0,0:0:0:0:
45,49,182525,1,0,0:0:0:0:
31,143,182600,1,0,0:0:0:0:
461,100,183800,5,0,0:0:0:0:
410,68,183875,1,0,0:0:0:0:
350,58,183950,2,0,P|313:59|271:18,1,60.5000018463135
130,167,184100,2,0,P|167:167|209:126,1,60.5000018463135
382,167,184250,2,0,P|344:167|302:126,1,60.5000018463135
161,58,184400,2,0,P|199:59|241:18,1,60.5000018463135
381,193,184550,2,0,P|343:193|301:152,1,60.5000018463135
99,307,184700,2,0,P|136:307|178:266,1,60.5000018463135
412,301,184850,2,0,P|374:301|332:260,1,60.5000018463135
130,199,185000,5,0,0:0:0:0:
183,173,185075,1,0,0:0:0:0:
210,117,185150,1,0,0:0:0:0:
153,97,185225,1,0,0:0:0:0:
95,110,185300,1,0,0:0:0:0:
52,152,185375,1,0,0:0:0:0:
37,210,185450,1,0,0:0:0:0:
54,267,185525,1,0,0:0:0:0:
99,307,185600,5,0,0:0:0:0:
118,251,185675,1,0,0:0:0:0:
170,223,185750,1,0,0:0:0:0:
227,240,185825,1,0,0:0:0:0:
257,290,185900,1,0,0:0:0:0:
320,306,185975,1,0,0:0:0:0:
381,282,186050,1,0,0:0:0:0:
417,229,186125,1,0,0:0:0:0:
417,164,186200,5,0,0:0:0:0:
387,162,186275,1,0,0:0:0:0:
337,128,186350,5,0,0:0:0:0:
306,126,186425,1,0,0:0:0:0:
259,164,186500,5,0,0:0:0:0:
228,162,186575,1,0,0:0:0:0:
178,127,186650,5,0,0:0:0:0:
128,159,186725,1,0,0:0:0:0:
117,217,186800,1,0,0:0:0:0:
149,266,186875,1,0,0:0:0:0:
173,200,186950,5,0,0:0:0:0:
117,217,187025,1,0,0:0:0:0:
86,267,187100,1,0,0:0:0:0:
96,325,187175,1,0,0:0:0:0:
142,362,187250,1,0,0:0:0:0:
201,359,187325,1,0,0:0:0:0:
243,318,187400,1,0,0:0:0:0:
260,260,187475,1,0,0:0:0:0:
303,218,187550,1,0,0:0:0:0:
360,201,187625,1,0,0:0:0:0:
419,213,187700,1,0,0:0:0:0:
474,189,187775,1,0,0:0:0:0:
503,138,187850,1,0,0:0:0:0:
496,79,187925,1,0,0:0:0:0:
454,36,188000,5,0,0:0:0:0:
424,37,188075,1,0,0:0:0:0:
372,67,188150,5,0,0:0:0:0:
341,68,188225,1,0,0:0:0:0:
295,28,188300,5,0,0:0:0:0:
264,29,188375,1,0,0:0:0:0:
218,68,188450,5,0,0:0:0:0:
187,69,188525,1,0,0:0:0:0:
141,29,188600,5,0,0:0:0:0:
84,58,188675,1,0,0:0:0:0:
58,115,188750,2,0,P|66:153|113:184,1,60.5000018463135
351,274,188900,2,0,P|368:298|372:328,1,60.5000018463135
76,275,189050,2,0,P|112:288|163:262,1,60.5000018463135
349,115,189200,2,0,P|379:112|407:124,1,60.5000018463135
214,354,189350,2,0,P|243:328|246:272,1,60.5000018463135
212,37,189500,2,0,P|224:9|248:-8,1,60.5000018463135
351,274,189650,2,0,P|368:298|372:328,1,60.5000018463135
58,115,189800,5,0,0:0:0:0:
16,154,189875,1,0,0:0:0:0:
33,208,189950,1,0,0:0:0:0:
89,217,190025,1,0,0:0:0:0:
121,169,190100,1,0,0:0:0:0:
173,138,190175,1,0,0:0:0:0:
232,132,190250,1,0,0:0:0:0:
288,153,190325,1,0,0:0:0:0:
327,196,190400,5,0,0:0:0:0:
270,178,190475,1,0,0:0:0:0:
232,132,190550,1,0,0:0:0:0:
219,74,190625,1,0,0:0:0:0:
245,21,190700,1,0,0:0:0:0:
300,0,190775,1,0,0:0:0:0:
356,9,190850,1,0,0:0:0:0:
393,55,190925,1,0,0:0:0:0:
393,115,191000,5,0,0:0:0:0:
386,175,191075,1,0,0:0:0:0:
401,233,191150,1,0,0:0:0:0:
435,283,191225,1,0,0:0:0:0:
485,322,191300,5,0,0:0:0:0:
465,265,191375,1,0,0:0:0:0:
432,215,191450,1,0,0:0:0:0:
386,175,191525,5,0,0:0:0:0:
399,239,191600,1,0,0:0:0:0:
441,282,191675,1,0,0:0:0:0:
496,312,191750,5,0,0:0:0:0:
467,259,191825,1,0,0:0:0:0:
426,215,191900,1,0,0:0:0:0:
373,184,191975,5,0,0:0:0:0:
398,245,192050,1,0,0:0:0:0:
447,280,192125,1,0,0:0:0:0:
503,298,192200,5,0,0:0:0:0:
509,238,192275,1,0,0:0:0:0:
492,180,192350,1,0,0:0:0:0:
453,135,192425,1,0,0:0:0:0:
399,108,192500,1,0,0:0:0:0:
339,105,192575,1,0,0:0:0:0:
283,126,192650,1,0,0:0:0:0:
240,168,192725,1,0,0:0:0:0:
221,225,192800,1,0,0:0:0:0:
175,262,192875,1,0,0:0:0:0:
116,268,192950,1,0,0:0:0:0:
63,241,193025,1,0,0:0:0:0:
33,189,193100,1,0,0:0:0:0:
37,129,193175,1,0,0:0:0:0:
72,81,193250,1,0,0:0:0:0:
128,61,193325,1,0,0:0:0:0:
187,74,193400,5,0,0:0:0:0:
246,76,193475,1,0,0:0:0:0:
293,40,193550,2,0,P|325:15|317:-41,1,60.5000018463135
377,208,193700,2,0,P|408:233|400:289,1,60.5000018463135
187,74,193850,2,0,P|218:48|210:-7,1,60.5000018463135
276,241,194000,2,0,P|307:266|299:322,1,60.5000018463135
128,61,194150,2,0,P|159:35|151:-20,1,60.5000018463135
211,228,194300,2,0,P|242:253|234:309,1,60.5000018463135
72,81,194450,2,0,P|103:55|95:0,1,60.5000018463135
155,248,194600,5,0,0:0:0:0:
182,301,194675,1,0,0:0:0:0:
230,337,194750,1,0,0:0:0:0:
288,349,194825,1,0,0:0:0:0:
346,334,194900,1,0,0:0:0:0:
392,295,194975,1,0,0:0:0:0:
416,240,195050,5,0,0:0:0:0:
365,271,195125,1,0,0:0:0:0:
306,264,195200,1,0,0:0:0:0:
263,223,195275,1,0,0:0:0:0:
254,164,195350,5,0,0:0:0:0:
285,166,195425,1,0,0:0:0:0:
333,130,195500,5,0,0:0:0:0:
363,132,195575,1,0,0:0:0:0:
402,177,195650,5,0,0:0:0:0:
432,179,195725,1,0,0:0:0:0:
480,143,195800,5,0,0:0:0:0:
458,86,195875,1,0,0:0:0:0:
416,43,195950,1,0,0:0:0:0:
361,19,196025,1,0,0:0:0:0:
301,18,196100,5,0,0:0:0:0:
277,37,196175,1,0,0:0:0:0:
227,71,196250,5,0,0:0:0:0:
204,52,196325,1,0,0:0:0:0:
150,23,196400,5,0,0:0:0:0:
93,40,196475,1,0,0:0:0:0:
57,88,196550,1,0,0:0:0:0:
55,147,196625,1,0,0:0:0:0:
87,197,196700,5,0,0:0:0:0:
117,199,196775,1,0,0:0:0:0:
165,161,196850,5,0,0:0:0:0:
195,163,196925,1,0,0:0:0:0:
235,207,197000,5,0,0:0:0:0:
265,209,197075,1,0,0:0:0:0:
314,211,197150,5,0,0:0:0:0:
368,194,197225,1,0,0:0:0:0:
373,137,197300,1,0,0:0:0:0:
319,154,197375,1,0,0:0:0:0:
314,211,197450,1,0,0:0:0:0:
336,265,197525,1,0,0:0:0:0:
391,286,197600,5,0,0:0:0:0:
331,283,197675,1,0,0:0:0:0:
271,290,197750,1,0,0:0:0:0:
213,306,197825,1,0,0:0:0:0:
157,331,197900,5,0,0:0:0:0:
99,328,197975,1,0,0:0:0:0:
59,285,198050,1,0,0:0:0:0:
64,226,198125,1,0,0:0:0:0:
109,188,198200,5,0,0:0:0:0:
147,144,198275,1,0,0:0:0:0:
137,86,198350,2,0,P|117:53|66:24,1,60.5000018463135
271,290,198500,2,0,P|249:269|235:243,1,60.5000018463135
34,174,198650,2,0,P|63:166|94:168,1,60.5000018463135
337,153,198800,2,0,P|308:161|278:161,1,60.5000018463135
119,300,198950,2,0,P|126:271|142:246,1,60.5000018463135
228,83,199100,2,0,P|244:57|251:27,1,60.5000018463135
235,243,199250,2,0,P|255:276|306:305,1,60.5000018463135
137,92,199400,5,0,0:0:0:0:
100,139,199475,1,0,0:0:0:0:
90,198,199550,1,0,0:0:0:0:
110,254,199625,1,0,0:0:0:0:
155,294,199700,1,0,0:0:0:0:
214,307,199775,1,0,0:0:0:0:
271,290,199850,1,0,0:0:0:0:
322,260,199925,1,0,0:0:0:0:
382,262,200000,1,0,0:0:0:0:
326,240,200075,1,0,0:0:0:0:
288,194,200150,1,0,0:0:0:0:
278,135,200225,1,0,0:0:0:0:
298,79,200300,1,0,0:0:0:0:
344,40,200375,1,0,0:0:0:0:
402,28,200450,1,0,0:0:0:0:
459,48,200525,1,0,0:0:0:0:
499,92,200600,5,0,0:0:0:0:
449,60,200675,1,0,0:0:0:0:
389,64,200750,2,0,P|352:100|359:134,1,60.5000018463135
133,139,200900,2,0,P|170:174|163:208,1,60.5000018463135
396,217,201050,2,0,P|358:252|365:286,1,60.5000018463135
139,291,201200,2,0,P|176:326|169:360,1,60.5000018463135
396,298,201350,2,0,P|358:262|365:228,1,60.5000018463135
139,223,201500,2,0,P|176:187|169:153,1,60.5000018463135
402,145,201650,2,0,P|364:109|371:75,1,60.5000018463135
147,64,201800,5,0,0:0:0:0:
90,43,201875,1,0,0:0:0:0:
33,59,201950,1,0,0:0:0:0:
0,105,202025,1,0,0:0:0:0:
0,165,202100,1,0,0:0:0:0:
23,215,202175,1,0,0:0:0:0:
78,239,202250,1,0,0:0:0:0:
136,226,202325,1,0,0:0:0:0:
176,181,202400,5,0,0:0:0:0:
195,205,202475,1,0,0:0:0:0:
213,229,202550,1,0,0:0:0:0:
232,253,202625,1,0,0:0:0:0:
251,277,202700,1,0,0:0:0:0:
269,301,202775,1,0,0:0:0:0:
288,324,202850,1,0,0:0:0:0:
307,348,202925,1,0,0:0:0:0:
325,372,203000,5,0,0:0:0:0:
371,334,203075,1,0,0:0:0:0:
393,278,203150,1,0,0:0:0:0:
385,219,203225,1,0,0:0:0:0:
337,181,203300,1,0,0:0:0:0:
309,128,203375,1,0,0:0:0:0:
318,69,203450,1,0,0:0:0:0:
359,26,203525,1,0,0:0:0:0:
418,16,203600,5,0,0:0:0:0:
378,60,203675,1,0,0:0:0:0:
318,69,203750,2,0,P|285:84|325:106,1,82.5000031471254
94,144,203900,2,0,P|127:158|87:180,1,82.5000031471254
337,181,204050,2,0,P|303:195|343:217,1,82.5000031471254
138,196,204200,2,0,P|171:210|131:232,1,82.5000031471254
15,291,204350,2,0,P|-18:305|21:327,1,82.5000031471254
94,144,204500,2,0,P|127:158|87:180,1,82.5000031471254
250,287,204650,2,0,P|216:301|256:323,1,82.5000031471254
2,246,204800,2,0,P|35:260|-4:282,1,82.5000031471254
245,148,204950,5,0,0:0:0:0:
245,148,205025,1,0,0:0:0:0:
245,148,205100,2,0,P|211:162|251:184,1,82.5000031471254
31,95,205250,2,0,P|64:109|24:131,1,82.5000031471254
13,348,205400,5,0,0:0:0:0:
45,294,205475,1,0,0:0:0:0:
100,264,205550,1,0,0:0:0:0:
163,265,205625,1,0,0:0:0:0:
216,298,205700,1,0,0:0:0:0:
272,327,205775,1,0,0:0:0:0:
334,332,205850,1,0,0:0:0:0:
394,313,205925,1,0,0:0:0:0:
442,272,206000,6,0,P|414:231|357:209,1,82.5000031471254
190,141,206150,2,0,P|155:118|134:83,1,82.5000031471254
354,35,206300,2,0,P|388:57|409:92,1,82.5000031471254
287,178,206450,2,0,P|265:212|231:235,1,82.5000031471254
366,64,206600,2,0,P|400:86|421:121,1,82.5000031471254
299,207,206750,2,0,P|277:241|243:264,1,82.5000031471254
65,194,206900,2,0,P|30:171|9:136,1,82.5000031471254
231,120,207050,2,0,P|265:142|286:177,1,82.5000031471254
77,338,207200,2,0,P|42:315|21:280,1,82.5000031471254
243,264,207350,5,0,0:0:0:0:
243,264,207425,1,0,0:0:0:0:
243,264,207500,2,0,P|277:286|298:321,1,82.5000031471254
472,239,207650,2,0,P|438:217|417:182,1,82.5000031471254
507,46,207800,5,0,0:0:0:0:
447,24,207875,1,0,0:0:0:0:
384,24,207950,1,0,0:0:0:0:
325,45,208025,1,0,0:0:0:0:
276,84,208100,1,0,0:0:0:0:
218,109,208175,1,0,0:0:0:0:
155,111,208250,1,0,0:0:0:0:
96,89,208325,1,0,0:0:0:0:
49,47,208400,5,0,0:0:0:0:
49,123,208475,1,0,0:0:0:0:
49,199,208550,1,0,0:0:0:0:
49,275,208625,1,0,0:0:0:0:
49,351,208700,6,0,P|83:337|43:315,1,82.5000031471254
297,256,208850,2,0,P|263:242|303:220,1,82.5000031471254
49,199,209000,2,0,P|83:185|43:163,1,82.5000031471254
297,104,209150,2,0,P|263:90|303:68,1,82.5000031471254
155,295,209300,2,0,P|189:281|149:259,1,82.5000031471254
450,222,209450,2,0,P|416:208|456:186,1,82.5000031471254
171,126,209600,2,0,P|205:112|165:90,1,82.5000031471254
466,53,209750,5,0,0:0:0:0:
466,53,209825,1,0,0:0:0:0:
466,53,209900,2,0,P|432:39|472:17,1,82.5000031471254
232,147,210050,2,0,P|218:181|196:141,1,82.5000031471254
508,331,210200,5,0,0:0:0:0:
458,291,210275,1,0,0:0:0:0:
399,269,210350,1,0,0:0:0:0:
336,268,210425,1,0,0:0:0:0:
281,290,210500,1,0,0:0:0:0:
228,324,210575,1,0,0:0:0:0:
166,334,210650,1,0,0:0:0:0:
106,316,210725,1,0,0:0:0:0:
59,274,210800,6,0,P|106:262|146:206,1,82.5000031471254
243,89,210950,2,0,P|274:63|314:54,1,82.5000031471254
7,138,211100,2,0,P|40:172|109:179,1,82.5000031471254
259,204,211250,2,0,P|297:218|324:248,1,82.5000031471254
164,311,211400,2,0,P|138:279|129:239,1,82.5000031471254
243,89,211550,2,0,P|268:57|277:17,1,82.5000031471254
446,68,211700,2,0,P|420:99|411:139,1,82.5000031471254
478,286,211850,2,0,P|503:317|512:357,1,82.5000031471254
163,313,212000,5,0,0:0:0:0:
127,262,212075,1,0,0:0:0:0:
134,201,212150,1,0,0:0:0:0:
180,160,212225,1,0,0:0:0:0:
212,107,212300,1,0,0:0:0:0:
192,49,212375,1,0,0:0:0:0:
135,26,212450,1,0,0:0:0:0:
81,54,212525,1,0,0:0:0:0:
67,114,212600,6,0,L|161:91,1,82.5000031471254
284,212,212750,2,0,L|377:235,1,82.5000031471254
16,342,212900,1,0,0:0:0:0:
80,291,212975,1,0,0:0:0:0:
160,273,213050,1,0,0:0:0:0:
240,288,213125,1,0,0:0:0:0:
307,336,213200,6,0,L|281:219,1,82.5000031471254
462,178,213350,2,0,L|488:60,1,82.5000031471254
278,312,213500,2,0,L|251:194,1,82.5000031471254
432,153,213650,2,0,L|458:35,1,82.5000031471254
214,24,213800,5,0,0:0:0:0:
151,21,213875,1,0,0:0:0:0:
96,50,213950,1,0,0:0:0:0:
62,103,214025,1,0,0:0:0:0:
59,165,214100,1,0,0:0:0:0:
88,221,214175,1,0,0:0:0:0:
140,255,214250,1,0,0:0:0:0:
202,259,214325,1,0,0:0:0:0:
258,231,214400,6,0,P|225:179|183:159,1,82.5000031471254
31,281,214550,2,0,P|64:333|106:353,1,82.5000031471254
301,305,214700,2,0,P|332:278|351:242,1,82.5000031471254
174,49,214850,2,0,P|142:75|123:111,1,82.5000031471254
339,199,215000,6,0,P|372:213|333:235,1,82.5000031471254
166,266,215150,2,0,P|133:280|172:302,1,82.5000031471254
301,305,215300,2,0,P|268:319|307:341,1,82.5000031471254
206,139,215450,2,0,P|239:153|200:175,1,82.5000031471254
441,71,215600,2,0,P|408:85|447:107,1,82.5000031471254
339,199,215750,2,0,P|372:213|333:235,1,82.5000031471254
274,31,215900,2,0,P|241:45|280:67,1,82.5000031471254
111,161,216050,5,0,0:0:0:0:
111,161,216125,1,0,0:0:0:0:
111,161,216200,2,0,P|144:175|105:197,1,82.5000031471254
350,242,216350,2,0,P|317:256|356:278,1,82.5000031471254
109,319,216500,2,0,P|142:333|103:355,1,82.5000031471254
263,177,216650,2,0,P|230:191|269:213,1,82.5000031471254
22,49,216800,2,0,P|55:63|16:85,1,82.5000031471254
274,133,216950,2,0,P|241:147|280:169,1,82.5000031471254
97,275,217100,2,0,P|130:289|91:311,1,82.5000031471254
308,329,217250,5,0,0:0:0:0:
308,329,217325,1,0,0:0:0:0:
308,329,217400,2,0,L|182:265,1,82.5000031471254
74,155,217550,2,0,L|-52:219,1,82.5000031471254
159,31,217700,5,0,0:0:0:0:
240,19,217775,1,0,0:0:0:0:
318,41,217850,1,0,0:0:0:0:
381,93,217925,1,0,0:0:0:0:
417,167,218000,6,0,P|335:163|296:124,1,88
158,149,218150,2,0,P|75:153|36:192,1,88
263,303,218300,2,0,P|345:298|384:259,1,88
332,161,218450,2,0,P|249:165|210:204,1,88
111,279,218600,2,0,P|69:291|26:284,1,88
64,99,218750,2,0,P|105:111|148:104,1,88
340,227,218900,2,0,P|298:239|255:232,1,88
250,54,219050,2,0,P|291:41|334:48,1,88
433,180,219200,2,0,P|445:221|438:264,1,88
191,277,219350,5,0,0:0:0:0:
191,277,219425,1,0,0:0:0:0:
191,277,219500,2,0,P|178:235|185:192,1,88
329,133,219650,2,0,P|341:91|334:48,1,88
6,68,219800,2,0,L|137:81,1,88
273,239,219950,2,0,L|404:226,1,88
478,49,220100,5,0,0:0:0:0:
390,44,220175,1,0,0:0:0:0:
306,68,220250,1,0,0:0:0:0:
235,119,220325,1,0,0:0:0:0:
185,191,220400,2,0,L|35:196,1,93.500001783371
336,332,220550,2,0,L|486:336,1,93.500001783371
148,206,220700,2,0,L|-2:210,1,93.500001783371
298,346,220850,2,0,L|448:350,1,93.500001783371
306,68,221000,5,0,0:0:0:0:
233,34,221075,1,0,0:0:0:0:
157,60,221150,1,0,0:0:0:0:
121,132,221225,1,0,0:0:0:0:
148,206,221300,1,0,0:0:0:0:
155,289,221375,1,0,0:0:0:0:
86,336,221450,1,0,0:0:0:0:
11,299,221525,1,0,0:0:0:0:
7,215,221600,1,0,0:0:0:0:
78,165,221675,1,0,0:0:0:0:
170,157,221750,1,0,0:0:0:0:
257,189,221825,1,0,0:0:0:0:
322,255,221900,1,0,0:0:0:0:
412,282,221975,1,0,0:0:0:0:
486,222,222050,1,0,0:0:0:0:
478,128,222125,1,0,0:0:0:0:
394,82,222200,5,0,0:0:0:0:
389,186,222800,1,0,0:0:0:0:
389,186,223400,6,0,L|291:156,1,82.5
3,210,223700,2,0,L|101:240,1,82.5
389,137,224000,2,0,L|291:167,1,82.5
3,113,224300,6,0,L|51:103,1,27.5
207,215,224450,2,0,L|159:225,1,27.5
175,53,224600,6,0,L|379:51,1,192.5
512,171,225200,2,0,L|308:169,1,192.5
69,70,225800,6,0,L|273:68,1,192.5
406,188,226400,2,0,L|202:186,1,192.5
0,320,227000,6,0,B|32:288|32:288|64:320|64:320|96:288|96:288|128:320|128:320|160:288|160:288|192:320|192:320|224:288|224:288|256:320|256:320|288:288|288:288|320:320|320:320,1,440
480,96,228350,5,0,0:0:0:0:
224,64,228500,1,0,0:0:0:0:
480,96,228650,1,0,0:0:0:0:
96,128,228950,5,0,0:0:0:0:
352,96,229100,1,0,0:0:0:0:
96,128,229250,1,0,0:0:0:0:
384,256,229400,6,0,B|352:224|352:224|320:256|320:256|288:224|288:224|256:256|256:256|224:224|224:224|192:256|192:256|160:224|160:224|128:256|128:256|128:192|128:192,1,412.5
127,181,230600,5,0,0:0:0:0:
393,98,230750,2,0,L|345:93,1,27.5
201,73,230900,1,0,0:0:0:0:
407,195,231050,1,0,0:0:0:0:
127,181,231200,1,0,0:0:0:0:
395,216,231350,1,0,0:0:0:0:
127,206,231500,6,0,P|181:197|217:223,1,82.5
302,295,231800,2,0,B|255:311|203:210|203:210|268:158|432:221|394:328,1,412.5
507,358,233000,6,0,L|484:271,1,82.5
328,197,233300,2,0,L|351:110,1,82.5
504,79,233600,2,0,L|481:-8,1,82.5
507,358,233900,6,0,L|494:309,1,27.5
328,197,234050,2,0,L|341:148,1,27.5
503,78,234200,6,0,P|455:46|305:38,1,192.5
89,65,234800,2,0,P|137:97|287:105,1,192.5
503,142,235400,6,0,P|455:174|305:182,1,192.5
89,155,236000,2,0,P|137:123|287:115,1,192.5
512,320,236600,6,0,B|480:288|480:288|448:320|448:320|416:288|416:288|384:320|384:320|352:288|352:288|320:320|320:320|288:288|288:288|256:320|256:320|224:288|224:288|192:320|192:320,1,440
32,96,237950,5,0,0:0:0:0:
288,96,238100,1,0,0:0:0:0:
32,96,238250,1,0,0:0:0:0:
128,32,238550,5,0,0:0:0:0:
349,160,238700,1,0,0:0:0:0:
128,32,238850,1,0,0:0:0:0:
93,210,239000,6,0,B|125:178|125:178|157:210|157:210|189:178|189:178|221:210|221:210|253:178|253:178|285:210|285:210|317:178|317:178|349:210|349:210|349:146|349:146,1,412.5
353,131,240200,1,0,0:0:0:0:
492,233,240350,2,0,L|441:249,1,27.5
270,301,240500,1,0,0:0:0:0:
486,158,240650,1,0,0:0:0:0:
201,54,240800,1,0,0:0:0:0:
494,233,240950,1,0,0:0:0:0:
186,316,241100,1,0,0:0:0:0:
476,82,241250,1,0,0:0:0:0:
128,160,241400,6,0,L|201:144,1,55
276,217,241700,2,0,L|349:233,1,55
157,178,242000,6,0,L|230:162,1,55
305,235,242300,2,0,L|378:251,1,55
404,118,242600,6,0,L|446:170,7,55
292,36,243800,2,0,L|250:88,7,55
93,123,245000,2,0,L|135:175,6,55
32,273,246050,1,0,0:0:0:0:
32,273,246125,1,0,0:0:0:0:
32,273,246200,6,0,L|105:276,1,55
196,337,246500,2,0,L|269:334,1,55
32,273,246800,2,0,L|105:276,1,55
196,337,247100,2,0,L|269:334,1,55
404,118,247400,6,0,L|446:170,7,55
292,36,248600,2,0,L|250:88,7,55
93,123,249800,2,0,L|135:175,6,55
32,273,250850,1,0,0:0:0:0:
32,273,250925,1,0,0:0:0:0:
32,273,251000,6,0,L|105:276,1,55
196,337,251300,2,0,L|269:334,1,55
32,273,251600,2,0,L|105:276,1,55
196,337,251900,2,0,L|269:334,1,55
313,243,252200,6,0,P|352:264|363:294,7,65.9999979858399
260,123,253400,6,0,P|221:144|210:184,7,76.9999976501466
119,333,254600,6,0,P|164:316|175:276,7,88
42,176,255800,6,0,L|-11:89,7,98.9999969787599
211,93,257000,6,0,L|272:-1,7,110
390,246,258200,6,0,L|316:129,7,126.500002412796
32,294,259400,6,0,L|115:133,4,165.000006294251
493,98,260600,6,0,P|390:48|278:175,1,247.500009441376
281,174,260900,6,0,P|331:67|441:57,1,206.250007867813
455,64,261350,5,0,0:0:0:0:
442,271,261500,1,0,0:0:0:0:
285,175,261650,1,0,0:0:0:0:
490,152,261800,1,0,0:0:0:0:
288,116,261950,1,0,0:0:0:0:
442,271,262100,1,0,0:0:0:0:
285,175,262250,1,0,0:0:0:0:
490,152,262400,1,0,0:0:0:0:
283,58,262550,6,0,L|342:57,1,41.2500015735627
495,65,262700,1,0,0:0:0:0:
172,59,262850,1,0,0:0:0:0:
286,228,263000,6,0,B|151:140|175:288|29:192,1,247.500009441376
19,167,263300,2,0,B|65:236|128:238|177:206|177:206|181:297,1,247.500009441376
177,318,263600,2,0,P|135:251|148:219,1,82.5000031471254
224,96,263750,5,0,0:0:0:0:
384,192,263900,1,0,0:0:0:0:
224,64,264050,1,0,0:0:0:0:
172,224,264200,1,0,0:0:0:0:
411,184,264350,1,0,0:0:0:0:
141,206,264500,1,0,0:0:0:0:
224,32,264650,1,0,0:0:0:0:
449,175,264800,1,0,0:0:0:0:
141,206,264950,6,0,L|215:195,1,41.2500015735627
411,184,265100,1,0,0:0:0:0:
44,221,265250,1,0,0:0:0:0:
450,312,265400,6,0,B|388:271|388:271|321:320|321:320|276:303|177:299,1,288.750011014939
150,302,266000,6,0,P|145:245|308:278,1,247.500009441376
311,257,266300,5,0,0:0:0:0:
427,151,266450,1,0,0:0:0:0:
217,97,266600,1,0,0:0:0:0:
457,162,266750,1,0,0:0:0:0:
177,104,266900,1,0,0:0:0:0:
311,257,267050,1,0,0:0:0:0:
190,60,267200,1,0,0:0:0:0:
339,286,267350,6,0,L|295:240,1,41.2500015735627
177,104,267500,1,0,0:0:0:0:
407,348,267650,1,0,0:0:0:0:
77,277,267800,6,0,B|212:189|188:337|334:241,1,247.500009441376
344,216,268100,2,0,B|298:285|235:287|186:255|186:255|182:346,1,247.500009441376
186,367,268400,2,0,P|228:300|215:268,1,82.5000031471254
195,105,268550,5,0,0:0:0:0:
73,275,268700,1,0,0:0:0:0:
346,217,268850,1,0,0:0:0:0:
160,81,269000,1,0,0:0:0:0:
381,240,269150,1,0,0:0:0:0:
368,29,269300,1,0,0:0:0:0:
126,67,269450,1,0,0:0:0:0:
91,308,269600,6,0,L|125:300,1,27.5
181,143,269750,2,0,L|215:135,1,27.5
66,288,269900,2,0,L|100:280,1,27.5
156,123,270050,2,0,L|190:115,1,27.5
454,338,270200,6,0,L|323:320,1,82.5000031471254
174,270,270350,2,0,L|43:288,1,82.5000031471254
466,208,270500,2,0,L|333:203,1,123.750004720688
299,216,270800,6,0,L|189:170,1,82.5000031471254
76,82,270950,2,0,L|-34:128,1,82.5000031471254
301,192,271100,2,0,L|191:146,1,82.5000031471254
78,58,271250,2,0,L|-32:104,1,82.5000031471254
363,72,271400,2,0,P|427:117|411:178,1,123.750004720688
411,215,271700,2,0,P|419:273|473:298,1,123.750004720688
502,344,272000,6,0,P|439:328|365:345,1,82.5000031471254
225,285,272150,2,0,P|183:282|145:269,1,82.5000031471254
473,298,272300,2,0,P|410:282|336:299,1,82.5000031471254
196,239,272450,2,0,P|154:236|116:223,1,82.5000031471254
342,83,272600,6,0,P|375:89|348:108,1,82.5000031471254
123,197,272750,2,0,P|90:203|117:222,1,82.5000031471254
292,320,272900,2,0,P|325:326|298:345,1,82.5000031471254
115,222,273050,2,0,P|148:228|121:247,1,82.5000031471254
251,83,273200,2,0,P|218:89|245:108,1,82.5000031471254
0,71,273350,2,0,P|33:77|6:96,1,82.5000031471254
115,222,273500,2,0,P|82:228|109:247,1,82.5000031471254
292,320,273650,5,0,0:0:0:0:
292,320,273725,1,0,0:0:0:0:
292,320,273800,2,0,P|325:326|298:345,1,82.5000031471254
480,194,273950,2,0,P|447:200|474:219,1,82.5000031471254
289,68,274100,2,0,P|322:74|295:93,1,82.5000031471254
122,196,274250,2,0,P|89:202|116:221,1,82.5000031471254
284,294,274400,2,0,P|317:300|290:319,1,82.5000031471254
114,221,274550,2,0,P|81:227|108:246,1,82.5000031471254
297,139,274700,2,0,P|330:145|303:164,1,82.5000031471254
458,291,274850,5,0,0:0:0:0:
458,291,274925,1,0,0:0:0:0:
458,291,275000,2,0,L|321:235,1,82.5000031471254
190,189,275150,2,0,L|53:245,1,82.5000031471254
130,342,275300,2,0,L|285:342,1,123.750004720688
309,338,275600,6,0,P|327:278|318:244,1,82.5000031471254
291,116,275750,2,0,P|273:56|282:22,1,82.5000031471254
357,364,275900,2,0,P|375:304|366:270,1,82.5000031471254
339,142,276050,2,0,P|321:82|330:48,1,82.5000031471254
465,172,276200,2,0,P|405:190|371:181,1,82.5000031471254
243,154,276350,2,0,P|183:136|149:145,1,82.5000031471254
491,220,276500,2,0,P|431:238|397:229,1,82.5000031471254
269,202,276650,2,0,P|209:184|175:193,1,82.5000031471254
11,295,276800,2,0,P|71:313|105:304,1,82.5000031471254
194,188,276950,5,0,0:0:0:0:
194,188,277025,1,0,0:0:0:0:
194,188,277100,2,0,P|212:128|203:94,1,82.5000031471254
46,19,277250,2,0,P|28:79|37:113,1,82.5000031471254
89,309,277400,2,0,L|228:283,1,82.5000031471254
380,274,277550,2,0,L|519:300,1,82.5000031471254
463,132,277700,2,0,L|315:139,1,123.750004720688
312,138,278000,6,0,L|190:88,1,82.5000031471254
76,79,278150,2,0,L|-46:129,1,82.5000031471254
317,171,278300,2,0,L|195:121,1,82.5000031471254
81,112,278450,2,0,L|-41:162,1,82.5000031471254
64,291,278600,2,0,P|165:338|312:283,1,247.500009441376
405,264,278900,2,0,P|304:217|157:272,1,247.500009441376
290,244,279200,6,0,P|296:171|331:143,1,82.5000031471254
456,60,279350,2,0,P|450:133|415:161,1,82.5000031471254
358,244,279500,2,0,P|352:171|317:143,1,82.5000031471254
192,60,279650,2,0,P|198:133|233:161,1,82.5000031471254
351,74,279800,5,0,0:0:0:0:
330,74,279875,1,0,0:0:0:0:
311,82,279950,1,0,0:0:0:0:
298,98,280025,1,0,0:0:0:0:
293,118,280100,1,0,0:0:0:0:
297,138,280175,1,0,0:0:0:0:
309,154,280250,1,0,0:0:0:0:
327,164,280325,1,0,0:0:0:0:
348,166,280400,6,0,P|359:128|330:95,1,82.5000031471254
105,80,280550,2,0,P|111:153|146:181,1,82.5000031471254
240,280,280700,2,0,P|255:317|249:357,1,82.5000031471254
105,235,280850,2,0,P|98:194|114:157,1,82.5000031471254
304,48,281000,5,0,0:0:0:0:
285,55,281075,1,0,0:0:0:0:
271,70,281150,1,0,0:0:0:0:
264,89,281225,1,0,0:0:0:0:
266,109,281300,1,0,0:0:0:0:
276,127,281375,1,0,0:0:0:0:
293,138,281450,1,0,0:0:0:0:
314,141,281525,1,0,0:0:0:0:
333,136,281600,6,0,P|330:96|292:75,1,82.5000031471254
75,138,281750,2,0,P|106:204|148:219,1,82.5000031471254
271,280,281900,2,0,P|298:310|306:350,1,82.5000031471254
128,284,282050,2,0,P|109:248|111:207,1,82.5000031471254
252,40,282200,5,0,0:0:0:0:
237,53,282275,1,0,0:0:0:0:
228,72,282350,1,0,0:0:0:0:
228,92,282425,1,0,0:0:0:0:
237,111,282500,1,0,0:0:0:0:
253,123,282575,1,0,0:0:0:0:
273,128,282650,1,0,0:0:0:0:
293,124,282725,1,0,0:0:0:0:
309,112,282800,6,0,P|293:76|250:70,1,82.5000031471254
68,203,282950,2,0,P|119:255|164:254,1,82.5000031471254
300,269,283100,2,0,P|336:288|357:323,1,82.5000031471254
167,322,283250,2,0,P|137:295|125:256,1,82.5000031471254
201,50,283400,5,0,0:0:0:0:
191,68,283475,1,0,0:0:0:0:
189,88,283550,1,0,0:0:0:0:
196,107,283625,1,0,0:0:0:0:
210,122,283700,1,0,0:0:0:0:
230,128,283775,1,0,0:0:0:0:
250,126,283850,1,0,0:0:0:0:
268,116,283925,1,0,0:0:0:0:
279,99,284000,6,0,P|252:70|208:79,1,82.5000031471254
83,266,284150,2,0,P|149:298|191:281,1,82.5000031471254
324,249,284300,2,0,P|364:254|396:280,1,82.5000031471254
217,344,284450,2,0,P|179:329|155:297,1,82.5000031471254
391,193,284600,2,0,L|389:328,1,82.5000031471254
146,240,284750,2,0,L|148:375,1,82.5000031471254
411,61,284900,6,0,L|277:132,1,123.750004720688
405,194,285200,2,0,L|403:340,1,82.5000031471254
135,245,285350,2,0,L|136:383,1,82.5000031471254
427,48,285500,6,0,L|283:127,1,140.250002675057
420,194,285800,2,0,L|420:349,1,82.5000031471254
123,254,285950,2,0,L|127:411,1,82.5000031471254
444,34,286100,6,0,L|284:125,1,156.749995814324
437,195,286400,2,0,L|434:361,1,93.500001783371
107,263,286550,2,0,L|110:422,1,93.500001783371
463,19,286700,6,0,L|298:116,1,173.24999471283
111,259,287000,5,0,0:0:0:0:
43,243,287075,1,0,0:0:0:0:
0,189,287150,1,0,0:0:0:0:
0,119,287225,1,0,0:0:0:0:
25,58,287300,1,0,0:0:0:0:
89,29,287375,1,0,0:0:0:0:
158,42,287450,1,0,0:0:0:0:
207,92,287525,1,0,0:0:0:0:
218,162,287600,5,0,0:0:0:0:
224,86,287675,1,0,0:0:0:0:
276,31,287750,1,0,0:0:0:0:
350,20,287825,1,0,0:0:0:0:
416,57,287900,1,0,0:0:0:0:
444,127,287975,1,0,0:0:0:0:
422,200,288050,1,0,0:0:0:0:
361,243,288125,1,0,0:0:0:0:
285,238,288200,5,0,0:0:0:0:
216,195,288275,1,0,0:0:0:0:
136,203,288350,1,0,0:0:0:0:
76,257,288425,1,0,0:0:0:0:
66,342,288500,1,0,0:0:0:0:
132,288,288575,1,0,0:0:0:0:
136,203,288650,1,0,0:0:0:0:
116,114,288725,1,0,0:0:0:0:
166,38,288800,5,0,0:0:0:0:
256,23,288875,1,0,0:0:0:0:
329,77,288950,1,0,0:0:0:0:
340,167,289025,1,0,0:0:0:0:
285,238,289100,1,0,0:0:0:0:
297,333,289175,1,0,0:0:0:0:
381,378,289250,1,0,0:0:0:0:
467,335,289325,1,0,0:0:0:0:
481,241,289400,1,0,0:0:0:0:
373,143,290600,5,0,0:0:0:0:
115,93,290900,5,0,0:0:0:0:
137,127,290975,1,0,0:0:0:0:
174,144,291050,1,0,0:0:0:0:
214,139,291125,1,0,0:0:0:0:
246,113,291200,1,0,0:0:0:0:
96,83,291500,5,0,0:0:0:0:
124,128,291575,1,0,0:0:0:0:
173,150,291650,1,0,0:0:0:0:
225,143,291725,1,0,0:0:0:0:
263,111,291800,1,0,0:0:0:0:
467,251,291950,5,0,0:0:0:0:
441,218,292025,1,0,0:0:0:0:
404,202,292100,1,0,0:0:0:0:
363,206,292175,1,0,0:0:0:0:
330,229,292250,1,0,0:0:0:0:
293,248,292325,1,0,0:0:0:0:
253,255,292400,1,0,0:0:0:0:
212,250,292475,1,0,0:0:0:0:
174,234,292550,1,0,0:0:0:0:
154,199,292625,1,0,0:0:0:0:
173,165,292700,1,0,0:0:0:0:
213,163,292775,1,0,0:0:0:0:
235,195,292850,1,0,0:0:0:0:
100,106,293000,5,0,0:0:0:0:
401,110,293450,5,0,0:0:0:0:
369,84,293525,1,0,0:0:0:0:
331,67,293600,1,0,0:0:0:0:
100,106,293750,1,0,0:0:0:0:
401,110,294050,5,0,0:0:0:0:
100,106,294200,1,0,0:0:0:0:
391,161,294350,1,0,0:0:0:0:
109,54,294500,1,0,0:0:0:0:
364,206,294650,1,0,0:0:0:0:
136,9,294800,1,0,0:0:0:0:
152,255,294950,1,0,0:0:0:0:
349,27,295100,1,0,0:0:0:0:
412,307,295250,1,0,0:0:0:0:
184,110,295400,5,0,0:0:0:0:
144,101,295475,1,0,0:0:0:0:
111,123,295550,1,0,0:0:0:0:
103,163,295625,1,0,0:0:0:0:
125,196,295700,1,0,0:0:0:0:
227,47,295850,1,0,0:0:0:0:
156,300,296000,5,0,0:0:0:0:
437,183,296750,5,0,0:0:0:0:
396,189,296825,1,0,0:0:0:0:
360,171,296900,1,0,0:0:0:0:
453,183,297050,5,0,0:0:0:0:
396,193,297125,1,0,0:0:0:0:
345,167,297200,1,0,0:0:0:0:
174,82,297350,1,0,0:0:0:0:
407,120,297500,1,0,0:0:0:0:
77,189,297800,5,0,0:0:0:0:
56,224,297875,1,0,0:0:0:0:
61,264,297950,1,0,0:0:0:0:
90,293,298025,1,0,0:0:0:0:
130,298,298100,1,0,0:0:0:0:
165,278,298175,1,0,0:0:0:0:
181,241,298250,1,0,0:0:0:0:
211,214,298325,1,0,0:0:0:0:
250,201,298400,1,0,0:0:0:0:
291,207,298475,1,0,0:0:0:0:
325,229,298550,1,0,0:0:0:0:
347,263,298625,1,0,0:0:0:0:
352,304,298700,1,0,0:0:0:0:
428,374,298850,5,0,0:0:0:0:
441,335,298925,1,0,0:0:0:0:
446,294,299000,1,0,0:0:0:0:
442,253,299075,1,0,0:0:0:0:
428,214,299150,1,0,0:0:0:0:
406,179,299225,1,0,0:0:0:0:
377,150,299300,1,0,0:0:0:0:
349,120,299375,1,0,0:0:0:0:
347,79,299450,1,0,0:0:0:0:
371,47,299525,1,0,0:0:0:0:
410,37,299600,5,0,0:0:0:0:
247,70,299750,1,0,0:0:0:0:
413,102,299900,1,0,0:0:0:0:
258,100,300050,1,0,0:0:0:0:
435,137,300200,1,0,0:0:0:0:
235,218,300350,6,0,L|193:199,1,41.2500015735627
90,122,300500,2,0,L|132:141,1,41.2500015735627
210,97,300650,2,0,L|191:139,1,41.2500015735627
114,242,300800,2,0,L|133:200,1,41.2500015735627
247,152,300950,2,0,L|204:168,1,41.2500015735627
77,187,301100,2,0,L|120:171,1,41.2500015735627
145,84,301250,2,0,L|161:127,1,41.2500015735627
445,120,301850,5,0,0:0:0:0:
403,117,301925,1,0,0:0:0:0:
362,115,302000,1,0,0:0:0:0:
458,145,302150,5,0,0:0:0:0:
402,141,302225,1,0,0:0:0:0:
346,138,302300,1,0,0:0:0:0:
174,102,302450,5,0,0:0:0:0:
445,120,303050,5,0,0:0:0:0:
403,117,303125,1,0,0:0:0:0:
362,115,303200,1,0,0:0:0:0:
458,145,303350,5,0,0:0:0:0:
402,141,303425,1,0,0:0:0:0:
346,138,303500,1,0,0:0:0:0:
174,102,303650,5,0,0:0:0:0:
445,120,304250,5,0,0:0:0:0:
403,117,304325,1,0,0:0:0:0:
362,115,304400,1,0,0:0:0:0:
458,145,304550,5,0,0:0:0:0:
402,141,304625,1,0,0:0:0:0:
346,138,304700,1,0,0:0:0:0:
174,102,304850,1,0,0:0:0:0:
71,246,305000,5,0,0:0:0:0:
303,329,305150,6,0,L|261:310,1,41.2500015735627
158,233,305300,2,0,L|200:252,1,41.2500015735627
279,209,305450,2,0,L|260:251,1,41.2500015735627
183,354,305600,2,0,L|202:312,1,41.2500015735627
316,264,305750,2,0,L|272:280,1,41.2500015735627
146,299,305900,2,0,L|189:282,1,41.2500015735627
214,196,306050,2,0,L|230:239,1,41.2500015735627
35,70,306650,5,0,0:0:0:0:
76,73,306725,1,0,0:0:0:0:
117,76,306800,1,0,0:0:0:0:
425,128,307100,5,0,0:0:0:0:
411,137,307400,5,0,0:0:0:0:
370,135,307475,1,0,0:0:0:0:
336,158,307550,1,0,0:0:0:0:
321,195,307625,1,0,0:0:0:0:
330,235,307700,1,0,0:0:0:0:
360,262,307775,1,0,0:0:0:0:
401,267,307850,1,0,0:0:0:0:
364,286,307925,1,0,0:0:0:0:
324,295,308000,1,0,0:0:0:0:
283,292,308075,1,0,0:0:0:0:
244,279,308150,1,0,0:0:0:0:
211,255,308225,1,0,0:0:0:0:
184,223,308300,1,0,0:0:0:0:
194,263,308375,1,0,0:0:0:0:
174,297,308450,1,0,0:0:0:0:
136,309,308525,1,0,0:0:0:0:
100,290,308600,1,0,0:0:0:0:
17,76,309050,5,0,0:0:0:0:
47,83,309125,1,0,0:0:0:0:
256,192,309800,1,0,0:0:0:0:
253,151,309875,1,0,0:0:0:0:
280,122,309950,6,0,L|299:164,1,41.2500015735627
376,267,310100,2,0,L|357:225,1,41.2500015735627
400,146,310250,2,0,L|358:165,1,41.2500015735627
255,242,310400,2,0,L|297:223,1,41.2500015735627
345,109,310550,2,0,L|329:153,1,41.2500015735627
310,279,310700,2,0,L|327:236,1,41.2500015735627
413,211,310850,2,0,L|370:195,1,41.2500015735627
154,146,311000,5,0,0:0:0:0:
119,128,311075,1,0,0:0:0:0:
120,89,311150,1,0,0:0:0:0:
156,74,311225,1,0,0:0:0:0:
185,100,311300,1,0,0:0:0:0:
105,221,311450,5,0,0:0:0:0:
68,203,311525,1,0,0:0:0:0:
40,172,311600,2,0,L|34:98,1,41.2500015735627
194,4,311750,5,0,0:0:0:0:
231,22,311825,1,0,0:0:0:0:
259,53,311900,2,0,L|264:126,1,41.2500015735627
262,251,312050,5,0,0:0:0:0:
261,94,312200,2,0,L|337:41,1,82.5000031471254
507,67,312500,2,0,L|431:120,1,82.5000031471254
318,177,312800,5,0,0:0:0:0:
141,44,312950,2,0,P|167:111|193:126,1,82.5000031471254
405,274,313250,1,0,0:0:0:0:
400,143,313400,5,0,0:0:0:0:
262,251,313550,1,0,0:0:0:0:
452,81,313700,6,0,L|472:215,1,123.750004720688
400,143,314000,2,0,L|380:277,1,123.750004720688
470,206,314300,5,0,0:0:0:0:
368,61,314450,1,0,0:0:0:0:
151,80,314600,2,0,P|96:76|187:126,1,371.250014162064
120,142,315350,5,0,0:0:0:0:
408,91,315500,1,0,0:0:0:0:
55,276,315650,1,0,0:0:0:0:
396,238,316400,6,0,P|325:219|295:159,2,123.750004720688
270,36,317000,1,0,0:0:0:0:
114,116,317600,5,0,0:0:0:0:
323,256,317750,1,0,0:0:0:0:
327,258,318200,1,0,0:0:0:0:
309,302,318800,5,0,0:0:0:0:
297,108,319100,5,0,0:0:0:0:
468,132,319250,1,0,0:0:0:0:
480,264,319400,6,0,P|427:232|307:344,1,214.49999018097
386,308,319700,1,0,0:0:0:0:
353,245,319775,1,0,0:0:0:0:
295,204,319850,1,0,0:0:0:0:
225,194,319925,1,0,0:0:0:0:
158,218,320000,6,0,P|135:91|241:160,1,288.750002753735
225,194,320300,1,0,0:0:0:0:
259,256,320375,1,0,0:0:0:0:
316,297,320450,1,0,0:0:0:0:
386,309,320525,1,0,0:0:0:0:
452,289,320600,6,0,P|381:218|450:40,1,288.750002753735
466,117,320900,1,0,0:0:0:0:
417,65,320975,1,0,0:0:0:0:
349,48,321050,1,0,0:0:0:0:
282,71,321125,1,0,0:0:0:0:
239,127,321200,5,0,0:0:0:0:
454,288,321350,1,0,0:0:0:0:
417,65,321500,1,0,0:0:0:0:
209,268,321650,1,0,0:0:0:0:
105,28,321800,1,0,0:0:0:0:
482,182,321950,6,0,P|394:168|332:124,1,96.2500009179115
105,28,322100,2,0,P|59:13|11:11,1,96.2500009179115
400,4,322250,2,0,P|343:73|274:104,1,96.2500009179115
78,253,322400,2,0,P|42:285|16:325,1,96.2500009179115
420,254,322550,2,0,P|455:221|481:181,1,96.2500009179115
214,107,322700,2,0,P|168:92|120:90,1,96.2500009179115
419,334,322850,2,0,P|464:348|512:350,1,96.2500009179115
214,107,323000,5,0,0:0:0:0:
145,335,323150,1,0,0:0:0:0:
481,179,323300,1,0,0:0:0:0:
121,88,323450,1,0,0:0:0:0:
421,335,323600,1,0,0:0:0:0:
333,13,323750,1,0,0:0:0:0:
303,380,323900,1,0,0:0:0:0:
481,179,324050,1,0,0:0:0:0:
121,88,324200,6,0,P|41:182|197:233,1,288.750002753735
178,258,324500,1,0,0:0:0:0:
481,179,324650,1,0,0:0:0:0:
120,89,324800,6,0,B|208:45|263:198|406:91|406:91|401:340|401:340|326:274|223:295|216:361|216:361|251:258|132:215|165:263,1,866.250008261204
194,204,325550,5,0,0:0:0:0:
189,123,325625,1,0,0:0:0:0:
236,57,325700,1,0,0:0:0:0:
188,236,325850,5,0,0:0:0:0:
181,121,325925,1,0,0:0:0:0:
248,27,326000,1,0,0:0:0:0:
487,191,326150,1,0,0:0:0:0:
183,120,326300,1,0,0:0:0:0:
487,322,326450,1,0,0:0:0:0:
248,27,326600,1,0,0:0:0:0:
32,268,326750,6,0,P|54:216|141:155,1,96.2500009179115
370,115,326900,2,0,P|400:78|418:33,1,96.2500009179115
42,300,327050,2,0,P|64:248|151:187,1,96.2500009179115
380,147,327200,2,0,P|410:110|428:65,1,96.2500009179115
128,105,327350,2,0,P|97:141|79:186,1,96.2500009179115
441,260,327500,2,0,P|471:223|489:178,1,96.2500009179115
336,39,327650,5,0,0:0:0:0:
282,81,327725,1,0,0:0:0:0:
285,150,327800,1,0,0:0:0:0:
222,118,327875,1,0,0:0:0:0:
155,138,327950,1,0,0:0:0:0:
120,198,328025,1,0,0:0:0:0:
135,266,328100,1,0,0:0:0:0:
193,306,328175,1,0,0:0:0:0:
262,294,328250,1,0,0:0:0:0:
247,226,328325,1,0,0:0:0:0:
189,187,328400,1,0,0:0:0:0:
120,198,328475,1,0,0:0:0:0:
65,156,328550,1,0,0:0:0:0:
61,87,328625,1,0,0:0:0:0:
110,38,328700,1,0,0:0:0:0:
179,43,328775,1,0,0:0:0:0:
244,71,328850,1,0,0:0:0:0:
315,72,328925,1,0,0:0:0:0:
381,45,329000,6,0,P|488:74|347:293,1,481.250004589558
327,240,329450,5,0,0:0:0:0:
230,238,329525,1,0,0:0:0:0:
134,236,329600,1,0,0:0:0:0:
358,268,329750,5,0,0:0:0:0:
232,265,329825,1,0,0:0:0:0:
107,263,329900,1,0,0:0:0:0:
381,45,330050,2,0,B|445:17|506:66|506:66|438:64|413:120|413:120|486:101|516:121|516:121|448:138|490:309|490:309|526:349|428:284|428:284|393:278,1,673.750006425381
327,240,330650,5,0,0:0:0:0:
230,238,330725,1,0,0:0:0:0:
134,236,330800,1,0,0:0:0:0:
358,268,330950,5,0,0:0:0:0:
232,265,331025,1,0,0:0:0:0:
107,263,331100,1,0,0:0:0:0:
381,45,331250,2,0,B|445:17|506:66|506:66|438:64|413:120|413:120|486:101|516:121|516:121|448:138|490:309|490:309|526:349|428:284|428:284|393:278,1,673.750006425381
327,240,331850,5,0,0:0:0:0:
230,238,331925,1,0,0:0:0:0:
134,236,332000,1,0,0:0:0:0:
358,268,332150,5,0,0:0:0:0:
232,265,332225,1,0,0:0:0:0:
107,263,332300,1,0,0:0:0:0:
381,45,332450,2,0,B|445:17|506:66|506:66|438:64|413:120|413:120|486:101|516:121|516:121|448:138|490:309|490:309|526:349|428:284|428:284|393:278,1,673.750006425381
327,240,333050,5,0,0:0:0:0:
230,238,333125,1,0,0:0:0:0:
134,236,333200,1,0,0:0:0:0:
358,268,333350,5,0,0:0:0:0:
232,265,333425,1,0,0:0:0:0:
107,263,333500,1,0,0:0:0:0:
381,45,333650,1,0,0:0:0:0:
107,263,333800,6,0,P|35:171|175:133,1,288.750002753735
358,268,334100,2,0,P|430:176|290:138,1,288.750002753735
352,189,334400,5,0,0:0:0:0:
507,353,334550,1,0,0:0:0:0:
199,22,334700,1,0,0:0:0:0:
503,212,334850,6,0,B|419:120|310:124|273:177|273:177|354:189|354:189|257:236|206:341|206:341|184:251|184:251|90:331|-14:234,1,866.250008261204
92,204,335600,6,0,P|151:99|19:7,1,288.750002753735
18,102,335900,2,0,P|97:209|218:152,1,288.750002753735
241,114,336200,1,0,0:0:0:0:
501,54,336350,6,0,P|428:70|387:122,1,96.2500009179115
141,276,336500,2,0,P|100:300|52:304,1,96.2500009179115
11,54,336650,2,0,P|84:70|125:122,1,96.2500009179115
371,276,336800,2,0,P|411:300|459:304,1,96.2500009179115
292,61,336950,2,0,P|251:36|203:32,1,96.2500009179115
484,156,337100,2,0,P|508:116|512:68,1,96.2500009179115
269,235,337250,2,0,P|244:276|240:324,1,96.2500009179115
512,43,337400,6,0,B|349:65|289:310|38:245,1,481.250004589558
51,170,337850,1,0,0:0:0:0:
135,131,337925,2,0,B|253:105|384:256|384:256|448:288|384:352|384:352|320:288|384:256|384:256|543:269|501:73,1,770.000007343292
489,57,338600,5,0,0:0:0:0:
412,28,338675,1,0,0:0:0:0:
330,32,338750,1,0,0:0:0:0:
258,70,338825,1,0,0:0:0:0:
207,135,338900,1,0,0:0:0:0:
187,214,338975,1,0,0:0:0:0:
202,295,339050,1,0,0:0:0:0:
222,216,339125,1,0,0:0:0:0:
207,135,339200,1,0,0:0:0:0:
159,70,339275,1,0,0:0:0:0:
80,56,339350,1,0,0:0:0:0:
12,99,339425,1,0,0:0:0:0:
1,179,339500,1,0,0:0:0:0:
49,114,339575,1,0,0:0:0:0:
128,98,339650,1,0,0:0:0:0:
198,139,339725,1,0,0:0:0:0:
222,216,339800,1,0,0:0:0:0:
295,253,339875,1,0,0:0:0:0:
375,240,339950,1,0,0:0:0:0:
432,182,340025,1,0,0:0:0:0:
443,102,340100,1,0,0:0:0:0:
135,191,340250,5,0,0:0:0:0:
198,139,340325,1,0,0:0:0:0:
279,129,340400,1,0,0:0:0:0:
353,162,340475,1,0,0:0:0:0:
425,132,340550,1,0,0:0:0:0:
432,54,340625,1,0,0:0:0:0:
365,13,340700,1,0,0:0:0:0:
299,54,340775,1,0,0:0:0:0:
279,129,340850,1,0,0:0:0:0:
284,209,340925,1,0,0:0:0:0:
237,275,341000,6,0,P|115:344|228:121,1,673.750006425381
279,129,341600,1,0,0:0:0:0:
419,335,341750,5,0,0:0:0:0:
465,251,341825,1,0,0:0:0:0:
472,156,341900,1,0,0:0:0:0:
237,275,342050,1,0,0:0:0:0:
461,41,342200,1,0,0:0:0:0:
155,182,342350,1,0,0:0:0:0:
472,156,342500,1,0,0:0:0:0:
237,36,342650,1,0,0:0:0:0:
57,296,342800,6,0,P|41:182|261:40,1,385.000003671646
283,349,343250,1,0,0:0:0:0:
323,68,343400,5,0,0:0:0:0:
383,32,343475,1,0,0:0:0:0:
452,45,343550,1,0,0:0:0:0:
495,100,343625,1,0,0:0:0:0:
492,170,343700,1,0,0:0:0:0:
444,220,343775,1,0,0:0:0:0:
375,227,343850,1,0,0:0:0:0:
308,207,343925,1,0,0:0:0:0:
248,241,344000,1,0,0:0:0:0:
230,308,344075,1,0,0:0:0:0:
268,367,344150,1,0,0:0:0:0:
336,380,344225,1,0,0:0:0:0:
389,342,344300,5,0,0:0:0:0:
355,282,344375,1,0,0:0:0:0:
287,267,344450,1,0,0:0:0:0:
230,308,344525,1,0,0:0:0:0:
153,300,344600,1,0,0:0:0:0:
91,255,344675,1,0,0:0:0:0:
59,186,344750,1,0,0:0:0:0:
66,110,344825,1,0,0:0:0:0:
110,47,344900,1,0,0:0:0:0:
178,15,344975,1,0,0:0:0:0:
254,20,345050,1,0,0:0:0:0:
318,63,345125,1,0,0:0:0:0:
351,131,345200,5,0,0:0:0:0:
289,79,345275,1,0,0:0:0:0:
209,80,345350,1,0,0:0:0:0:
148,134,345425,1,0,0:0:0:0:
210,185,345500,1,0,0:0:0:0:
290,184,345575,1,0,0:0:0:0:
351,131,345650,1,0,0:0:0:0:
289,79,345725,1,0,0:0:0:0:
209,80,345800,5,0,0:0:0:0:
147,134,345875,1,0,0:0:0:0:
122,212,345950,1,0,0:0:0:0:
140,291,346025,1,0,0:0:0:0:
195,351,346100,1,0,0:0:0:0:
274,374,346175,1,0,0:0:0:0:
353,354,346250,1,0,0:0:0:0:
411,296,346325,1,0,0:0:0:0:
420,207,346400,5,0,0:0:0:0:
400,291,346475,1,0,0:0:0:0:
334,347,346550,1,0,0:0:0:0:
247,353,346625,1,0,0:0:0:0:
174,308,346700,1,0,0:0:0:0:
142,227,346775,1,0,0:0:0:0:
163,144,346850,1,0,0:0:0:0:
229,88,346925,1,0,0:0:0:0:
316,83,347000,5,0,0:0:0:0:
255,149,347075,1,0,0:0:0:0:
163,144,347150,1,0,0:0:0:0:
88,195,347225,1,0,0:0:0:0:
73,285,347300,1,0,0:0:0:0:
128,358,347375,1,0,0:0:0:0:
218,370,347450,1,0,0:0:0:0:
289,313,347525,1,0,0:0:0:0:
298,222,347600,5,0,0:0:0:0:
299,126,347675,1,0,0:0:0:0:
379,75,347750,1,0,0:0:0:0:
465,114,347825,1,0,0:0:0:0:
481,207,347900,1,0,0:0:0:0:
402,259,347975,1,0,0:0:0:0:
315,221,348050,1,0,0:0:0:0:
299,127,348125,1,0,0:0:0:0:
256,32,348200,5,0,0:0:0:0:
128,32,348500,1,0,0:0:0:0:
128,160,348800,1,0,0:0:0:0:
256,160,349100,1,0,0:0:0:0:
252,27,349400,6,0,L|186:29,1,55
44,101,349700,2,0,L|110:103,1,55
256,128,350000,2,0,L|288:192,1,55
320,160,350300,2,0,L|288:96,1,55
373,56,350600,6,0,L|395:126,1,55
480,96,350900,6,0,L|464:167,1,55
416,224,351200,1,0,0:0:0:0:
352,288,351350,6,0,L|392:327,1,55
256,320,351650,1,0,0:0:0:0:
160,320,351800,6,0,L|160:256,1,55
32,256,352100,2,0,L|32:192,1,55
160,224,352400,2,0,L|160:160,1,55
283,101,352700,1,0,0:0:0:0:
92,44,353000,5,0,0:0:0:0:
253,36,353200,2,0,P|275:63|281:110,1,73.3333333333333
266,222,353600,6,0,P|266:265|299:308,2,73.3333333333333
256,64,354231,1,0,0:0:0:0:
320,64,354453,1,0,0:0:0:0:
416,64,354675,6,0,B|384:128|384:128|448:160|448:160|416:192|448:256,1,220
437,231,356342,6,0,P|352:224|320:192,1,110
256,96,357142,5,0,0:0:0:0:
224,96,357517,1,0,0:0:0:0:
192,96,357892,1,0,0:0:0:0:
160,96,358267,5,0,0:0:0:0:
32,96,359017,5,0,0:0:0:0:
53,273,359673,2,0,L|62:284,1,13.75
64,256,359767,6,0,P|96:224|224:288,1,192.5
256,320,361100,6,0,B|320:288|320:288|288:256|288:256|352:224|384:192|384:128|384:128|320:128|320:64|320:64|256:64|256:0|256:0|256:64|192:64|192:64|192:128|128:128|128:128|192:128|256:128|256:192,1,847.00002584839
