osu file format v14

[General]
AudioFilename: audio.mp3
AudioLeadIn: 0
PreviewTime: 55268
Countdown: 1
SampleSet: Normal
StackLeniency: 0.7
Mode: 1
LetterboxInBreaks: 0
WidescreenStoryboard: 1

[Editor]
DistanceSpacing: 1.2
BeatDivisor: 1
GridSize: 4
TimelineZoom: 1.1

[Metadata]
Title:Pulse
TitleUnicode:パルス
Artist:Team AA
ArtistUnicode:Team AA
Creator:a2805146
Version:Kantan
Source:緋弾のアリアAA
Tags:Team AA パルス Pulse 緋弾のアリアAA
BeatmapID:1305100
BeatmapSetID:619170

[Difficulty]
HPDrainRate:7
CircleSize:5
OverallDifficulty:3
ApproachRate:5
SliderMultiplier:1.4
SliderTickRate:1

[Events]
//Background and Video events
0,0,"BG.jpg",0,0
//Break Periods
//Storyboard Layer 0 (Background)
//Storyboard Layer 1 (Fail)
//Storyboard Layer 2 (Pass)
//Storyboard Layer 3 (Foreground)
//Storyboard Sound Samples

[TimingPoints]
1220,326.086956521739,4,2,0,35,1,0
1220,-133.333333333333,4,2,0,35,0,0
11654,-100,4,1,0,50,0,0
24698,-133.333333333333,4,2,0,35,0,0
34969,-100,4,1,0,50,0,0
56002,-100,4,1,0,65,0,1
65133,-90.9090909090909,4,1,0,65,0,0
66437,-100,4,1,0,65,0,1
76872,-100,4,1,0,65,0,0
82089,-100,4,1,0,65,0,0

[HitObjects]
256,192,1220,5,0,0:0:0:0:
256,192,2524,1,8,0:0:0:0:
256,192,3828,1,8,0:0:0:0:
256,192,5133,1,8,0:0:0:0:
256,192,6437,1,0,0:0:0:0:
256,192,7741,1,8,0:0:0:0:
256,192,9046,1,8,0:0:0:0:
256,192,11654,1,4,0:0:0:0:
256,192,12143,1,4,0:0:0:0:
256,192,13285,1,0,0:0:0:0:
256,192,13611,1,0,0:0:0:0:
256,192,14263,1,4,0:0:0:0:
256,192,14589,1,8,0:0:0:0:
256,192,15241,1,0,0:0:0:0:
256,192,15893,1,8,0:0:0:0:
256,192,17198,1,0,0:0:0:0:
256,192,17850,1,8,0:0:0:0:
256,192,18828,1,0,0:0:0:0:
256,192,19480,1,4,0:0:0:0:
256,192,20459,1,0,0:0:0:0:
256,192,21111,1,0,0:0:0:0:
256,192,21437,1,0,0:0:0:0:
256,192,22089,1,4,0:0:0:0:
256,192,22741,1,0,0:0:0:0:
256,192,23067,1,12,0:0:0:0:
256,192,23230,12,0,24046,0:0:0:0:
256,192,24698,5,4,0:0:0:0:
256,192,25350,1,0,0:0:0:0:
256,192,26002,1,0,0:0:0:0:
256,192,26654,1,0,0:0:0:0:
256,192,26980,1,8,0:0:0:0:
256,192,27306,1,0,0:0:0:0:
256,192,27959,1,0,0:0:0:0:
256,192,28611,1,0,0:0:0:0:
256,192,29263,1,0,0:0:0:0:
256,192,29589,1,8,0:0:0:0:
256,192,29915,1,0,0:0:0:0:
256,192,30567,1,0,0:0:0:0:
256,192,30893,1,8,0:0:0:0:
256,192,31546,1,8,0:0:0:0:
256,192,32198,1,8,0:0:0:0:
256,192,32524,1,0,0:0:0:0:
256,192,33176,1,0,0:0:0:0:
256,192,33502,1,0,0:0:0:0:
256,192,33828,1,0,0:0:0:0:
256,192,34480,1,8,0:0:0:0:
256,192,35133,1,0,0:0:0:0:
256,192,35459,1,8,0:0:0:0:
256,192,36111,1,8,0:0:0:0:
256,192,36763,1,8,0:0:0:0:
256,192,37415,1,0,0:0:0:0:
256,192,38067,1,8,0:0:0:0:
256,192,39046,1,0,0:0:0:0:
256,192,39372,1,8,0:0:0:0:
256,192,40024,1,0,0:0:0:0:
256,192,40676,1,0,0:0:0:0:
256,192,41002,1,0,0:0:0:0:
256,192,41654,1,0,0:0:0:0:
256,192,41980,1,8,0:0:0:0:
256,192,42306,1,0,0:0:0:0:
256,192,42959,1,0,0:0:0:0:
256,192,43611,1,0,0:0:0:0:
256,192,44263,1,8,0:0:0:0:
256,192,44915,1,0,0:0:0:0:
256,192,45567,1,12,0:0:0:0:
256,192,46546,1,8,0:0:0:0:
256,192,46872,1,0,0:0:0:0:
256,192,47524,1,8,0:0:0:0:
256,192,48176,1,8,0:0:0:0:
256,192,48828,1,0,0:0:0:0:
256,192,49480,1,8,0:0:0:0:
256,192,50459,1,0,0:0:0:0:
256,192,50785,1,8,0:0:0:0:
256,192,51437,1,0,0:0:0:0:
256,192,51763,1,8,0:0:0:0:
256,192,52089,1,0,0:0:0:0:
256,192,53067,1,8,0:0:0:0:
256,192,53393,1,4,0:0:0:0:
256,192,54046,1,8,0:0:0:0:
256,192,54698,1,4,0:0:0:0:
256,192,54861,12,0,55676,0:0:0:0:
256,192,56002,5,12,0:0:0:0:
256,192,56328,1,0,0:0:0:0:
256,192,56654,1,8,0:0:0:0:
256,192,56980,1,8,0:0:0:0:
256,192,57959,1,0,0:0:0:0:
256,192,58285,1,8,0:0:0:0:
256,192,58611,1,0,0:0:0:0:
256,192,59263,1,0,0:0:0:0:
256,192,59915,1,12,0:0:0:0:
256,192,60567,1,0,0:0:0:0:
256,192,60893,1,8,0:0:0:0:
256,192,61219,1,4,0:0:0:0:
256,192,61872,1,0,0:0:0:0:
256,192,62524,1,0,0:0:0:0:
256,192,62850,1,8,0:0:0:0:
256,192,63502,1,8,0:0:0:0:
256,192,63828,1,0,0:0:0:0:
256,192,64480,1,0,0:0:0:0:
256,192,64806,1,8,0:0:0:0:
256,192,65133,1,12,0:0:0:0:
256,192,65459,1,12,0:0:0:0:
256,192,65785,1,0,0:0:0:0:
256,192,66437,1,4,0:0:0:0:
256,192,66763,1,8,0:0:0:0:
256,192,67415,1,8,0:0:0:0:
256,192,68067,1,8,0:0:0:0:
256,192,68719,1,0,0:0:0:0:
256,192,69046,1,8,0:0:0:0:
256,192,69372,1,0,0:0:0:0:
256,192,70024,1,0,0:0:0:0:
256,192,70350,1,0,0:0:0:0:
256,192,71002,1,4,0:0:0:0:
256,192,71654,1,8,0:0:0:0:
256,192,72306,1,8,0:0:0:0:
256,192,72959,1,0,0:0:0:0:
256,192,73611,1,0,0:0:0:0:
256,192,74263,1,4,0:0:0:0:
256,192,74589,1,0,0:0:0:0:
256,192,74915,1,8,0:0:0:0:
256,192,75241,1,0,0:0:0:0:
256,192,75567,1,4,0:0:0:0:
256,192,76219,1,8,0:0:0:0:
256,192,76872,1,4,0:0:0:0:
256,192,77524,1,0,0:0:0:0:
256,192,78176,1,0,0:0:0:0:
256,192,78828,1,0,0:0:0:0:
256,192,79154,1,0,0:0:0:0:
256,192,79480,1,4,0:0:0:0:
256,192,79969,1,4,0:0:0:0:
256,192,80459,1,4,0:0:0:0:
256,192,80948,1,0,0:0:0:0:
256,192,81437,1,8,0:0:0:0:
256,192,82089,1,4,0:0:0:0:
256,192,82415,1,8,0:0:0:0:
256,192,83067,1,8,0:0:0:0:
256,192,83719,1,8,0:0:0:0:
256,192,84046,1,0,0:0:0:0:
256,192,84698,1,4,0:0:0:0:
256,192,85187,1,4,0:0:0:0:
256,192,85676,1,12,0:0:0:0:
256,192,85839,12,0,86654,0:0:0:0:
