osu file format v14

[General]
AudioFilename: audio.mp3
AudioLeadIn: 0
PreviewTime: 53202
Countdown: 0
SampleSet: Soft
StackLeniency: 0.7
Mode: 0
LetterboxInBreaks: 0
StoryFireInFront: 0
WidescreenStoryboard: 0

[Editor]
Bookmarks: 66251
DistanceSpacing: 2
BeatDivisor: 8
GridSize: 8
TimelineZoom: 2.699999

[Metadata]
Title:S.T.F.D.
TitleUnicode:S.T.F.D.
Artist:TeZATalks
ArtistUnicode:TeZATalks
Creator:elena2705
Version:Drug Addiction
Source:
Tags:
BeatmapID:1415543
BeatmapSetID:669242

[Difficulty]
HPDrainRate:4
CircleSize:3
OverallDifficulty:4
ApproachRate:9
SliderMultiplier:2
SliderTickRate:1

[Events]
//Background and Video events
Video,0,"S.T.F.D. [MEP] - AMV.mp4"
0,0,"243935-aliya06.jpg",0,0
//Break Periods
2,70597,76627
2,140841,146871
//Storyboard Layer 0 (Background)
//Storyboard Layer 1 (Fail)
//Storyboard Layer 2 (Pass)
//Storyboard Layer 3 (Foreground)
//Storyboard Sound Samples

[TimingPoints]
154,487.80487804878,4,2,0,50,1,0
6983,-200,4,2,0,50,0,0
7958,-142.857142857143,4,2,0,50,0,0
11373,-200,4,2,0,50,0,0
11739,-200,4,2,0,5,0,0
11861,-142.857142857143,4,2,0,50,0,0
19178,-200,4,2,0,50,0,0
19544,-200,4,2,0,5,0,0
19666,-142.857142857143,4,2,0,50,0,0
30885,-200,4,2,0,50,0,0
31373,-142.857142857143,4,2,0,50,0,0
39178,-200,4,2,0,40,0,0
53812,-66.6666666666667,4,2,0,40,0,0
54788,-100,4,2,0,80,0,1
55763,-50,4,2,0,80,0,1
58690,-100,4,2,0,80,0,1
58934,-50,4,2,0,80,0,1
62593,-100,4,2,0,80,0,1
62836,-50,4,2,0,80,0,1
70397,-50,4,2,0,50,0,0
77227,-200,4,2,0,50,0,0
78202,-142.857142857143,4,2,0,50,0,0
81617,-200,4,2,0,50,0,0
81983,-200,4,2,0,5,0,0
82105,-142.857142857143,4,2,0,50,0,0
89422,-200,4,2,0,50,0,0
89788,-200,4,2,0,5,0,0
89910,-142.857142857143,4,2,0,50,0,0
101129,-200,4,2,0,50,0,0
101617,-142.857142857143,4,2,0,50,0,0
109422,-200,4,2,0,40,0,0
124056,-66.6666666666667,4,2,0,40,0,0
125032,-50,4,2,0,80,0,1
140641,-50,4,2,0,50,0,0
147471,-200,4,2,0,30,0,0
163568,-66.6666666666667,4,2,0,30,0,0
164056,-50,4,2,0,90,0,1
179666,-100,4,2,0,50,0,0
187471,-200,4,2,0,50,0,0

[HitObjects]
94,92,6983,6,0,B|83:124|83:124|99:154|99:154|64:226|94:289,1,200
380,268,8446,5,0,0:0:0:0:
245,227,8690,1,0,0:0:0:0:
111,270,8934,2,0,P|100:224|102:195,1,69.9999978637696
208,104,9422,1,0,0:0:0:0:
352,104,9666,1,0,0:0:0:0:
454,199,9910,2,0,B|474:223|474:223|410:218|379:268,1,139.999995727539
210,42,10885,2,0,L|195:23,1,17.4999994659424
333,207,11373,2,0,L|384:270,1,75
455,305,11861,5,0,0:0:0:0:
224,304,12105,2,0,P|190:328|174:362,2,69.9999978637696
216,164,12836,2,0,L|222:189,1,17.4999994659424
255,379,13080,1,0,0:0:0:0:
202,95,13324,2,0,L|216:166,1,69.9999978637696
63,36,13812,6,0,B|77:134|77:134|40:113,1,139.999995727539
277,266,14788,2,0,L|285:289,1,17.4999994659424
211,204,15032,1,0,0:0:0:0:
230,342,15275,2,0,P|311:359|358:312,1,139.999995727539
419,158,16007,5,0,0:0:0:0:
409,291,16251,2,0,P|382:298|345:337,1,69.9999978637696
255,222,16739,2,0,L|251:248,1,17.4999994659424
230,342,16983,1,0,0:0:0:0:
153,224,17227,2,0,B|112:161,1,69.9999978637696
24,32,17714,5,0,0:0:0:0:
464,32,18202,1,0,0:0:0:0:
464,32,18690,2,0,L|465:61,1,17.4999994659424
397,212,19178,2,0,P|401:256|426:288,1,75
477,225,19666,5,0,0:0:0:0:
312,224,19910,2,0,P|308:180|285:148,2,69.9999978637696
186,286,20641,2,0,L|159:296,1,17.4999994659424
233,207,20885,1,0,0:0:0:0:
120,122,21129,2,0,L|62:83,1,69.9999978637696
233,207,21617,5,0,0:0:0:0:
433,11,22105,1,0,0:0:0:0:
433,151,22349,1,0,0:0:0:0:
293,11,22593,2,0,L|293:-6,1,17.4999994659424
293,151,22836,2,0,L|293:168,1,17.4999994659424
361,248,23080,2,0,P|291:273|231:253,1,139.999995727539
34,53,24056,5,0,0:0:0:0:
97,83,24178,1,0,0:0:0:0:
136,140,24300,1,0,0:0:0:0:
231,253,24544,2,0,L|232:275,1,17.4999994659424
231,270,25032,2,0,L|231:197,1,69.9999978637696
231,59,25519,5,0,0:0:0:0:
403,27,25763,1,0,0:0:0:0:
350,194,26007,1,0,0:0:0:0:
325,96,26251,1,0,0:0:0:0:
378,293,26495,2,0,L|384:318,1,17.4999994659424
252,359,26739,1,0,0:0:0:0:
129,310,26983,2,0,L|149:237,1,69.9999978637696
181,105,27471,5,0,0:0:0:0:
460,103,27958,2,0,P|423:100|386:114,1,69.9999978637696
324,233,28446,2,0,L|352:221,1,17.4999994659424
434,179,28690,1,0,0:0:0:0:
324,233,28934,2,0,L|260:265,1,69.9999978637696
138,332,29422,5,0,0:0:0:0:
42,236,29666,1,0,0:0:0:0:
238,128,29910,1,0,0:0:0:0:
103,110,30153,1,0,0:0:0:0:
262,265,30397,1,0,0:0:0:0:
103,110,30885,2,0,L|112:169,1,50
138,332,31373,5,0,0:0:0:0:
349,147,31861,1,0,0:0:0:0:
398,97,31983,1,0,0:0:0:0:
406,27,32105,1,0,0:0:0:0:
266,38,32349,2,0,L|266:55,1,17.4999994659424
268,161,32593,1,0,0:0:0:0:
268,161,32714,1,0,0:0:0:0:
134,203,32958,1,0,0:0:0:0:
134,203,33080,1,0,0:0:0:0:
134,343,33324,5,0,0:0:0:0:
233,243,33568,1,0,0:0:0:0:
427,332,33812,1,0,0:0:0:0:
233,243,34056,1,0,0:0:0:0:
309,125,34300,2,0,L|295:148,1,17.4999994659424
233,243,34544,1,0,0:0:0:0:
134,343,34788,2,0,P|127:301|113:276,1,69.9999978637696
45,155,35275,5,0,0:0:0:0:
113,277,35519,2,0,P|150:250|166:227,2,69.9999978637696
45,155,36251,2,0,L|46:133,1,17.4999994659424
48,31,36495,1,0,0:0:0:0:
204,155,36739,1,0,0:0:0:0:
206,31,36983,1,0,0:0:0:0:
345,37,37227,6,0,P|395:35|421:22,2,69.9999978637696
206,31,37958,1,0,0:0:0:0:
204,155,38202,2,0,L|204:183,1,17.4999994659424
256,192,38324,12,0,39178,0:0:0:0:
412,313,39666,5,0,0:0:0:0:
318,276,39910,1,0,0:0:0:0:
225,239,40153,2,0,P|204:244|177:258,1,50
235,339,40641,1,0,0:0:0:0:
169,159,40885,1,0,0:0:0:0:
117,20,41129,6,0,P|113:49|115:72,1,50
169,159,41617,1,0,0:0:0:0:
232,236,41861,1,0,0:0:0:0:
279,75,42105,2,0,L|265:125,1,50
196,353,42593,1,0,0:0:0:0:
128,279,42836,1,0,0:0:0:0:
169,159,43080,6,0,L|131:116,1,50
296,172,43568,2,0,L|334:218,1,50
396,283,44056,1,0,0:0:0:0:
431,189,44300,2,0,P|444:159|458:149,2,50
396,283,45032,6,0,L|295:323,1,100
210,357,45763,1,0,0:0:0:0:
99,214,46007,2,0,B|132:234|166:234|166:234|179:263,1,100
186,60,46983,5,0,0:0:0:0:
386,61,47471,1,0,0:0:0:0:
452,135,47714,1,0,0:0:0:0:
362,179,47958,2,0,P|331:190|317:201,1,50
383,275,48446,1,0,0:0:0:0:
295,104,48690,1,0,0:0:0:0:
202,66,48934,6,0,P|183:79|155:90,1,50
58,73,49422,1,0,0:0:0:0:
27,168,49666,1,0,0:0:0:0:
169,341,49910,1,0,0:0:0:0:
253,288,50153,2,0,P|278:277|306:276,2,50
169,341,50885,6,0,P|159:310|144:293,1,50
215,167,51373,2,0,P|200:187|194:211,1,50
292,229,51861,1,0,0:0:0:0:
382,271,52105,1,0,0:0:0:0:
194,211,52349,1,0,0:0:0:0:
120,143,52593,1,0,0:0:0:0:
53,68,52836,6,0,P|96:45|152:48,1,100
238,85,53568,1,0,0:0:0:0:
259,256,53812,2,0,P|365:216|250:184,1,300.000011444092
267,352,54544,1,0,0:0:0:0:
267,352,54666,1,0,0:0:0:0:
267,352,54788,6,0,P|333:357|377:336,1,100
418,294,55153,1,0,0:0:0:0:
302,215,55274,1,0,0:0:0:0:
446,219,55397,1,0,0:0:0:0:
302,215,55518,1,0,0:0:0:0:
411,146,55641,1,0,0:0:0:0:
302,215,55763,6,0,B|221:186|141:212|141:212|156:170,1,200
236,53,56251,2,0,B|169:206|169:206|146:166,1,200
443,55,56739,6,0,B|336:138|234:53|234:53|170:207|170:207|51:255|63:360,1,600
63,360,57593,1,0,0:0:0:0:
63,360,57714,1,0,0:0:0:0:
361,336,57958,2,0,B|465:336|465:336|359:286|359:286|251:337|251:337|319:337,1,400
489,243,58690,6,0,L|399:201,1,100
329,170,59056,1,0,0:0:0:0:
193,108,59178,1,0,0:0:0:0:
339,76,59300,1,0,0:0:0:0:
236,185,59422,1,0,0:0:0:0:
256,36,59544,1,0,0:0:0:0:
272,116,59666,6,0,B|171:96|100:116|100:116|134:147,1,200
250,252,60153,2,0,L|95:108,1,200
332,233,60641,6,0,P|332:379|256:245,1,400
449,192,61373,1,0,0:0:0:0:
305,305,61617,2,0,B|258:121|258:121|180:113|180:113|105:84|105:84|33:79,1,400
346,10,62593,6,0,P|388:50|403:96,1,100
404,167,62958,1,0,0:0:0:0:
368,311,63079,1,0,0:0:0:0:
463,195,63201,1,0,0:0:0:0:
328,261,63324,1,0,0:0:0:0:
478,262,63445,1,0,0:0:0:0:
340,198,63568,6,0,B|250:183|192:212|192:212|152:258,1,200
350,15,64056,2,0,B|272:110|272:110|271:63|245:29,1,200
100,287,64544,6,0,B|189:328|189:328|157:276|157:276|189:169|189:169|280:259|360:163|360:163|438:206|487:152,1,600
272,108,65519,1,0,0:0:0:0:
57,50,65763,2,0,L|155:77,1,100
33,130,66007,2,0,L|131:157,1,100
9,211,66251,2,0,L|107:238,1,100
195,358,66495,6,0,P|107:332|114:227,1,200
129,156,66861,1,0,0:0:0:0:
160,10,66983,1,0,0:0:0:0:
180,158,67105,1,0,0:0:0:0:
207,10,67227,1,0,0:0:0:0:
230,158,67349,1,0,0:0:0:0:
255,8,67471,6,0,B|333:31|408:12|408:12|469:30,1,200
279,159,67958,2,0,B|357:136|432:155|432:155|493:137,1,200
431,321,68446,5,0,0:0:0:0:
30,321,68934,1,0,0:0:0:0:
220,259,69178,1,0,0:0:0:0:
27,202,69422,1,0,0:0:0:0:
402,62,69910,1,0,0:0:0:0:
30,321,70397,5,0,0:0:0:0:
253,69,77227,6,0,B|282:62|306:73|306:73|380:49|453:99,1,200
343,354,78690,5,0,0:0:0:0:
356,214,78934,1,0,0:0:0:0:
253,69,79178,2,0,L|294:128,1,69.9999978637696
356,214,79666,1,0,0:0:0:0:
445,93,79910,1,0,0:0:0:0:
465,295,80153,6,0,P|408:339|323:352,1,139.999995727539
61,353,81129,2,0,L|75:332,1,17.4999994659424
153,183,81617,2,0,P|162:144|146:104,1,75
79,149,82105,5,0,0:0:0:0:
359,149,82593,2,0,L|442:149,1,69.9999978637696
362,274,83080,2,0,L|362:307,1,17.4999994659424
359,149,83324,1,0,0:0:0:0:
250,60,83568,2,0,P|207:67|172:56,1,69.9999978637696
43,38,84056,6,0,B|58:106|58:106|46:190,1,139.999995727539
325,216,85032,2,0,L|332:189,1,17.4999994659424
350,95,85276,1,0,0:0:0:0:
300,336,85519,2,0,L|331:193,1,139.999995727539
48,175,86495,6,0,L|27:247,1,69.9999978637696
117,351,86983,2,0,L|129:322,1,17.4999994659424
229,113,87471,2,0,P|235:155|261:187,1,69.9999978637696
371,106,87958,5,0,0:0:0:0:
117,351,88446,1,0,0:0:0:0:
117,351,88934,2,0,L|129:322,1,17.4999994659424
287,272,89422,2,0,P|327:278|362:307,1,87.5
294,352,89910,5,0,0:0:0:0:
416,100,90397,2,0,L|445:34,1,69.9999978637696
307,67,90885,2,0,L|319:39,1,17.4999994659424
208,46,91129,1,0,0:0:0:0:
291,158,91373,2,0,P|333:159|365:145,1,69.9999978637696
444,35,91861,5,0,0:0:0:0:
256,335,92105,1,0,0:0:0:0:
68,35,92349,1,0,0:0:0:0:
100,171,92593,1,0,0:0:0:0:
52,302,92837,2,0,L|42:326,1,17.4999994659424
100,171,93080,2,0,L|111:146,1,17.4999994659424
131,257,93324,2,0,B|180:270|180:270|204:293|204:293|264:311,1,139.999995727539
483,278,94300,5,0,0:0:0:0:
462,210,94422,1,0,0:0:0:0:
409,164,94544,1,0,0:0:0:0:
341,286,94788,2,0,L|312:278,1,17.4999994659424
131,257,95275,2,0,L|209:281,1,69.9999978637696
341,286,95763,5,0,0:0:0:0:
264,120,96007,1,0,0:0:0:0:
192,285,96251,1,0,0:0:0:0:
160,144,96495,1,0,0:0:0:0:
360,144,96739,2,0,L|386:153,1,17.4999994659424
264,120,96983,1,0,0:0:0:0:
360,144,97227,2,0,L|440:169,1,69.9999978637696
485,292,97715,5,0,0:0:0:0:
217,209,98202,2,0,B|183:206|183:206|133:215,1,69.9999978637696
116,75,98690,2,0,L|146:71,1,17.4999994659424
237,58,98934,1,0,0:0:0:0:
217,209,99178,2,0,L|269:143,1,69.9999978637696
355,50,99666,5,0,0:0:0:0:
390,185,99910,1,0,0:0:0:0:
203,334,100154,1,0,0:0:0:0:
355,50,100397,1,0,0:0:0:0:
470,189,100641,2,0,L|491:212,1,17.4999994659424
306,188,101129,2,0,P|284:172|259:163,1,50
122,173,101617,5,0,0:0:0:0:
364,313,102105,1,0,0:0:0:0:
301,281,102227,1,0,0:0:0:0:
233,299,102349,1,0,0:0:0:0:
98,339,102593,2,0,L|98:313,1,17.4999994659424
49,227,102837,1,0,0:0:0:0:
49,227,102958,1,0,0:0:0:0:
115,103,103202,1,0,0:0:0:0:
115,103,103324,1,0,0:0:0:0:
254,87,103568,5,0,0:0:0:0:
392,109,103812,1,0,0:0:0:0:
354,343,104056,1,0,0:0:0:0:
254,87,104300,1,0,0:0:0:0:
306,216,104544,2,0,L|318:245,1,17.4999994659424
354,343,104788,1,0,0:0:0:0:
214,328,105032,2,0,P|190:303|156:297,1,69.9999978637696
62,192,105519,5,0,0:0:0:0:
156,87,105763,2,0,P|190:80|214:56,2,69.9999978637696
249,192,106495,2,0,L|242:225,1,17.4999994659424
206,325,106739,1,0,0:0:0:0:
339,368,106983,1,0,0:0:0:0:
381,234,107227,1,0,0:0:0:0:
401,95,107471,6,0,P|432:68|466:55,2,69.9999978637696
381,234,108202,1,0,0:0:0:0:
307,114,108446,2,0,L|295:93,1,17.4999994659424
256,192,108568,12,0,109422,0:0:0:0:
258,57,109910,5,0,0:0:0:0:
192,132,110154,1,0,0:0:0:0:
216,228,110397,2,0,L|179:269,1,50
78,289,110885,1,0,0:0:0:0:
192,132,111129,1,0,0:0:0:0:
410,50,111373,6,0,P|412:79|405:107,1,50
335,169,111861,1,0,0:0:0:0:
352,267,112105,1,0,0:0:0:0:
134,329,112349,2,0,L|199:311,1,50
352,267,112837,1,0,0:0:0:0:
335,169,113080,1,0,0:0:0:0:
231,39,113324,6,0,L|176:29,1,50
19,41,113812,2,0,L|87:54,1,50
123,134,114300,1,0,0:0:0:0:
53,205,114544,2,0,P|34:230|24:256,2,50
217,210,115275,6,0,P|198:255|209:312,1,100
300,268,116007,1,0,0:0:0:0:
217,210,116251,2,0,P|264:170|317:167,1,100
471,269,117227,5,0,0:0:0:0:
402,80,117715,1,0,0:0:0:0:
306,50,117958,1,0,0:0:0:0:
213,88,118202,2,0,P|186:100|156:99,1,50
172,18,118690,1,0,0:0:0:0:
209,189,118934,1,0,0:0:0:0:
165,279,119178,6,0,L|140:333,1,50
274,257,119666,1,0,0:0:0:0:
245,355,119910,1,0,0:0:0:0:
399,230,120154,1,0,0:0:0:0:
418,132,120397,2,0,P|438:106|463:96,2,50
323,166,121129,6,0,L|258:140,1,50
303,297,121617,2,0,L|268:248,1,50
190,115,122105,1,0,0:0:0:0:
135,31,122349,1,0,0:0:0:0:
80,267,122593,1,0,0:0:0:0:
26,14,122837,1,0,0:0:0:0:
0,272,123080,6,0,P|18:321|69:342,1,100
158,353,123812,1,0,0:0:0:0:
346,345,124056,2,0,P|299:237|268:350,1,300.000011444092
448,357,124788,1,0,0:0:0:0:
448,357,124910,1,0,0:0:0:0:
448,357,125032,6,0,P|450:237|401:170,1,200
306,301,125397,1,0,0:0:0:0:
285,130,125518,1,0,0:0:0:0:
279,317,125640,1,0,0:0:0:0:
258,115,125762,1,0,0:0:0:0:
253,336,125884,1,0,0:0:0:0:
230,104,126007,2,0,B|175:50|89:54|89:54|116:74|128:102,1,200
410,167,126495,2,0,P|316:160|227:95,1,200
120,87,126983,6,0,B|96:202|96:202|34:267|34:267|147:258|191:347|191:347|222:251|222:251|278:287|331:252,1,600
319,258,127836,1,0,0:0:0:0:
319,258,127958,1,0,0:0:0:0:
285,0,128202,2,0,B|260:35|260:35|284:76|284:76|192:140|226:245|226:245|191:355,1,400
464,314,128934,6,0,B|389:295|360:222|360:222|314:175,1,200
197,106,129300,1,0,0:0:0:0:
117,233,129422,1,0,0:0:0:0:
244,312,129544,1,0,0:0:0:0:
321,182,129666,1,0,0:0:0:0:
197,106,129787,1,0,0:0:0:0:
117,233,129910,2,0,B|247:312|247:312|227:244,1,200
168,129,130397,2,0,B|162:235|127:276|127:276|126:242|106:216,1,200
99,63,130885,6,0,B|167:87|233:36|233:36|289:83|368:54|368:54|466:130,1,400
234,167,131617,1,0,0:0:0:0:
103,282,131861,2,0,B|60:337|60:337|197:304|197:304|320:346|379:253,1,400
103,282,132836,6,0,P|165:266|93:196,1,200
31,235,133202,1,0,0:0:0:0:
190,113,133324,1,0,0:0:0:0:
16,158,133445,1,0,0:0:0:0:
217,187,133567,1,0,0:0:0:0:
57,91,133690,1,0,0:0:0:0:
175,252,133812,1,0,0:0:0:0:
360,295,134056,2,0,B|399:303|399:303|369:243,1,100
342,100,134300,2,0,P|305:145|374:249,1,200
386,170,134788,6,0,B|250:192|250:192|212:167|212:167|194:260|194:260|84:206|84:206|148:101|35:20,1,600
268,102,135763,1,0,0:0:0:0:
397,72,136007,2,0,P|448:53|476:15,1,100
360,159,136251,2,0,P|395:110|391:55,1,100
263,163,136495,2,0,P|324:170|375:149,1,100
197,85,136739,6,0,B|234:157|215:228|215:228|196:198|164:187,1,200
15,144,137105,1,0,0:0:0:0:
177,192,137227,1,0,0:0:0:0:
89,56,137349,1,0,0:0:0:0:
71,226,137471,1,0,0:0:0:0:
197,85,137593,1,0,0:0:0:0:
0,280,137714,2,0,P|57:316|160:229,1,200
350,258,138202,2,0,B|291:279|291:279|148:249,1,200
71,226,138690,5,0,0:0:0:0:
446,55,139178,1,0,0:0:0:0:
457,278,139422,1,0,0:0:0:0:
360,88,139666,1,0,0:0:0:0:
183,224,140154,1,0,0:0:0:0:
347,198,140641,5,0,0:0:0:0:
89,306,147471,6,0,B|80:270|101:238|101:238|84:216|84:216|110:168|90:112,1,200
401,96,148934,6,0,L|454:96,1,50
336,164,149422,2,0,L|272:166,1,50
56,252,149910,1,0,0:0:0:0:
152,285,150153,1,0,0:0:0:0:
250,316,150397,6,0,P|254:284|250:254,1,50
336,164,150885,2,0,P|334:188|338:213,1,50
210,47,151373,1,0,0:0:0:0:
192,145,151617,1,0,0:0:0:0:
41,278,151861,1,0,0:0:0:0:
116,212,152105,1,0,0:0:0:0:
398,56,152349,6,0,L|456:66,1,50
336,164,152836,2,0,L|403:140,1,50
312,295,153324,1,0,0:0:0:0:
85,352,153568,1,0,0:0:0:0:
158,161,153812,1,0,0:0:0:0:
223,384,154056,1,0,0:0:0:0:
336,164,154300,6,0,P|352:134|368:122,1,50
272,83,154788,2,0,P|255:54|240:41,1,50
107,158,155275,1,0,0:0:0:0:
192,106,155519,1,0,0:0:0:0:
357,72,155763,2,0,P|365:103|359:142,1,50
382,65,156251,6,0,P|391:126|354:223,1,150
292,311,157227,2,0,L|293:330,1,12.5
202,227,157471,1,0,0:0:0:0:
105,305,157714,1,0,0:0:0:0:
202,227,157958,1,0,0:0:0:0:
219,103,158202,6,0,B|229:77|229:77|307:65,1,100
451,265,159178,2,0,L|452:288,1,12.5
427,0,159666,1,0,0:0:0:0:
355,128,159910,1,0,0:0:0:0:
323,182,160032,1,0,0:0:0:0:
290,234,160153,6,0,L|217:99,1,150
107,43,161129,2,0,L|107:60,1,12.5
107,274,161617,1,0,0:0:0:0:
404,304,162105,5,0,0:0:0:0:
372,50,162349,1,0,0:0:0:0:
339,354,162593,1,0,0:0:0:0:
304,2,162836,1,0,0:0:0:0:
255,255,163080,2,0,P|223:253|199:241,1,50
207,246,163568,2,0,P|302:200|183:183,1,300.000011444092
153,319,164300,5,0,0:0:0:0:
10,122,164422,1,0,0:0:0:0:
241,197,164544,1,0,0:0:0:0:
10,272,164666,1,0,0:0:0:0:
153,76,164788,1,0,0:0:0:0:
153,319,164910,1,0,0:0:0:0:
153,76,165032,5,0,0:0:0:0:
425,76,165519,1,0,0:0:0:0:
200,235,165763,1,0,0:0:0:0:
425,76,166007,5,0,0:0:0:0:
418,280,166251,1,0,0:0:0:0:
378,287,166372,1,0,0:0:0:0:
342,303,166494,1,0,0:0:0:0:
307,323,166616,1,0,0:0:0:0:
275,346,166738,1,0,0:0:0:0:
243,338,166860,1,0,0:0:0:0:
217,320,166983,5,0,0:0:0:0:
76,142,167227,2,0,P|99:201|96:240,1,100
55,328,167471,1,0,0:0:0:0:
138,382,167593,1,0,0:0:0:0:
198,302,167715,1,0,0:0:0:0:
371,213,167958,6,0,B|420:181|420:181|275:175,1,200
36,171,168324,1,0,0:0:0:0:
278,175,168446,1,0,0:0:0:0:
79,314,168568,1,0,0:0:0:0:
158,84,168690,1,0,0:0:0:0:
229,317,168812,1,0,0:0:0:0:
157,211,168935,5,0,0:0:0:0:
464,95,169422,2,0,P|515:171|460:266,1,200
286,340,169910,6,0,B|320:294|306:194|306:194|298:223|274:243,1,200
383,64,170397,1,0,0:0:0:0:
128,319,170641,1,0,0:0:0:0:
209,18,170885,1,0,0:0:0:0:
302,365,171129,1,0,0:0:0:0:
82,145,171373,1,0,0:0:0:0:
429,238,171617,1,0,0:0:0:0:
82,145,171861,6,0,B|138:124|180:149|180:149|225:174|278:146,1,200
126,233,172227,1,0,0:0:0:0:
224,80,172349,1,0,0:0:0:0:
401,75,172471,1,0,0:0:0:0:
126,233,172593,1,0,0:0:0:0:
274,147,172715,1,0,0:0:0:0:
388,273,172837,1,0,0:0:0:0:
126,233,173080,6,0,B|72:208|24:225|24:225|20:121,1,200
65,326,173569,1,0,0:0:0:0:
256,269,173813,5,0,0:0:0:0:
440,344,174056,2,0,B|410:267|410:267|423:203|423:203|396:106|396:106|306:124|262:44,1,400
361,4,174788,1,0,0:0:0:0:
149,53,175032,2,0,P|91:70|66:116,1,100
153,155,175275,2,0,L|61:95,1,100
152,236,175519,2,0,P|210:219|235:173,1,100
235,86,175764,5,0,0:0:0:0:
131,335,176007,1,0,0:0:0:0:
312,230,176129,1,0,0:0:0:0:
131,124,176251,1,0,0:0:0:0:
120,365,176373,1,0,0:0:0:0:
342,231,176495,1,0,0:0:0:0:
115,105,176617,1,0,0:0:0:0:
193,230,176739,2,0,B|212:147|198:72|198:72|233:38,1,200
372,230,177227,2,0,B|353:147|367:72|367:72|332:38,1,200
227,43,177714,6,0,B|171:96|171:96|193:179|152:307|152:307|233:224|255:214,1,400
376,93,178447,1,0,0:0:0:0:
424,336,178691,1,0,0:0:0:0:
72,336,178935,1,0,0:0:0:0:
184,40,179178,1,0,0:0:0:0:
424,336,179422,1,0,0:0:0:0:
224,240,179666,5,0,0:0:0:0:
224,240,180641,2,0,P|166:250|119:231,1,100
178,150,181129,2,0,P|146:118|148:58,1,100
204,6,181617,6,0,B|151:31|89:4|89:4|53:46|59:96,1,200
136,261,182593,2,0,L|171:246,1,25
228,221,182837,1,0,0:0:0:0:
45,303,183080,2,0,L|146:256,1,100
228,221,183569,5,0,0:0:0:0:
325,19,183813,1,0,0:0:0:0:
410,310,184056,1,0,0:0:0:0:
93,207,184300,1,0,0:0:0:0:
325,19,184544,2,0,P|295:60|296:125,1,100
380,154,185032,2,0,P|391:208|435:237,1,100
468,61,185519,6,0,B|457:111|483:159|483:159|421:239,1,200
352,312,186252,1,0,0:0:0:0:
96,312,186496,1,0,0:0:0:0:
48,136,186739,1,0,0:0:0:0:
240,16,186983,1,0,0:0:0:0:
408,136,187227,1,0,0:0:0:0:
240,192,187471,5,0,0:0:0:0:
408,136,187958,2,0,P|422:160|429:186,1,50
329,201,188447,1,0,0:0:0:0:
137,257,188934,2,0,B|123:301|123:301|81:351,1,100
88,342,191130,1,0,0:0:0:0:
75,243,191373,6,0,L|58:138,1,100
234,47,192349,2,0,L|215:156,1,100
188,343,193324,6,0,B|244:317|284:340|284:340|359:274|359:274|401:284|401:284|475:237|466:151,1,400
256,192,195398,12,0,198691,0:0:0:0:
