osu file format v14

[General]
AudioFilename: audio.mp3
AudioLeadIn: 0
PreviewTime: 80684
Countdown: 1
SampleSet: Normal
StackLeniency: 0.7
Mode: 0
LetterboxInBreaks: 0
WidescreenStoryboard: 0

[Editor]
Bookmarks: 131378,151588,171799,212220
DistanceSpacing: 1.3
BeatDivisor: 4
GridSize: 8
TimelineZoom: 2.899999

[Metadata]
Title:In The Dark
TitleUnicode:In The Dark
Artist:TeZATalks
ArtistUnicode:TeZATalks
Creator:Command DDOS
Version:This is h-h-a-a-r-d
Source:
Tags:TeZATalks In The Dark Command DDOS
BeatmapID:1597157
BeatmapSetID:759419

[Difficulty]
HPDrainRate:5
CircleSize:4.3
OverallDifficulty:5
ApproachRate:9.3
SliderMultiplier:2.5
SliderTickRate:1

[Events]
//Background and Video events
0,0,"903227.png",0,0
//Break Periods
//Storyboard Layer 0 (Background)
//Storyboard Layer 1 (Fail)
//Storyboard Layer 2 (Pass)
//Storyboard Layer 3 (Foreground)
//Storyboard Sound Samples

[TimingPoints]
10,631.578947368421,4,1,0,5,1,0
8842,-100,4,1,0,50,0,0
10105,-100,4,1,0,75,0,0
20210,-66.6666666666667,4,1,0,75,0,0
21473,-66.6666666666667,4,1,0,25,0,0
22736,-66.6666666666667,4,1,0,50,0,0
24000,-66.6666666666667,4,1,0,25,0,0
40431,-133.333333333333,4,1,0,25,0,0
60641,-100,4,1,0,25,0,0
80842,-66.6666666666667,4,1,0,100,0,0
101062,-133.333333333333,4,1,0,31,0,0
111167,-100,4,1,0,100,0,0
131378,-133.333333333333,4,1,0,30,0,0
151588,-100,4,1,0,30,0,0
171799,-200,4,1,0,5,0,0
192957,-133.333333333333,4,1,0,5,0,0
212220,-100,4,1,0,40,0,0

[HitObjects]
368,112,10,5,0,0:0:0:0:
96,120,641,1,0,0:0:0:0:
416,296,1904,6,0,P|400:240|400:224,1,62.5
288,208,2220,2,0,L|280:240,2,31.25
192,288,2536,1,0,0:0:0:0:
192,288,3167,1,0,0:0:0:0:
144,64,3799,5,0,0:0:0:0:
176,56,3878,1,0,0:0:0:0:
208,80,3957,1,0,0:0:0:0:
200,120,4036,1,0,0:0:0:0:
160,128,4115,1,0,0:0:0:0:
80,104,4431,5,0,0:0:0:0:
80,104,4746,1,0,0:0:0:0:
232,96,5062,5,0,0:0:0:0:
232,96,5141,1,0,0:0:0:0:
232,96,5220,1,0,0:0:0:0:
384,280,5694,1,0,0:0:0:0:
120,304,6325,6,0,P|96:248|136:192,1,125
248,256,6799,2,0,P|216:280|208:272,1,62.5
207,131,7273,2,0,P|235:91|287:99,1,93.75
262,156,7588,1,0,0:0:0:0:
133,281,8220,5,0,0:0:0:0:
365,124,8852,5,0,0:0:0:0:
395,219,9010,1,0,0:0:0:0:
292,113,9167,1,0,0:0:0:0:
255,269,9325,1,0,0:0:0:0:
180,75,9483,1,0,0:0:0:0:
127,291,9641,1,0,0:0:0:0:
127,291,9799,2,0,P|93:291|85:262,1,62.5
359,85,10115,6,0,P|401:107|357:164,1,125
178,129,10746,1,0,0:0:0:0:
366,118,11062,1,0,0:0:0:0:
202,188,11378,1,0,0:0:0:0:
315,63,11694,1,0,0:0:0:0:
271,190,11852,2,0,P|252:218|227:231,1,62.5
416,162,12325,6,0,P|437:198|419:251,1,93.75
418,297,12641,2,0,P|384:324|322:268,1,125
260,119,13273,2,0,P|177:116|156:168,1,125
244,204,13904,1,0,0:0:0:0:
172,152,14220,1,0,0:0:0:0:
290,99,14536,1,0,0:0:0:0:
282,230,14852,6,0,P|245:259|187:247,1,93.75
123,298,15167,2,0,P|120:241|133:173,1,125
350,145,15799,1,0,0:0:0:0:
140,168,16115,1,0,0:0:0:0:
371,205,16431,1,0,0:0:0:0:
371,205,16746,1,0,0:0:0:0:
131,201,17062,1,0,0:0:0:0:
367,274,17378,2,0,L|402:256,2,31.25
386,131,17694,5,0,0:0:0:0:
319,82,17852,1,0,0:0:0:0:
244,86,18010,1,0,0:0:0:0:
193,131,18167,1,0,0:0:0:0:
133,89,18325,1,0,0:0:0:0:
89,144,18483,1,0,0:0:0:0:
147,186,18641,1,0,0:0:0:0:
193,131,18799,1,0,0:0:0:0:
208,68,18957,2,0,P|279:62|399:84,1,187.5
256,192,19588,12,0,20062,0:0:0:0:
394,92,20220,5,0,0:0:0:0:
96,113,20378,1,0,0:0:0:0:
163,158,20536,1,0,0:0:0:0:
77,182,20694,1,0,0:0:0:0:
150,302,20852,1,0,0:0:0:0:
356,298,21010,1,0,0:0:0:0:
170,231,21167,2,0,P|120:226|67:249,1,93.7500035762788
151,283,21483,2,0,P|199:283|204:279,1,46.8750017881394
177,230,21641,1,0,0:0:0:0:
177,230,21720,1,0,0:0:0:0:
181,232,21799,2,0,P|108:228|94:250,1,93.7500035762788
248,309,22115,2,0,P|266:225|182:156,1,187.500007152558
399,79,22588,5,0,0:0:0:0:
283,91,22746,1,0,0:0:0:0:
389,163,22904,1,0,0:0:0:0:
219,190,23062,1,0,0:0:0:0:
417,292,23220,1,0,0:0:0:0:
417,292,23378,1,0,0:0:0:0:
347,287,23536,1,0,0:0:0:0:
277,280,23694,2,0,P|281:228|296:198,1,46.8750017881394
342,215,23852,2,0,P|302:179|244:189,1,93.7500035762788
276,294,24167,1,0,0:0:0:0:
368,324,24325,2,0,P|396:265|387:235,1,93.7500035762788
292,264,24641,2,0,P|289:323|413:362,1,187.500007152558
382,219,25115,5,0,0:0:0:0:
319,83,25273,2,0,P|257:85|213:116,1,93.7500035762788
306,186,25588,1,0,0:0:0:0:
306,186,25746,1,0,0:0:0:0:
107,191,25904,1,0,0:0:0:0:
180,255,26062,1,0,0:0:0:0:
173,161,26220,1,0,0:0:0:0:
84,116,26378,1,0,0:0:0:0:
68,201,26536,2,0,P|85:255|113:286,1,93.7500035762788
164,216,26852,1,0,0:0:0:0:
54,29,27167,6,0,P|38:114|70:216,1,187.500007152558
127,118,27641,1,0,0:0:0:0:
195,116,27799,2,0,L|195:176,2,46.8750017881394
291,112,28115,1,0,0:0:0:0:
411,206,28273,1,0,0:0:0:0:
257,319,28431,2,0,L|206:311,2,46.8750017881394
309,320,28746,1,0,0:0:0:0:
228,122,28904,1,0,0:0:0:0:
204,83,28983,1,0,0:0:0:0:
184,40,29062,1,0,0:0:0:0:
294,29,29220,2,0,P|299:109|225:204,1,187.500007152558
185,132,29694,6,0,P|139:188|172:246,1,140.625005364418
208,192,30010,2,0,P|238:239|165:289,1,140.625005364418
101,187,30325,5,0,0:0:0:0:
151,317,30483,1,0,0:0:0:0:
286,291,30641,1,0,0:0:0:0:
216,104,30799,1,0,0:0:0:0:
421,221,30957,1,0,0:0:0:0:
421,221,31115,1,0,0:0:0:0:
421,221,31273,1,0,0:0:0:0:
421,221,31431,1,0,0:0:0:0:
333,82,31588,1,0,0:0:0:0:
220,233,31746,2,0,P|221:281|229:283,1,46.8750017881394
272,251,31904,2,0,P|269:204|231:175,1,93.7500035762788
194,271,32220,2,0,P|283:325|353:281,1,187.500007152558
281,91,32694,6,0,L|230:107,1,46.8750017881394
178,77,32852,2,0,P|158:127|184:168,2,93.7500035762788
259,132,33325,1,0,0:0:0:0:
259,132,33483,1,0,0:0:0:0:
57,258,33641,1,0,0:0:0:0:
255,272,33799,1,0,0:0:0:0:
149,120,33957,1,0,0:0:0:0:
55,169,34115,2,0,P|50:221|56:227,1,46.8750017881394
121,201,34273,2,0,P|86:100|34:129,1,187.500007152558
73,205,34746,6,0,P|57:286|229:319,1,281.250010728836
153,257,35378,1,0,0:0:0:0:
150,147,35536,2,0,L|211:157,1,46.8750017881394
238,121,35694,2,0,P|286:128|352:176,1,93.7500035762788
220,252,36010,1,0,0:0:0:0:
129,338,36167,2,0,P|182:347|195:342,1,46.8750017881394
206,329,36325,2,0,P|267:329|303:319,1,93.7500035762788
398,182,36641,1,0,0:0:0:0:
97,172,36799,1,0,0:0:0:0:
386,180,36957,1,0,0:0:0:0:
96,183,37115,1,0,0:0:0:0:
216,129,37273,6,0,P|262:107|288:111,1,46.8750017881394
278,175,37431,1,0,0:0:0:0:
278,175,37588,2,0,B|249:211|233:222|198:229,1,93.7500035762788
183,144,37904,1,0,0:0:0:0:
273,92,38062,1,0,0:0:0:0:
361,173,38220,1,0,0:0:0:0:
252,241,38378,1,0,0:0:0:0:
145,101,38536,1,0,0:0:0:0:
289,18,38694,1,0,0:0:0:0:
412,171,38852,2,0,P|393:224|387:227,1,46.8750017881394
343,179,39010,2,0,P|348:130|356:121,1,46.8750017881394
394,72,39167,2,0,P|446:111|461:154,1,93.7500035762788
357,149,39483,1,0,0:0:0:0:
196,36,39799,6,0,P|280:34|407:89,1,187.500007152558
122,118,40431,6,0,P|109:174|119:217,1,93.7500035762788
189,171,41062,1,0,0:0:0:0:
290,158,41378,1,0,0:0:0:0:
254,250,41694,2,0,P|334:283|378:252,1,140.625005364418
313,178,42325,6,0,P|312:126|274:100,1,93.7500035762788
219,164,42799,2,0,P|191:146|178:125,1,46.8750017881394
429,47,43588,5,0,0:0:0:0:
320,56,43904,2,0,P|316:98|326:120,1,46.8750017881394
236,89,44220,2,0,P|244:165|293:215,1,140.625005364418
165,232,44852,2,0,P|193:256|210:261,1,46.8750017881394
223,334,45167,1,0,0:0:0:0:
318,332,45325,1,0,0:0:0:0:
391,253,45483,2,0,P|353:228|337:226,1,46.8750017881394
310,133,45799,2,0,P|264:123|251:126,1,46.8750017881394
126,156,46115,2,0,P|138:207|192:224,1,93.7500035762788
223,148,46588,1,0,0:0:0:0:
220,54,46746,2,0,P|110:83|86:112,1,140.625005364418
374,249,47378,5,0,0:0:0:0:
108,254,47694,2,0,P|104:208|109:196,1,46.8750017881394
200,229,48010,1,0,0:0:0:0:
422,99,48641,5,0,0:0:0:0:
167,70,48957,2,0,P|140:138|144:146,1,70.3125026822091
46,141,49273,2,0,P|66:202|140:228,1,140.625005364418
202,149,49904,1,0,0:0:0:0:
66,72,50220,1,0,0:0:0:0:
85,241,50536,2,0,P|120:265|155:264,1,70.3125026822091
136,184,50852,2,0,P|86:181|60:199,1,70.3125026822091
113,263,51167,2,0,P|137:284|166:286,1,46.8750017881394
236,197,51483,2,0,P|241:149|234:134,1,46.8750017881394
147,121,51799,2,0,P|111:204|135:256,1,140.625005364418
229,182,52431,2,0,P|234:137|196:95,1,93.7500035762788
121,183,52904,2,0,P|165:237|320:221,1,234.375008940697
214,117,53852,6,0,P|173:103|157:104,1,46.8750017881394
147,192,54167,1,0,0:0:0:0:
73,284,54325,2,0,P|129:308|216:275,1,140.625005364418
133,168,54957,2,0,P|101:172|83:186,1,46.8750017881394
166,253,55273,1,0,0:0:0:0:
391,107,55588,6,0,P|355:94|342:91,1,46.8750017881394
316,196,55904,2,0,P|299:236|303:250,1,46.8750017881394
407,255,56220,2,0,P|431:239|441:216,1,46.8750017881394
369,110,56536,1,0,0:0:0:0:
88,54,56852,6,0,P|75:106|98:145,1,93.7500035762788
295,99,57483,1,0,0:0:0:0:
75,73,57799,2,0,P|59:120|61:127,1,46.8750017881394
156,131,58115,1,0,0:0:0:0:
122,168,58194,1,0,0:0:0:0:
115,211,58273,1,0,0:0:0:0:
237,196,58431,1,0,0:0:0:0:
269,198,58746,1,0,0:0:0:0:
391,211,59062,6,0,P|387:179|366:160,1,46.8750017881394
157,166,59378,2,0,P|113:240|136:286,1,140.625005364418
203,249,60010,2,0,P|202:224|178:206,1,46.8750017881394
122,323,60325,2,0,P|179:338|215:319,1,93.7500035762788
408,96,61115,6,0,L|368:96,1,31.25
304,40,61273,2,0,P|232:40|176:64,1,125
128,120,61746,2,0,L|88:120,1,31.25
40,120,61904,2,0,P|48:176|208:264,1,250
200,160,62694,6,0,P|208:128|216:128,1,31.25
200,72,62852,2,0,P|248:64|264:80,1,62.5
368,64,63167,2,0,P|376:136|336:176,1,125
296,112,63562,2,0,L|264:144,1,31.25
200,96,63720,2,0,L|208:136,1,31.25
64,216,64115,1,0,0:0:0:0:
320,272,64431,5,0,0:0:0:0:
424,216,64588,1,0,0:0:0:0:
304,280,64746,1,0,0:0:0:0:
464,144,64904,1,0,0:0:0:0:
232,304,65062,5,0,0:0:0:0:
136,296,65220,1,0,0:0:0:0:
80,216,65378,1,0,0:0:0:0:
144,80,65694,2,0,P|184:64|216:80,1,62.5
184,176,66009,2,0,L|144:176,1,31.25
176,120,66167,2,0,P|232:120|280:176,1,125
192,192,66641,2,0,P|144:208|128:224,1,62.5
336,264,66957,2,0,P|368:296|376:320,1,62.5
472,272,67352,6,0,P|416:208|216:176,1,281.25
104,144,68220,1,0,0:0:0:0:
56,64,68378,2,0,P|96:48|128:48,1,62.5
88,144,68694,2,0,P|160:112|216:112,1,125
144,200,69167,1,0,0:0:0:0:
40,56,69483,2,0,P|112:32|232:48,1,187.5
376,80,70115,2,0,B|336:80|336:80|368:80,3,62.5
288,168,70746,5,0,0:0:0:0:
64,184,71062,1,0,0:0:0:0:
120,192,71220,2,0,P|120:248|16:224,1,187.5
48,136,71852,1,0,0:0:0:0:
144,80,72009,2,0,P|192:104|200:120,1,62.5
336,96,72325,2,0,P|352:144|344:176,1,62.5
216,248,72641,1,0,0:0:0:0:
112,312,72799,1,0,0:0:0:0:
208,240,72957,1,0,0:0:0:0:
336,80,73273,6,0,P|272:80|216:120,1,125
328,168,73746,1,0,0:0:0:0:
144,56,73904,2,0,P|112:120|120:184,1,125
304,176,74378,1,0,0:0:0:0:
24,176,74536,2,0,P|40:248|136:336,1,187.5
232,264,75167,1,0,0:0:0:0:
296,152,75325,1,0,0:0:0:0:
224,272,75483,2,0,P|216:312|224:344,1,62.5
328,304,75799,6,0,P|368:272|432:296,1,125
376,192,76273,2,0,L|320:192,1,31.25
296,144,76431,2,0,P|272:200|272:224,1,62.5
376,192,76746,1,0,0:0:0:0:
192,176,76904,2,0,L|192:216,1,31.25
112,216,77062,6,0,P|152:296|320:304,1,250
296,248,77852,1,0,0:0:0:0:
240,168,78009,2,0,P|208:152|176:160,1,62.5
112,112,78325,2,0,P|80:160|96:240,1,125
264,176,78799,1,0,0:0:0:0:
16,288,78957,6,0,P|72:328|136:320,1,125
272,168,79431,1,0,0:0:0:0:
40,360,79588,2,0,P|104:368|168:352,1,125
168,96,80062,1,0,0:0:0:0:
90,74,80220,5,0,0:0:0:0:
114,154,80378,1,0,0:0:0:0:
180,102,80536,2,0,P|226:100|262:116,1,70.3125026822091
264,200,80852,5,0,0:0:0:0:
76,302,81009,1,0,0:0:0:0:
303,349,81167,1,0,0:0:0:0:
120,199,81325,1,0,0:0:0:0:
440,127,81483,1,0,0:0:0:0:
81,71,81641,1,0,0:0:0:0:
460,8,81799,1,0,0:0:0:0:
72,128,81957,2,0,P|52:197|70:238,1,93.7500035762788
389,297,82273,6,0,P|430:261|436:261,1,46.8750017881394
360,84,82431,2,0,P|327:35|327:30,1,46.8750017881394
156,102,82588,2,0,P|101:129|87:128,1,46.8750017881394
177,285,82746,2,0,P|178:343|174:349,1,46.8750017881394
401,281,82904,2,0,P|452:308|460:319,1,46.8750017881394
369,87,83062,2,0,P|414:63|423:63,1,46.8750017881394
149,50,83220,2,0,P|85:48|66:69,1,93.7500035762788
85,294,83536,5,0,0:0:0:0:
239,266,83694,1,0,0:0:0:0:
48,201,83852,1,0,0:0:0:0:
346,146,84009,1,0,0:0:0:0:
33,104,84167,1,0,0:0:0:0:
406,76,84325,2,0,P|404:22|388:16,1,46.8750017881394
48,13,84483,2,0,P|58:67|101:58,1,93.7500035762788
422,315,84799,5,0,0:0:0:0:
393,210,84957,1,0,0:0:0:0:
354,360,85115,1,0,0:0:0:0:
321,118,85273,1,0,0:0:0:0:
273,371,85431,1,0,0:0:0:0:
227,36,85588,1,0,0:0:0:0:
170,373,85746,2,0,P|124:344|140:316,1,93.7500035762788
335,183,86062,6,0,P|364:139|363:129,1,46.8750017881394
179,164,86220,2,0,P|133:152|119:156,1,46.8750017881394
192,264,86378,2,0,P|199:310|212:328,1,46.8750017881394
410,118,86536,2,0,P|418:66|415:60,1,46.8750017881394
186,96,86694,2,0,P|126:93|122:97,1,46.8750017881394
216,271,86852,2,0,P|214:323|225:334,1,46.8750017881394
424,276,87009,2,0,B|468:263|487:241|456:204,1,93.7500035762788
82,111,87325,6,0,L|51:66,1,46.8750017881394
404,101,87483,2,0,L|445:60,1,46.8750017881394
158,108,87641,2,0,L|118:153,1,46.8750017881394
338,106,87799,2,0,L|378:160,1,46.8750017881394
220,109,87957,2,0,L|189:67,1,46.8750017881394
285,114,88115,2,0,L|314:162,1,46.8750017881394
250,86,88273,2,0,L|249:36,2,46.8750017881394
123,304,88746,5,0,0:0:0:0:
404,301,88904,1,0,0:0:0:0:
45,204,89062,1,0,0:0:0:0:
467,204,89220,1,0,0:0:0:0:
123,103,89378,1,0,0:0:0:0:
390,98,89536,1,0,0:0:0:0:
254,29,89694,2,0,L|252:80,1,46.8750017881394
256,336,89852,2,0,L|255:278,1,46.8750017881394
44,187,90009,2,0,L|94:186,1,46.8750017881394
465,194,90167,2,0,L|409:195,1,46.8750017881394
145,80,90325,6,0,P|103:119|103:122,1,46.8750017881394
151,297,90483,2,0,P|197:318|203:317,1,46.8750017881394
380,285,90641,2,0,P|417:246|419:239,2,46.8750017881394
101,70,90957,5,0,0:0:0:0:
42,316,91115,1,0,0:0:0:0:
393,54,91273,1,0,0:0:0:0:
470,313,91431,1,0,0:0:0:0:
180,76,91588,1,0,0:0:0:0:
99,329,91746,1,0,0:0:0:0:
316,61,91904,1,0,0:0:0:0:
390,321,92062,1,0,0:0:0:0:
88,115,92378,6,0,L|88:63,1,46.8750017881394
432,110,92536,2,0,L|427:62,1,46.8750017881394
87,309,92694,2,0,L|86:248,1,46.8750017881394
429,319,92852,2,0,L|424:257,1,46.8750017881394
108,181,93009,2,0,L|163:180,1,46.8750017881394
255,323,93167,2,0,L|253:266,1,46.8750017881394
404,172,93325,2,0,L|344:175,2,46.8750017881394
61,59,93641,5,0,0:0:0:0:
179,58,93799,1,0,0:0:0:0:
434,312,93957,1,0,0:0:0:0:
351,315,94115,1,0,0:0:0:0:
86,313,94273,1,0,0:0:0:0:
170,315,94431,1,0,0:0:0:0:
410,69,94588,2,0,P|450:55|445:94,1,93.7500035762788
112,80,94904,6,0,L|72:120,1,46.8750017881394
128,304,95062,2,0,L|168:344,1,46.8750017881394
400,312,95220,2,0,L|432:272,1,46.8750017881394
400,64,95378,2,0,L|352:32,1,46.8750017881394
152,112,95536,2,0,P|104:176|112:200,1,93.7500035762788
248,288,95852,2,0,P|256:240|248:232,1,46.8750017881394
176,256,96009,5,0,0:0:0:0:
176,256,96167,1,0,0:0:0:0:
88,40,96325,1,0,0:0:0:0:
368,136,96483,1,0,0:0:0:0:
120,304,96641,1,0,0:0:0:0:
136,64,96799,1,0,0:0:0:0:
384,192,96957,1,0,0:0:0:0:
48,312,97115,2,0,P|40:248|48:208,1,93.7500035762788
400,224,97431,6,0,L|456:256,1,46.8750017881394
352,288,97588,2,0,L|392:328,1,46.8750017881394
144,304,97746,2,0,L|96:328,1,46.8750017881394
112,232,97904,2,0,L|56:256,1,46.8750017881394
368,48,98062,6,0,L|408:80,1,46.8750017881394
328,128,98220,2,0,L|376:152,1,46.8750017881394
128,64,98378,2,0,P|120:120|128:128,1,46.8750017881394
184,136,98536,5,0,0:0:0:0:
256,272,98694,1,0,0:0:0:0:
336,160,98852,6,0,P|336:112|336:104,1,46.8750017881394
432,56,99009,2,0,L|384:48,1,46.8750017881394
240,128,99167,2,0,L|240:72,1,46.8750017881394
296,16,99325,2,0,L|232:24,1,46.8750017881394
144,136,99483,2,0,L|152:80,1,46.8750017881394
184,16,99641,2,0,L|128:32,1,46.8750017881394
72,272,99799,5,0,0:0:0:0:
272,344,99957,1,0,0:0:0:0:
440,248,100115,1,0,0:0:0:0:
232,256,100273,1,0,0:0:0:0:
392,128,100431,1,0,0:0:0:0:
272,128,100588,1,0,0:0:0:0:
392,128,100746,1,0,0:0:0:0:
272,128,100904,1,0,0:0:0:0:
184,112,101062,6,0,P|168:160|168:168,1,46.8750017881394
80,184,101378,2,0,P|112:232|160:256,1,93.7500035762788
368,200,102325,6,0,P|368:168|424:112,1,93.7500035762788
136,208,102957,2,0,P|120:176|128:160,1,46.8750017881394
200,160,103273,2,0,P|208:192|208:240,1,70.3125026822091
272,240,103588,2,0,P|272:296|192:320,1,140.625005364418
120,176,104220,2,0,P|96:232|104:272,1,93.7500035762788
384,176,104852,6,0,P|416:192|432:224,1,70.3125026822091
360,240,105167,1,0,0:0:0:0:
144,256,105483,2,0,P|152:208|184:168,1,93.7500035762788
376,136,106115,2,0,P|312:168|352:208,1,140.625005364418
432,224,106746,2,0,P|408:280|320:304,1,140.625005364418
240,224,107378,2,0,P|200:256|176:304,1,93.7500035762788
392,120,108009,6,0,P|376:104|352:104,1,46.8750017881394
216,176,108325,2,0,P|224:200|272:208,1,70.3125026822091
264,152,108641,2,0,P|200:104|120:160,1,187.500007152558
384,288,109904,5,0,0:0:0:0:
168,232,110220,1,0,0:0:0:0:
368,144,110536,1,0,0:0:0:0:
288,112,110694,1,0,0:0:0:0:
192,112,110852,1,0,0:0:0:0:
72,288,111167,5,0,0:0:0:0:
176,320,111325,1,0,0:0:0:0:
280,304,111483,1,0,0:0:0:0:
376,208,111641,1,0,0:0:0:0:
296,80,111799,1,0,0:0:0:0:
152,144,111957,1,0,0:0:0:0:
208,296,112115,1,0,0:0:0:0:
376,200,112273,1,0,0:0:0:0:
336,72,112431,2,0,P|296:72|264:112,1,93.75
320,144,112746,2,0,P|384:144|400:120,1,93.75
352,64,113062,2,0,P|224:64|160:104,1,187.5
64,304,113694,5,0,0:0:0:0:
72,208,113852,1,0,0:0:0:0:
64,304,114009,1,0,0:0:0:0:
56,128,114167,1,0,0:0:0:0:
56,304,114325,1,0,0:0:0:0:
48,48,114483,1,0,0:0:0:0:
64,304,114641,1,0,0:0:0:0:
248,288,114799,1,0,0:0:0:0:
392,264,114957,6,0,P|368:208|352:200,1,62.5
312,256,115273,2,0,P|336:304|360:312,1,62.5
376,168,115588,2,0,P|304:160|232:240,1,187.5
360,240,116220,5,0,0:0:0:0:
480,264,116378,1,0,0:0:0:0:
368,320,116536,1,0,0:0:0:0:
240,312,116694,1,0,0:0:0:0:
296,200,116852,2,0,L|192:208,2,62.5
208,112,117325,1,0,0:0:0:0:
80,112,117483,2,0,L|72:192,2,62.5
153,75,118115,6,0,P|147:118|150:175,1,93.75
202,168,118431,1,0,0:0:0:0:
202,168,118588,1,0,0:0:0:0:
201,277,118746,5,0,0:0:0:0:
136,277,118904,1,0,0:0:0:0:
278,278,119062,1,0,0:0:0:0:
69,275,119220,1,0,0:0:0:0:
337,280,119378,1,0,0:0:0:0:
22,276,119536,5,0,0:0:0:0:
22,276,119694,1,0,0:0:0:0:
22,276,119852,1,0,0:0:0:0:
32,198,120009,2,0,P|74:207|99:228,1,62.5
135,136,120325,2,0,P|201:156|230:182,1,93.75
265,83,120641,2,0,P|327:112|330:173,1,125
208,168,121115,6,0,P|146:176|140:180,1,62.5
210,284,121431,1,0,0:0:0:0:
334,276,121588,1,0,0:0:0:0:
110,286,121746,1,0,0:0:0:0:
432,273,121904,1,0,0:0:0:0:
23,285,122062,1,0,0:0:0:0:
498,271,122220,1,0,0:0:0:0:
248,279,122378,6,0,P|234:247|232:240,1,31.25
286,212,122536,2,0,P|237:163|214:163,1,62.5
147,89,122852,2,0,P|102:147|99:156,1,62.5
123,260,123167,2,0,P|182:324|231:339,1,125
274,92,123799,5,0,0:0:0:0:
151,119,123957,1,0,0:0:0:0:
191,237,124115,1,0,0:0:0:0:
305,185,124273,1,0,0:0:0:0:
250,38,124431,5,0,0:0:0:0:
108,101,124588,1,0,0:0:0:0:
154,250,124746,1,0,0:0:0:0:
302,201,124904,1,0,0:0:0:0:
183,162,125062,2,0,P|99:154|99:155,1,125
302,290,125694,2,0,P|364:217|321:176,1,125
111,236,126325,5,0,0:0:0:0:
166,123,126483,1,0,0:0:0:0:
86,219,126641,1,0,0:0:0:0:
188,146,126799,1,0,0:0:0:0:
65,171,126957,1,0,0:0:0:0:
188,191,127115,1,0,0:0:0:0:
81,125,127273,1,0,0:0:0:0:
159,222,127431,1,0,0:0:0:0:
58,294,127588,6,0,P|121:322|138:322,1,62.5
213,245,127904,2,0,P|296:276|308:278,1,62.5
359,181,128220,2,0,P|432:209|472:164,1,125
273,91,128852,5,0,0:0:0:0:
367,9,129009,1,0,0:0:0:0:
340,131,129167,1,0,0:0:0:0:
217,154,129325,1,0,0:0:0:0:
159,43,129483,2,0,P|101:125|103:133,1,62.5
220,136,129799,1,0,0:0:0:0:
296,37,129957,1,0,0:0:0:0:
174,65,130115,6,0,P|120:98|118:114,1,62.5
39,186,130431,2,0,P|125:237|125:238,1,62.5
223,182,130746,2,0,P|282:269|276:299,1,125
418,153,131378,6,0,P|449:240|396:286,1,140.625005364418
351,213,132010,2,0,P|288:211|271:216,1,46.8750017881394
254,128,132325,2,0,P|185:129|167:139,1,46.8750017881394
113,124,132641,2,0,P|54:185|58:219,1,93.7500035762788
213,287,133273,6,0,P|272:306|282:300,1,46.8750017881394
285,222,133588,2,0,P|337:215|340:206,1,46.8750017881394
306,133,133904,2,0,P|184:132|158:204,1,187.500007152558
326,262,134852,1,0,0:0:0:0:
351,76,135167,2,0,P|248:81|208:104,1,140.625005364418
122,96,135799,2,0,P|100:155|105:165,1,46.8750017881394
189,152,136115,2,0,P|253:176|258:173,1,46.8750017881394
276,102,136431,5,0,0:0:0:0:
95,54,136746,1,0,0:0:0:0:
90,241,137062,1,0,0:0:0:0:
183,251,137220,2,0,P|207:296|214:310,1,46.8750017881394
332,153,137694,2,0,P|219:117|197:126,1,140.625005364418
229,212,138325,6,0,L|172:241,1,46.8750017881394
131,309,138641,2,0,L|180:250,1,46.8750017881394
112,192,138957,6,0,P|146:113|255:97,1,187.500007152558
229,278,139904,2,0,L|233:196,1,46.8750017881394
152,179,140220,2,0,P|245:143|287:158,1,140.625005364418
353,212,140852,2,0,L|347:146,1,46.8750017881394
404,89,141167,2,0,L|330:82,1,46.8750017881394
263,90,141483,5,0,0:0:0:0:
107,194,141799,1,0,0:0:0:0:
284,255,142115,1,0,0:0:0:0:
253,166,142273,2,0,L|225:104,1,46.8750017881394
46,140,142746,6,0,P|130:180|139:220,1,140.625005364418
45,229,143378,2,0,P|52:281|52:283,1,46.8750017881394
145,261,143694,2,0,L|235:260,1,46.8750017881394
237,177,144010,6,0,P|350:142|385:167,1,140.625005364418
320,232,144641,2,0,L|273:260,1,46.8750017881394
189,227,144957,2,0,P|144:216|125:221,1,46.8750017881394
138,310,145273,6,0,P|76:249|94:181,1,140.625005364418
174,194,145904,1,0,0:0:0:0:
361,182,146220,1,0,0:0:0:0:
174,194,146536,5,0,0:0:0:0:
308,63,146852,1,0,0:0:0:0:
128,115,147167,2,0,P|95:181|97:205,1,93.7500035762788
282,177,147799,5,0,0:0:0:0:
282,177,148115,1,0,0:0:0:0:
123,277,148431,1,0,0:0:0:0:
247,137,148746,2,0,P|318:85|330:86,1,93.7500035762788
323,179,149220,5,0,0:0:0:0:
247,235,149378,1,0,0:0:0:0:
186,162,149536,1,0,0:0:0:0:
114,222,149694,1,0,0:0:0:0:
170,296,149852,1,0,0:0:0:0:
247,235,150010,1,0,0:0:0:0:
186,162,150167,1,0,0:0:0:0:
115,224,150325,6,0,P|103:316|171:345,1,140.625005364418
201,275,150957,2,0,L|199:193,1,46.8750017881394
211,134,151273,2,0,P|315:83|324:86,1,93.7500035762788
361,222,151904,6,0,L|361:299,1,62.5
282,306,152220,2,0,P|244:233|270:178,1,125
116,281,152852,1,0,0:0:0:0:
201,143,153167,2,0,P|61:128|43:140,1,125
78,200,153641,2,0,L|124:271,1,62.5
193,242,153957,1,0,0:0:0:0:
270,216,154115,6,0,P|255:139|247:121,1,62.5
148,160,154431,1,0,0:0:0:0:
148,160,154588,1,0,0:0:0:0:
84,211,154746,2,0,P|168:287|193:299,1,125
224,225,155220,5,0,0:0:0:0:
296,188,155378,2,0,L|378:155,2,62.5
157,102,156010,1,0,0:0:0:0:
129,178,156167,1,0,0:0:0:0:
115,258,156325,1,0,0:0:0:0:
266,199,156641,6,0,L|279:132,1,62.5
298,58,156957,2,0,P|228:52|187:68,1,62.5
190,118,157273,2,0,P|181:222|202:265,1,125
266,219,157746,1,0,0:0:0:0:
346,206,157904,2,0,P|391:282|400:352,1,125
243,267,158536,6,0,L|133:215,1,62.5
218,164,158852,1,0,0:0:0:0:
367,101,159167,1,0,0:0:0:0:
294,63,159325,1,0,0:0:0:0:
147,134,159641,2,0,P|101:232|123:325,1,187.5
189,275,160273,1,0,0:0:0:0:
251,223,160431,2,0,P|334:175|373:181,1,125
348,257,160904,1,0,0:0:0:0:
276,295,161062,1,0,0:0:0:0:
195,280,161220,1,0,0:0:0:0:
150,211,161378,1,0,0:0:0:0:
278,111,161694,6,0,P|383:70|457:101,1,187.5
403,161,162325,2,0,L|336:239,1,62.5
299,155,162641,1,0,0:0:0:0:
145,102,162957,6,0,P|120:169|124:188,1,62.5
201,148,163273,2,0,L|220:64,1,62.5
138,115,163588,1,0,0:0:0:0:
118,193,163746,2,0,P|149:271|224:298,1,125
191,210,164220,1,0,0:0:0:0:
191,210,164694,5,0,0:0:0:0:
272,206,164852,2,0,P|279:142|267:129,1,62.5
204,170,165167,1,0,0:0:0:0:
232,330,165483,1,0,0:0:0:0:
313,323,165641,1,0,0:0:0:0:
366,261,165799,1,0,0:0:0:0:
390,183,165957,1,0,0:0:0:0:
311,205,166115,1,0,0:0:0:0:
370,260,166273,1,0,0:0:0:0:
447,234,166431,1,0,0:0:0:0:
392,81,166746,6,0,P|289:96|253:127,1,125
324,170,167220,1,0,0:0:0:0:
242,164,167378,2,0,P|151:244|147:290,1,125
314,245,168010,2,0,P|261:310|359:362,1,187.5
388,324,168641,1,0,0:0:0:0:
417,248,168799,1,0,0:0:0:0:
410,166,168957,1,0,0:0:0:0:
252,205,169273,6,0,P|182:212|172:201,1,62.5
123,73,169746,1,0,0:0:0:0:
79,141,169904,2,0,P|112:215|122:242,1,62.5
186,185,170220,1,0,0:0:0:0:
142,253,170378,1,0,0:0:0:0:
63,273,170536,2,0,B|115:312|158:328|204:324,1,125
194,244,171010,1,0,0:0:0:0:
236,175,171167,1,0,0:0:0:0:
317,171,171325,1,0,0:0:0:0:
393,198,171483,1,0,0:0:0:0:
321,344,171799,1,0,0:0:0:0:
115,147,172904,6,0,P|73:117|69:117,1,31.25
257,108,173694,2,0,P|317:74|338:76,1,62.5
328,153,174325,1,0,0:0:0:0:
255,189,174641,1,0,0:0:0:0:
186,145,174957,2,0,P|125:169|120:182,1,62.5
184,222,175588,2,0,L|222:262,2,31.25
251,176,176220,5,0,0:0:0:0:
331,189,176536,2,0,P|370:193|375:197,1,31.25
390,160,176852,2,0,P|366:100|249:100,1,187.5
191,144,178115,6,0,P|115:168|108:163,1,93.75
134,99,178746,6,0,P|161:63|190:54,1,62.5
218,168,179378,1,0,0:0:0:0:
296,288,179694,2,0,L|346:289,2,31.25
231,202,180325,1,0,0:0:0:0:
80,212,180641,2,0,P|67:165|71:160,1,31.25
144,108,180957,2,0,P|183:84|184:84,1,31.25
235,180,181273,1,0,0:0:0:0:
87,296,181588,2,0,P|63:276|60:269,1,31.25
157,246,181904,6,0,P|195:273|210:305,1,62.5
73,126,182536,5,0,0:0:0:0:
139,125,182694,1,0,0:0:0:0:
25,187,182852,1,0,0:0:0:0:
182,187,183010,1,0,0:0:0:0:
99,252,183167,1,0,0:0:0:0:
325,284,183483,6,0,L|319:244,1,31.25
223,282,183799,1,0,0:0:0:0:
226,119,184115,1,0,0:0:0:0:
229,336,184431,1,0,0:0:0:0:
369,57,185062,6,0,P|335:58|325:61,1,31.25
240,85,185378,2,0,P|247:119|253:127,1,31.25
176,178,185694,2,0,P|211:214|230:228,1,62.5
339,144,186325,2,0,P|307:113|261:143,1,93.75
412,252,186957,6,0,P|400:288|394:293,1,31.25
329,251,187273,2,0,P|337:200|351:187,1,62.5
160,258,187904,5,0,0:0:0:0:
160,258,188220,2,0,P|155:202|147:189,1,62.5
263,242,188852,2,0,L|271:204,1,31.25
342,240,189167,1,0,0:0:0:0:
467,168,189483,6,0,B|450:142|424:122|417:124,1,62.5
270,114,190115,2,0,P|303:92|335:103,1,62.5
284,203,190746,1,0,0:0:0:0:
173,184,191062,1,0,0:0:0:0:
149,78,191378,2,0,P|205:66|277:69,1,125
153,152,192957,5,0,0:0:0:0:
256,158,193273,2,0,P|325:168|340:185,1,93.7500035762788
176,254,193904,1,0,0:0:0:0:
314,109,194536,6,0,P|376:108|377:108,2,46.8750017881394
163,50,195167,2,0,L|100:46,1,46.8750017881394
112,100,195483,2,0,L|167:119,1,46.8750017881394
82,181,195799,2,0,P|83:239|108:281,1,93.7500035762788
219,153,196431,1,0,0:0:0:0:
63,247,196746,2,0,P|78:295|119:338,1,93.7500035762788
220,208,197536,5,0,0:0:0:0:
106,240,197852,1,0,0:0:0:0:
169,304,198010,1,0,0:0:0:0:
106,240,198167,1,0,0:0:0:0:
63,169,198325,2,0,P|80:120|130:89,1,93.7500035762788
209,221,198957,2,0,P|163:202|135:151,1,93.7500035762788
289,132,199588,2,0,P|341:146|362:177,1,93.7500035762788
268,207,200062,1,0,0:0:0:0:
90,196,200220,6,0,P|95:149|127:108,1,93.7500035762788
415,82,200852,1,0,0:0:0:0:
415,158,201010,1,0,0:0:0:0:
382,228,201167,1,0,0:0:0:0:
302,285,201325,1,0,0:0:0:0:
169,280,201483,1,0,0:0:0:0:
92,221,201641,1,0,0:0:0:0:
75,76,201799,1,0,0:0:0:0:
219,31,201957,1,0,0:0:0:0:
300,168,202115,6,0,P|356:144|369:112,2,93.7500035762788
267,97,202904,2,0,L|206:118,1,46.8750017881394
77,112,203378,2,0,P|80:171|117:223,1,93.7500035762788
152,154,203852,1,0,0:0:0:0:
207,204,204010,2,0,P|177:240|153:241,1,46.8750017881394
69,232,204325,2,0,P|85:276|143:330,1,93.7500035762788
382,248,205273,5,0,0:0:0:0:
350,122,205588,1,0,0:0:0:0:
233,227,205904,2,0,P|203:177|210:148,1,46.8750017881394
297,177,206220,1,0,0:0:0:0:
102,193,206536,2,0,P|103:112|132:75,1,93.7500035762788
319,74,207167,6,0,P|389:135|376:245,1,187.500007152558
226,180,208115,1,0,0:0:0:0:
189,182,208273,1,0,0:0:0:0:
140,174,208431,2,0,P|124:219|129:244,1,46.8750017881394
159,255,208746,1,0,0:0:0:0:
284,240,209062,1,0,0:0:0:0:
121,261,209378,2,0,P|79:233|79:227,1,46.8750017881394
319,236,209694,2,0,P|323:172|300:132,1,93.7500035762788
254,197,210167,1,0,0:0:0:0:
185,203,210325,6,0,P|193:273|237:319,1,93.7500035762788
467,34,210957,6,0,P|383:24|302:53,1,140.625005364418
386,104,211588,2,0,L|383:163,1,46.8750017881394
275,120,211904,2,0,P|265:196|284:236,1,93.7500035762788
351,184,212378,5,0,0:0:0:0:
337,52,212536,1,0,0:0:0:0:
170,39,212694,1,0,0:0:0:0:
75,139,212852,2,0,P|107:210|212:194,1,187.5
151,140,213483,2,0,B|185:85|185:85|126:81|113:81|113:81|146:137|146:137|178:150,1,187.5
230,176,214115,5,0,0:0:0:0:
401,313,214431,1,0,0:0:0:0:
427,76,214746,1,0,0:0:0:0:
396,36,214904,2,0,P|319:47|277:72,1,125
318,150,215378,2,0,P|227:164|138:99,1,187.5
199,78,216010,2,0,P|261:58|270:58,1,62.5
247,140,216325,2,0,P|148:144|126:121,1,125
451,118,217273,6,0,P|458:192|426:250,1,125
342,181,217746,1,0,0:0:0:0:
248,160,217904,2,0,P|226:230|226:238,1,62.5
88,206,218220,2,0,P|102:267|117:283,1,62.5
238,300,218536,1,0,0:0:0:0:
319,294,218694,1,0,0:0:0:0:
402,287,218852,1,0,0:0:0:0:
221,189,219167,2,0,P|227:87|319:12,1,187.5
326,116,219799,5,0,0:0:0:0:
331,252,219957,1,0,0:0:0:0:
332,51,220115,1,0,0:0:0:0:
330,320,220273,1,0,0:0:0:0:
328,185,220431,5,0,0:0:0:0:
328,185,220588,1,0,0:0:0:0:
248,195,220746,2,0,P|226:115|243:67,1,125
255,354,221378,2,0,P|248:290|249:279,1,62.5
158,264,221694,2,0,P|171:191|279:131,1,187.5
276,229,222325,6,0,L|266:312,2,62.5
176,178,222799,1,0,0:0:0:0:
94,160,222957,2,0,P|134:90|301:105,1,250
203,152,223746,2,0,P|138:206|130:265,1,125
237,227,224220,2,0,P|309:195|367:78,1,187.5
264,126,224852,1,0,0:0:0:0:
165,146,225010,1,0,0:0:0:0:
128,264,225167,1,0,0:0:0:0:
252,290,225325,1,0,0:0:0:0:
342,206,225483,1,0,0:0:0:0:
194,94,225957,5,0,0:0:0:0:
98,82,226115,2,0,P|104:160|111:172,2,62.5
295,94,226588,1,0,0:0:0:0:
441,82,226746,1,0,0:0:0:0:
415,290,227062,2,0,P|356:254|350:229,1,62.5
446,206,227378,5,0,0:0:0:0:
461,55,227536,1,0,0:0:0:0:
312,58,227694,1,0,0:0:0:0:
345,204,227852,1,0,0:0:0:0:
262,197,228010,2,0,P|185:228|263:289,1,187.5
322,256,228641,2,0,P|387:270|394:279,1,62.5
195,123,229273,5,0,0:0:0:0:
140,53,229431,2,0,B|200:36|267:68|272:76,1,125
182,130,229904,1,0,0:0:0:0:
176,133,230062,1,0,0:0:0:0:
133,224,230220,1,0,0:0:0:0:
143,296,230378,2,0,P|222:307|230:301,1,62.5
201,238,230694,1,0,0:0:0:0:
201,238,230852,1,0,0:0:0:0:
201,238,231010,1,0,0:0:0:0:
161,166,231167,6,0,P|269:168|304:250,1,187.5
135,107,231799,2,0,P|197:84|227:82,1,62.5
53,71,232115,2,0,P|110:47|149:49,1,62.5
219,54,232431,1,0,0:0:0:0:
237,175,232588,1,0,0:0:0:0:
167,279,232746,1,0,0:0:0:0:
86,137,233062,1,0,0:0:0:0:
135,97,233220,1,0,0:0:0:0:
190,80,233378,1,0,0:0:0:0:
244,164,233694,6,0,L|173:195,2,62.5
428,85,234325,1,0,0:0:0:0:
221,67,234641,1,0,0:0:0:0:
99,78,234957,2,0,P|119:170|263:154,1,250
341,97,236220,5,0,0:0:0:0:
178,183,236536,1,0,0:0:0:0:
291,282,236852,2,0,L|340:233,1,62.5
424,310,237167,2,0,L|410:247,1,62.5
499,221,237483,2,0,P|453:164|276:190,1,250
302,264,238431,5,0,0:0:0:0:
152,271,238746,2,0,L|153:207,1,62.5
84,195,239062,2,0,L|128:136,1,62.5
35,73,239378,2,0,P|95:41|282:60,1,250
122,223,240641,5,0,0:0:0:0:
400,210,241273,2,0,P|399:130|366:93,1,125
256,180,241904,2,0,L|169:144,1,62.5
94,135,242220,2,0,L|142:85,1,62.5
275,68,242536,2,0,P|182:23|38:95,1,250
146,172,243799,5,0,0:0:0:0:
320,200,244115,1,0,0:0:0:0:
173,273,244431,2,0,L|104:273,1,62.5
104,215,244746,2,0,P|231:130|411:249,1,375
107,270,246325,6,0,L|102:204,1,62.5
170,160,246641,2,0,L|217:93,1,62.5
306,129,246957,1,0,0:0:0:0:
318,124,247273,2,0,P|350:215|107:281,1,375
131,124,248852,6,0,P|201:85|212:86,1,62.5
290,81,249167,2,0,P|369:114|373:119,1,62.5
240,171,249483,1,0,0:0:0:0:
240,171,249641,1,0,0:0:0:0:
240,171,249799,1,0,0:0:0:0:
240,171,249957,1,0,0:0:0:0:
232,173,250115,2,0,P|262:289|298:308,1,125
345,141,250746,5,0,0:0:0:0:
345,141,250904,1,0,0:0:0:0:
345,141,251062,1,0,0:0:0:0:
345,141,251220,1,0,0:0:0:0:
338,130,251378,2,0,P|242:105|194:122,1,125
136,245,252010,1,0,0:0:0:0:
118,243,252325,2,0,P|147:179|134:128,1,125
