osu file format v14

[General]
AudioFilename: audio.mp3
AudioLeadIn: 0
PreviewTime: 164646
Countdown: 0
SampleSet: Soft
StackLeniency: 0.5
Mode: 0
LetterboxInBreaks: 0
WidescreenStoryboard: 1

[Editor]
Bookmarks: 5312,133312
DistanceSpacing: 1.3
BeatDivisor: 4
GridSize: 16
TimelineZoom: 1

[Metadata]
Title:august
TitleUnicode:august
Artist:Taylor Swift
ArtistUnicode:Taylor Swift
Creator:jas
Version:jasieg's hard
Source:
Tags:craezy folklore kieg enri seolv lukas [_l_u_k_a_s_] dora- doraemonelf folk english pop indie cardigan betty jack antonoff aaron dessner
BeatmapID:3152032
BeatmapSetID:1506415

[Difficulty]
HPDrainRate:4
CircleSize:4
OverallDifficulty:7
ApproachRate:8
SliderMultiplier:1.2
SliderTickRate:1

[Events]
//Background and Video events
0,0,"1_cBBvkT6H66gabtay3CnI3w.jpg",0,0
//Break Periods
2,69512,79229
2,186846,188562
//Storyboard Layer 0 (Background)
//Storyboard Layer 1 (Fail)
//Storyboard Layer 2 (Pass)
//Storyboard Layer 3 (Foreground)
//Storyboard Layer 4 (Overlay)
//Storyboard Sound Samples

[TimingPoints]
5313,333.333333333333,4,2,1,45,1,0
6646,-100,4,2,2,45,0,0
7812,-100,4,2,1,45,0,0
14646,-100,4,2,3,45,0,0
14812,-100,4,2,4,45,0,0
15646,-100,4,2,5,45,0,0
15812,-100,4,2,4,45,0,0
15979,-100,4,2,1,45,0,0
17312,-100,4,2,2,45,0,0
18479,-100,4,2,1,45,0,0
25312,-100,4,2,6,60,0,0
25479,-100,4,2,4,60,0,0
26479,-100,4,2,7,60,0,0
26562,-100,4,2,4,60,0,0
26646,-90.9090909090909,4,2,8,75,0,0
26979,-90.9090909090909,4,2,9,75,0,0
27312,-90.9090909090909,4,2,10,75,0,0
27646,-90.9090909090909,4,2,11,75,0,0
27812,-90.9090909090909,4,2,8,75,0,0
28146,-90.9090909090909,4,2,9,75,0,0
28646,-90.9090909090909,4,2,10,75,0,0
29312,-90.9090909090909,4,2,8,75,0,0
29646,-90.9090909090909,4,2,9,75,0,0
29979,-90.9090909090909,4,2,10,75,0,0
30312,-90.9090909090909,4,2,11,75,0,0
30479,-90.9090909090909,4,2,8,75,0,0
30812,-90.9090909090909,4,2,12,75,0,0
31146,-90.9090909090909,4,2,13,75,0,0
31312,-90.9090909090909,4,2,12,75,0,0
31646,-90.9090909090909,4,2,13,75,0,0
31812,-90.9090909090909,4,2,14,75,0,0
31896,-90.9090909090909,4,2,1,75,0,0
31979,-90.9090909090909,4,2,15,75,0,0
32646,-90.9090909090909,4,2,1,75,0,0
33479,-90.9090909090909,4,2,16,75,0,0
33979,-90.9090909090909,4,2,14,75,0,0
34146,-90.9090909090909,4,2,13,75,0,0
34479,-90.9090909090909,4,2,14,75,0,0
34562,-90.9090909090909,4,2,1,75,0,0
34646,-90.9090909090909,4,2,15,75,0,0
34812,-90.9090909090909,4,2,4,75,0,0
35646,-90.9090909090909,4,2,17,75,0,0
35812,-90.9090909090909,4,2,4,75,0,0
37146,-90.9090909090909,4,2,18,75,0,0
37229,-90.9090909090909,4,2,4,75,0,0
37312,-90.9090909090909,4,2,8,75,0,0
37646,-90.9090909090909,4,2,9,75,0,0
37979,-90.9090909090909,4,2,10,75,0,0
38312,-90.9090909090909,4,2,11,75,0,0
38479,-90.9090909090909,4,2,8,75,0,0
38812,-90.9090909090909,4,2,9,75,0,0
39312,-90.9090909090909,4,2,10,75,0,0
39812,-90.9090909090909,4,2,1,75,0,0
39979,-90.9090909090909,4,2,8,75,0,0
40312,-90.9090909090909,4,2,9,75,0,0
40646,-90.9090909090909,4,2,10,75,0,0
40979,-90.9090909090909,4,2,11,75,0,0
41146,-90.9090909090909,4,2,8,75,0,0
41646,-90.9090909090909,4,2,12,75,0,0
41812,-90.9090909090909,4,2,13,75,0,0
41979,-90.9090909090909,4,2,12,75,0,0
42312,-90.9090909090909,4,2,13,75,0,0
42479,-90.9090909090909,4,2,14,75,0,0
42562,-90.9090909090909,4,2,1,75,0,0
42646,-90.9090909090909,4,2,15,75,0,0
43312,-90.9090909090909,4,2,1,75,0,0
44146,-90.9090909090909,4,2,16,75,0,0
44646,-90.9090909090909,4,2,14,75,0,0
44812,-90.9090909090909,4,2,13,75,0,0
45146,-90.9090909090909,4,2,14,75,0,0
45229,-90.9090909090909,4,2,1,75,0,0
45312,-90.9090909090909,4,2,15,75,0,0
45979,-90.9090909090909,4,2,1,75,0,0
46312,-90.9090909090909,4,2,19,75,0,0
46479,-90.9090909090909,4,2,1,75,0,0
47312,-90.9090909090909,4,2,20,75,0,0
47479,-90.9090909090909,4,2,4,75,0,0
47979,-100,4,2,4,60,0,0
48646,-100,4,2,1,60,0,0
49312,-100,4,2,2,60,0,0
50479,-100,4,2,1,60,0,0
57312,-100,4,2,3,60,0,0
57479,-100,4,2,4,60,0,0
58312,-100,4,2,5,60,0,0
58479,-100,4,2,4,60,0,0
58646,-100,4,2,1,60,0,0
59979,-100,4,2,2,60,0,0
61146,-100,4,2,1,60,0,0
67646,-100,4,2,2,60,0,0
67979,-100,4,2,4,60,0,0
68312,-100,4,2,5,60,0,0
68479,-100,4,2,4,60,0,0
68646,-100,4,2,21,60,0,0
68812,-100,4,2,4,60,0,0
69146,-100,4,2,7,60,0,0
69229,-100,4,2,4,60,0,0
69312,-133.333333333333,4,2,8,40,0,0
69646,-133.333333333333,4,2,9,40,0,0
69979,-133.333333333333,4,2,10,40,0,0
70312,-133.333333333333,4,2,11,40,0,0
70479,-133.333333333333,4,2,8,40,0,0
70812,-133.333333333333,4,2,9,40,0,0
71312,-133.333333333333,4,2,10,40,0,0
71979,-133.333333333333,4,2,8,40,0,0
72312,-133.333333333333,4,2,9,40,0,0
72646,-133.333333333333,4,2,10,40,0,0
72979,-133.333333333333,4,2,11,40,0,0
73146,-133.333333333333,4,2,8,40,0,0
73479,-133.333333333333,4,2,12,40,0,0
73812,-133.333333333333,4,2,13,40,0,0
73979,-133.333333333333,4,2,12,40,0,0
74312,-133.333333333333,4,2,13,40,0,0
74479,-133.333333333333,4,2,14,40,0,0
74562,-133.333333333333,4,2,1,40,0,0
74646,-133.333333333333,4,2,15,40,0,0
76146,-133.333333333333,4,2,16,40,0,0
76646,-133.333333333333,4,2,14,40,0,0
76812,-133.333333333333,4,2,13,40,0,0
77146,-133.333333333333,4,2,14,40,0,0
77229,-133.333333333333,4,2,1,40,0,0
77312,-133.333333333333,4,2,15,40,0,0
79812,-133.333333333333,4,2,11,40,0,0
79979,-133.333333333333,4,2,22,40,0,0
80312,-133.333333333333,4,2,9,40,0,0
80646,-133.333333333333,4,2,10,40,0,0
80979,-133.333333333333,4,2,11,40,0,0
81146,-133.333333333333,4,2,8,40,0,0
81479,-133.333333333333,4,2,9,40,0,0
81979,-133.333333333333,4,2,10,40,0,0
82646,-133.333333333333,4,2,8,40,0,0
82979,-133.333333333333,4,2,9,40,0,0
83312,-133.333333333333,4,2,10,40,0,0
83646,-133.333333333333,4,2,11,40,0,0
83812,-133.333333333333,4,2,8,40,0,0
84146,-133.333333333333,4,2,1,40,0,0
84312,-133.333333333333,4,2,12,40,0,0
84479,-133.333333333333,4,2,13,40,0,0
84646,-133.333333333333,4,2,12,40,0,0
84979,-133.333333333333,4,2,13,40,0,0
85146,-133.333333333333,4,2,14,40,0,0
85229,-133.333333333333,4,2,1,40,0,0
85312,-133.333333333333,4,2,15,40,0,0
86812,-133.333333333333,4,2,16,40,0,0
87312,-133.333333333333,4,2,14,40,0,0
87479,-133.333333333333,4,2,13,40,0,0
87812,-133.333333333333,4,2,14,40,0,0
87896,-133.333333333333,4,2,1,40,0,0
87979,-133.333333333333,4,2,15,40,0,0
89312,-133.333333333333,4,2,4,40,0,0
89479,-133.333333333333,4,2,23,40,0,0
89646,-133.333333333333,4,2,3,40,0,0
89812,-133.333333333333,4,2,4,40,0,0
90646,-90.9090909090909,4,2,2,70,0,0
91312,-90.9090909090909,4,2,1,70,0,0
98646,-90.9090909090909,4,2,5,70,0,0
98812,-90.9090909090909,4,2,4,70,0,0
100646,-90.9090909090909,4,2,5,70,0,0
100812,-90.9090909090909,4,2,4,70,0,0
100979,-90.9090909090909,4,2,5,70,0,0
101312,-90.9090909090909,4,2,1,75,0,0
101646,-90.9090909090909,4,2,2,75,0,0
105646,-90.9090909090909,4,2,1,75,0,0
106146,-90.9090909090909,4,2,2,75,0,0
107812,-90.9090909090909,4,2,1,75,0,0
107979,-90.9090909090909,4,2,2,75,0,0
108312,-90.9090909090909,4,2,1,75,0,0
108812,-90.9090909090909,4,2,2,75,0,0
111979,-90.9090909090909,4,2,24,75,0,0
112229,-90.9090909090909,4,2,2,75,0,0
115479,-90.9090909090909,4,2,1,75,0,0
115979,-90.9090909090909,4,2,2,75,0,0
116312,-90.9090909090909,4,2,1,75,0,0
116812,-90.9090909090909,4,2,2,75,0,0
119812,-90.9090909090909,4,2,1,75,0,0
119979,-90.9090909090909,4,2,2,75,0,0
121146,-90.9090909090909,4,2,1,75,0,0
121312,-90.9090909090909,4,2,2,75,0,0
121562,-90.9090909090909,4,2,1,75,0,0
121979,-90.9090909090909,4,2,25,75,0,0
122146,-90.9090909090909,4,2,1,75,0,0
122646,-90.9090909090909,4,2,30,80,0,0
123312,-90.9090909090909,4,2,30,75,0,0
123479,-90.9090909090909,4,2,2,75,0,0
124646,-90.9090909090909,4,2,4,75,0,0
126812,-90.9090909090909,4,2,1,70,0,0
127312,-90.9090909090909,4,2,5,70,0,0
127479,-90.9090909090909,4,2,4,70,0,0
127646,-90.9090909090909,4,2,5,70,0,0
127896,-90.9090909090909,4,2,4,70,0,0
130312,-90.9090909090909,4,2,5,70,0,0
130479,-90.9090909090909,4,2,4,70,0,0
132646,-90.9090909090909,4,2,20,70,0,0
133146,-90.9090909090909,4,2,11,70,0,0
133312,-111.111111111111,4,2,8,60,0,0
133646,-111.111111111111,4,2,9,60,0,0
133979,-111.111111111111,4,2,10,60,0,0
134312,-111.111111111111,4,2,11,60,0,0
134479,-111.111111111111,4,2,8,60,0,0
134812,-111.111111111111,4,2,9,60,0,0
135312,-111.111111111111,4,2,10,60,0,0
135979,-111.111111111111,4,2,8,60,0,0
136312,-111.111111111111,4,2,9,60,0,0
136646,-111.111111111111,4,2,10,60,0,0
136979,-111.111111111111,4,2,11,60,0,0
137146,-111.111111111111,4,2,8,60,0,0
137479,-111.111111111111,4,2,12,60,0,0
137812,-111.111111111111,4,2,13,60,0,0
137979,-111.111111111111,4,2,12,60,0,0
138312,-111.111111111111,4,2,13,60,0,0
138479,-111.111111111111,4,2,14,60,0,0
138562,-111.111111111111,4,2,1,60,0,0
138646,-111.111111111111,4,2,15,60,0,0
139312,-111.111111111111,4,2,1,60,0,0
140146,-111.111111111111,4,2,16,60,0,0
140646,-111.111111111111,4,2,14,60,0,0
140812,-111.111111111111,4,2,13,60,0,0
141146,-111.111111111111,4,2,14,60,0,0
141229,-111.111111111111,4,2,1,60,0,0
141312,-111.111111111111,4,2,15,60,0,0
141979,-111.111111111111,4,2,1,60,0,0
142312,-111.111111111111,4,2,26,60,0,0
142479,-111.111111111111,4,2,1,60,0,0
143812,-111.111111111111,4,2,10,60,0,0
143979,-111.111111111111,4,2,22,60,0,0
144312,-111.111111111111,4,2,9,60,0,0
144646,-111.111111111111,4,2,10,60,0,0
144979,-111.111111111111,4,2,11,60,0,0
145146,-111.111111111111,4,2,8,60,0,0
145479,-111.111111111111,4,2,9,60,0,0
145979,-111.111111111111,4,2,10,60,0,0
146479,-111.111111111111,4,2,1,60,0,0
146646,-111.111111111111,4,2,8,60,0,0
146979,-111.111111111111,4,2,9,60,0,0
147312,-111.111111111111,4,2,10,60,0,0
147646,-111.111111111111,4,2,11,60,0,0
147812,-111.111111111111,4,2,8,60,0,0
148312,-111.111111111111,4,2,12,60,0,0
148479,-111.111111111111,4,2,13,60,0,0
148646,-111.111111111111,4,2,12,60,0,0
148979,-111.111111111111,4,2,13,60,0,0
149146,-111.111111111111,4,2,14,60,0,0
149229,-111.111111111111,4,2,1,60,0,0
149312,-111.111111111111,4,2,15,60,0,0
149979,-111.111111111111,4,2,1,60,0,0
150812,-111.111111111111,4,2,16,60,0,0
151312,-111.111111111111,4,2,14,60,0,0
151479,-111.111111111111,4,2,13,60,0,0
151812,-111.111111111111,4,2,14,60,0,0
151896,-111.111111111111,4,2,1,60,0,0
151979,-111.111111111111,4,2,27,65,0,0
152146,-111.111111111111,4,2,4,65,0,0
152979,-111.111111111111,4,2,28,65,0,0
153146,-111.111111111111,4,2,4,65,0,0
154312,-111.111111111111,4,2,29,65,0,0
154479,-111.111111111111,4,2,4,65,0,0
154646,-100,4,2,2,65,0,0
156146,-100,4,2,1,65,0,0
156646,-100,4,2,2,65,0,0
156979,-100,4,2,1,65,0,0
157312,-100,4,2,2,65,0,0
159479,-100,4,2,1,65,0,0
159812,-100,4,2,2,65,0,0
159896,-100,4,2,1,65,0,0
162312,-100,4,2,2,65,0,0
162479,-100,4,2,1,65,0,0
163312,-100,4,2,2,65,0,0
163646,-100,4,2,1,65,0,0
164812,-100,4,2,30,65,0,0
164896,-100,4,2,2,65,0,0
164979,-100,4,2,30,65,0,0
165312,-100,4,2,31,70,0,0
165479,-100,4,2,30,70,0,0
165812,-100,4,2,32,70,0,0
165979,-100,4,2,31,70,0,0
166146,-100,4,2,30,70,0,0
166479,-100,4,2,32,70,0,0
166646,-100,4,2,30,70,0,0
166812,-100,4,2,31,70,0,0
167146,-100,4,2,33,70,0,0
167312,-100,4,2,34,70,0,0
167479,-100,4,2,35,70,0,0
167896,-100,4,2,1,70,0,0
167979,-100,4,2,30,70,0,0
168479,-100,4,2,32,70,0,0
168646,-100,4,2,30,70,0,0
168812,-100,4,2,32,70,0,0
168979,-100,4,2,36,70,0,0
169312,-100,4,2,37,70,0,0
169479,-100,4,2,32,70,0,0
169646,-100,4,2,31,70,0,0
169812,-100,4,2,33,70,0,0
169979,-100,4,2,1,70,0,0
170646,-100,4,2,30,70,0,0
171979,-100,4,2,37,70,0,0
172146,-100,4,2,33,70,0,0
172646,-100,4,2,1,70,0,0
172979,-100,4,2,35,70,0,0
173312,-100,4,2,37,70,0,0
173479,-100,4,2,33,70,0,0
173979,-100,4,2,1,70,0,0
174646,-100,4,2,37,70,0,0
174979,-100,4,2,31,70,0,0
175312,-100,4,2,38,70,0,0
175479,-100,4,2,30,70,0,0
175896,-100,4,2,1,70,0,0
186146,-100,4,2,30,70,0,0
186646,-100,4,2,39,55,0,0
186812,-100,4,2,30,55,0,0
187312,-100,4,2,31,55,0,0
187479,-100,4,2,30,55,0,0
188146,-100,4,2,31,55,0,0
188479,-100,4,2,33,55,0,0
188812,-100,4,2,35,55,0,0
189146,-100,4,2,1,55,0,0
189312,-90.9090909090909,4,2,30,80,0,1
189812,-90.9090909090909,4,2,32,80,0,1
189979,-90.9090909090909,4,2,30,80,0,1
190146,-90.9090909090909,4,2,32,80,0,1
190312,-90.9090909090909,4,2,36,80,0,1
190646,-90.9090909090909,4,2,37,80,0,1
190812,-90.9090909090909,4,2,32,80,0,1
190979,-90.9090909090909,4,2,31,80,0,1
191146,-90.9090909090909,4,2,33,80,0,1
191312,-90.9090909090909,4,2,1,80,0,1
191979,-90.9090909090909,4,2,30,80,0,1
193312,-90.9090909090909,4,2,37,80,0,1
193479,-90.9090909090909,4,2,33,80,0,1
193979,-90.9090909090909,4,2,1,80,0,1
194312,-90.9090909090909,4,2,35,80,0,1
194562,-90.9090909090909,4,2,1,80,0,1
194646,-90.9090909090909,4,2,40,80,0,1
194812,-90.9090909090909,4,2,31,80,0,1
195312,-90.9090909090909,4,2,30,80,0,1
195979,-90.9090909090909,4,2,37,80,0,1
196312,-90.9090909090909,4,2,33,80,0,1
196646,-90.9090909090909,4,2,20,80,0,1
196979,-90.9090909090909,4,2,2,80,0,1
197146,-90.9090909090909,4,2,31,80,0,1
197229,-90.9090909090909,4,2,36,80,0,1
197312,-90.9090909090909,4,2,41,75,0,1
197812,-90.9090909090909,4,2,1,75,0,1
199646,-90.9090909090909,4,2,30,75,0,1
199896,-90.9090909090909,4,2,2,75,0,1
199979,-90.9090909090909,4,2,37,75,0,1
200312,-90.9090909090909,4,2,33,75,0,1
200646,-90.9090909090909,4,2,1,75,0,1
200979,-90.9090909090909,4,2,42,75,0,1
201146,-90.9090909090909,4,2,1,75,0,1
201479,-90.9090909090909,4,2,1,65,0,1
202312,-90.9090909090909,4,2,36,65,0,1
202562,-90.9090909090909,4,2,1,65,0,1
202646,-90.9090909090909,4,2,37,65,0,1
202979,-90.9090909090909,4,2,31,65,0,1
203312,-90.9090909090909,4,2,1,65,0,1
203646,-90.9090909090909,4,2,42,65,0,1
203812,-90.9090909090909,4,2,1,65,0,1
204979,-90.9090909090909,4,2,36,65,0,1
205229,-90.9090909090909,4,2,1,65,0,1
205312,-90.9090909090909,4,2,40,60,0,1
205479,-90.9090909090909,4,2,4,60,0,1
205646,-90.9090909090909,4,2,43,60,0,1
205979,-90.9090909090909,4,2,4,60,0,1
206312,-90.9090909090909,4,2,44,60,0,1
206479,-90.9090909090909,4,2,23,60,0,1
207146,-90.9090909090909,4,2,4,60,0,1
207896,-90.9090909090909,4,2,4,60,0,0
207979,-86.9565217391304,4,2,30,75,0,1
208979,-86.9565217391304,4,2,2,75,0,1
209979,-86.9565217391304,4,2,1,75,0,1
210312,-86.9565217391304,4,2,2,75,0,1
211312,-86.9565217391304,4,2,1,75,0,1
219646,-86.9565217391304,4,2,2,75,0,1
220646,-86.9565217391304,4,2,1,75,0,1
220979,-86.9565217391304,4,2,2,75,0,1
221979,-86.9565217391304,4,2,1,75,0,1
228646,-86.9565217391304,4,2,45,75,0,1
228812,-86.9565217391304,4,2,1,75,0,1
229312,-90.9090909090909,4,2,2,50,0,0
229979,-90.9090909090909,4,2,1,50,0,0
231979,-95.2380952380952,4,2,1,50,0,0
234646,-100,4,2,1,50,0,0
237312,-105.263157894737,4,2,1,50,0,0
239979,-105.263157894737,4,2,2,50,0,0
250646,-105.263157894737,4,2,99,5,0,0

[Colours]
Combo1 : 96,148,73
Combo2 : 190,190,190
Combo3 : 151,196,138
Combo4 : 134,134,134

[HitObjects]
48,48,5312,6,0,L|107:58,1,60,2|2,2:2|2:2,0:0:0:0:
170,105,5646,2,0,L|229:94,1,60,0|0,0:0|0:0,0:0:0:0:
292,48,5979,2,0,P|355:61|376:164,1,180,2|0,1:2|0:0,0:0:0:0:
304,192,6646,2,0,B|254:182|204:210|232:213|185:241|133:230,1,180,2|0,2:2|0:0,0:0:0:0:
67,187,7312,2,0,P|55:214|57:243,1,60,0|0,1:1|0:0,0:0:0:0:
100,309,7646,2,0,P|117:333|144:346,1,60,0|2,0:0|2:2,0:0:0:0:
221,324,7979,6,0,P|308:303|397:292,1,180,2|0,2:2|0:0,0:0:0:0:
461,338,8646,2,0,P|475:282|446:232,1,120,0|2,1:1|2:2,0:0:0:0:
377,192,9146,1,2,2:2:0:0:
377,192,9312,2,0,P|362:135|392:84,1,120,2|0,2:2|0:0,0:0:0:0:
432,18,9812,2,0,P|404:5|375:8,1,60,2|0,2:2|1:1,0:0:0:0:
314,57,10146,2,0,B|280:63|247:45|266:43|234:24|200:31,1,120,2|2,2:2|2:2,0:0:0:0:
150,92,10646,6,0,P|171:179|182:268,1,180,2|0,2:2|0:0,0:0:0:0:
244,314,11312,2,0,P|296:290|303:234,1,120,0|2,1:1|2:2,0:0:0:0:
152,192,11979,2,0,P|92:198|33:211,1,120,2|2,2:2|2:2,0:0:0:0:
60,57,12646,2,0,P|118:69|178:76,1,120,2|2,1:2|2:2,0:0:0:0:
333,76,13312,6,0,P|393:69|452:57,1,120,2|2,2:2|2:2,0:0:0:0:
478,211,13979,2,0,P|419:198|360:192,1,120,2|2,1:2|2:2,0:0:0:0:
256,309,14646,1,2,2:2:0:0:
256,309,14812,2,0,P|226:315|197:319,1,60,2|2,2:2|2:2,0:0:0:0:
131,362,15146,2,0,P|118:304|151:256,1,120,2|2,2:2|2:2,0:0:0:0:
215,211,15646,1,2,2:2:0:0:
256,60,15979,6,0,P|229:48|200:50,1,60,2|0,2:2|0:0,0:0:0:0:
124,25,16312,2,0,P|97:37|68:35,1,60,0|0,0:0|0:0,0:0:0:0:
9,88,16646,2,0,P|14:172|93:202,1,180,2|0,1:2|0:0,0:0:0:0:
153,153,17312,2,0,B|203:143|253:171|225:174|272:202|324:191,1,180,2|0,2:2|0:0,0:0:0:0:
391,151,17979,2,0,P|403:178|401:207,1,60,0|0,1:1|0:0,0:0:0:0:
348,266,18312,2,0,P|336:293|338:322,1,60,0|2,0:0|2:2,0:0:0:0:
397,374,18646,6,0,P|315:336|228:311,1,180,2|0,2:2|0:0,0:0:0:0:
166,358,19312,2,0,P|152:302|181:252,1,120,0|2,1:1|2:2,0:0:0:0:
202,96,19979,2,0,P|120:133|33:158,2,180,2|2|2,2:2|2:2|2:2,0:0:0:0:
346,38,21312,6,0,P|409:51|430:154,1,180,2|0,2:2|0:0,0:0:0:0:
363,192,21979,2,0,P|378:249|384:309,1,120,0|0,1:1|0:0,0:0:0:0:
230,338,22646,2,0,P|173:351|123:321,1,120,2|2,2:2|2:2,0:0:0:0:
53,182,23312,2,0,P|103:151|159:165,1,120,2|2,1:2|2:2,0:0:0:0:
299,236,23979,6,0,P|349:266|405:252,1,120,2|2,2:2|2:2,0:0:0:0:
479,114,24646,2,0,P|422:100|372:130,1,120,2|0,1:2|0:0,0:0:0:0:
256,234,25312,1,2,2:2:0:0:
190,192,25479,2,0,P|160:196|130:202,1,60,2|2,2:2|2:2,0:0:0:0:
65,245,25812,2,0,P|52:187|85:139,1,120,2|2,2:2|2:2,0:0:0:0:
148,92,26312,1,2,2:2:0:0:
148,92,26479,1,2,2:2:0:0:
230,115,26646,6,0,B|267:122|302:101|281:99|317:80|354:86,1,132.00000402832,6|2,3:2|3:2,0:0:0:0:
489,192,27312,2,0,P|472:255|462:321,1,132.00000402832,10|2,1:2|2:2,0:0:0:0:
388,364,27812,2,0,P|341:319|277:322,1,132.00000402832,2|2,3:2|3:2,0:0:0:0:
109,335,28479,1,2,2:2:0:0:
109,335,28646,2,0,P|106:302|119:272,1,66.0000020141602,10|0,1:2|0:0,0:0:0:0:
178,210,28979,2,0,P|180:177|167:147,1,66.0000020141602,2|0,2:2|0:0,0:0:0:0:
100,93,29312,6,0,B|126:60|170:60|170:60|191:76|218:78,1,132.00000402832,2|2,3:2|2:2,0:0:0:0:
387,49,29979,2,0,P|370:112|360:178,1,132.00000402832,10|2,1:2|2:2,0:0:0:0:
323,255,30479,2,0,P|369:210|433:213,1,132.00000402832,2|2,3:2|3:2,0:0:0:0:
503,263,30979,2,0,P|496:295|492:328,1,66.0000020141602,2|2,3:2|2:2,0:0:0:0:
403,300,31312,1,10,1:2:0:0:
403,300,31479,2,0,P|409:332|413:365,2,66.0000020141602,2|2|6,2:2|2:2|2:2,0:0:0:0:
323,255,31979,6,0,B|286:248|251:269|272:271|236:290|199:284,1,132.00000402832,2|0,3:2|0:0,0:0:0:0:
44,360,32646,2,0,P|34:294|17:231,1,132.00000402832,8|0,1:2|0:0,0:0:0:0:
4,145,33146,2,0,P|50:100|114:103,1,132.00000402832,0|2,3:3|3:2,0:0:0:0:
187,148,33646,2,0,P|191:115|199:83,1,66.0000020141602,2|2,3:2|2:2,0:0:0:0:
279,51,33979,1,10,1:2:0:0:
279,51,34146,2,0,P|342:67|408:76,1,132.00000402832,2|2,2:2|2:2,0:0:0:0:
473,132,34646,6,0,B|480:169|459:204|457:183|438:219|444:256,1,132.00000402832,2|2,3:2|2:2,0:0:0:0:
290,333,35312,2,0,P|226:315|161:306,1,132.00000402832,8|2,1:2|2:2,0:0:0:0:
81,338,35812,2,0,P|82:273|128:227,1,132.00000402832,0|0,3:3|3:3,0:0:0:0:
184,163,36312,2,0,P|157:144|124:140,1,66.0000020141602,0|2,3:3|2:2,0:0:0:0:
69,73,36646,2,0,P|101:69|128:50,1,66.0000020141602,8|2,1:2|2:2,0:0:0:0:
206,15,36979,2,0,P|238:18|265:37,1,66.0000020141602,2|2,2:2|2:2,0:0:0:0:
258,123,37312,6,0,B|295:130|330:109|309:107|345:88|382:94,1,132.00000402832,6|2,3:2|3:2,0:0:0:0:
489,229,37979,2,0,P|443:184|379:186,1,132.00000402832,10|2,1:2|2:2,0:0:0:0:
323,253,38479,2,0,P|340:316|349:381,1,132.00000402832,2|2,3:2|3:2,0:0:0:0:
187,339,39146,1,2,2:2:0:0:
187,339,39312,2,0,P|154:332|121:328,1,66.0000020141602,10|0,1:2|0:0,0:0:0:0:
72,258,39646,2,0,P|78:225|82:192,1,66.0000020141602,2|2,2:2|2:2,0:0:0:0:
153,143,39979,6,0,P|217:155|283:164,1,132.00000402832,2|2,3:2|2:2,0:0:0:0:
430,74,40646,2,0,P|385:120|387:184,1,132.00000402832,10|2,1:2|2:2,0:0:0:0:
465,218,41146,2,0,P|401:216|355:261,1,132.00000402832,2|0,3:2|3:3,0:0:0:0:
303,329,41646,2,0,P|270:322|237:318,1,66.0000020141602,2|2,3:2|2:2,0:0:0:0:
166,279,41979,1,10,1:2:0:0:
166,279,42146,2,0,P|133:286|100:290,2,66.0000020141602,2|2|6,2:2|2:2|2:2,0:0:0:0:
128,201,42646,6,0,B|114:160|93:130|93:130|107:104|135:95,1,132.00000402832,2|0,3:2|0:0,0:0:0:0:
303,79,43312,2,0,P|367:80|413:35,1,132.00000402832,8|0,1:2|0:0,0:0:0:0:
475,94,43812,2,0,P|462:158|453:224,1,132.00000402832,0|2,3:3|3:2,0:0:0:0:
421,304,44312,2,0,P|393:286|358:281,1,66.0000020141602,2|2,3:2|2:2,0:0:0:0:
287,245,44646,1,10,1:2:0:0:
287,245,44812,2,0,P|236:288|169:291,1,132.00000402832,2|2,2:2|2:2,0:0:0:0:
92,245,45312,6,0,B|85:208|106:173|108:194|127:158|121:121,1,132.00000402832,2|0,3:2|0:0,0:0:0:0:
282,62,45978,2,0,P|328:107|392:107,1,132.00000402832,8|2,1:2|2:2,0:0:0:0:
460,54,46478,2,0,P|442:117|433:182,1,132.00000402832,0|0,3:3|3:3,0:0:0:0:
370,242,46979,2,0,P|389:269|393:302,1,66.0000020141602,0|0,3:3|0:0,0:0:0:0:
307,298,47312,2,0,P|293:327|266:347,1,66.0000020141602,10|2,1:2|2:2,0:0:0:0:
228,272,47646,2,0,P|195:274|164:261,1,66.0000020141602,2|2,2:2|2:2,0:0:0:0:
118,189,47979,6,0,L|128:130,1,60,0|0,3:3|0:0,0:0:0:0:
196,75,48312,2,0,L|206:134,1,60,0|0,0:0|0:0,0:0:0:0:
269,180,48646,2,0,P|332:167|353:64,1,180,2|0,1:2|3:3,0:0:0:0:
282,35,49312,2,0,B|332:25|382:53|354:56|401:84|453:73,1,180,2|0,2:2|0:0,0:0:0:0:
488,142,49979,2,0,P|490:171|478:198,1,60,0|0,1:1|0:0,0:0:0:0:
481,276,50312,2,0,P|456:292|427:295,1,60,0|2,0:0|2:2,0:0:0:0:
360,337,50646,6,0,P|277:301|191:274,1,180,2|0,3:2|0:0,0:0:0:0:
128,320,51312,2,0,P|114:264|143:214,1,120,0|2,1:1|2:2,0:0:0:0:
256,104,51979,2,0,P|169:79|87:42,2,180,2|2|0,2:2|2:2|0:0,0:0:0:0:
407,68,53312,6,0,P|486:97|491:182,1,180,2|0,3:2|0:0,0:0:0:0:
425,223,53979,2,0,P|387:269|359:322,1,120,0|0,1:1|0:0,0:0:0:0:
203,333,54646,2,0,P|146:346|96:316,1,120,2|2,2:2|3:2,0:0:0:0:
40,169,55312,2,0,P|90:138|147:151,1,120,2|2,1:2|2:2,0:0:0:0:
274,241,55979,6,0,P|304:191|291:134,1,120,2|2,3:2|2:2,0:0:0:0:
163,43,56646,2,0,P|133:93|146:150,1,120,2|2,1:2|2:2,0:0:0:0:
274,241,57312,1,2,2:2:0:0:
274,241,57479,2,0,P|280:271|284:300,1,60,2|2,3:2|3:2,0:0:0:0:
219,344,57812,2,0,P|161:357|113:324,1,120,2|2,2:2|2:2,0:0:0:0:
93,249,58312,2,0,P|106:222|103:193,1,60,2|2,2:2|2:2,0:0:0:0:
61,126,58646,6,0,P|90:121|120:115,1,60,2|0,3:2|0:0,0:0:0:0:
184,70,58979,2,0,P|213:74|243:80,1,60,0|0,0:0|0:0,0:0:0:0:
301,132,59312,2,0,P|361:67|448:58,1,180,2|0,1:2|3:3,0:0:0:0:
431,135,59979,2,0,B|389:133|371:170|371:170|416:204|418:260,1,180,2|0,2:2|0:0,0:0:0:0:
363,318,60646,2,0,P|333:311|304:308,1,60,0|0,1:1|0:0,0:0:0:0:
234,273,60979,2,0,P|204:280|175:283,1,60,0|2,0:0|2:2,0:0:0:0:
124,342,61312,6,0,B|114:292|142:242|145:270|173:223|162:171,1,180,2|0,3:2|0:0,0:0:0:0:
117,107,61979,2,0,P|173:93|223:122,1,120,0|2,1:1|2:2,0:0:0:0:
263,191,62479,1,2,3:2:0:0:
263,191,62646,2,0,P|345:154|431:129,2,180,2|2|2,2:2|2:2|2:2,0:0:0:0:
155,301,63979,5,2,3:2:0:0:
99,157,64312,2,0,P|80:148|41:137,1,60
101,73,64646,2,0,P|159:72|205:109,1,120,0|0,1:1|0:0,0:0:0:0:
339,190,65312,2,0,P|399:184|458:171,1,120,2|2,2:2|3:2,0:0:0:0:
452,327,65979,2,0,P|394:315|334:308,1,120,2|2,1:2|2:2,0:0:0:0:
179,308,66645,6,0,P|119:315|60:327,1,120,2|2,3:2|2:2,0:0:0:0:
34,173,67312,2,0,P|42:144|53:116,1,60,2|0,1:2|0:0,0:0:0:0:
103,55,67646,2,0,P|154:84|212:78,1,120,2|2,2:2|2:2,0:0:0:0:
363,40,68312,2,0,B|279:52|217:124|262:113|205:184|117:196,1,300,2|2,3:2|2:2,0:0:0:0:
117,196,69312,1,6,2:2:0:0:
117,196,79979,6,0,L|205:211,1,90.0000034332277,6|2,3:2|2:2,0:0:0:0:
338,286,80646,2,0,L|426:270,1,90.0000034332277,2|2,2:2|2:2,0:0:0:0:
477,215,81146,2,0,P|500:253|498:298,2,90.0000034332277,2|2|2,3:2|3:2|2:2,0:0:0:0:
423,161,81979,2,0,L|438:72,1,90.0000034332277,2|2,2:2|2:2,0:0:0:0:
289,33,82646,6,0,P|244:30|206:53,1,90.0000034332277,2|2,3:2|2:2,0:0:0:0:
133,187,83312,2,0,P|171:209|215:207,1,90.0000034332277,2|2,2:2|2:2,0:0:0:0:
283,172,83812,2,0,L|267:260,1,90.0000034332277,2|2,3:2|3:2,0:0:0:0:
211,312,84312,2,0,L|218:356,1,45.0000017166138,2|2,3:2|2:2,0:0:0:0:
141,278,84646,1,2,2:2:0:0:
141,278,84812,2,0,L|133:322,2,45.0000017166138,2|2|2,2:2|2:2|2:2,0:0:0:0:
198,227,85312,1,10,3:2:0:0:
256,192,85396,12,10,87979,3:2:0:0:
256,192,88062,12,2,90312,2:2:0:0:
256,192,90646,6,0,P|288:185|321:181,1,66.0000020141602,6|0,3:2|0:0,0:0:0:0:
387,126,90979,2,0,P|419:133|452:137,1,66.0000020141602,0|0,0:0|0:0,0:0:0:0:
504,204,91312,2,0,P|495:266|436:286,1,132.00000402832,2|0,1:2|0:0,0:0:0:0:
351,269,91812,2,0,B|314:261|277:282|298:284|263:305|225:296,1,132.00000402832,2|2,3:2|3:2,0:0:0:0:
159,242,92312,2,0,P|129:230|95:230,1,66.0000020141602,2|0,3:2|0:0,0:0:0:0:
31,288,92646,1,2,1:2:0:0:
31,288,92812,2,0,P|44:223|52:157,1,132.00000402832,0|2,0:0|2:2,0:0:0:0:
34,73,93312,6,0,P|66:71|96:84,1,66.0000020141602,2|0,3:2|0:0,0:0:0:0:
169,130,93646,2,0,P|201:131|231:118,1,66.0000020141602,0|0,0:0|0:0,0:0:0:0:
298,65,93978,2,0,P|359:88|424:98,1,132.00000402832,0|0,1:1|0:0,0:0:0:0:
510,85,94479,2,0,B|518:122|497:159|495:138|474:173|483:211,1,132.00000402832,0|0,3:3|3:3,0:0:0:0:
500,293,94979,2,0,P|467:292|436:280,1,66.0000020141602,0|0,3:3|0:0,0:0:0:0:
378,224,95312,1,2,1:2:0:0:
378,224,95479,2,0,P|318:252|255:271,1,132.00000402832,0|2,0:0|2:2,0:0:0:0:
171,291,95979,6,0,P|170:258|181:226,1,66.0000020141602,2|0,3:2|0:0,0:0:0:0:
182,141,96312,2,0,P|149:147|122:165,1,66.0000020141602,0|0,0:0|0:0,0:0:0:0:
83,242,96646,2,0,P|72:176|49:115,1,132.00000402832,0|0,1:1|0:0,0:0:0:0:
63,30,97146,2,0,P|126:19|174:61,1,132.00000402832,0|0,3:3|3:3,0:0:0:0:
253,92,97646,2,0,P|285:91|316:79,1,66.0000020141602,0|0,3:3|0:0,0:0:0:0:
384,25,97980,1,2,1:2:0:0:
384,25,98146,2,0,P|371:90|363:156,1,132.00000402832,0|2,0:0|2:2,0:0:0:0:
363,236,98646,5,2,3:2:0:0:
293,199,98812,1,2,2:2:0:0:
223,160,98979,2,0,P|190:163|163:182,1,66.0000020141602,2|2,2:2|2:2,0:0:0:0:
121,249,99312,2,0,B|129:212|108:175|106:196|85:161|94:123,1,132.00000402832,2|2,1:2|2:2,0:0:0:0:
164,89,99812,2,0,P|115:46|52:57,1,132.00000402832,2|2,3:2|3:2,0:0:0:0:
13,127,100312,2,0,P|9:159|2:191,1,66.0000020141602,2|2,3:2|2:2,0:0:0:0:
42,262,100646,2,0,P|45:294|52:326,1,66.0000020141602,2|2,1:2|2:2,0:0:0:0:
130,352,100979,1,2,2:2:0:0:
188,297,101146,1,2,2:2:0:0:
265,322,101312,6,0,B|293:331|293:331|360:308,1,99.0000030212403,4|0,3:2|0:0,0:0:0:0:
385,312,101646,2,0,L|400:247,1,66.0000020141602,2|0,2:2|0:0,0:0:0:0:
417,173,101979,1,2,1:2:0:0:
417,173,102146,2,0,L|401:108,1,66.0000020141602,2|2,2:2|2:2,0:0:0:0:
333,57,102479,2,0,B|296:49|259:70|280:72|246:92|207:84,1,132.00000402832,2|2,3:2|3:2,0:0:0:0:
128,50,102979,2,0,B|125:75|108:92|108:92|138:123|137:168,1,132.00000402832,0|2,3:3|1:2,0:0:0:0:
90,241,103479,2,0,P|118:257|150:256,1,66.0000020141602
218,201,103812,1,0,0:0:0:0:
217,201,103979,6,0,P|265:193|304:222,1,99.0000030212403,0|0,3:3|0:0,0:0:0:0:
317,239,104312,2,0,P|347:250|379:245,1,66.0000020141602,0|0,0:0|0:0,0:0:0:0:
436,180,104646,1,0,1:1:0:0:
436,180,104812,2,0,L|501:196,2,66.0000020141602,0|0|0,0:0|0:0|3:3,0:0:0:0:
352,160,105312,2,0,P|344:94|331:29,1,132.00000402832,2|2,2:2|3:2,0:0:0:0:
159,41,105979,2,0,P|126:35|96:46,1,66.0000020141602,2|2,1:2|2:2,0:0:0:0:
77,130,106312,2,0,P|56:155|50:187,1,66.0000020141602,2|0,2:2|0:0,0:0:0:0:
38,272,106646,6,0,B|75:280|112:259|91:257|125:237|164:245,1,132.00000402832,4|0,3:2|0:0,0:0:0:0:
235,300,107146,1,0,0:0:0:0:
235,300,107312,2,0,P|267:299|295:283,1,66.0000020141602,0|0,1:1|0:0,0:0:0:0:
371,240,107646,2,0,P|403:240|431:256,1,66.0000020141602,0|2,0:0|3:2,0:0:0:0:
489,320,107979,2,0,P|476:255|468:189,1,132.00000402832,2|2,2:2|3:2,0:0:0:0:
366,51,108646,2,0,P|333:44|303:55,1,66.0000020141602,2|2,1:2|2:2,0:0:0:0:
230,102,108979,2,0,P|197:108|167:97,1,66.0000020141602,2|0,2:2|0:0,0:0:0:0:
97,47,109312,6,0,P|46:55|25:149,1,132.00000402832,4|0,3:2|0:0,0:0:0:0:
80,286,109979,1,0,1:1:0:0:
80,286,110146,2,0,P|112:290|144:297,1,66.0000020141602,0|0,0:0|0:0,0:0:0:0:
216,344,110479,2,0,P|280:329|345:319,1,132.00000402832,0|0,3:3|3:3,0:0:0:0:
426,348,110979,2,0,P|433:315|422:285,1,66.0000020141602,0|2,3:3|2:2,0:0:0:0:
368,218,111312,6,0,B|359:190|359:190|382:123,1,99.0000030212403,2|2,1:2|2:2,0:0:0:0:
378,98,111646,2,0,L|313:83,1,66.0000020141602,0|2,0:0|2:2,0:0:0:0:
229,98,111979,2,0,B|201:89|201:89|134:112,1,99.0000030212403,6|2,3:2|2:2,0:0:0:0:
109,108,112312,2,0,L|94:173,1,66.0000020141602,0|2,0:0|2:2,0:0:0:0:
102,258,112646,6,0,P|166:260|216:302,1,132.00000402832,2|0,1:2|0:0,0:0:0:0:
289,347,113146,1,0,3:3:0:0:
361,301,113312,1,0,0:0:0:0:
312,229,113479,2,0,L|341:100,1,132.00000402832,2|2,3:2|2:2,0:0:0:0:
264,62,113979,2,0,P|215:55|170:75,1,99.0000030212403,2|2,1:2|2:2,0:0:0:0:
144,72,114312,2,0,L|159:137,1,66.0000020141602,0|2,0:0|2:2,0:0:0:0:
232,180,114646,6,0,L|203:304,1,99.0000030212403,2|2,3:2|2:2,0:0:0:0:
97,339,115146,2,0,B|134:331|171:352|150:354|185:372|223:366,1,132.00000402832,2|2,2:2|2:2,0:0:0:0:
286,308,115646,2,0,L|350:293,1,66.0000020141602,2|0,2:2|3:3,0:0:0:0:
421,340,115979,2,0,P|435:293|419:247,1,99.0000030212403,2|0,2:2|0:0,0:0:0:0:
405,228,116312,2,0,P|393:197|398:164,1,66.0000020141602,2|2,3:2|2:2,0:0:0:0:
450,96,116646,1,2,1:2:0:0:
450,96,116812,1,2,2:2:0:0:
385,39,116979,2,0,L|320:53,1,66.0000020141602,2|0,2:2|0:0,0:0:0:0:
256,110,117312,6,0,P|198:72|133:77,1,132.00000402832,4|0,3:2|0:0,0:0:0:0:
78,137,117812,2,0,L|107:266,1,132.00000402832,0|0,0:0|0:0,0:0:0:0:
177,315,118312,2,0,L|191:250,1,66.0000020141602,0|2,0:0|3:2,0:0:0:0:
270,215,118646,2,0,B|307:207|344:228|323:230|358:248|396:242,1,132.00000402832,2|2,2:2|3:2,0:0:0:0:
466,290,119146,2,0,P|429:236|431:171,1,132.00000402832,2|0,2:2|0:0,0:0:0:0:
483,102,119646,2,0,P|494:71|489:38,1,66.0000020141602,2|2,2:2|2:2,0:0:0:0:
405,58,119979,5,4,3:2:0:0:
234,43,120312,2,0,L|169:57,1,66.0000020141602,2|0,2:2|0:0,0:0:0:0:
84,42,120646,1,0,1:1:0:0:
41,116,120812,2,0,P|77:169|75:234,1,132.00000402832,2|2,2:2|3:2,0:0:0:0:
32,310,121312,1,2,2:2:0:0:
32,310,121479,2,0,P|85:273|150:275,1,132.00000402832,0|0,3:3|0:0,0:0:0:0:
212,335,121979,2,0,B|239:253|281:194|281:194|259:139|198:124,1,264.000008056641,2|4,1:2|3:2,0:0:0:0:
256,192,122729,12,2,124979,2:2:0:0:
256,192,125312,6,0,P|288:196|320:204,1,66.0000020141602,2|0,3:2|0:0,0:0:0:0:
389,256,125646,2,0,P|420:247|453:243,1,66.0000020141602,0|0,0:0|0:0,0:0:0:0:
501,172,125979,2,0,P|482:111|420:99,1,132.00000402832,8|2,1:2|2:2,0:0:0:0:
336,80,126479,2,0,B|298:74|263:92|284:94|247:115|210:107,1,132.00000402832,2|2,3:2|3:2,0:0:0:0:
137,60,126979,2,0,P|106:47|74:52,1,66.0000020141602,2|0,3:2|0:0,0:0:0:0:
24,122,127312,2,0,P|34:170|40:219,1,99.0000030212403,10|0,1:2|0:0,0:0:0:0:
56,236,127646,2,0,P|47:267|43:300,1,66.0000020141602,2|2,2:2|2:2,0:0:0:0:
115,348,127979,6,0,P|143:361|179:360,1,66.0000020141602,2|0,3:2|0:0,0:0:0:0:
233,296,128312,2,0,P|261:283|297:283,1,66.0000020141602,0|0,0:0|0:0,0:0:0:0:
357,343,128646,2,0,P|338:282|324:197,1,132.00000402832,8|2,1:2|2:2,0:0:0:0:
377,146,129146,2,0,P|365:83|286:76,1,132.00000402832,2|0,3:2|3:3,0:0:0:0:
225,96,129646,2,0,P|193:87|160:83,1,66.0000020141602,0|0,3:3|0:0,0:0:0:0:
87,48,129979,1,10,1:2:0:0:
87,48,130146,1,2,2:2:0:0:
54,127,130312,2,0,P|48:159|61:189,1,66.0000020141602,2|2,2:2|2:2,0:0:0:0:
139,226,130646,6,0,B|101:220|66:238|87:240|50:261|13:253,1,132.00000402832,0|0,3:3|0:0,0:0:0:0:
160,340,131312,2,0,P|202:293|263:308,1,132.00000402832,8|0,1:2|0:0,0:0:0:0:
339,349,131812,2,0,P|350:284|370:221,1,132.00000402832,0|0,3:3|3:3,0:0:0:0:
440,170,132312,2,0,P|431:138|427:105,1,66.0000020141602,0|0,3:3|0:0,0:0:0:0:
361,49,132646,1,10,1:2:0:0:
361,49,132812,1,0,0:0:0:0:
285,90,132979,2,0,P|252:84|222:97,1,66.0000020141602,0|2,0:0|2:2,0:0:0:0:
161,157,133312,6,0,P|177:202|188:273,1,107.999996704102,6|2,3:2|2:2,0:0:0:0:
15,356,133979,2,0,P|15:308|33:233,1,107.999996704102,10|2,2:2|2:2,0:0:0:0:
17,169,134479,2,0,P|55:217|114:215,1,107.999996704102,2|2,3:2|3:2,0:0:0:0:
243,146,135146,1,2,2:2:0:0:
243,146,135312,2,0,P|276:153|312:168,1,53.9999983520508,10|0,2:2|0:0,0:0:0:0:
331,232,135646,2,0,P|364:225|400:210,1,53.9999983520508,2|0,2:2|0:0,0:0:0:0:
417,292,135979,6,0,B|423:237|423:237|426:235|426:235|432:182,1,107.999996704102,2|2,3:2|2:2,0:0:0:0:
490,34,136646,2,0,P|448:55|383:75,1,107.999996704102,10|2,2:2|2:2,0:0:0:0:
316,42,137146,2,0,P|297:19|257:16,1,53.9999983520508,2|0,3:2|0:0,0:0:0:0:
210,69,137479,5,2,3:2:0:0:
210,69,137646,2,0,L|222:127,1,53.9999983520508,2|2,3:2|2:2,0:0:0:0:
244,200,137979,5,10,2:2:0:0:
164,179,138146,1,2,2:2:0:0:
97,230,138312,2,0,P|106:263|110:285,1,53.9999983520508,2|2,2:2|2:2,0:0:0:0:
140,358,138646,6,0,P|188:377|276:312,1,161.999995056153,2|0,3:2|0:0,0:0:0:0:
310,214,139312,2,0,P|304:179|303:154,1,53.9999983520508,8|0,2:2|0:0,0:0:0:0:
361,100,139646,1,0,0:0:0:0:
361,100,139812,2,0,L|475:120,1,107.999996704102,0|2,3:3|3:2,0:0:0:0:
512,187,140312,6,0,L|501:244,1,53.9999983520508,2|2,3:2|2:2,0:0:0:0:
434,285,140646,1,10,2:2:0:0:
451,384,140812,2,0,B|431:364|431:364|353:339,1,107.999996704102,2|2,2:2|2:2,0:0:0:0:
281,266,141312,6,0,B|210:239|154:364|83:332,1,215.999993408203,2|8,3:2|2:2,0:0:0:0:
5,181,142312,1,2,2:2:0:0:
5,181,142479,2,0,P|4:118|24:76,1,107.999996704102,0|0,3:3|3:3,0:0:0:0:
98,49,142979,2,0,P|127:64|150:67,1,53.9999983520508,0|0,3:3|0:0,0:0:0:0:
223,35,143312,2,0,P|189:95|195:155,1,107.999996704102,8|0,2:2|0:0,0:0:0:0:
324,219,143979,6,0,B|368:228|389:183|435:196,1,107.999996704102,6|2,3:2|2:2,0:0:0:0:
346,366,144646,2,0,P|299:336|239:330,1,107.999996704102,10|2,2:2|2:2,0:0:0:0:
193,384,145146,2,0,L|212:255,1,107.999996704102,2|2,3:2|3:2,0:0:0:0:
220,197,145646,1,0,3:3:0:0:
83,106,145979,2,0,P|59:121|26:122,1,53.9999983520508,10|0,2:2|0:0,0:0:0:0:
11,44,146312,2,0,P|35:29|68:28,1,53.9999983520508,2|2,2:2|2:2,0:0:0:0:
139,47,146646,6,0,P|198:79|259:70,1,107.999996704102,2|2,3:2|0:0,0:0:0:0:
362,35,147312,2,0,P|336:78|332:134,1,107.999996704102,10|2,2:2|2:2,0:0:0:0:
383,196,147812,2,0,L|499:217,1,107.999996704102,2|0,3:2|3:3,0:0:0:0:
449,286,148312,2,0,L|390:276,1,53.9999983520508,2|2,3:2|2:2,0:0:0:0:
406,358,148646,5,10,2:2:0:0:
326,381,148812,1,2,2:2:0:0:
267,324,148979,2,0,P|263:288|256:254,1,53.9999983520508,2|2,2:2|2:2,0:0:0:0:
200,168,149312,6,0,B|185:198|157:217|157:217|324:171,1,215.999993408203,2|8,3:2|2:2,0:0:0:0:
480,130,150312,1,0,0:0:0:0:
480,130,150479,2,0,L|461:250,1,107.999996704102,0|2,3:3|3:2,0:0:0:0:
402,290,150979,2,0,P|366:298|334:312,1,53.9999983520508,2|2,3:2|2:2,0:0:0:0:
279,339,151312,5,10,2:2:0:0:
285,259,151479,2,0,P|277:197|254:134,1,107.999996704102,2|2,2:2|2:2,0:0:0:0:
192,110,151979,6,0,B|164:107|164:107|133:132,1,53.9999983520508,2|2,3:2|2:2,0:0:0:0:
193,192,152312,1,2,2:2:0:0:
193,192,152479,1,2,2:2:0:0:
116,253,152646,2,0,B|71:245|61:291|16:285,1,107.999996704102,2|2,1:2|2:2,0:0:0:0:
113,331,153146,6,0,P|155:335|231:347,1,107.999996704102,2|2,3:2|3:2,0:0:0:0:
276,289,153646,2,0,L|266:229,1,53.9999983520508,2|0,3:2|0:0,0:0:0:0:
249,158,153979,5,2,1:2:0:0:
263,78,154146,1,2,2:2:0:0:
343,93,154312,1,2,2:2:0:0:
328,173,154479,1,2,2:2:0:0:
249,158,154646,6,0,B|181:135|141:222|68:197,1,180,4|0,3:2|0:0,0:0:0:0:
12,157,155312,2,0,P|30:222|36:275,1,120,0|0,1:1|0:0,0:0:0:0:
75,342,155812,2,0,P|103:361|141:362,1,60,0|0,3:3|0:0,0:0:0:0:
195,318,156146,5,2,3:2:0:0:
195,318,156312,2,0,L|181:216,1,90,2|0,3:2|0:0,0:0:0:0:
181,218,156646,2,0,P|213:200|237:198,1,60,2|0,1:2|0:0,0:0:0:0:
293,251,156979,2,0,P|324:271|353:275,1,60,2|0,2:2|0:0,0:0:0:0:
352,198,157312,6,0,P|359:134|428:186,1,180,2|0,3:2|0:0,0:0:0:0:
408,252,157979,2,0,P|398:294|429:373,1,120,0|0,1:1|0:0,0:0:0:0:
493,331,158479,2,0,P|492:298|482:269,1,60,0|0,3:3|0:0,0:0:0:0:
408,252,158812,1,0,3:3:0:0:
430,177,158979,2,0,P|448:146|475:124,1,60,0|0,3:3|0:0,0:0:0:0:
442,55,159312,6,0,L|311:31,1,120,2|0,1:2|0:0,0:0:0:0:
323,33,159812,1,2,2:2:0:0:
238,110,159979,6,0,B|292:151|271:227|271:227|212:215,1,180,0|0,3:3|0:0,0:0:0:0:
165,163,160646,2,0,P|179:234|168:295,1,120,0|0,1:1|0:0,0:0:0:0:
109,325,161146,2,0,L|47:314,2,60,0|0|0,3:3|0:0|3:3,0:0:0:0:
172,280,161646,1,0,3:3:0:0:
239,322,161812,1,0,0:0:0:0:
213,213,161979,6,0,P|213:167|241:87,1,120,0|2,1:1|2:2,0:0:0:0:
235,96,162479,1,2,2:2:0:0:
155,20,162646,6,0,B|107:28|107:28|87:49|87:49|42:60,2,120,0|2|2,3:3|2:2|1:2,0:0:0:0:
313,105,163646,1,2,2:2:0:0:
313,105,163812,2,0,L|299:174,1,60,2|0,3:2|0:0,0:0:0:0:
222,147,164146,1,2,3:2:0:0:
222,147,164312,2,0,L|233:88,2,60,0|0|0,3:3|0:0|1:1,0:0:0:0:
208,274,164812,5,2,2:2:0:0:
208,274,164896,1,2,2:2:0:0:
208,274,164979,2,0,P|167:281|140:287,1,60,2|2,2:2|2:2,0:0:0:0:
57,283,165312,5,6,3:2:0:0:
7,222,165479,1,2,2:2:0:0:
68,172,165646,2,0,P|128:182|189:198,1,120,2|2,2:2|1:2,0:0:0:0:
288,239,166146,1,2,2:2:0:0:
332,173,166312,2,0,L|323:104,1,60,2|2,2:2|3:2,0:0:0:0:
263,63,166646,6,0,P|224:57|155:111,1,120,2|2,2:2|3:2,0:0:0:0:
90,139,167146,2,0,P|129:133|198:187,1,120,2|2,2:2|2:2,0:0:0:0:
173,252,167646,2,0,P|140:270|111:270,1,60,2|2,2:2|2:2,0:0:0:0:
65,214,167979,5,2,3:2:0:0:
90,139,168146,1,2,2:2:0:0:
120,67,168312,2,0,P|116:24|113:4,1,60,2|2,2:2|2:2,0:0:0:0:
33,17,168646,2,0,P|37:47|40:77,1,60,2|2,1:2|2:2,0:0:0:0:
90,139,168979,5,2,2:2:0:0:
139,200,169146,1,2,3:2:0:0:
215,178,169312,2,0,P|272:171|337:218,1,120,2|2,2:2|3:2,0:0:0:0:
368,273,169812,1,2,2:2:0:0:
368,273,169979,2,0,P|358:192|377:97,1,180,0|2,1:1|2:2,0:0:0:0:
448,129,170646,6,0,P|437:187|442:247,1,120,2|2,3:2|2:2,0:0:0:0:
477,317,171146,1,2,2:2:0:0:
396,378,171312,2,0,L|333:364,1,60,2|2,1:2|2:2,0:0:0:0:
317,288,171646,2,0,L|254:302,1,60,2|2,2:2|3:2,0:0:0:0:
238,380,171979,6,0,P|221:332|159:311,1,120,6|2,2:2|3:2,0:0:0:0:
98,360,172479,2,0,P|67:360|37:345,2,60,2|0|0,2:2|1:1|0:0,0:0:0:0:
159,310,172979,1,2,2:2:0:0:
130,237,173146,1,2,2:2:0:0:
199,160,173312,6,0,L|267:173,1,60,6|2,3:2|2:2,0:0:0:0:
275,94,173646,2,0,L|216:82,1,60,2|2,2:2|2:2,0:0:0:0:
142,106,173979,2,0,P|98:139|17:131,1,120,0|0,1:1|0:0,0:0:0:0:
35,139,174479,1,0,3:3:0:0:
80,246,174646,6,0,P|120:280|185:284,1,120,2|2,2:2|3:2,0:0:0:0:
257,251,175146,1,2,2:2:0:0:
247,330,175312,2,0,L|237:389,2,60,2|2|2,1:2|2:2|2:2,0:0:0:0:
327,305,175812,5,0,0:0:0:0:
327,305,175896,1,2,2:2:0:0:
327,305,175979,2,0,P|386:304|433:268,1,120,6|2,3:2|2:2,0:0:0:0:
413,192,176479,1,0,0:0:0:0:
432,115,176646,2,0,P|386:80|327:79,1,120,2|2,1:2|2:2,0:0:0:0:
265,28,177146,6,0,L|294:168,1,120,0|2,3:3|3:2,0:0:0:0:
229,197,177646,2,0,P|192:185|162:182,1,60,2|2,3:2|2:2,0:0:0:0:
113,235,177979,2,0,L|125:296,1,60,0|2,1:1|2:2,0:0:0:0:
141,371,178312,1,2,2:2:0:0:
35,247,178646,6,0,P|33:217|51:187,1,60,2|2,3:2|2:2,0:0:0:0:
115,152,178979,2,0,P|166:163|240:171,1,120,2|2,2:2|1:2,0:0:0:0:
361,77,179646,1,2,2:2:0:0:
436,54,179812,1,2,3:2:0:0:
419,130,179979,6,0,B|410:163|410:163|436:253,1,120,2|2,2:2|3:2,0:0:0:0:
497,300,180479,1,2,2:2:0:0:
497,300,180646,2,0,P|428:283|318:281,1,180,0|2,1:1|2:2,0:0:0:0:
250,237,181312,6,0,L|238:308,1,60,2|2,3:2|2:2,0:0:0:0:
162,280,181646,2,0,L|171:220,1,60,2|2,2:2|2:2,0:0:0:0:
102,152,181979,2,0,L|90:81,1,60,2|2,1:2|2:2,0:0:0:0:
14,109,182313,2,0,L|23:168,1,60,2|2,2:2|3:2,0:0:0:0:
0,244,182646,6,0,P|30:251|117:275,1,120,2|2,2:2|3:2,0:0:0:0:
152,343,183146,2,0,P|212:330|285:321,1,120,2|0,2:2|0:0,0:0:0:0:
330,373,183646,1,2,2:2:0:0:
345,296,183812,1,2,2:2:0:0:
360,219,183979,6,0,P|352:189|345:155,2,60,2|2|2,3:2|2:2|2:2,0:0:0:0:
443,229,184479,1,2,2:2:0:0:
443,229,184646,2,0,P|423:141|414:100,1,120,0|0,1:1|0:0,0:0:0:0:
394,36,185146,1,0,3:3:0:0:
471,55,185312,6,0,B|405:41|370:127|297:107,1,180,2|2,2:2|2:2,0:0:0:0:
222,100,185979,2,0,P|231:135|237:170,2,60,2|2|2,1:2|2:2|2:2,0:0:0:0:
193,28,186479,1,2,2:2:0:0:
152,147,186646,5,6,3:2:0:0:
212,328,189312,5,6,3:2:0:0:
317,356,189479,1,2,2:2:0:0:
377,270,189646,2,0,P|384:221|387:193,1,66.0000020141602,2|2,2:2|2:2,0:0:0:0:
426,136,189979,2,0,P|374:176|307:176,1,132.00000402832,10|2,1:2|2:2,0:0:0:0:
309,176,190479,1,2,3:2:0:0:
285,102,190646,6,0,P|337:62|404:62,1,132.00000402832,2|2,2:2|3:2,0:0:0:0:
430,139,191146,1,2,2:2:0:0:
430,139,191312,2,0,P|409:196|403:230,1,66.0000020141602,8|0,1:2|0:0,0:0:0:0:
340,241,191646,2,0,L|258:226,1,66.0000020141602,0|2,0:0|2:2,0:0:0:0:
212,275,191979,6,0,B|161:289|161:289|150:302|150:302|82:322,1,132.00000402832,2|2,3:2|2:2,0:0:0:0:
90,319,192479,1,2,2:2:0:0:
36,265,192646,2,0,P|50:212|53:180,1,66.0000020141602,10|2,1:2|2:2,0:0:0:0:
84,126,192979,1,2,2:2:0:0:
21,75,193146,1,2,3:2:0:0:
65,8,193312,6,0,P|117:13|219:33,1,132.00000402832,2|2,2:2|3:2,0:0:0:0:
272,6,193812,2,0,P|244:51|247:136,1,132.00000402832,2|0,2:2|0:0,0:0:0:0:
302,181,194312,1,2,2:2:0:0:
391,138,194479,1,2,2:2:0:0:
452,215,194646,6,0,P|480:260|477:345,1,132.00000402832,2|2,3:2|2:2,0:0:0:0:
413,379,195146,1,2,2:2:0:0:
413,379,195312,2,0,P|379:364|328:360,1,66.0000020141602,8|0,1:2|0:0,0:0:0:0:
294,306,195646,1,2,2:2:0:0:
198,337,195812,1,2,3:2:0:0:
137,255,195979,6,0,B|126:195|183:178|169:114,1,132.00000402832,2|2,2:2|3:2,0:0:0:0:
134,65,196479,1,2,2:2:0:0:
134,65,196646,2,0,L|61:76,1,66.0000020141602,10|0,1:2|0:0,0:0:0:0:
23,140,196979,2,0,P|36:191|41:233,1,66.0000020141602,2|2,2:2|2:2,0:0:0:0:
137,255,197312,6,0,P|197:267|258:204,1,132.00000402832,6|0,3:2|0:0,0:0:0:0:
271,151,197812,1,2,2:2:0:0:
271,151,197979,2,0,P|260:106|255:67,1,66.0000020141602,10|0,1:2|0:0,0:0:0:0:
309,25,198312,1,2,2:2:0:0:
382,56,198479,2,0,P|369:131|361:209,1,132.00000402832,0|2,3:3|3:2,0:0:0:0:
416,246,198979,6,0,L|492:232,1,66.0000020141602,2|2,3:2|2:2,0:0:0:0:
379,316,199312,2,0,L|309:306,1,66.0000020141602,10|0,1:2|0:0,0:0:0:0:
251,258,199646,2,0,P|234:225|242:185,1,66.0000020141602,2|2,2:2|2:2,0:0:0:0:
273,127,199979,6,0,B|244:155|244:155|141:174,1,132.00000402832,6|2,3:2|2:2,0:0:0:0:
85,132,200479,1,2,2:2:0:0:
70,245,200646,2,0,P|89:348|92:377,1,132.00000402832,8|2,1:2|2:2,0:0:0:0:
11,359,201146,2,0,P|6:326|0:293,1,66.0000020141602,0|0,3:3|0:0,0:0:0:0:
70,245,201479,5,0,3:3:0:0:
150,251,201646,2,0,P|185:248|216:223,1,66.0000020141602,0|0,3:3|0:0,0:0:0:0:
166,109,201979,2,0,P|151:140|157:180,1,66.0000020141602,8|0,1:2|0:0,0:0:0:0:
283,203,202312,2,0,P|315:197|352:192,1,66.0000020141602,2|2,2:2|2:2,0:0:0:0:
399,255,202646,6,0,B|390:235|377:220|377:220|395:125,1,132.00000402832,6|2,3:2|2:2,0:0:0:0:
438,66,203146,1,2,2:2:0:0:
438,66,203312,2,0,P|379:102|310:111,1,132.00000402832,8|2,1:2|2:2,0:0:0:0:
254,64,203812,6,0,L|265:-9,1,66.0000020141602,0|0,3:3|0:0,0:0:0:0:
178,91,204146,1,0,3:3:0:0:
190,168,204312,2,0,L|201:241,1,66.0000020141602,0|0,3:3|0:0,0:0:0:0:
202,244,204562,1,0,0:0:0:0:
204,254,204646,2,0,P|173:277|142:285,1,66.0000020141602,8|0,1:2|0:0,0:0:0:0:
92,342,204979,2,0,P|61:319|30:311,1,66.0000020141602,2|2,2:2|2:2,0:0:0:0:
0,241,205312,6,0,B|-8:195|55:173|41:114,1,132.00000402832,6|2,3:2|2:2,0:0:0:0:
20,43,205812,1,2,2:2:0:0:
118,97,205979,2,0,P|152:101|187:107,1,66.0000020141602,8|2,1:2|2:2,0:0:0:0:
195,27,206312,2,0,P|162:21|129:17,1,66.0000020141602,2|0,2:2|3:3,0:0:0:0:
257,76,206646,6,0,P|289:70|322:66,1,66.0000020141602,2|0,2:2|3:3,0:0:0:0:
339,168,206979,2,0,P|306:171|273:177,1,66.0000020141602,0|2,3:3|2:2,0:0:0:0:
200,246,207312,2,0,P|196:278|217:310,1,66.0000020141602,8|2,1:2|2:2,0:0:0:0:
213,307,207562,1,0,0:0:0:0:
213,307,207646,1,2,2:2:0:0:
319,345,207812,5,2,2:2:0:0:
330,341,207896,1,2,2:2:0:0:
341,337,207979,2,0,B|408:348|484:363|484:363|451:345|445:307,1,207.000003948212,4|0,3:2|0:0,0:0:0:0:
459,236,208646,2,0,P|485:206|494:172,1,69.0000013160706,8|0,1:2|0:0,0:0:0:0:
448,112,208979,2,0,L|364:126,1,69.0000013160706,2|0,2:2|3:3,0:0:0:0:
349,49,209312,6,0,B|338:116|338:116|340:118|340:118|327:191,2,138.000002632141,2|2|8,2:2|3:2|1:2,0:0:0:0:
286,0,210146,1,0,0:0:0:0:
225,50,210312,2,0,P|233:95|239:130,1,69.0000013160706,2|0,2:2|0:0,0:0:0:0:
173,201,210646,6,0,P|125:190|97:186,1,69.0000013160706,0|0,3:3|0:0,0:0:0:0:
150,288,210979,2,0,P|198:277|226:273,1,69.0000013160706,2|0,2:2|0:0,0:0:0:0:
248,353,211312,2,0,P|260:286|274:207,1,138.000002632141,8|0,1:2|0:0,0:0:0:0:
333,164,211812,5,0,3:3:0:0:
333,164,211896,1,0,0:0:0:0:
333,164,211979,2,0,B|366:172|366:172|410:141,1,69.0000013160706,2|0,2:2|3:3,0:0:0:0:
376,74,212312,2,0,B|343:66|343:66|299:97,1,69.0000013160706,2|0,3:2|0:0,0:0:0:0:
256,140,212646,2,0,P|209:130|116:121,1,138.000002632141,10|2,1:2|2:2,0:0:0:0:
119,121,213146,1,2,2:2:0:0:
65,180,213312,6,0,P|76:224|80:257,1,69.0000013160706,0|2,3:3|2:2,0:0:0:0:
126,311,213646,2,0,P|159:331|195:325,1,69.0000013160706,2|2,2:2|2:2,0:0:0:0:
290,371,213979,2,0,P|353:328|418:331,1,138.000002632141,8|2,1:2|2:2,0:0:0:0:
469,384,214479,6,0,L|443:231,1,138.000002632141,2|2,3:2|3:2,0:0:0:0:
430,169,214979,2,0,P|448:138|450:100,1,69.0000013160706,2|2,3:2|2:2,0:0:0:0:
399,44,215312,2,0,B|332:57|332:57|331:60|331:60|262:73,1,138.000002632141,10|2,1:2|2:2,0:0:0:0:
62,90,215979,6,0,P|51:153|85:220,1,138.000002632141,0|2,3:3|2:2,0:0:0:0:
82,217,216479,1,2,2:2:0:0:
37,284,216646,2,0,L|175:251,1,138.000002632141,8|2,1:2|2:2,0:0:0:0:
236,297,217146,6,0,L|221:372,1,69.0000013160706,2|0,3:2|0:0,0:0:0:0:
300,383,217479,1,2,3:2:0:0:
300,383,217646,2,0,L|313:315,1,69.0000013160706,2|2,3:2|2:2,0:0:0:0:
290,240,217979,2,0,P|342:288|425:294,1,138.000002632141,8|2,1:2|2:2,0:0:0:0:
484,132,218646,6,0,P|432:84|349:78,1,138.000002632141,4|0,3:2|0:0,0:0:0:0:
367,74,219146,1,0,0:0:0:0:
299,36,219312,2,0,P|269:55|221:57,1,69.0000013160706,8|0,1:2|0:0,0:0:0:0:
153,42,219646,2,0,L|168:114,1,69.0000013160706,2|0,2:2|3:3,0:0:0:0:
116,170,219979,6,0,P|54:166|-1:214,2,138.000002632141,2|2|8,2:2|3:2|1:2,0:0:0:0:
116,170,220812,1,0,0:0:0:0:
195,241,220979,2,0,L|183:317,1,69.0000013160706,2|0,2:2|0:0,0:0:0:0:
258,358,221312,6,0,L|282:201,1,138.000002632141,0|2,3:3|2:2,0:0:0:0:
279,221,221812,1,0,0:0:0:0:
299,130,221979,2,0,P|333:105|379:109,1,69.0000013160706,8|0,1:2|0:0,0:0:0:0:
359,183,222312,1,0,0:0:0:0:
436,149,222479,5,0,3:3:0:0:
436,149,222562,1,0,0:0:0:0:
436,149,222646,2,0,P|479:176|492:229,1,103.500001974106,2|0,2:2|0:0,0:0:0:0:
499,234,222979,2,0,P|480:271|454:285,1,69.0000013160706,2|0,3:2|0:0,0:0:0:0:
398,340,223312,2,0,P|341:328|247:323,1,138.000002632141,10|2,1:2|2:2,0:0:0:0:
261,322,223812,1,2,2:2:0:0:
202,375,223979,6,0,P|155:375|95:300,1,138.000002632141,0|2,3:3|2:2,0:0:0:0:
113,233,224479,1,2,2:2:0:0:
36,257,224646,2,0,P|18:284|15:322,1,69.0000013160706,8|0,1:2|0:0,0:0:0:0:
96,311,224979,1,2,2:2:0:0:
113,233,225146,6,0,L|90:90,1,138.000002632141,2|2,3:2|3:2,0:0:0:0:
148,41,225646,2,0,L|237:58,1,69.0000013160706,2|2,3:2|2:2,0:0:0:0:
293,29,225979,2,0,B|306:16|314:-2|314:-2|333:101,1,138.000002632141,10|2,1:2|2:2,0:0:0:0:
332,96,226479,1,2,2:2:0:0:
321,192,226646,6,0,P|351:174|384:176,1,69.0000013160706,0|2,3:3|2:2,0:0:0:0:
403,254,226979,2,0,P|373:272|340:269,1,69.0000013160706,2|2,2:2|2:2,0:0:0:0:
265,247,227312,2,0,P|197:238|128:292,1,138.000002632141,8|2,1:2|2:2,0:0:0:0:
156,352,227812,2,0,P|223:361|281:326,1,138.000002632141,2|2,3:2|3:2,0:0:0:0:
340,269,228312,6,0,P|377:246|427:254,1,69.0000013160706,2|2,3:2|2:2,0:0:0:0:
461,297,228646,2,0,L|448:367,2,69.0000013160706,10|2|2,1:2|2:2|2:2,0:0:0:0:
475,219,229146,1,2,2:2:0:0:
492,142,229312,6,0,P|457:98|373:95,1,132.00000402832,4|0,3:2|0:0,0:0:0:0:
305,242,229979,2,0,P|270:286|186:289,1,132.00000402832,8|0,2:2|0:0,0:0:0:0:
139,239,230479,2,0,B|150:173|150:173|152:173|152:173|164:99,1,132.00000402832,0|0,3:3|3:3,0:0:0:0:
100,59,230979,2,0,P|59:61|36:85,1,66.0000020141602,0|0,3:3|0:0,0:0:0:0:
3,147,231312,2,0,B|14:213|14:213|16:213|16:213|28:287,1,132.00000402832,8|0,2:2|0:0,0:0:0:0:
90,337,231812,5,0,0:0:0:0:
90,337,231979,2,0,P|150:317|215:310,1,125.999996154785,0|0,3:3|0:0,0:0:0:0:
286,336,232479,1,0,0:0:0:0:
394,304,232646,2,0,P|403:239|415:168,1,125.999996154785,8|0,2:2|0:0,0:0:0:0:
442,103,233146,6,0,P|388:142|329:139,1,125.999996154785,0|0,3:3|3:3,0:0:0:0:
267,92,233646,2,0,P|234:77|192:82,1,62.9999980773926,0|0,3:3|0:0,0:0:0:0:
149,132,233979,2,0,L|173:266,1,125.999996154785,8|0,2:2|0:0,0:0:0:0:
171,256,234479,1,0,0:0:0:0:
111,308,234646,6,0,L|50:297,2,60,0|0|0,3:3|0:0|0:0,0:0:0:0:
175,260,235146,2,0,L|236:249,2,60,0|8|0,0:0|2:2|0:0,0:0:0:0:
117,204,235646,1,0,0:0:0:0:
117,204,235812,2,0,P|112:135|128:81,1,120,0|0,3:3|3:3,0:0:0:0:
200,61,236312,2,0,P|228:80|264:84,1,60,0|0,3:3|0:0,0:0:0:0:
317,131,236646,2,0,P|345:112|381:108,2,60,8|0|0,2:2|0:0|0:0,0:0:0:0:
280,204,237146,5,0,0:0:0:0:
280,204,237312,2,0,L|261:325,1,113.999996955872,0|0,3:3|0:0,0:0:0:0:
84,342,237979,2,0,L|66:229,1,113.999996955872,8|0,2:2|0:0,0:0:0:0:
35,157,238479,6,0,P|76:185|159:194,1,113.999996955872,0|0,3:3|3:3,0:0:0:0:
194,139,238979,2,0,L|180:70,1,56.9999984779358,0|0,3:3|0:0,0:0:0:0:
234,22,239312,2,0,L|308:34,1,56.9999984779358,8|0,2:2|0:0,0:0:0:0:
368,45,239646,1,0,0:0:0:0:
316,106,239812,2,0,L|322:138,2,28.4999992389679,0|0|4,0:0|0:0|2:2,0:0:0:0:
256,192,240062,12,0,250646,0:0:0:0:
