osu file format v14

[General]
AudioFilename: audio.mp3
AudioLeadIn: 0
PreviewTime: 104561
Countdown: 0
SampleSet: Soft
StackLeniency: 0.6
Mode: 0
LetterboxInBreaks: 0
WidescreenStoryboard: 1

[Editor]
Bookmarks: 11735,34323,36264,45617,47029,47735,68205,73852,96440,107735,130323,141617,147264,164205
DistanceSpacing: 0.9
BeatDivisor: 8
GridSize: 4
TimelineZoom: 3.200005

[Metadata]
Title:You Need To Calm Down
TitleUnicode:You Need To Calm Down
Artist:Taylor Swift
ArtistUnicode:Taylor Swift
Creator:Skubi
Version:Insane
Source:
Tags:Lover pop english cptsqbany lgbt gay pride
BeatmapID:3199749
BeatmapSetID:1365850

[Difficulty]
HPDrainRate:4
CircleSize:4.5
OverallDifficulty:7.5
ApproachRate:8.7
SliderMultiplier:2.2
SliderTickRate:1

[Events]
//Background and Video events
0,0,"1460614.jpg",0,0
//Break Periods
2,70293,73116
2,131197,135234
//Storyboard Layer 0 (Background)
//Storyboard Layer 1 (Fail)
//Storyboard Layer 2 (Pass)
//Storyboard Layer 3 (Foreground)
//Storyboard Layer 4 (Overlay)
//Storyboard Sound Samples

[TimingPoints]
-294,705.882352941176,4,2,1,40,1,8
58,-133.333333333333,4,2,1,40,0,0
411,705.882352941176,4,2,1,40,1,0
411,-133.333333333333,4,2,1,40,0,0
763,-133.333333333333,4,2,1,5,0,0
940,-133.333333333333,4,2,1,40,0,0
1293,-133.333333333333,4,2,1,5,0,0
1469,-133.333333333333,4,2,1,40,0,0
1646,-133.333333333333,4,2,1,5,0,0
1822,-133.333333333333,4,2,1,40,0,0
3587,-133.333333333333,4,2,1,5,0,0
3763,-133.333333333333,4,2,1,40,0,0
4116,-133.333333333333,4,2,1,5,0,0
4293,-133.333333333333,4,2,1,40,0,0
4469,-133.333333333333,4,2,1,5,0,0
4646,-133.333333333333,4,2,1,40,0,0
6410,-133.333333333333,4,2,1,5,0,0
6587,-133.333333333333,4,2,1,40,0,0
6940,-133.333333333333,4,2,1,5,0,0
7116,-133.333333333333,4,2,1,40,0,0
7293,-133.333333333333,4,2,1,5,0,0
7469,-133.333333333333,4,2,1,40,0,0
9234,-133.333333333333,4,2,1,5,0,0
9410,-133.333333333333,4,2,1,40,0,0
9763,-133.333333333333,4,2,1,5,0,0
9940,-133.333333333333,4,2,1,40,0,0
10116,-133.333333333333,4,2,1,5,0,0
10293,-133.333333333333,4,2,1,40,0,0
15410,-133.333333333333,4,2,1,5,0,0
15587,-133.333333333333,4,2,1,40,0,0
26705,-133.333333333333,4,2,1,5,0,0
26881,-133.333333333333,4,2,1,40,0,0
39234,-133.333333333333,4,3,4,40,0,0
39940,-133.333333333333,4,2,1,40,0,0
42940,-133.333333333333,4,2,1,5,0,0
43116,-133.333333333333,4,2,1,40,0,0
43293,-133.333333333333,4,2,2,40,0,0
43469,-133.333333333333,4,2,1,40,0,0
44352,-133.333333333333,4,2,2,40,0,0
44528,-133.333333333333,4,2,1,40,0,0
44705,-133.333333333333,4,2,1,5,0,0
44881,-133.333333333333,4,2,1,40,0,0
45058,-133.333333333333,4,2,1,5,0,0
45234,-133.333333333333,4,2,1,40,0,0
45410,-133.333333333333,4,2,1,5,0,0
45587,-133.333333333333,4,2,1,50,0,1
45940,-133.333333333333,4,2,3,50,0,1
46116,-133.333333333333,4,2,1,50,0,1
46646,-133.333333333333,4,2,3,50,0,1
46822,-133.333333333333,4,2,1,50,0,1
47352,-133.333333333333,4,2,3,50,0,1
47528,-133.333333333333,4,2,1,50,0,1
48058,-133.333333333333,4,2,3,50,0,1
48234,-133.333333333333,4,2,1,50,0,1
48763,-133.333333333333,4,2,3,50,0,1
48940,-133.333333333333,4,2,1,50,0,1
49293,-133.333333333333,4,2,1,5,0,1
49469,-133.333333333333,4,2,3,50,0,1
49822,-133.333333333333,4,2,1,50,0,1
49999,-133.333333333333,4,2,1,5,0,1
50175,-133.333333333333,4,2,3,50,0,1
50528,-133.333333333333,4,2,1,50,0,1
51587,-133.333333333333,4,2,3,50,0,1
51940,-133.333333333333,4,2,1,50,0,1
52293,-133.333333333333,4,2,3,50,0,1
52469,-133.333333333333,4,2,1,5,0,1
52646,-133.333333333333,4,2,1,50,0,1
52999,-133.333333333333,4,2,3,50,0,1
53175,-133.333333333333,4,2,1,50,0,1
53881,-133.333333333333,4,2,1,5,0,1
54058,-133.333333333333,4,2,1,50,0,1
54410,-133.333333333333,4,2,3,50,0,1
54587,-133.333333333333,4,2,1,50,0,1
55116,-133.333333333333,4,2,3,50,0,1
55293,-133.333333333333,4,2,1,50,0,1
55822,-133.333333333333,4,2,3,50,0,1
55999,-133.333333333333,4,2,1,50,0,1
57234,-133.333333333333,4,2,3,50,0,1
57410,-133.333333333333,4,2,1,50,0,1
57940,-133.333333333333,4,2,3,50,0,1
58116,-133.333333333333,4,2,1,50,0,1
58646,-133.333333333333,4,2,3,50,0,1
58822,-133.333333333333,4,2,1,50,0,1
59352,-133.333333333333,4,2,3,50,0,1
59528,-133.333333333333,4,2,1,50,0,1
60058,-133.333333333333,4,2,3,50,0,1
60234,-133.333333333333,4,2,1,50,0,1
60587,-133.333333333333,4,2,1,5,0,1
60763,-133.333333333333,4,2,1,50,0,1
62881,-133.333333333333,4,2,3,50,0,1
63058,-133.333333333333,4,2,1,50,0,1
63587,-133.333333333333,4,2,3,50,0,1
63763,-133.333333333333,4,2,1,5,0,1
63940,-133.333333333333,4,2,1,50,0,1
64293,-133.333333333333,4,2,3,50,0,1
64469,-133.333333333333,4,2,1,50,0,1
65175,-133.333333333333,4,2,1,5,0,1
65352,-133.333333333333,4,2,1,50,0,1
68175,-200,4,2,1,40,0,0
73822,705.882352941176,4,2,1,40,1,0
73822,-133.333333333333,4,2,1,40,0,0
77528,-133.333333333333,4,2,1,5,0,0
77705,-133.333333333333,4,2,1,40,0,0
78940,-133.333333333333,4,2,1,5,0,0
79116,-133.333333333333,4,2,1,40,0,0
79293,-133.333333333333,4,2,1,5,0,0
79469,-133.333333333333,4,2,1,40,0,0
83881,-133.333333333333,4,2,1,5,0,0
84058,-133.333333333333,4,2,1,40,0,0
84234,-133.333333333333,4,2,1,5,0,0
84410,-133.333333333333,4,2,1,40,0,0
84587,-133.333333333333,4,2,1,5,0,0
84763,-133.333333333333,4,2,1,40,0,0
84940,-133.333333333333,4,2,1,5,0,0
85116,-133.333333333333,4,2,1,40,0,0
85999,-133.333333333333,4,2,1,5,0,0
86175,-133.333333333333,4,2,1,40,0,0
88822,-133.333333333333,4,2,1,5,0,0
88999,-133.333333333333,4,2,1,40,0,0
101352,-133.333333333333,4,3,4,40,0,0
102058,-133.333333333333,4,2,1,40,0,0
107704,-133.333333333333,4,2,1,50,0,1
108058,-133.333333333333,4,2,3,50,0,1
108234,-133.333333333333,4,2,1,50,0,1
108764,-133.333333333333,4,2,3,50,0,1
108940,-133.333333333333,4,2,1,50,0,1
109470,-133.333333333333,4,2,3,50,0,1
109646,-133.333333333333,4,2,1,50,0,1
110176,-133.333333333333,4,2,3,50,0,1
110352,-133.333333333333,4,2,1,50,0,1
110881,-133.333333333333,4,2,3,50,0,1
111058,-133.333333333333,4,2,1,50,0,1
111410,-133.333333333333,4,2,1,5,0,1
111587,-133.333333333333,4,2,3,50,0,1
111940,-133.333333333333,4,2,1,50,0,1
112116,-133.333333333333,4,2,1,5,0,1
112293,-133.333333333333,4,2,3,50,0,1
112646,-133.333333333333,4,2,1,50,0,1
113705,-133.333333333333,4,2,3,50,0,1
114058,-133.333333333333,4,2,1,50,0,1
114411,-133.333333333333,4,2,3,50,0,1
114587,-133.333333333333,4,2,1,5,0,1
114763,-133.333333333333,4,2,1,50,0,1
115117,-133.333333333333,4,2,3,50,0,1
115293,-133.333333333333,4,2,1,50,0,1
115999,-133.333333333333,4,2,1,5,0,1
116175,-133.333333333333,4,2,1,50,0,1
116528,-133.333333333333,4,2,3,50,0,1
116705,-133.333333333333,4,2,1,50,0,1
117234,-133.333333333333,4,2,3,50,0,1
117411,-133.333333333333,4,2,1,50,0,1
117940,-133.333333333333,4,2,3,50,0,1
118117,-133.333333333333,4,2,1,50,0,1
119352,-133.333333333333,4,2,3,50,0,1
119528,-133.333333333333,4,2,1,50,0,1
120058,-133.333333333333,4,2,3,50,0,1
120234,-133.333333333333,4,2,1,50,0,1
120764,-133.333333333333,4,2,3,50,0,1
120940,-133.333333333333,4,2,1,50,0,1
121470,-133.333333333333,4,2,3,50,0,1
121646,-133.333333333333,4,2,1,50,0,1
122176,-133.333333333333,4,2,3,50,0,1
122352,-133.333333333333,4,2,1,50,0,1
122705,-133.333333333333,4,2,1,5,0,1
122881,-133.333333333333,4,2,1,50,0,1
124999,-133.333333333333,4,2,3,50,0,1
125176,-133.333333333333,4,2,1,50,0,1
125705,-133.333333333333,4,2,3,50,0,1
125881,-133.333333333333,4,2,1,5,0,1
126058,-133.333333333333,4,2,1,50,0,1
126411,-133.333333333333,4,2,3,50,0,1
126587,-133.333333333333,4,2,1,50,0,1
127293,-133.333333333333,4,2,1,5,0,1
127469,-133.333333333333,4,2,1,50,0,1
130116,-133.333333333333,4,2,1,50,0,1
130292,-270.27027027027,4,2,1,50,0,0
130646,-270.27027027027,4,2,1,5,0,0
130734,-270.27027027027,4,2,1,40,0,0
131009,-133.333333333333,4,2,1,40,0,0
141587,-200,4,2,1,40,0,0
142116,-200,4,2,1,5,0,0
142293,-200,4,2,1,40,0,0
142822,-200,4,2,1,5,0,0
142999,-200,4,2,1,40,0,0
143528,-200,4,2,1,5,0,0
143705,-200,4,2,1,40,0,0
144234,-200,4,2,1,5,0,0
144410,-200,4,2,1,40,0,0
145822,-200,4,2,1,5,0,0
146352,-200,4,2,1,40,0,0
147233,-133.333333333333,4,2,1,50,0,1
147587,-133.333333333333,4,2,3,50,0,1
147763,-133.333333333333,4,2,1,50,0,1
148293,-133.333333333333,4,2,3,50,0,1
148469,-133.333333333333,4,2,1,5,0,1
148646,-133.333333333333,4,2,1,50,0,1
148999,-133.333333333333,4,2,3,50,0,1
149175,-133.333333333333,4,2,1,50,0,1
149705,-133.333333333333,4,2,3,50,0,1
149881,-133.333333333333,4,2,1,5,0,1
150058,-133.333333333333,4,2,1,50,0,1
150410,-133.333333333333,4,2,3,50,0,1
150587,-133.333333333333,4,2,1,50,0,1
151116,-133.333333333333,4,2,3,50,0,1
151293,-133.333333333333,4,2,1,5,0,1
151469,-133.333333333333,4,2,1,50,0,1
151822,-133.333333333333,4,2,3,50,0,1
151999,-133.333333333333,4,2,1,50,0,1
153234,-133.333333333333,4,2,3,50,0,1
153410,-133.333333333333,4,2,1,50,0,1
153940,-133.333333333333,4,2,3,50,0,1
154116,-133.333333333333,4,2,1,50,0,1
154646,-133.333333333333,4,2,3,50,0,1
154822,-133.333333333333,4,2,1,50,0,1
155352,-133.333333333333,4,2,3,50,0,1
155528,-133.333333333333,4,2,1,50,0,1
156058,-133.333333333333,4,2,3,50,0,1
156234,-133.333333333333,4,2,1,50,0,1
156587,-133.333333333333,4,2,1,5,0,1
156763,-133.333333333333,4,2,1,50,0,1
158881,-133.333333333333,4,2,3,50,0,1
159058,-133.333333333333,4,2,1,50,0,1
159587,-133.333333333333,4,2,3,50,0,1
159763,-133.333333333333,4,2,1,5,0,1
159940,-133.333333333333,4,2,1,50,0,1
160293,-133.333333333333,4,2,3,50,0,1
160469,-133.333333333333,4,2,1,50,0,1
160999,-133.333333333333,4,2,3,50,0,1
161175,-133.333333333333,4,2,1,5,0,1
161352,-133.333333333333,4,2,1,50,0,1
164174,-263.157894736842,4,2,1,40,0,0
164881,-263.157894736842,4,2,1,5,0,0

[Colours]
Combo1 : 255,55,61
Combo2 : 194,231,226
Combo3 : 139,214,203
Combo4 : 250,121,253

[HitObjects]
82,211,235,5,0,0:0:0:0:
174,225,411,2,0,P|145:277|74:302,1,123.750004720688,4|0,0:0|0:0,0:0:0:0:
10,264,1116,1,8,0:0:0:0:
124,383,1469,1,0,0:0:0:0:
174,225,1822,1,4,0:0:0:0:
256,128,2528,5,8,0:0:0:0:
430,211,3058,37,0,0:0:0:0:
338,225,3234,2,0,P|367:277|438:302,1,123.750004720688,4|0,0:0|0:0,0:0:0:0:
502,264,3940,1,8,0:0:0:0:
388,383,4293,1,0,0:0:0:0:
338,225,4646,1,4,0:0:0:0:
256,128,5352,5,8,0:0:0:0:
82,211,5881,37,0,0:0:0:0:
174,225,6058,2,0,P|143:279|151:342,1,123.750004720688,4|0,0:0|0:0,0:0:0:0:
231,297,6763,1,8,0:0:0:0:
86,376,7116,1,0,0:0:0:0:
82,211,7469,1,4,0:0:0:0:
256,128,8175,5,8,0:0:0:0:
430,211,8705,37,0,0:0:0:0:
338,225,8881,2,0,P|369:279|361:342,1,123.750004720688,4|0,0:0|0:0,0:0:0:0:
281,297,9587,1,8,0:0:0:0:
426,376,9940,1,0,0:0:0:0:
430,211,10293,1,4,0:0:0:0:
256,128,10999,5,8,0:0:0:0:
80,249,11705,37,4,0:0:0:0:
80,249,11881,1,0,0:0:0:0:
90,176,12058,2,0,B|71:167|71:167|55:179,1,41.2500015735627
51,313,12410,2,0,B|89:330|89:330|122:306,1,82.5000031471254,8|2,0:0|0:0,0:0:0:0:
80,249,12940,1,2,0:0:0:0:
148,374,13116,2,0,L|213:378,1,41.2500015735627,6|2,0:0|0:0,0:0:0:0:
256,128,13822,5,8,0:0:0:0:
437,180,14175,37,0,0:0:0:0:
437,180,14352,1,0,0:0:0:0:
373,244,14528,2,0,P|358:215|356:189,1,41.2500015735627,4|0,0:0|0:0,0:0:0:0:
491,250,14881,2,0,P|503:234|511:215,1,41.2500015735627
429,287,15234,2,0,L|425:370,1,82.5000031471254,8|2,0:0|0:0,0:0:0:0:
425,369,15763,1,2,0:0:0:0:
354,301,15940,2,0,L|351:351,1,41.2500015735627,6|2,0:0|0:0,0:0:0:0:
256,256,16469,5,2,0:0:0:0:
256,128,16646,2,0,L|256:55,2,41.2500015735627,10|2|2,0:0|0:0|0:0,0:0:0:0:
316,312,17352,2,0,B|272:336|240:288|196:312,1,123.750004720688,6|0,0:0|0:0,0:0:0:0:
180,320,18058,37,8,0:0:0:0:
256,384,18410,1,0,0:0:0:0:
330,303,18763,1,4,0:0:0:0:
256,128,19293,5,2,0:0:0:0:
256,256,19469,2,0,L|256:329,2,41.2500015735627,10|2|2,0:0|0:0|0:0,0:0:0:0:
197,72,20175,2,0,B|240:64|240:64|272:80|272:80|315:72,1,123.750004720688,6|0,0:0|0:0,0:0:0:0:
332,69,20881,37,8,0:0:0:0:
256,0,21234,1,0,0:0:0:0:
182,75,21587,1,4,0:0:0:0:
256,290,22293,5,8,0:0:0:0:
256,180,22469,2,0,L|256:132,2,41.2500015735627,4|4|8,0:0|0:0|0:0,0:0:0:0:
166,314,22999,38,4,L|124:310,1,41.2500015735627,4|0,0:0|0:0,0:0:0:0:
48,236,23352,2,0,L|65:274,1,41.2500015735627
64,344,23705,1,8,0:0:0:0:
136,232,24058,1,2,0:0:0:0:
136,232,24234,1,2,0:0:0:0:
136,232,24410,2,0,L|140:176,1,41.2500015735627,6|2,0:0|0:0,0:0:0:0:
256,128,25116,5,8,0:0:0:0:
256,128,25469,2,0,L|256:184,1,41.2500015735627
346,314,25822,38,0,L|388:310,1,41.2500015735627,4|0,0:0|0:0,0:0:0:0:
464,236,26175,2,0,L|446:274,1,41.2500015735627
448,344,26528,1,8,0:0:0:0:
376,232,26881,1,2,0:0:0:0:
376,232,27058,1,2,0:0:0:0:
376,232,27234,2,0,L|372:176,1,41.2500015735627,6|2,0:0|0:0,0:0:0:0:
256,256,27763,5,2,0:0:0:0:
256,128,27940,2,0,L|256:76,2,41.2500015735627,10|2|2,0:0|0:0|0:0,0:0:0:0:
309,329,28646,2,0,P|257:357|204:330,1,123.750004720688,6|0,0:0|0:0,0:0:0:0:
196,316,29352,37,8,0:0:0:0:
317,317,29705,1,0,0:0:0:0:
256,384,30058,1,4,0:0:0:0:
256,192,30763,5,10,0:0:0:0:
256,192,30940,1,2,0:0:0:0:
256,192,31116,1,2,0:0:0:0:
308,54,31469,2,0,B|256:18|256:18|199:60,1,123.750004720688,6|0,0:0|0:0,0:0:0:0:
194,64,32175,37,8,0:0:0:0:
318,64,32528,1,0,0:0:0:0:
256,0,32881,1,4,0:0:0:0:
256,290,33587,5,8,0:0:0:0:
257,183,33763,2,0,L|256:132,2,41.2500015735627,4|4|8,0:0|0:0|0:0,0:0:0:0:
256,290,34293,5,4,0:0:0:0:
296,284,34469,1,0,0:0:0:0:
324,252,34646,1,2,0:0:0:0:
332,212,34822,1,2,0:0:0:0:
180,212,34999,1,8,0:0:0:0:
188,252,35175,1,0,0:0:0:0:
216,284,35352,1,2,0:0:0:0:
332,172,35528,1,0,0:0:0:0:
324,132,35705,1,4,0:0:0:0:
296,100,35881,1,2,0:0:0:0:
256,94,36058,1,2,0:0:0:0:
216,284,36234,1,0,0:0:0:0:
256,290,36410,1,8,0:0:0:0:
296,284,36587,1,0,0:0:0:0:
324,252,36763,1,2,0:0:0:0:
256,94,36940,1,0,0:0:0:0:
216,100,37116,1,4,0:0:0:0:
188,132,37293,1,2,0:0:0:0:
180,172,37469,1,2,0:0:0:0:
180,212,37646,1,0,0:0:0:0:
324,252,37822,1,8,0:0:0:0:
332,212,37999,1,0,0:0:0:0:
332,172,38175,1,2,0:0:0:0:
324,132,38352,1,0,0:0:0:0:
180,212,38528,1,4,0:0:0:0:
188,252,38705,1,0,0:0:0:0:
216,284,38881,1,2,0:0:0:0:
256,290,39058,1,2,0:0:0:0:
256,200,39234,1,6,0:3:0:0:
256,188,39410,1,2,0:3:0:0:
256,176,39587,1,10,0:3:0:0:
195,332,39940,22,0,L|318:332,1,123.750004720688,6|0,0:0|0:0,0:0:0:0:
336,332,40646,1,8,0:0:0:0:
256,384,40999,1,0,0:0:0:0:
176,332,41352,1,4,0:0:0:0:
256,128,42058,5,8,0:0:0:0:
256,128,42587,37,2,0:0:0:0:
312,188,42763,2,0,P|330:196|351:197,1,41.2500015735627,6|0,0:0|0:0,0:0:0:0:
368,108,43116,2,0,P|347:109|328:117,1,41.2500015735627,2|8,0:0|0:0,0:0:0:0:
256,128,43469,2,0,L|256:86,1,41.2500015735627,10|0,0:0|0:0,0:0:0:0:
256,16,43822,1,10,0:0:0:0:
256,16,43999,1,2,0:0:0:0:
256,86,44175,2,0,L|256:128,1,41.2500015735627,2|8,0:0|0:0,0:0:0:0:
200,188,44528,2,0,P|181:196|160:197,1,41.2500015735627,10|0,0:0|0:0,0:0:0:0:
144,107,44881,2,0,P|164:109|183:117,1,41.2500015735627,14|0,0:0|0:0,0:0:0:0:
256,236,45234,1,2,0:0:0:0:
368,107,45587,21,6,0:0:0:0:
408,252,45763,2,0,L|312:240,1,82.5000031471254,2|0,0:0|0:0,0:0:0:0:
132,98,46293,5,10,0:0:0:0:
88,258,46469,2,0,L|181:246,1,82.5000031471254,2|0,0:0|0:0,0:0:0:0:
390,89,46999,37,6,0:0:0:0:
438,263,47175,2,0,L|347:252,1,82.5000031471254,2|0,0:0|0:0,0:0:0:0:
110,81,47705,5,10,0:0:0:0:
58,269,47881,2,0,L|143:259,1,82.5000031471254,2|0,0:0|0:0,0:0:0:0:
412,73,48410,37,6,0:0:0:0:
468,275,48587,2,0,L|380:264,1,82.5000031471254,2|0,0:0|0:0,0:0:0:0:
256,212,49116,6,0,L|256:164,1,41.2500015735627,8|0,0:0|0:0,0:0:0:0:
320,104,49469,2,0,L|320:145,1,41.2500015735627,8|0,0:0|0:0,0:0:0:0:
192,145,49822,2,0,L|192:104,1,41.2500015735627,4|0,0:0|0:0,0:0:0:0:
256,36,50175,2,0,L|256:77,1,41.2500015735627,8|2,0:0|0:0,0:0:0:0:
256,170,50528,37,14,0:0:0:0:
256,184,50705,1,6,0:0:0:0:
256,196,50881,1,6,0:0:0:0:
256,208,51058,1,4,0:0:0:0:
365,222,51234,6,0,P|409:234|429:282,1,82.5000031471254,6|8,0:0|0:0,0:0:0:0:
432,336,51763,1,0,0:0:0:0:
368,308,51940,1,8,0:0:0:0:
256,380,52293,1,8,0:0:0:0:
256,192,52646,2,0,L|256:144,2,41.2500015735627,4|0|8,0:0|0:0|0:0,0:0:0:0:
219,304,53175,37,2,0:0:0:0:
193,235,53352,1,10,0:0:0:0:
319,235,53528,1,2,0:0:0:0:
292,304,53705,1,2,0:0:0:0:
140,292,54058,6,0,P|96:280|76:232,1,82.5000031471254,6|8,0:0|0:0,0:0:0:0:
73,178,54587,1,0,0:0:0:0:
137,206,54763,1,8,0:0:0:0:
68,104,55116,2,0,L|30:87,1,41.2500015735627,8|0,0:0|0:0,0:0:0:0:
132,132,55469,1,4,0:0:0:0:
63,30,55822,2,0,L|25:13,1,41.2500015735627,8|2,0:0|0:0,0:0:0:0:
127,58,56175,1,14,0:0:0:0:
196,24,56352,1,6,0:0:0:0:
256,72,56528,1,6,0:0:0:0:
316,24,56705,1,4,0:0:0:0:
385,58,56881,37,6,0:0:0:0:
347,199,57058,2,0,B|335:188|335:188|327:119,1,82.5000031471254,2|0,0:0|0:0,0:0:0:0:
114,44,57587,5,10,0:0:0:0:
155,199,57763,2,0,B|168:188|168:188|177:112,1,82.5000031471254,2|0,0:0|0:0,0:0:0:0:
410,31,58293,37,6,0:0:0:0:
365,200,58469,2,0,B|351:188|351:188|341:105,1,82.5000031471254,2|0,0:0|0:0,0:0:0:0:
88,17,58999,5,10,0:0:0:0:
137,201,59175,2,0,B|152:187|152:187|163:98,1,82.5000031471254,2|0,0:0|0:0,0:0:0:0:
436,4,59705,37,6,0:0:0:0:
383,201,59881,2,0,B|367:187|367:187|355:90,1,82.5000031471254,2|0,0:0|0:0,0:0:0:0:
256,32,60410,5,8,0:0:0:0:
196,192,60763,1,2,0:0:0:0:
256,144,60940,1,2,0:0:0:0:
316,192,61116,2,0,L|316:240,2,41.2500015735627,6|0|0,0:0|0:0|0:0,0:0:0:0:
256,144,61646,37,2,0:0:0:0:
196,92,61822,1,10,0:0:0:0:
220,24,61999,1,6,0:0:0:0:
292,24,62175,1,6,0:0:0:0:
316,92,62352,1,4,0:0:0:0:
396,176,62528,6,0,P|432:183|441:146,1,82.5000031471254,6|8,0:0|0:0,0:0:0:0:
384,108,63058,1,0,0:0:0:0:
328,192,63234,1,8,0:0:0:0:
300,84,63587,2,0,B|292:100|292:100|292:132,1,41.2500015735627,8|0,0:0|0:0,0:0:0:0:
256,240,63940,2,0,L|256:296,2,41.2500015735627,4|0|8,0:0|0:0|0:0,0:0:0:0:
328,192,64469,37,2,0:0:0:0:
292,123,64646,1,10,0:0:0:0:
220,123,64822,1,2,0:0:0:0:
184,192,64999,2,0,P|164:196|144:192,1,41.2500015735627,2|0,0:0|0:0,0:0:0:0:
88,143,65352,2,0,P|120:192|87:241,1,123.750004720688,6|0,0:0|0:0,0:0:0:0:
40,200,66058,5,10,0:0:0:0:
40,200,66234,1,2,0:0:0:0:
40,200,66410,1,2,0:0:0:0:
216,312,66763,6,0,B|244:296|266:327|295:312,1,82.5000031471254,6|0,0:0|0:0,0:0:0:0:
464,204,67293,37,2,0:0:0:0:
464,204,67469,1,10,0:0:0:0:
464,204,67646,1,6,0:0:0:0:
464,204,67822,2,0,L|411:204,1,41.2500015735627,6|4,0:0|0:0,0:0:0:0:
295,312,68175,6,0,B|266:327|244:296|216:312,1,82.5000031471254,6|0,0:0|0:0,0:0:0:0:
256,384,68881,1,8,0:0:0:0:
80,249,73822,5,4,0:0:0:0:
80,249,73998,1,0,0:0:0:0:
90,176,74174,2,0,B|71:167|71:167|55:179,1,41.2500015735627
51,313,74527,2,0,B|89:330|89:330|122:306,1,82.5000031471254,8|2,0:0|0:0,0:0:0:0:
80,249,75057,1,2,0:0:0:0:
156,152,75233,2,0,L|221:156,1,41.2500015735627,6|2,0:0|0:0,0:0:0:0:
256,288,75939,37,8,0:0:0:0:
437,180,76292,6,0,L|433:221,1,41.2500015735627
372,252,76645,1,4,0:0:0:0:
372,252,76822,1,0,0:0:0:0:
490,268,76998,1,0,0:0:0:0:
490,268,77174,1,0,0:0:0:0:
426,298,77351,2,0,L|422:339,1,41.2500015735627,8|0,0:0|0:0,0:0:0:0:
360,372,77704,1,2,0:0:0:0:
340,368,77880,1,2,0:0:0:0:
320,364,78057,1,6,0:0:0:0:
300,360,78233,1,2,0:0:0:0:
180,192,78763,38,0,P|200:197|221:192,1,41.2500015735627,10|0,0:0|0:0,0:0:0:0:
331,192,79116,2,0,P|312:196|292:192,1,41.2500015735627,2|0,0:0|0:0,0:0:0:0:
220,92,79469,2,0,P|256:109|292:92,1,82.5000031471254,6|0,0:0|0:0,0:0:0:0:
300,80,79998,5,0,0:0:0:0:
256,0,80174,1,8,0:0:0:0:
155,122,80527,1,0,0:0:0:0:
357,122,80880,1,4,0:0:0:0:
256,235,81410,37,2,0:0:0:0:
256,149,81586,2,0,L|256:92,2,41.2500015735627,10|2|2,0:0|0:0|0:0,0:0:0:0:
304,292,82292,2,0,B|256:253|256:253|208:292,1,123.750004720688,6|0,0:0|0:0,0:0:0:0:
197,301,82998,5,10,0:0:0:0:
256,344,83174,1,2,0:0:0:0:
315,301,83351,1,2,0:0:0:0:
192,380,83704,38,0,L|136:380,1,41.2500015735627,4|0,0:0|0:0,0:0:0:0:
120,300,84057,2,0,L|162:300,1,41.2500015735627
320,300,84410,2,0,L|376:300,1,41.2500015735627,4|0,0:0|0:0,0:0:0:0:
392,220,84763,2,0,L|350:220,1,41.2500015735627,0|8,0:0|0:0,0:0:0:0:
160,132,85116,5,4,0:0:0:0:
160,132,85292,1,0,0:0:0:0:
80,148,85469,1,0,0:0:0:0:
80,148,85645,1,0,0:0:0:0:
98,41,85822,2,0,L|105:81,1,41.2500015735627,8|0,0:0|0:0,0:0:0:0:
212,169,86174,2,0,P|192:189|152:189,1,41.2500015735627,2|2,0:0|0:0,0:0:0:0:
85,211,86527,2,0,P|64:210|46:201,1,41.2500015735627,6|2,0:0|0:0,0:0:0:0:
256,235,87233,37,8,0:0:0:0:
344,104,87763,5,0,0:0:0:0:
378,44,87939,1,4,0:0:0:0:
444,58,88116,1,0,0:0:0:0:
451,126,88292,1,0,0:0:0:0:
390,154,88469,1,0,0:0:0:0:
312,176,88645,2,0,B|290:168|290:168|280:152,1,41.2500015735627,8|0,0:0|0:0,0:0:0:0:
412,48,88998,2,0,L|404:88,1,41.2500015735627,2|2,0:0|0:0,0:0:0:0:
456,204,89351,2,0,B|478:204|478:204|501:191,1,41.2500015735627,6|2,0:0|0:0,0:0:0:0:
256,149,89880,37,2,0:0:0:0:
256,235,90057,2,0,L|256:284,2,41.2500015735627,10|2|2,0:0|0:0|0:0,0:0:0:0:
295,52,90763,6,0,B|251:52|263:88|211:80,1,82.5000031471254,6|0,0:0|0:0,0:0:0:0:
206,80,91292,1,0,0:0:0:0:
309,52,91469,1,8,0:0:0:0:
256,148,91821,1,0,0:0:0:0:
256,0,92174,1,4,0:0:0:0:
256,235,92527,1,2,0:0:0:0:
315,191,92704,1,2,0:0:0:0:
292,121,92880,1,10,0:0:0:0:
219,121,93057,1,2,0:0:0:0:
196,191,93233,1,2,0:0:0:0:
218,331,93586,38,0,B|261:332|249:296|291:302,1,82.5000031471254,6|0,0:0|0:0,0:0:0:0:
306,304,94116,1,0,0:0:0:0:
203,332,94292,1,8,0:0:0:0:
256,244,94645,1,0,0:0:0:0:
256,384,94998,5,4,0:0:0:0:
256,384,95174,1,0,0:0:0:0:
256,244,95527,37,0,0:0:0:0:
256,244,95704,1,12,0:0:0:0:
256,140,95880,2,0,L|256:92,2,41.2500015735627,4|4|12,0:0|0:0|0:0,0:0:0:0:
256,290,96410,21,4,0:0:0:0:
296,284,96586,1,0,0:0:0:0:
324,252,96763,1,2,0:0:0:0:
332,212,96939,1,2,0:0:0:0:
296,100,97116,1,8,0:0:0:0:
256,94,97292,1,0,0:0:0:0:
216,100,97469,1,2,0:0:0:0:
180,212,97645,1,0,0:0:0:0:
188,252,97821,1,4,0:0:0:0:
216,284,97998,1,2,0:0:0:0:
256,290,98174,1,2,0:0:0:0:
296,284,98351,1,0,0:0:0:0:
324,132,98527,1,8,0:0:0:0:
296,100,98704,1,0,0:0:0:0:
256,94,98880,1,2,0:0:0:0:
180,172,99057,1,0,0:0:0:0:
180,212,99233,1,4,0:0:0:0:
188,252,99410,1,2,0:0:0:0:
216,284,99586,1,2,0:0:0:0:
256,290,99763,1,0,0:0:0:0:
332,172,99939,1,8,0:0:0:0:
324,132,100116,1,0,0:0:0:0:
296,100,100292,1,2,0:0:0:0:
188,132,100469,1,0,0:0:0:0:
180,172,100645,1,4,0:0:0:0:
180,212,100821,1,0,0:0:0:0:
188,252,100998,1,2,0:0:0:0:
216,284,101174,1,2,0:0:0:0:
256,200,101351,1,6,0:0:0:0:
256,188,101527,1,2,0:0:0:0:
256,176,101704,1,10,0:0:0:0:
297,330,102057,22,0,L|215:330,1,82.5000031471254,6|0,0:0|0:0,0:0:0:0:
198,329,102586,1,0,0:0:0:0:
314,329,102763,1,8,0:0:0:0:
256,250,103116,1,0,0:0:0:0:
256,384,103469,1,4,0:0:0:0:
256,94,104174,5,8,0:0:0:0:
300,252,104704,37,2,0:0:0:0:
212,252,104880,1,6,0:0:0:0:
320,280,105233,5,2,0:0:0:0:
320,280,105410,1,10,0:0:0:0:
192,280,105586,1,10,0:0:0:0:
340,308,105939,5,10,0:0:0:0:
340,308,106116,1,2,0:0:0:0:
172,308,106292,1,2,0:0:0:0:
172,308,106469,1,10,0:0:0:0:
360,336,106645,5,10,0:0:0:0:
152,336,106998,1,14,0:0:0:0:
256,149,107351,5,6,0:0:0:0:
256,149,107527,1,4,0:0:0:0:
340,252,107704,21,6,0:0:0:0:
392,140,107880,2,0,B|373:101|373:101|342:126,1,82.5000031471254,2|0,0:0|0:0,0:0:0:0:
163,258,108410,5,10,0:0:0:0:
106,134,108586,2,0,B|124:95|124:95|155:119,1,82.5000031471254,2|0,0:0|0:0,0:0:0:0:
356,264,109116,37,6,0:0:0:0:
419,129,109292,2,0,B|400:91|400:91|369:115,1,82.5000031471254,2|0,0:0|0:0,0:0:0:0:
146,269,109821,5,10,0:0:0:0:
79,124,109998,2,0,B|97:85|97:85|128:109,1,82.5000031471254,2|0,0:0|0:0,0:0:0:0:
373,275,110527,37,6,0:0:0:0:
446,119,110704,2,0,B|428:81|428:81|396:105,1,82.5000031471254,2|0,0:0|0:0,0:0:0:0:
256,303,111233,6,0,P|260:281|256:263,1,41.2500015735627,8|0,0:0|0:0,0:0:0:0:
205,213,111586,2,0,L|139:208,1,41.2500015735627,8|0,0:0|0:0,0:0:0:0:
256,165,111939,38,0,P|252:143|256:125,1,41.2500015735627,4|0,0:0|0:0,0:0:0:0:
307,75,112292,2,0,L|373:70,1,41.2500015735627,8|2,0:0|0:0,0:0:0:0:
307,213,112645,5,14,0:0:0:0:
255,262,112821,1,6,0:0:0:0:
205,213,112998,1,6,0:0:0:0:
256,165,113174,1,6,0:0:0:0:
356,116,113351,38,0,B|396:109|396:109|425:61,1,82.5000031471254,6|8,0:0|0:0,0:0:0:0:
353,46,113880,1,0,0:0:0:0:
292,84,114057,1,8,0:0:0:0:
324,328,114410,2,0,B|302:319|302:319|290:296,1,41.2500015735627,8|0,0:0|0:0,0:0:0:0:
256,192,114763,2,0,L|256:144,2,41.2500015735627,4|0|8,0:0|0:0|0:0,0:0:0:0:
219,304,115292,5,2,0:0:0:0:
193,235,115469,1,10,0:0:0:0:
319,235,115645,1,2,0:0:0:0:
292,304,115821,1,2,0:0:0:0:
159,307,116174,38,0,B|119:295|119:295|95:241,1,82.5000031471254,6|8,0:0|0:0,0:0:0:0:
60,204,116704,1,0,0:0:0:0:
36,268,116880,1,8,0:0:0:0:
96,132,117233,2,0,L|110:93,1,41.2500015735627,8|0,0:0|0:0,0:0:0:0:
71,196,117586,1,4,0:0:0:0:
132,64,117939,2,0,L|146:25,1,41.2500015735627,8|2,0:0|0:0,0:0:0:0:
107,128,118292,5,14,0:0:0:0:
180,148,118469,1,6,0:0:0:0:
256,128,118645,1,6,0:0:0:0:
332,148,118821,1,4,0:0:0:0:
405,128,118998,37,6,0:0:0:0:
312,220,119174,2,0,L|320:312,1,82.5000031471254,2|0,0:0|0:0,0:0:0:0:
99,124,119704,5,10,0:0:0:0:
197,221,119880,2,0,L|188:317,1,82.5000031471254,2|0,0:0|0:0,0:0:0:0:
419,121,120410,37,6,0:0:0:0:
317,222,120586,2,0,L|326:324,1,82.5000031471254,2|0,0:0|0:0,0:0:0:0:
84,118,121116,5,10,0:0:0:0:
191,224,121292,2,0,L|183:319,1,82.5000031471254,2|0,0:0|0:0,0:0:0:0:
434,115,121821,37,6,0:0:0:0:
323,225,121998,2,0,L|330:313,1,82.5000031471254,2|0,0:0|0:0,0:0:0:0:
256,380,122527,1,8,0:0:0:0:
196,192,122880,5,2,0:0:0:0:
256,248,123057,1,2,0:0:0:0:
316,192,123233,2,0,L|316:144,2,41.2500015735627,6|0|0,0:0|0:0|0:0,0:0:0:0:
256,248,123763,37,2,0:0:0:0:
196,300,123939,1,14,0:0:0:0:
220,368,124116,1,6,0:0:0:0:
292,368,124292,1,6,0:0:0:0:
316,300,124469,1,4,0:0:0:0:
396,268,124645,6,0,B|400:227|400:227|444:241,1,82.5000031471254,6|8,0:0|0:0,0:0:0:0:
508,260,125174,1,0,0:0:0:0:
456,312,125351,1,8,0:0:0:0:
300,300,125704,2,0,B|292:272|292:272|292:252,1,41.2500015735627,8|0,0:0|0:0,0:0:0:0:
256,144,126057,2,0,L|256:88,2,41.2500015735627,4|0|8,0:0|0:0|0:0,0:0:0:0:
184,192,126586,37,2,0:0:0:0:
220,261,126763,1,10,0:0:0:0:
292,261,126939,1,2,0:0:0:0:
328,192,127116,2,0,B|348:188|348:188|368:192,1,41.2500015735627,2|0,0:0|0:0,0:0:0:0:
424,241,127469,2,0,B|387:192|387:192|425:143,1,123.750004720688,6|0,0:0|0:0,0:0:0:0:
480,200,128174,5,10,0:0:0:0:
480,200,128351,1,2,0:0:0:0:
480,200,128527,1,2,0:0:0:0:
297,72,128880,6,0,B|272:76|272:76|240:68|240:68|217:72,1,82.5000031471254,6|0,0:0|0:0,0:0:0:0:
76,204,129410,37,2,0:0:0:0:
76,204,129586,1,14,0:0:0:0:
76,204,129763,1,6,0:0:0:0:
76,204,129939,2,0,L|124:204,1,41.2500015735627,6|4,0:0|0:0,0:0:0:0:
217,72,130292,6,0,B|240:68|240:68|272:76|272:76|297:70,1,81.4000019873047,6|10,0:0|0:0,0:0:0:0:
432,219,136292,5,0,0:0:0:0:
432,219,136469,1,0,0:0:0:0:
368,236,136645,1,10,0:0:0:0:
368,236,136821,1,2,0:0:0:0:
416,288,136998,1,2,0:0:0:0:
256,328,137351,1,6,0:0:0:0:
72,179,138057,38,0,L|68:128,2,41.2500015735627,10|2|2,0:0|0:0|0:0,0:0:0:0:
84,292,138763,1,6,0:0:0:0:
439,179,139469,6,0,L|444:128,2,41.2500015735627,10|2|2,0:0|0:0|0:0,0:0:0:0:
428,292,140174,1,6,0:0:0:0:
255,320,140704,37,2,0:0:0:0:
272,252,140880,1,10,0:0:0:0:
240,188,141057,1,2,0:0:0:0:
257,120,141233,1,2,0:0:0:0:
182,73,141586,5,2,0:0:0:0:
182,73,141763,2,0,B|154:61|154:61|126:65,1,55,2|0,0:0|0:0,0:0:0:0:
340,124,142292,37,2,0:0:0:0:
340,124,142469,2,0,B|368:112|368:112|396:116,1,55,2|0,0:0|0:0,0:0:0:0:
167,162,142998,5,2,0:0:0:0:
167,162,143174,2,0,B|139:150|139:150|111:154,1,55,2|0,0:0|0:0,0:0:0:0:
355,207,143704,37,2,0:0:0:0:
355,207,143880,2,0,B|383:195|383:195|411:199,1,55,2|0,0:0|0:0,0:0:0:0:
149,247,144410,5,2,0:0:0:0:
149,247,144586,2,0,B|121:235|121:235|88:254|88:254|47:283|47:339|83:367,1,192.5,2|0,0:0|0:0,0:0:0:0:
228,224,146351,5,2,0:0:0:0:
228,224,146527,1,2,0:0:0:0:
295,198,146704,1,6,0:0:0:0:
348,244,146880,1,6,0:0:0:0:
281,270,147057,1,4,0:0:0:0:
336,316,147233,6,0,B|372:336|372:336|428:320,1,82.5000031471254,6|8,1:0|0:0,0:0:0:0:
492,256,147763,1,2,0:0:0:0:
480,180,147939,1,10,0:0:0:0:
404,196,148116,1,2,0:0:0:0:
416,272,148292,2,0,B|422:312,1,41.2500015735627,10|0,0:0|0:0,0:0:0:0:
352,344,148645,2,0,B|342:287|342:287|312:265,1,82.5000031471254,6|8,0:0|0:0,0:0:0:0:
200,220,149174,37,2,0:0:0:0:
248,280,149351,1,10,0:0:0:0:
212,348,149527,1,2,0:0:0:0:
160,288,149704,2,0,L|98:293,1,41.2500015735627,10|0,0:0|0:0,0:0:0:0:
124,212,150057,2,0,L|37:218,1,82.5000031471254,6|8,0:0|0:0,0:0:0:0:
24,84,150586,5,2,0:0:0:0:
80,140,150763,1,10,0:0:0:0:
128,76,150939,1,2,0:0:0:0:
184,132,151116,2,0,L|188:184,1,41.2500015735627,10|0,0:0|0:0,0:0:0:0:
256,104,151469,2,0,L|262:186,1,82.5000031471254,6|8,0:0|0:0,0:0:0:0:
256,384,151998,5,2,0:0:0:0:
294,262,152174,1,14,0:0:0:0:
192,336,152351,1,6,0:0:0:0:
318,337,152527,1,6,0:0:0:0:
216,262,152704,1,4,0:0:0:0:
368,184,152880,21,6,0:0:0:0:
368,184,153057,1,2,0:0:0:0:
392,309,153233,2,0,P|369:292|353:264,1,41.2500015735627,8|0,0:0|0:0,0:0:0:0:
138,183,153586,5,10,0:0:0:0:
138,183,153763,1,2,0:0:0:0:
113,314,153939,2,0,P|137:296|154:267,1,41.2500015735627,8|0,0:0|0:0,0:0:0:0:
379,183,154292,37,6,0:0:0:0:
379,183,154469,1,2,0:0:0:0:
405,320,154645,2,0,P|380:302|362:271,1,41.2500015735627,8|0,0:0|0:0,0:0:0:0:
127,182,154998,5,10,0:0:0:0:
127,182,155174,1,2,0:0:0:0:
99,326,155351,2,0,P|126:306|144:274,1,41.2500015735627,8|0,0:0|0:0,0:0:0:0:
390,182,155704,37,6,0:0:0:0:
390,182,155880,1,2,0:0:0:0:
419,332,156057,2,0,P|391:312|372:278,1,41.2500015735627,8|0,0:0|0:0,0:0:0:0:
296,208,156410,6,0,L|296:160,1,41.2500015735627,8|0,0:0|0:0,0:0:0:0:
196,72,156763,1,2,0:0:0:0:
316,72,156939,1,2,0:0:0:0:
216,166,157116,2,0,L|216:208,2,41.2500015735627,6|0|0,0:0|0:0|0:0,0:0:0:0:
121,182,157645,37,2,0:0:0:0:
151,260,157821,1,14,0:0:0:0:
215,312,157998,1,6,0:0:0:0:
297,312,158174,1,6,0:0:0:0:
361,260,158351,1,4,0:0:0:0:
390,182,158527,6,0,B|400:152|400:152|392:88,1,82.5000031471254,6|8,0:0|0:0,0:0:0:0:
418,32,159057,1,0,0:0:0:0:
346,44,159233,1,8,0:0:0:0:
284,4,159410,1,2,0:0:0:0:
244,68,159586,2,0,L|174:80,1,41.2500015735627,10|0,0:0|0:0,0:0:0:0:
149,129,159939,2,0,L|162:210,1,82.5000031471254,6|8,0:0|0:0,0:0:0:0:
256,328,160469,37,2,0:0:0:0:
296,264,160645,1,10,0:0:0:0:
216,264,160821,1,2,0:0:0:0:
308,192,160998,2,0,B|350:192,1,41.2500015735627,10|0,0:0|0:0,0:0:0:0:
425,143,161351,2,0,P|393:192|426:241,1,123.750004720688,6|0,0:0|0:0,0:0:0:0:
479,198,162057,5,10,0:0:0:0:
479,198,162233,1,2,0:0:0:0:
479,198,162410,1,2,0:0:0:0:
295,312,162763,6,0,B|266:327|244:296|216:312,1,82.5000031471254,6|0,0:0|0:0,0:0:0:0:
48,204,163292,37,2,0:0:0:0:
48,204,163469,1,14,0:0:0:0:
48,204,163645,1,6,0:0:0:0:
48,204,163821,2,0,L|104:204,1,41.2500015735627,6|4,0:0|0:0,0:0:0:0:
216,312,164174,6,0,B|244:295|266:327|296:312,1,83.5999989794922,6|0,0:0|0:0,0:0:0:0:
