osu file format v14

[General]
AudioFilename: audio.mp3
AudioLeadIn: 0
PreviewTime:104561
Countdown: 0
SampleSet: Soft
StackLeniency: 0.6
Mode: 0
LetterboxInBreaks: 0
WidescreenStoryboard: 1

[Editor]
Bookmarks: 11735,34323,36264,45617,47029,47735,68205,73852,96440,107735,129587,130323,141617,147264,164205
DistanceSpacing: 0.9
BeatDivisor: 8
GridSize: 8
TimelineZoom: 3.200005

[Metadata]
Title:You Need To Calm Down
TitleUnicode:You Need To Calm Down
Artist:Taylor Swift
ArtistUnicode:Taylor Swift
Creator:Skubi
Version:Hard
Source:
Tags:Lover pop english cptsqbany lgbt gay pride
BeatmapID:3330477
BeatmapSetID:1365850

[Difficulty]
HPDrainRate:4
CircleSize:4
OverallDifficulty:6
ApproachRate:7
SliderMultiplier:2.2
SliderTickRate:1

[Events]
//Background and Video events
0,0,"1460614.jpg",0,0
//Break Periods
2,70293,72922
2,131198,135234
//Storyboard Layer 0 (Background)
//Storyboard Layer 1 (Fail)
//Storyboard Layer 2 (Pass)
//Storyboard Layer 3 (Foreground)
//Storyboard Layer 4 (Overlay)
//Storyboard Sound Samples

[TimingPoints]
-294,705.882352941176,4,2,1,40,1,0
58,-133.333333333333,4,2,1,40,0,0
411,705.882352941176,4,2,1,40,1,0
411,-133.333333333333,4,2,1,40,0,0
763,-133.333333333333,4,2,1,5,0,0
940,-133.333333333333,4,2,1,40,0,0
1293,-133.333333333333,4,2,1,5,0,0
1469,-133.333333333333,4,2,1,40,0,0
1646,-133.333333333333,4,2,1,5,0,0
1822,-133.333333333333,4,2,1,40,0,0
3587,-133.333333333333,4,2,1,5,0,0
3763,-133.333333333333,4,2,1,40,0,0
4116,-133.333333333333,4,2,1,5,0,0
4293,-133.333333333333,4,2,1,40,0,0
4469,-133.333333333333,4,2,1,5,0,0
4646,-133.333333333333,4,2,1,40,0,0
6410,-133.333333333333,4,2,1,5,0,0
6587,-133.333333333333,4,2,1,40,0,0
6940,-133.333333333333,4,2,1,5,0,0
7116,-133.333333333333,4,2,1,40,0,0
7293,-133.333333333333,4,2,1,5,0,0
7469,-133.333333333333,4,2,1,40,0,0
9234,-133.333333333333,4,2,1,5,0,0
9410,-133.333333333333,4,2,1,40,0,0
9763,-133.333333333333,4,2,1,5,0,0
9940,-133.333333333333,4,2,1,40,0,0
10116,-133.333333333333,4,2,1,5,0,0
10293,-133.333333333333,4,2,1,40,0,0
15410,-133.333333333333,4,2,1,5,0,0
15587,-133.333333333333,4,2,1,40,0,0
26705,-133.333333333333,4,2,1,5,0,0
26881,-133.333333333333,4,2,1,40,0,0
39234,-133.333333333333,4,3,4,40,0,0
39940,-133.333333333333,4,2,1,40,0,0
42940,-133.333333333333,4,2,1,5,0,0
43116,-133.333333333333,4,2,1,40,0,0
43293,-133.333333333333,4,2,2,40,0,0
43469,-133.333333333333,4,2,1,40,0,0
44352,-133.333333333333,4,2,2,40,0,0
44528,-133.333333333333,4,2,1,40,0,0
44705,-133.333333333333,4,2,1,5,0,0
44881,-133.333333333333,4,2,1,40,0,0
45058,-133.333333333333,4,2,1,5,0,0
45234,-133.333333333333,4,2,1,40,0,0
45410,-133.333333333333,4,2,1,5,0,0
45587,-133.333333333333,4,2,1,50,0,1
45940,-133.333333333333,4,2,3,50,0,1
46116,-133.333333333333,4,2,1,50,0,1
46646,-133.333333333333,4,2,3,50,0,1
46822,-133.333333333333,4,2,1,50,0,1
47352,-133.333333333333,4,2,3,50,0,1
47528,-133.333333333333,4,2,1,50,0,1
48058,-133.333333333333,4,2,3,50,0,1
48234,-133.333333333333,4,2,1,50,0,1
48763,-133.333333333333,4,2,3,50,0,1
48940,-133.333333333333,4,2,1,50,0,1
49293,-133.333333333333,4,2,1,5,0,1
49469,-133.333333333333,4,2,3,50,0,1
49822,-133.333333333333,4,2,1,50,0,1
49999,-133.333333333333,4,2,1,5,0,1
50175,-133.333333333333,4,2,3,50,0,1
50528,-133.333333333333,4,2,1,50,0,1
51587,-133.333333333333,4,2,3,50,0,1
51940,-133.333333333333,4,2,1,50,0,1
52293,-133.333333333333,4,2,3,50,0,1
52469,-133.333333333333,4,2,1,5,0,1
52646,-133.333333333333,4,2,1,50,0,1
52999,-133.333333333333,4,2,3,50,0,1
53175,-133.333333333333,4,2,1,50,0,1
53881,-133.333333333333,4,2,1,5,0,1
54058,-133.333333333333,4,2,1,50,0,1
54410,-133.333333333333,4,2,3,50,0,1
54587,-133.333333333333,4,2,1,50,0,1
55116,-133.333333333333,4,2,3,50,0,1
55293,-133.333333333333,4,2,1,50,0,1
55822,-133.333333333333,4,2,3,50,0,1
55999,-133.333333333333,4,2,1,50,0,1
57234,-133.333333333333,4,2,3,50,0,1
57410,-133.333333333333,4,2,1,50,0,1
57940,-133.333333333333,4,2,3,50,0,1
58116,-133.333333333333,4,2,1,50,0,1
58646,-133.333333333333,4,2,3,50,0,1
58822,-133.333333333333,4,2,1,50,0,1
59352,-133.333333333333,4,2,3,50,0,1
59528,-133.333333333333,4,2,1,50,0,1
60058,-133.333333333333,4,2,3,50,0,1
60234,-133.333333333333,4,2,1,50,0,1
60587,-133.333333333333,4,2,1,5,0,1
60763,-133.333333333333,4,2,1,50,0,1
62881,-133.333333333333,4,2,3,50,0,1
63058,-133.333333333333,4,2,1,50,0,1
63587,-133.333333333333,4,2,3,50,0,1
63763,-133.333333333333,4,2,1,5,0,1
63940,-133.333333333333,4,2,1,50,0,1
64293,-133.333333333333,4,2,3,50,0,1
64469,-133.333333333333,4,2,1,50,0,1
65175,-133.333333333333,4,2,1,5,0,1
65352,-133.333333333333,4,2,1,50,0,1
68175,-200,4,2,1,40,0,0
73822,705.882352941176,4,2,1,40,1,0
73822,-133.333333333333,4,2,1,40,0,0
77528,-133.333333333333,4,2,1,5,0,0
77705,-133.333333333333,4,2,1,40,0,0
78940,-133.333333333333,4,2,1,5,0,0
79116,-133.333333333333,4,2,1,40,0,0
79293,-133.333333333333,4,2,1,5,0,0
79469,-133.333333333333,4,2,1,40,0,0
83881,-133.333333333333,4,2,1,5,0,0
84058,-133.333333333333,4,2,1,40,0,0
84234,-133.333333333333,4,2,1,5,0,0
84410,-133.333333333333,4,2,1,40,0,0
84587,-133.333333333333,4,2,1,5,0,0
84763,-133.333333333333,4,2,1,40,0,0
84940,-133.333333333333,4,2,1,5,0,0
85116,-133.333333333333,4,2,1,40,0,0
85999,-133.333333333333,4,2,1,5,0,0
86175,-133.333333333333,4,2,1,40,0,0
88822,-133.333333333333,4,2,1,5,0,0
88999,-133.333333333333,4,2,1,40,0,0
101352,-133.333333333333,4,3,4,40,0,0
102058,-133.333333333333,4,2,1,40,0,0
107704,-133.333333333333,4,2,1,50,0,1
108058,-133.333333333333,4,2,3,50,0,1
108234,-133.333333333333,4,2,1,50,0,1
108764,-133.333333333333,4,2,3,50,0,1
108940,-133.333333333333,4,2,1,50,0,1
109470,-133.333333333333,4,2,3,50,0,1
109646,-133.333333333333,4,2,1,50,0,1
110176,-133.333333333333,4,2,3,50,0,1
110352,-133.333333333333,4,2,1,50,0,1
110881,-133.333333333333,4,2,3,50,0,1
111058,-133.333333333333,4,2,1,50,0,1
111587,-133.333333333333,4,2,3,50,0,1
111940,-133.333333333333,4,2,1,50,0,1
112293,-133.333333333333,4,2,3,50,0,1
112646,-133.333333333333,4,2,1,50,0,1
113705,-133.333333333333,4,2,3,50,0,1
114058,-133.333333333333,4,2,1,50,0,1
114411,-133.333333333333,4,2,3,50,0,1
114587,-133.333333333333,4,2,1,5,0,1
114763,-133.333333333333,4,2,1,50,0,1
115117,-133.333333333333,4,2,3,50,0,1
115293,-133.333333333333,4,2,1,50,0,1
115999,-133.333333333333,4,2,1,5,0,1
116175,-133.333333333333,4,2,1,50,0,1
116528,-133.333333333333,4,2,3,50,0,1
116705,-133.333333333333,4,2,1,50,0,1
117234,-133.333333333333,4,2,3,50,0,1
117411,-133.333333333333,4,2,1,50,0,1
117940,-133.333333333333,4,2,3,50,0,1
118117,-133.333333333333,4,2,1,50,0,1
119352,-133.333333333333,4,2,3,50,0,1
119528,-133.333333333333,4,2,1,50,0,1
120058,-133.333333333333,4,2,3,50,0,1
120234,-133.333333333333,4,2,1,50,0,1
120764,-133.333333333333,4,2,3,50,0,1
120940,-133.333333333333,4,2,1,50,0,1
121470,-133.333333333333,4,2,3,50,0,1
121646,-133.333333333333,4,2,1,50,0,1
122176,-133.333333333333,4,2,3,50,0,1
122352,-133.333333333333,4,2,1,50,0,1
122705,-133.333333333333,4,2,1,5,0,1
122881,-133.333333333333,4,2,1,50,0,1
124999,-133.333333333333,4,2,3,50,0,1
125176,-133.333333333333,4,2,1,50,0,1
125705,-133.333333333333,4,2,3,50,0,1
125881,-133.333333333333,4,2,1,5,0,1
126058,-133.333333333333,4,2,1,50,0,1
126411,-133.333333333333,4,2,3,50,0,1
126587,-133.333333333333,4,2,1,50,0,1
127293,-133.333333333333,4,2,1,5,0,1
127469,-133.333333333333,4,2,1,50,0,1
130116,-133.333333333333,4,2,1,50,0,1
130292,-270.27027027027,4,2,1,50,0,0
130646,-270.27027027027,4,2,1,5,0,0
130734,-270.27027027027,4,2,1,40,0,0
132128,-140.845070422535,4,2,1,40,0,0
141587,-200,4,2,1,40,0,0
142116,-200,4,2,1,5,0,0
142293,-200,4,2,1,40,0,0
142822,-200,4,2,1,5,0,0
142999,-200,4,2,1,40,0,0
143528,-200,4,2,1,5,0,0
143705,-200,4,2,1,40,0,0
144234,-200,4,2,1,5,0,0
144410,-200,4,2,1,40,0,0
145822,-200,4,2,1,5,0,0
146352,-133.333333333333,4,2,1,40,0,0
147233,-133.333333333333,4,2,1,50,0,1
147587,-133.333333333333,4,2,3,50,0,1
147763,-133.333333333333,4,2,1,50,0,1
148293,-133.333333333333,4,2,3,50,0,1
148469,-133.333333333333,4,2,1,5,0,1
148646,-133.333333333333,4,2,1,50,0,1
148999,-133.333333333333,4,2,3,50,0,1
149175,-133.333333333333,4,2,1,50,0,1
149705,-133.333333333333,4,2,3,50,0,1
149881,-133.333333333333,4,2,1,5,0,1
150058,-133.333333333333,4,2,1,50,0,1
150410,-133.333333333333,4,2,3,50,0,1
150587,-133.333333333333,4,2,1,50,0,1
151116,-133.333333333333,4,2,3,50,0,1
151293,-133.333333333333,4,2,1,5,0,1
151469,-133.333333333333,4,2,1,50,0,1
151822,-133.333333333333,4,2,3,50,0,1
151999,-133.333333333333,4,2,1,50,0,1
153234,-133.333333333333,4,2,3,50,0,1
153410,-133.333333333333,4,2,1,50,0,1
153940,-133.333333333333,4,2,3,50,0,1
154116,-133.333333333333,4,2,1,50,0,1
154646,-133.333333333333,4,2,3,50,0,1
154822,-133.333333333333,4,2,1,50,0,1
155352,-133.333333333333,4,2,3,50,0,1
155528,-133.333333333333,4,2,1,50,0,1
156058,-133.333333333333,4,2,3,50,0,1
156234,-133.333333333333,4,2,1,50,0,1
156587,-133.333333333333,4,2,1,5,0,1
156763,-133.333333333333,4,2,1,50,0,1
158881,-133.333333333333,4,2,3,50,0,1
159058,-133.333333333333,4,2,1,50,0,1
159587,-133.333333333333,4,2,3,50,0,1
159763,-133.333333333333,4,2,1,5,0,1
159940,-133.333333333333,4,2,1,50,0,1
160293,-133.333333333333,4,2,3,50,0,1
160469,-133.333333333333,4,2,1,50,0,1
160999,-133.333333333333,4,2,3,50,0,1
161175,-133.333333333333,4,2,1,5,0,1
161352,-133.333333333333,4,2,1,50,0,1
164174,-263.157894736842,4,2,1,40,0,0
164881,-263.157894736842,4,2,1,5,0,0

[Colours]
Combo1 : 255,55,61
Combo2 : 194,231,226
Combo3 : 139,214,203
Combo4 : 250,121,253

[HitObjects]
174,225,235,5,0,0:0:0:0:
174,225,411,2,0,P|145:277|74:302,1,123.750004720688,4|0,0:0|0:0,0:0:0:0:
15,285,1116,1,8,0:0:0:0:
124,383,1469,1,0,0:0:0:0:
256,128,2528,5,8,0:0:0:0:
338,225,3058,37,0,0:0:0:0:
338,225,3234,2,0,P|367:277|438:302,1,123.750004720688,4|0,0:0|0:0,0:0:0:0:
497,285,3939,1,8,0:0:0:0:
388,383,4292,1,0,0:0:0:0:
256,128,5352,5,8,0:0:0:0:
174,225,5881,37,0,0:0:0:0:
174,225,6057,2,0,P|143:279|151:342,1,123.750004720688,4|0,0:0|0:0,0:0:0:0:
211,377,6762,1,8,0:0:0:0:
68,334,7115,1,0,0:0:0:0:
256,128,8175,5,8,0:0:0:0:
338,225,8705,37,0,0:0:0:0:
338,225,8881,2,0,P|369:279|361:342,1,123.750004720688,4|0,0:0|0:0,0:0:0:0:
301,377,9586,1,8,0:0:0:0:
444,334,9939,1,0,0:0:0:0:
256,128,10999,5,8,0:0:0:0:
123,258,11705,38,0,L|140:203,1,41.2500015735627,4|0,0:0|0:0,0:0:0:0:
61,211,12058,2,0,L|4:223,1,41.2500015735627
51,287,12410,2,0,B|86:325|86:325|131:335,1,82.5000031471254,8|2,0:0|0:0,0:0:0:0:
256,380,13116,2,0,L|255:326,1,41.2500015735627,6|2,0:0|0:0,0:0:0:0:
256,128,13822,5,8,0:0:0:0:
384,245,14175,37,0,0:0:0:0:
384,245,14352,1,0,0:0:0:0:
384,245,14528,2,0,P|369:216|367:190,1,41.2500015735627,4|0,0:0|0:0,0:0:0:0:
441,197,14881,2,0,P|473:198|497:209,1,41.2500015735627
455,271,15234,2,0,P|434:305|390:323,1,82.5000031471254,8|2,0:0|0:0,0:0:0:0:
256,380,15940,2,0,L|255:326,1,41.2500015735627,6|2,0:0|0:0,0:0:0:0:
257,190,16469,5,2,0:0:0:0:
257,190,16646,2,0,L|257:117,2,41.2500015735627,10|2|2,0:0|0:0|0:0,0:0:0:0:
316,306,17352,2,0,B|272:330|240:282|196:306,1,123.750004720688,6|0,0:0|0:0,0:0:0:0:
256,384,18058,37,8,0:0:0:0:
256,384,18410,1,0,0:0:0:0:
257,194,19293,5,2,0:0:0:0:
257,194,19470,2,0,L|257:267,2,41.2500015735627,10|2|2,0:0|0:0|0:0,0:0:0:0:
197,79,20175,2,0,B|240:71|240:71|272:87|272:87|315:79,1,123.750004720688,6|0,0:0|0:0,0:0:0:0:
256,0,20881,37,8,0:0:0:0:
256,0,21233,1,0,0:0:0:0:
257,190,22293,5,8,0:0:0:0:
257,190,22470,2,0,L|257:117,2,41.2500015735627,4|4|8,0:0|0:0|0:0,0:0:0:0:
170,257,22999,38,4,L|128:253,1,41.2500015735627,4|0,0:0|0:0,0:0:0:0:
55,242,23352,2,0,L|13:238,1,41.2500015735627
47,318,23705,2,0,B|80:343|80:343|121:327,1,82.5000031471254,8|2,0:0|0:0,0:0:0:0:
256,383,24410,2,0,L|256:324,1,41.2500015735627,6|2,0:0|0:0,0:0:0:0:
256,128,25116,5,8,0:0:0:0:
256,128,25469,2,0,L|256:184,1,41.2500015735627
342,257,25822,38,0,L|384:253,1,41.2500015735627,4|0,0:0|0:0,0:0:0:0:
457,242,26175,2,0,L|499:238,1,41.2500015735627
465,318,26528,2,0,P|432:343|391:327,1,82.5000031471254,8|2,0:0|0:0,0:0:0:0:
256,383,27233,2,0,L|256:324,1,41.2500015735627,6|2,0:0|0:0,0:0:0:0:
256,192,27763,5,2,0:0:0:0:
256,192,27940,2,0,L|256:140,2,41.2500015735627,10|2|2,0:0|0:0|0:0,0:0:0:0:
309,329,28646,2,0,P|257:357|204:330,1,123.750004720688,6|0,0:0|0:0,0:0:0:0:
256,276,29352,37,8,0:0:0:0:
256,276,29705,1,0,0:0:0:0:
256,192,30763,5,10,0:0:0:0:
256,192,30939,1,2,0:0:0:0:
256,192,31116,1,2,0:0:0:0:
308,54,31469,2,0,B|256:18|256:18|199:60,1,123.750004720688,6|0,0:0|0:0,0:0:0:0:
260,111,32175,37,8,0:0:0:0:
260,111,32528,1,0,0:0:0:0:
256,319,33587,5,8,0:0:0:0:
256,319,33764,2,0,L|256:371,2,41.2500015735627,4|4|8,0:0|0:0|0:0,0:0:0:0:
296,256,34293,6,0,P|320:247|345:226,2,41.2500015735627,4|0|2,0:0|0:0|0:0,0:0:0:0:
256,319,34822,1,2,0:0:0:0:
215,255,34999,2,0,P|196:249|179:238,2,41.2500015735627,8|0|2,0:0|0:0|0:0,0:0:0:0:
256,193,35528,2,0,L|256:146,1,41.2500015735627,0|4,0:0|0:0,0:0:0:0:
308,98,35881,2,0,L|308:51,1,41.2500015735627,2|2,0:0|0:0,0:0:0:0:
256,2,36234,1,0,0:0:0:0:
204,56,36410,2,0,L|204:98,1,41.2500015735627,8|0,0:0|0:0,0:0:0:0:
256,151,36763,1,2,0:0:0:0:
327,170,36940,2,0,P|317:196|306:207,2,41.2500015735627,0|4|2,0:0|0:0|0:0,0:0:0:0:
350,99,37469,2,0,P|330:96|306:99,1,41.2500015735627,2|0,0:0|0:0,0:0:0:0:
256,45,37822,2,0,L|256:2,1,41.2500015735627,8|0,0:0|0:0,0:0:0:0:
202,98,38175,2,0,P|182:95|162:99,1,41.2500015735627,2|0,0:0|0:0,0:0:0:0:
184,170,38528,2,0,P|189:189|203:205,1,41.2500015735627,4|0,0:0|0:0,0:0:0:0:
256,257,38881,2,0,L|256:298,1,41.2500015735627,2|2,0:0|0:0,0:0:0:0:
243,371,39234,1,6,0:3:0:0:
252,371,39411,1,2,0:3:0:0:
261,371,39587,1,10,0:3:0:0:
317,238,39940,22,0,L|194:238,1,123.750004720688,6|0,0:0|0:0,0:0:0:0:
259,323,40646,1,8,0:0:0:0:
259,323,40999,1,0,0:0:0:0:
256,50,42058,5,8,0:0:0:0:
312,188,42587,37,2,0:0:0:0:
312,188,42763,2,0,P|343:218|396:220,2,82.5000031471254,6|2|10,0:0|0:0|0:0,0:0:0:0:
255,132,43822,1,10,0:0:0:0:
255,132,43999,1,2,0:0:0:0:
200,188,44175,2,0,P|169:218|116:220,2,82.5000031471254,2|10|14,0:0|0:0|0:0,0:0:0:0:
256,50,45234,1,2,0:0:0:0:
334,152,45587,21,6,0:0:0:0:
334,152,45763,2,0,B|338:198|338:198|309:231,1,82.5000031471254,2|0,0:0|0:0,0:0:0:0:
174,163,46293,5,10,0:0:0:0:
174,163,46469,2,0,B|169:209|169:209|199:242,1,82.5000031471254,2|0,0:0|0:0,0:0:0:0:
351,166,46999,37,6,0:0:0:0:
351,166,47175,2,0,B|355:212|355:212|326:245,1,82.5000031471254,2|0,0:0|0:0,0:0:0:0:
154,176,47705,5,10,0:0:0:0:
154,176,47881,2,0,B|149:222|149:222|179:255,1,82.5000031471254,2|0,0:0|0:0,0:0:0:0:
372,177,48410,37,6,0:0:0:0:
372,177,48587,2,0,B|376:223|376:223|347:256,1,82.5000031471254,2|0,0:0|0:0,0:0:0:0:
256,212,49116,6,0,L|256:164,1,41.2500015735627,8|0,0:0|0:0,0:0:0:0:
217,107,49469,2,0,P|256:94|297:108,2,82.5000031471254,8|4|8,0:0|0:0|0:0,0:0:0:0:
256,173,50352,37,2,0:0:0:0:
256,187,50528,1,14,0:0:0:0:
256,201,50705,1,6,0:0:0:0:
256,213,50881,1,6,0:0:0:0:
256,225,51058,1,4,0:0:0:0:
317,284,51234,6,0,P|361:272|381:224,1,82.5000031471254,6|8,0:0|0:0,0:0:0:0:
388,168,51763,1,0,0:0:0:0:
447,213,51940,1,8,0:0:0:0:
403,355,52293,1,8,0:0:0:0:
256,328,52646,2,0,L|256:376,2,41.2500015735627,4|0|8,0:0|0:0|0:0,0:0:0:0:
195,284,53175,37,2,0:0:0:0:
216,212,53352,1,10,0:0:0:0:
296,212,53528,1,2,0:0:0:0:
317,284,53705,1,2,0:0:0:0:
195,284,54058,6,0,P|151:272|131:224,1,82.5000031471254,6|8,0:0|0:0,0:0:0:0:
124,168,54587,1,0,0:0:0:0:
65,213,54764,1,8,0:0:0:0:
44,66,55116,2,0,L|38:23,2,41.2500015735627,8|0|4,0:0|0:0|0:0,0:0:0:0:
182,120,55822,2,0,L|176:77,2,41.2500015735627,8|2|14,0:0|0:0|0:0,0:0:0:0:
191,194,56352,1,6,0:0:0:0:
255,158,56528,1,6,0:0:0:0:
319,194,56705,1,4,0:0:0:0:
328,120,56881,37,6,0:0:0:0:
328,120,57058,2,0,B|333:71|333:71|313:33,1,82.5000031471254,2|0,0:0|0:0,0:0:0:0:
172,131,57587,5,10,0:0:0:0:
172,131,57763,2,0,B|166:82|166:82|187:44,1,82.5000031471254,2|0,0:0|0:0,0:0:0:0:
347,140,58293,37,6,0:0:0:0:
347,140,58469,2,0,B|352:91|352:91|332:53,1,82.5000031471254,2|0,0:0|0:0,0:0:0:0:
155,153,58999,5,10,0:0:0:0:
155,153,59175,2,0,B|149:104|149:104|170:66,1,82.5000031471254,2|0,0:0|0:0,0:0:0:0:
367,164,59705,37,6,0:0:0:0:
367,164,59881,2,0,B|372:115|372:115|352:77,1,82.5000031471254,2|0,0:0|0:0,0:0:0:0:
256,16,60410,5,8,0:0:0:0:
196,219,60763,1,2,0:0:0:0:
256,267,60940,1,2,0:0:0:0:
316,219,61116,2,0,L|365:219,2,41.2500015735627,6|0|0,0:0|0:0|0:0,0:0:0:0:
256,171,61646,1,2,0:0:0:0:
256,157,61822,1,10,0:0:0:0:
256,143,61999,1,6,0:0:0:0:
256,131,62175,1,6,0:0:0:0:
256,119,62352,1,4,0:0:0:0:
323,89,62528,38,0,P|367:101|387:149,1,82.5000031471254,6|8,0:0|0:0,0:0:0:0:
394,205,63057,1,0,0:0:0:0:
453,160,63234,1,8,0:0:0:0:
401,20,63587,1,8,0:0:0:0:
256,56,63940,2,0,L|256:8,2,41.2500015735627,4|0|8,0:0|0:0|0:0,0:0:0:0:
189,89,64469,5,2,0:0:0:0:
219,156,64646,1,10,0:0:0:0:
293,156,64822,1,2,0:0:0:0:
323,89,64999,1,2,0:0:0:0:
189,89,65352,2,0,P|145:101|125:149,1,82.5000031471254,6|0,0:0|0:0,0:0:0:0:
81,255,66058,38,0,L|38:255,2,41.2500015735627,10|2|2,0:0|0:0|0:0,0:0:0:0:
216,312,66763,22,0,B|244:296|266:327|295:312,1,82.5000031471254,6|0,0:0|0:0,0:0:0:0:
431,255,67293,37,2,0:0:0:0:
431,255,67469,2,0,L|474:255,2,41.2500015735627,10|6|6,0:0|0:0|0:0,0:0:0:0:
295,312,68175,6,0,B|266:327|244:296|216:312,1,82.5000031471254,6|0,0:0|0:0,0:0:0:0:
256,384,68881,1,8,0:0:0:0:
122,263,73822,6,0,B|119:242|119:242|101:234,1,41.2500015735627,4|0,0:0|0:0,0:0:0:0:
49,288,74175,2,0,B|32:300|32:300|34:320,1,41.2500015735627
106,335,74528,2,0,B|144:352|144:352|177:328,1,82.5000031471254,8|2,0:0|0:0,0:0:0:0:
256,202,75233,2,0,L|256:145,1,41.2500015735627,6|2,0:0|0:0,0:0:0:0:
256,288,75939,37,8,0:0:0:0:
388,220,76293,6,0,L|428:215,1,41.2500015735627
486,265,76646,2,0,L|490:305,1,41.2500015735627,4|0,0:0|0:0,0:0:0:0:
444,366,76999,2,0,L|403:370,1,41.2500015735627
348,321,77352,2,0,L|343:280,1,41.2500015735627,8|0,0:0|0:0,0:0:0:0:
388,220,77705,1,2,0:0:0:0:
400,219,77881,1,2,0:0:0:0:
415,219,78058,1,6,0:0:0:0:
428,217,78234,1,2,0:0:0:0:
331,16,78763,38,0,P|311:11|290:16,1,41.2500015735627,10|0,0:0|0:0,0:0:0:0:
180,16,79116,2,0,P|199:12|219:16,1,41.2500015735627,2|0,0:0|0:0,0:0:0:0:
256,81,79469,2,0,L|255:165,1,82.5000031471254,6|0,0:0|0:0,0:0:0:0:
293,227,79999,5,0,0:0:0:0:
218,227,80175,1,8,0:0:0:0:
255,370,80528,1,0,0:0:0:0:
256,162,81410,37,2,0:0:0:0:
256,162,81587,2,0,L|256:105,2,41.2500015735627,10|2|2,0:0|0:0|0:0,0:0:0:0:
304,249,82293,2,0,B|256:210|256:210|208:249,1,123.750004720688,6|0,0:0|0:0,0:0:0:0:
255,306,82999,5,10,0:0:0:0:
255,319,83175,1,2,0:0:0:0:
255,333,83352,1,2,0:0:0:0:
345,352,83705,37,4,0:0:0:0:
304,249,84058,1,0,0:0:0:0:
207,249,84410,1,4,0:0:0:0:
166,146,84763,1,0,0:0:0:0:
180,31,85116,6,0,P|201:37|222:54,2,41.2500015735627,4|0|0,0:0|0:0|0:0,0:0:0:0:
110,52,85646,1,0,0:0:0:0:
110,52,85822,2,0,P|93:86|94:133,1,82.5000031471254,8|2,0:0|0:0,0:0:0:0:
256,209,86528,2,0,L|256:258,1,41.2500015735627,6|2,0:0|0:0,0:0:0:0:
255,117,87234,37,8,0:0:0:0:
413,41,87763,5,0,0:0:0:0:
413,41,87940,2,0,P|433:56|447:86,1,41.2500015735627,4|0,0:0|0:0,0:0:0:0:
481,132,88293,2,0,P|458:141|423:139,1,41.2500015735627
341,176,88646,2,0,P|347:138|382:105,1,82.5000031471254,8|2,0:0|0:0,0:0:0:0:
415,251,89352,2,0,P|389:250|364:233,1,41.2500015735627,6|2,0:0|0:0,0:0:0:0:
256,155,89881,37,2,0:0:0:0:
256,229,90058,2,0,L|256:278,2,41.2500015735627,10|2|2,0:0|0:0|0:0,0:0:0:0:
307,47,90763,6,0,B|241:47|259:101|180:89,1,123.750004720688,6|0,0:0|0:0,0:0:0:0:
172,89,91469,1,8,0:0:0:0:
329,47,91822,1,0,0:0:0:0:
256,229,92528,1,2,0:0:0:0:
256,243,92705,1,2,0:0:0:0:
256,257,92881,1,10,0:0:0:0:
256,271,93058,1,2,0:0:0:0:
256,285,93234,1,2,0:0:0:0:
312,357,93587,38,0,P|256:384|201:351,1,123.750004720688,6|0,0:0|0:0,0:0:0:0:
195,343,94293,1,8,0:0:0:0:
317,343,94646,1,0,0:0:0:0:
168,234,94999,6,0,L|209:233,1,41.2500015735627,4|0,0:0|0:0,0:0:0:0:
345,173,95528,38,0,L|303:173,1,41.2500015735627,0|12,0:0|0:0,0:0:0:0:
256,112,95881,2,0,L|256:68,2,41.2500015735627,4|4|12,0:0|0:0|0:0,0:0:0:0:
208,174,96410,22,0,L|208:222,1,41.2500015735627,4|0,0:0|0:0,0:0:0:0:
235,284,96763,2,0,P|256:288|287:281,1,41.2500015735627,2|2,0:0|0:0,0:0:0:0:
304,215,97116,2,0,L|304:173,1,41.2500015735627,8|0,0:0|0:0,0:0:0:0:
256,112,97469,1,2,0:0:0:0:
207,55,97646,2,0,L|165:55,2,41.2500015735627,0|4|2,0:0|0:0|0:0,0:0:0:0:
257,0,98175,1,2,0:0:0:0:
257,0,98352,1,0,0:0:0:0:
305,55,98528,2,0,L|346:55,2,41.2500015735627,8|0|2,0:0|0:0|0:0,0:0:0:0:
256,112,99058,1,0,0:0:0:0:
208,174,99234,2,0,L|208:222,1,41.2500015735627,4|2,0:0|0:0,0:0:0:0:
256,278,99587,1,2,0:0:0:0:
256,278,99763,1,0,0:0:0:0:
304,215,99940,2,0,L|304:173,2,41.2500015735627,8|0|2,0:0|0:0|0:0,0:0:0:0:
352,278,100469,1,0,0:0:0:0:
304,340,100646,2,0,L|294:383,1,41.2500015735627,4|0,0:0|0:0,0:0:0:0:
217,380,100999,2,0,L|208:340,1,41.2500015735627,2|2,0:0|0:0,0:0:0:0:
247,278,101352,1,6,0:0:0:0:
256,278,101527,1,2,0:0:0:0:
265,278,101705,1,10,0:0:0:0:
318,162,102058,22,0,L|194:162,1,123.750004720688,6|0,0:0|0:0,0:0:0:0:
175,161,102763,1,8,0:0:0:0:
337,161,103116,1,0,0:0:0:0:
253,1,104175,5,8,0:0:0:0:
257,169,104705,37,2,0:0:0:0:
257,169,104881,1,6,0:0:0:0:
316,282,105234,6,0,L|268:282,1,41.2500015735627,2|10,0:0|0:0,0:0:0:0:
196,282,105587,1,10,0:0:0:0:
340,318,105940,6,0,L|292:318,1,41.2500015735627,10|2,0:0|0:0,0:0:0:0:
172,318,106293,2,0,L|220:318,1,41.2500015735627,2|10,0:0|0:0,0:0:0:0:
364,354,106646,5,10,0:0:0:0:
148,354,106999,1,14,0:0:0:0:
257,169,107352,1,6,0:0:0:0:
337,235,107705,5,6,0:0:0:0:
337,235,107881,2,0,B|347:146,1,82.5000031471254,2|0,0:0|0:0,0:0:0:0:
179,248,108410,37,10,0:0:0:0:
179,248,108587,2,0,B|169:159,1,82.5000031471254,2|0,0:0|0:0,0:0:0:0:
349,253,109116,37,6,0:0:0:0:
349,253,109293,2,0,B|359:164,1,82.5000031471254,2|0,0:0|0:0,0:0:0:0:
165,265,109822,5,10,0:0:0:0:
165,265,109999,2,0,B|155:176,1,82.5000031471254,2|0,0:0|0:0,0:0:0:0:
360,275,110528,37,6,0:0:0:0:
360,275,110705,2,0,B|370:186,1,82.5000031471254,2|0,0:0|0:0,0:0:0:0:
256,261,111234,6,0,L|256:303,2,41.2500015735627,8|0|8,0:0|0:0|0:0,0:0:0:0:
214,200,111763,1,0,0:0:0:0:
256,138,111940,2,0,L|256:96,2,41.2500015735627,4|0|8,0:0|0:0|0:0,0:0:0:0:
298,200,112469,1,2,0:0:0:0:
255,262,112646,2,0,P|234:272|202:275,1,41.2500015735627,14|6,0:0|0:0,0:0:0:0:
181,340,112999,2,0,P|161:326|143:300,1,41.2500015735627,6|6,0:0|0:0,0:0:0:0:
76,319,113352,38,0,P|77:295|112:246,1,82.5000031471254,6|8,0:0|0:0,0:0:0:0:
176,213,113881,1,0,0:0:0:0:
176,213,114058,1,8,0:0:0:0:
336,213,114410,1,8,0:0:0:0:
256,86,114764,2,0,L|256:38,2,41.2500015735627,4|0|8,0:0|0:0|0:0,0:0:0:0:
193,126,115293,5,2,0:0:0:0:
219,195,115470,1,10,0:0:0:0:
292,195,115646,1,2,0:0:0:0:
319,126,115822,1,2,0:0:0:0:
193,126,116175,2,0,P|157:158|148:205,1,82.5000031471254,6|8,0:0|0:0,0:0:0:0:
175,259,116705,37,0,0:0:0:0:
101,248,116881,1,8,0:0:0:0:
8,344,117234,2,0,L|2:384,2,41.2500015735627,8|0|4,0:0|0:0|0:0,0:0:0:0:
129,318,117940,2,0,L|123:358,2,41.2500015735627,8|2|14,0:0|0:0|0:0,0:0:0:0:
175,259,118469,1,6,0:0:0:0:
219,319,118646,1,6,0:0:0:0:
293,317,118822,1,4,0:0:0:0:
337,259,118998,5,6,0:0:0:0:
337,259,119175,2,0,B|348:166,1,82.5000031471254,2|0,0:0|0:0,0:0:0:0:
168,250,119705,37,10,0:0:0:0:
168,250,119881,2,0,B|157:157,1,82.5000031471254,2|0,0:0|0:0,0:0:0:0:
355,241,120410,5,6,0:0:0:0:
355,241,120587,2,0,B|366:148,1,82.5000031471254,2|0,0:0|0:0,0:0:0:0:
144,230,121116,37,10,0:0:0:0:
144,230,121293,2,0,B|133:137,1,82.5000031471254,2|0,0:0|0:0,0:0:0:0:
379,215,121822,5,6,0:0:0:0:
379,215,121999,2,0,B|390:122,1,82.5000031471254,2|0,0:0|0:0,0:0:0:0:
256,46,122528,37,8,0:0:0:0:
199,219,122881,1,2,0:0:0:0:
262,267,123058,1,2,0:0:0:0:
319,219,123234,2,0,L|368:219,2,41.2500015735627,6|0|0,0:0|0:0|0:0,0:0:0:0:
259,171,123764,1,2,0:0:0:0:
259,171,123940,2,0,P|247:150|243:129,1,41.2500015735627,14|6,0:0|0:0,0:0:0:0:
173,107,124293,2,0,P|185:87|201:73,1,41.2500015735627,6|4,0:0|0:0,0:0:0:0:
187,1,124646,6,0,P|224:3|262:37,1,82.5000031471254,6|8,0:0|0:0,0:0:0:0:
307,87,125175,1,0,0:0:0:0:
307,87,125352,1,8,0:0:0:0:
205,196,125705,1,8,0:0:0:0:
256,336,126058,2,0,L|256:384,2,41.2500015735627,4|0|8,0:0|0:0|0:0,0:0:0:0:
319,296,126587,37,2,0:0:0:0:
293,227,126764,1,10,0:0:0:0:
220,227,126940,1,2,0:0:0:0:
193,296,127116,1,2,0:0:0:0:
319,296,127469,2,0,P|355:264|364:217,1,82.5000031471254,6|0,0:0|0:0,0:0:0:0:
431,129,128175,6,0,L|474:129,2,41.2500015735627,10|2|2,0:0|0:0|0:0,0:0:0:0:
297,72,128881,6,0,B|272:76|272:76|240:68|240:68|217:72,1,82.5000031471254,6|0,0:0|0:0,0:0:0:0:
81,129,129411,37,2,0:0:0:0:
81,129,129587,2,0,L|38:129,2,41.2500015735627,14|6|6,0:0|0:0|0:0,0:0:0:0:
217,72,130293,6,0,B|240:68|240:68|272:76|272:76|297:72,1,81.4000019873047,6|10,0:0|0:0,0:0:0:0:
432,219,136293,6,0,L|379:230,1,39.0499980336763
327,262,136646,2,0,L|363:302,1,39.0499980336763,10|2,0:0|0:0,0:0:0:0:
416,331,136999,2,0,L|432:279,1,39.0499980336763,2|0,0:0|0:0,0:0:0:0:
432,219,137352,1,6,0:0:0:0:
72,179,138058,38,0,L|68:128,2,39.0499980336763,10|2|2,0:0|0:0|0:0,0:0:0:0:
84,292,138763,1,6,0:0:0:0:
439,179,139469,6,0,L|444:128,2,39.0499980336763,10|2|2,0:0|0:0|0:0,0:0:0:0:
428,292,140174,1,6,0:0:0:0:
245,315,140705,37,2,0:0:0:0:
267,293,140881,1,10,0:0:0:0:
245,261,141058,1,2,0:0:0:0:
267,239,141234,1,2,0:0:0:0:
163,118,141587,5,2,0:0:0:0:
163,118,141763,1,2,0:0:0:0:
368,164,142293,37,2,0:0:0:0:
368,164,142469,1,2,0:0:0:0:
133,224,142999,5,2,0:0:0:0:
133,224,143175,1,2,0:0:0:0:
415,296,143705,37,2,0:0:0:0:
415,296,143881,1,2,0:0:0:0:
91,347,144410,5,2,0:0:0:0:
91,347,144586,1,2,0:0:0:0:
256,192,144763,12,0,145822,0:0:0:0:
295,198,146352,5,2,0:0:0:0:
217,198,146528,1,2,0:0:0:0:
256,261,146705,1,6,0:0:0:0:
256,276,146881,1,6,0:0:0:0:
256,291,147058,1,4,0:0:0:0:
295,353,147234,6,0,B|331:373|331:373|387:357,1,82.5000031471254,6|8,1:0|0:0,0:0:0:0:
440,336,147763,1,2,0:0:0:0:
488,279,147940,2,0,L|501:238,2,41.2500015735627,10|2|10,0:0|0:0|0:0,0:0:0:0:
339,294,148646,2,0,B|321:238|321:238|288:221,1,82.5000031471254,6|8,0:0|0:0,0:0:0:0:
225,229,149175,37,2,0:0:0:0:
161,266,149352,1,10,0:0:0:0:
198,330,149528,1,2,0:0:0:0:
262,293,149705,1,10,0:0:0:0:
160,191,150058,6,0,L|73:197,1,82.5000031471254,6|8,0:0|0:0,0:0:0:0:
35,135,150587,1,2,0:0:0:0:
63,66,150763,2,0,L|60:23,2,41.2500015735627,10|2|10,0:0|0:0|0:0,0:0:0:0:
160,191,151469,1,6,0:0:0:0:
318,167,151822,38,0,L|373:172,2,41.2500015735627,8|2|14,0:0|0:0|0:0,0:0:0:0:
296,93,152352,1,6,0:0:0:0:
216,93,152528,1,6,0:0:0:0:
194,167,152705,1,4,0:0:0:0:
256,207,152881,5,6,0:0:0:0:
339,299,153058,2,0,P|316:318|264:331,1,82.5000031471254,2|0,0:0|0:0,0:0:0:0:
256,207,153587,37,10,0:0:0:0:
162,314,153764,2,0,P|187:328|242:329,1,82.5000031471254,2|0,0:0|0:0,0:0:0:0:
256,207,154293,5,6,0:0:0:0:
358,337,154470,2,0,P|329:345|276:335,1,82.5000031471254,2|0,0:0|0:0,0:0:0:0:
256,207,154999,37,10,0:0:0:0:
141,360,155174,2,0,P|170:362|220:341,1,82.5000031471254,2|0,0:0|0:0,0:0:0:0:
256,207,155705,5,6,0:0:0:0:
372,380,155880,2,0,P|342:376|298:345,1,82.5000031471254,2|0,0:0|0:0,0:0:0:0:
256,207,156410,37,8,0:0:0:0:
195,63,156763,1,2,0:0:0:0:
255,15,156940,1,2,0:0:0:0:
315,63,157116,2,0,L|364:63,2,41.2500015735627,6|0|0,0:0|0:0|0:0,0:0:0:0:
256,113,157646,1,2,0:0:0:0:
194,157,157822,1,14,0:0:0:0:
217,230,157999,1,6,0:0:0:0:
294,230,158175,1,6,0:0:0:0:
317,157,158352,1,4,0:0:0:0:
387,134,158528,6,0,B|428:131|428:131|473:160,1,82.5000031471254,6|8,0:0|0:0,0:0:0:0:
489,222,159058,1,0,0:0:0:0:
489,222,159234,1,8,0:0:0:0:
402,249,159410,2,0,L|411:206,1,41.2500015735627,2|10,0:0|0:0,0:0:0:0:
308,99,159940,2,0,L|321:180,1,82.5000031471254,6|8,0:0|0:0,0:0:0:0:
334,253,160469,37,2,0:0:0:0:
293,315,160646,1,10,0:0:0:0:
219,315,160822,1,2,0:0:0:0:
178,253,160999,1,10,0:0:0:0:
334,253,161352,2,0,B|363:282|363:282|414:268,1,82.5000031471254,6|0,0:0|0:0,0:0:0:0:
429,141,162058,6,0,L|472:141,2,41.2500015735627,10|2|2,0:0|0:0|0:0,0:0:0:0:
295,72,162763,6,0,B|266:57|244:88|216:72,1,82.5000031471254,6|0,0:0|0:0,0:0:0:0:
83,141,163293,37,2,0:0:0:0:
83,141,163469,2,0,L|40:141,2,41.2500015735627,14|6|6,0:0|0:0|0:0,0:0:0:0:
217,72,164175,6,0,B|246:56|268:88|297:72,1,83.5999989794922,6|0,0:0|0:0,0:0:0:0:
