osu file format v14

[General]
AudioFilename: audio.mp3
AudioLeadIn: 0
PreviewTime: 104561
Countdown: 0
SampleSet: Soft
StackLeniency: 0.6
Mode: 0
LetterboxInBreaks: 0
WidescreenStoryboard: 1

[Editor]
Bookmarks: 11735,34323,36264,45617,47029,47735,68205,73852,96440,107735,130323,141617,147264,164205
DistanceSpacing: 0.9
BeatDivisor: 12
GridSize: 4
TimelineZoom: 3.200005

[Metadata]
Title:You Need To Calm Down
TitleUnicode:You Need To Calm Down
Artist:Taylor Swift
ArtistUnicode:Taylor Swift
Creator:Skubi
Version:Extra
Source:
Tags:Lover pop english cptsqbany lgbt gay pride
BeatmapID:3182669
BeatmapSetID:1365850

[Difficulty]
HPDrainRate:4.5
CircleSize:5.1
OverallDifficulty:8
ApproachRate:8.7
SliderMultiplier:2.2
SliderTickRate:1

[Events]
//Background and Video events
0,0,"1460614.jpg",0,0
//Break Periods
2,70293,73116
//Storyboard Layer 0 (Background)
//Storyboard Layer 1 (Fail)
//Storyboard Layer 2 (Pass)
//Storyboard Layer 3 (Foreground)
//Storyboard Layer 4 (Overlay)
//Storyboard Sound Samples

[TimingPoints]
-294,705.882352941176,4,2,1,40,1,8
58,-133.333333333333,4,2,1,40,0,0
411,705.882352941176,4,2,1,40,1,0
411,-133.333333333333,4,2,1,40,0,0
763,-133.333333333333,4,2,1,5,0,0
940,-133.333333333333,4,2,1,40,0,0
1293,-133.333333333333,4,2,1,5,0,0
1469,-133.333333333333,4,2,1,40,0,0
1646,-133.333333333333,4,2,1,5,0,0
1822,-133.333333333333,4,2,1,40,0,0
3587,-133.333333333333,4,2,1,5,0,0
3763,-133.333333333333,4,2,1,40,0,0
4116,-133.333333333333,4,2,1,5,0,0
4293,-133.333333333333,4,2,1,40,0,0
4469,-133.333333333333,4,2,1,5,0,0
4646,-133.333333333333,4,2,1,40,0,0
6410,-133.333333333333,4,2,1,5,0,0
6587,-133.333333333333,4,2,1,40,0,0
6940,-133.333333333333,4,2,1,5,0,0
7116,-133.333333333333,4,2,1,40,0,0
7293,-133.333333333333,4,2,1,5,0,0
7469,-133.333333333333,4,2,1,40,0,0
9234,-133.333333333333,4,2,1,5,0,0
9410,-133.333333333333,4,2,1,40,0,0
9763,-133.333333333333,4,2,1,5,0,0
9940,-133.333333333333,4,2,1,40,0,0
10116,-133.333333333333,4,2,1,5,0,0
10293,-133.333333333333,4,2,1,40,0,0
15410,-133.333333333333,4,2,1,5,0,0
15587,-133.333333333333,4,2,1,40,0,0
26705,-133.333333333333,4,2,1,5,0,0
26881,-133.333333333333,4,2,1,40,0,0
39234,-133.333333333333,4,3,4,40,0,0
39940,-133.333333333333,4,2,1,40,0,0
42940,-133.333333333333,4,2,1,5,0,0
43116,-133.333333333333,4,2,1,40,0,0
43293,-133.333333333333,4,2,2,40,0,0
43469,-133.333333333333,4,2,1,40,0,0
44352,-133.333333333333,4,2,2,40,0,0
44528,-133.333333333333,4,2,1,40,0,0
44705,-133.333333333333,4,2,1,5,0,0
44881,-133.333333333333,4,2,1,40,0,0
45058,-133.333333333333,4,2,1,5,0,0
45234,-133.333333333333,4,2,1,40,0,0
45410,-133.333333333333,4,2,1,5,0,0
45587,-133.333333333333,4,2,1,50,0,1
45940,-133.333333333333,4,2,3,50,0,1
46116,-133.333333333333,4,2,1,50,0,1
46646,-133.333333333333,4,2,3,50,0,1
46822,-133.333333333333,4,2,1,50,0,1
47352,-133.333333333333,4,2,3,50,0,1
47528,-133.333333333333,4,2,1,50,0,1
48058,-133.333333333333,4,2,3,50,0,1
48234,-133.333333333333,4,2,1,50,0,1
48763,-133.333333333333,4,2,3,50,0,1
48940,-133.333333333333,4,2,1,50,0,1
49293,-133.333333333333,4,2,1,5,0,1
49469,-133.333333333333,4,2,3,50,0,1
49822,-133.333333333333,4,2,1,50,0,1
49999,-133.333333333333,4,2,1,5,0,1
50175,-133.333333333333,4,2,3,50,0,1
50528,-133.333333333333,4,2,1,50,0,1
51587,-133.333333333333,4,2,3,50,0,1
51940,-133.333333333333,4,2,1,50,0,1
52293,-133.333333333333,4,2,3,50,0,1
52469,-133.333333333333,4,2,1,5,0,1
52646,-133.333333333333,4,2,1,50,0,1
52999,-133.333333333333,4,2,3,50,0,1
53175,-133.333333333333,4,2,1,50,0,1
53881,-133.333333333333,4,2,1,5,0,1
54058,-133.333333333333,4,2,1,50,0,1
54410,-133.333333333333,4,2,3,50,0,1
54587,-133.333333333333,4,2,1,50,0,1
55116,-133.333333333333,4,2,3,50,0,1
55293,-133.333333333333,4,2,1,50,0,1
55822,-133.333333333333,4,2,3,50,0,1
55999,-133.333333333333,4,2,1,50,0,1
57234,-133.333333333333,4,2,3,50,0,1
57410,-133.333333333333,4,2,1,50,0,1
57940,-133.333333333333,4,2,3,50,0,1
58116,-133.333333333333,4,2,1,50,0,1
58646,-133.333333333333,4,2,3,50,0,1
58822,-133.333333333333,4,2,1,50,0,1
59352,-133.333333333333,4,2,3,50,0,1
59528,-133.333333333333,4,2,1,50,0,1
60058,-133.333333333333,4,2,3,50,0,1
60234,-133.333333333333,4,2,1,50,0,1
60587,-133.333333333333,4,2,1,5,0,1
60763,-133.333333333333,4,2,1,50,0,1
62881,-133.333333333333,4,2,3,50,0,1
63058,-133.333333333333,4,2,1,50,0,1
63587,-133.333333333333,4,2,3,50,0,1
63763,-133.333333333333,4,2,1,5,0,1
63940,-133.333333333333,4,2,1,50,0,1
64293,-133.333333333333,4,2,3,50,0,1
64469,-133.333333333333,4,2,1,50,0,1
65175,-133.333333333333,4,2,1,5,0,1
65352,-133.333333333333,4,2,1,50,0,1
68175,-200,4,2,1,40,0,0
73822,705.882352941176,4,2,1,40,1,0
73822,-133.333333333333,4,2,1,40,0,0
77528,-133.333333333333,4,2,1,5,0,0
77705,-133.333333333333,4,2,1,40,0,0
78940,-133.333333333333,4,2,1,5,0,0
79116,-133.333333333333,4,2,1,40,0,0
79293,-133.333333333333,4,2,1,5,0,0
79469,-133.333333333333,4,2,1,40,0,0
83881,-133.333333333333,4,2,1,5,0,0
84058,-133.333333333333,4,2,1,40,0,0
84234,-133.333333333333,4,2,1,5,0,0
84410,-133.333333333333,4,2,1,40,0,0
84587,-133.333333333333,4,2,1,5,0,0
84763,-133.333333333333,4,2,1,40,0,0
84940,-133.333333333333,4,2,1,5,0,0
85116,-133.333333333333,4,2,1,40,0,0
85999,-133.333333333333,4,2,1,5,0,0
86175,-133.333333333333,4,2,1,40,0,0
88822,-133.333333333333,4,2,1,5,0,0
88999,-133.333333333333,4,2,1,40,0,0
101352,-133.333333333333,4,3,4,40,0,0
102058,-133.333333333333,4,2,1,40,0,0
107704,-133.333333333333,4,2,1,50,0,1
108058,-133.333333333333,4,2,3,50,0,1
108234,-133.333333333333,4,2,1,50,0,1
108764,-133.333333333333,4,2,3,50,0,1
108940,-133.333333333333,4,2,1,50,0,1
109470,-133.333333333333,4,2,3,50,0,1
109646,-133.333333333333,4,2,1,50,0,1
110176,-133.333333333333,4,2,3,50,0,1
110352,-133.333333333333,4,2,1,50,0,1
110881,-133.333333333333,4,2,3,50,0,1
111058,-133.333333333333,4,2,1,50,0,1
111410,-133.333333333333,4,2,1,5,0,1
111587,-133.333333333333,4,2,3,50,0,1
111940,-133.333333333333,4,2,1,50,0,1
112116,-133.333333333333,4,2,1,5,0,1
112293,-133.333333333333,4,2,3,50,0,1
112646,-133.333333333333,4,2,1,50,0,1
113705,-133.333333333333,4,2,3,50,0,1
114058,-133.333333333333,4,2,1,50,0,1
114411,-133.333333333333,4,2,3,50,0,1
114587,-133.333333333333,4,2,1,5,0,1
114763,-133.333333333333,4,2,1,50,0,1
115117,-133.333333333333,4,2,3,50,0,1
115293,-133.333333333333,4,2,1,50,0,1
115999,-133.333333333333,4,2,1,5,0,1
116175,-133.333333333333,4,2,1,50,0,1
116528,-133.333333333333,4,2,3,50,0,1
116705,-133.333333333333,4,2,1,50,0,1
117234,-133.333333333333,4,2,3,50,0,1
117411,-133.333333333333,4,2,1,50,0,1
117940,-133.333333333333,4,2,3,50,0,1
118117,-133.333333333333,4,2,1,50,0,1
119352,-133.333333333333,4,2,3,50,0,1
119528,-133.333333333333,4,2,1,50,0,1
120058,-133.333333333333,4,2,3,50,0,1
120234,-133.333333333333,4,2,1,50,0,1
120764,-133.333333333333,4,2,3,50,0,1
120940,-133.333333333333,4,2,1,50,0,1
121470,-133.333333333333,4,2,3,50,0,1
121646,-133.333333333333,4,2,1,50,0,1
122176,-133.333333333333,4,2,3,50,0,1
122352,-133.333333333333,4,2,1,50,0,1
122705,-133.333333333333,4,2,1,5,0,1
122881,-133.333333333333,4,2,1,50,0,1
124999,-133.333333333333,4,2,3,50,0,1
125176,-133.333333333333,4,2,1,50,0,1
125705,-133.333333333333,4,2,3,50,0,1
125881,-133.333333333333,4,2,1,5,0,1
126058,-133.333333333333,4,2,1,50,0,1
126411,-133.333333333333,4,2,3,50,0,1
126587,-133.333333333333,4,2,1,50,0,1
127293,-133.333333333333,4,2,1,5,0,1
127469,-133.333333333333,4,2,1,50,0,1
130116,-133.333333333333,4,2,1,50,0,1
130292,-133.333333333333,4,2,1,50,0,0
130646,-133.333333333333,4,2,1,5,0,0
130734,-133.333333333333,4,2,1,40,0,0
131880,-133.333333333333,4,2,1,5,0,0
132128,-140.845070422535,4,2,1,40,0,0
134793,-140.845070422535,4,2,1,5,0,0
134969,-140.845070422535,4,2,1,40,0,0
141587,-200,4,2,1,40,0,0
142116,-200,4,2,1,5,0,0
142293,-200,4,2,1,40,0,0
142822,-200,4,2,1,5,0,0
142999,-200,4,2,1,40,0,0
143528,-200,4,2,1,5,0,0
143705,-200,4,2,1,40,0,0
144234,-200,4,2,1,5,0,0
144410,-200,4,2,1,40,0,0
145822,-200,4,2,1,5,0,0
146352,-200,4,2,1,40,0,0
147233,-133.333333333333,4,2,1,50,0,1
147587,-133.333333333333,4,2,3,50,0,1
147763,-133.333333333333,4,2,1,50,0,1
148293,-133.333333333333,4,2,3,50,0,1
148469,-133.333333333333,4,2,1,5,0,1
148646,-133.333333333333,4,2,1,50,0,1
148999,-133.333333333333,4,2,3,50,0,1
149175,-133.333333333333,4,2,1,50,0,1
149705,-133.333333333333,4,2,3,50,0,1
149881,-133.333333333333,4,2,1,5,0,1
150058,-133.333333333333,4,2,1,50,0,1
150410,-133.333333333333,4,2,3,50,0,1
150587,-133.333333333333,4,2,1,50,0,1
151116,-133.333333333333,4,2,3,50,0,1
151293,-133.333333333333,4,2,1,5,0,1
151469,-133.333333333333,4,2,1,50,0,1
151822,-133.333333333333,4,2,3,50,0,1
151999,-133.333333333333,4,2,1,50,0,1
153234,-133.333333333333,4,2,3,50,0,1
153410,-133.333333333333,4,2,1,50,0,1
153940,-133.333333333333,4,2,3,50,0,1
154116,-133.333333333333,4,2,1,50,0,1
154646,-133.333333333333,4,2,3,50,0,1
154822,-133.333333333333,4,2,1,50,0,1
155352,-133.333333333333,4,2,3,50,0,1
155528,-133.333333333333,4,2,1,50,0,1
156058,-133.333333333333,4,2,3,50,0,1
156234,-133.333333333333,4,2,1,50,0,1
156587,-133.333333333333,4,2,1,5,0,1
156763,-133.333333333333,4,2,1,50,0,1
158881,-133.333333333333,4,2,3,50,0,1
159058,-133.333333333333,4,2,1,50,0,1
159587,-133.333333333333,4,2,3,50,0,1
159763,-133.333333333333,4,2,1,5,0,1
159940,-133.333333333333,4,2,1,50,0,1
160293,-133.333333333333,4,2,3,50,0,1
160469,-133.333333333333,4,2,1,50,0,1
160999,-133.333333333333,4,2,3,50,0,1
161175,-133.333333333333,4,2,1,5,0,1
161352,-133.333333333333,4,2,1,50,0,1
164174,-263.157894736842,4,2,1,40,0,0
164881,-263.157894736842,4,2,1,5,0,0

[Colours]
Combo1 : 255,55,61
Combo2 : 194,231,226
Combo3 : 139,214,203
Combo4 : 250,121,253

[HitObjects]
82,211,235,5,0,0:0:0:0:
174,225,411,2,0,B|76:219,1,82.5000031471254,4|0,0:0|0:0,0:0:0:0:
33,150,940,1,0,0:0:0:0:
55,298,1116,2,0,B|104:295,1,41.2500015735627,8|0,0:0|0:0,0:0:0:0:
200,287,1469,2,0,B|158:289,1,41.2500015735627
132,362,1822,1,4,0:0:0:0:
256,128,2528,5,8,0:0:0:0:
430,211,3058,37,0,0:0:0:0:
338,225,3234,2,0,B|436:219,1,82.5000031471254,4|0,0:0|0:0,0:0:0:0:
479,150,3763,1,0,0:0:0:0:
457,298,3939,2,0,B|408:295,1,41.2500015735627,8|0,0:0|0:0,0:0:0:0:
312,287,4292,2,0,B|353:289,1,41.2500015735627
380,362,4645,1,4,0:0:0:0:
256,128,5352,5,8,0:0:0:0:
73,204,5881,37,0,0:0:0:0:
159,176,6058,2,0,B|141:194|141:194|145:290,1,82.5000031471254,4|0,0:0|0:0,0:0:0:0:
148,324,6587,1,0,0:0:0:0:
248,258,6763,2,0,L|206:257,1,41.2500015735627,8|0,0:0|0:0,0:0:0:0:
148,324,7116,2,0,L|190:321,1,41.2500015735627
256,384,7469,1,4,0:0:0:0:
256,128,8175,5,8,0:0:0:0:
439,204,8705,37,0,0:0:0:0:
353,176,8882,2,0,B|371:194|371:194|367:290,1,82.5000031471254,4|0,0:0|0:0,0:0:0:0:
364,324,9411,1,0,0:0:0:0:
264,258,9587,2,0,L|305:257,1,41.2500015735627,8|0,0:0|0:0,0:0:0:0:
364,324,9940,2,0,L|322:321,1,41.2500015735627
256,384,10293,1,4,0:0:0:0:
256,128,10999,5,8,0:0:0:0:
80,249,11705,37,4,0:0:0:0:
151,207,11881,1,0,0:0:0:0:
73,175,12058,1,0,0:0:0:0:
2,217,12234,1,0,0:0:0:0:
50,310,12410,2,0,B|88:327|88:327|121:303,1,82.5000031471254,8|2,0:0|0:0,0:0:0:0:
80,249,12940,1,2,0:0:0:0:
146,374,13116,1,6,0:0:0:0:
146,374,13293,1,2,0:0:0:0:
256,128,13822,5,8,0:0:0:0:
437,180,14175,38,0,L|433:227,1,41.2500015735627
373,244,14528,1,4,0:0:0:0:
373,244,14704,1,0,0:0:0:0:
491,257,14881,1,0,0:0:0:0:
491,257,15057,1,0,0:0:0:0:
426,319,15234,2,0,L|428:277,1,41.2500015735627,8|0,0:0|0:0,0:0:0:0:
491,257,15587,1,2,0:0:0:0:
482,353,15763,1,2,0:0:0:0:
363,340,15940,1,6,0:0:0:0:
373,244,16116,1,2,0:0:0:0:
256,256,16469,5,2,0:0:0:0:
184,192,16646,1,10,0:0:0:0:
256,128,16822,1,2,0:0:0:0:
328,192,16999,1,2,0:0:0:0:
316,312,17352,2,0,B|272:336|240:288|196:312,1,123.750004720688,6|0,0:0|0:0,0:0:0:0:
180,320,18058,37,8,0:0:0:0:
256,384,18410,1,0,0:0:0:0:
330,303,18763,1,4,0:0:0:0:
256,128,19293,5,2,0:0:0:0:
328,192,19470,1,10,0:0:0:0:
256,256,19646,1,2,0:0:0:0:
184,192,19822,1,2,0:0:0:0:
197,72,20175,2,0,B|240:64|240:64|272:80|272:80|315:72,1,123.750004720688,6|0,0:0|0:0,0:0:0:0:
332,69,20881,37,8,0:0:0:0:
256,0,21233,1,0,0:0:0:0:
182,75,21586,1,4,0:0:0:0:
256,290,22293,5,8,0:0:0:0:
268,192,22469,1,4,0:0:0:0:
256,180,22646,1,4,0:0:0:0:
244,192,22822,1,8,0:0:0:0:
166,314,22999,38,4,L|124:310,1,41.2500015735627,4|0,0:0|0:0,0:0:0:0:
55,302,23352,1,0,0:0:0:0:
55,302,23528,1,0,0:0:0:0:
95,376,23705,2,0,L|86:277,1,82.5000031471254,8|2,0:0|0:0,0:0:0:0:
28,226,24234,1,2,0:0:0:0:
86,273,24410,1,6,0:0:0:0:
136,218,24587,1,2,0:0:0:0:
256,128,25116,5,8,0:0:0:0:
256,256,25469,1,0,0:0:0:0:
256,256,25646,1,0,0:0:0:0:
346,314,25822,38,0,L|387:310,1,41.2500015735627,4|0,0:0|0:0,0:0:0:0:
457,302,26175,1,0,0:0:0:0:
457,302,26351,1,0,0:0:0:0:
417,376,26528,2,0,L|422:316,1,41.2500015735627,8|0,0:0|0:0,0:0:0:0:
376,218,26881,1,2,0:0:0:0:
426,273,27057,1,2,0:0:0:0:
484,226,27234,1,6,0:0:0:0:
434,171,27410,1,2,0:0:0:0:
256,256,27763,5,2,0:0:0:0:
184,192,27940,1,10,0:0:0:0:
256,128,28116,1,2,0:0:0:0:
328,192,28293,1,2,0:0:0:0:
309,329,28646,2,0,P|257:357|204:330,1,123.750004720688,6|0,0:0|0:0,0:0:0:0:
196,316,29352,37,8,0:0:0:0:
317,317,29705,1,0,0:0:0:0:
256,384,30058,1,4,0:0:0:0:
184,192,30763,5,10,0:0:0:0:
256,256,30939,1,2,0:0:0:0:
328,192,31116,1,2,0:0:0:0:
308,54,31469,2,0,B|256:18|256:18|199:60,1,123.750004720688,6|0,0:0|0:0,0:0:0:0:
194,64,32175,37,8,0:0:0:0:
318,64,32528,1,0,0:0:0:0:
256,0,32881,1,4,0:0:0:0:
256,290,33587,5,8,0:0:0:0:
268,192,33763,1,4,0:0:0:0:
257,183,33939,1,4,0:0:0:0:
244,192,34116,1,8,0:0:0:0:
256,290,34293,5,4,0:0:0:0:
313,246,34469,1,0,0:0:0:0:
199,246,34646,1,2,0:0:0:0:
256,322,34822,1,2,0:0:0:0:
313,246,34999,1,8,0:0:0:0:
257,183,35175,1,0,0:0:0:0:
199,246,35352,1,2,0:0:0:0:
256,322,35528,1,0,0:0:0:0:
313,246,35705,1,4,0:0:0:0:
256,304,35881,1,2,0:0:0:0:
200,236,36058,1,2,0:0:0:0:
256,288,36234,1,0,0:0:0:0:
257,183,36410,1,8,0:0:0:0:
312,236,36587,1,0,0:0:0:0:
200,236,36763,1,2,0:0:0:0:
256,168,36940,1,0,0:0:0:0:
312,236,37116,1,4,0:0:0:0:
256,304,37293,1,2,0:0:0:0:
200,236,37469,1,2,0:0:0:0:
312,236,37646,1,0,0:0:0:0:
200,224,37822,1,8,0:0:0:0:
312,224,37999,1,0,0:0:0:0:
296,136,38175,1,2,0:0:0:0:
216,136,38352,1,0,0:0:0:0:
256,188,38528,1,4,0:0:0:0:
296,136,38705,1,0,0:0:0:0:
256,84,38881,1,2,0:0:0:0:
216,136,39058,1,2,0:0:0:0:
312,236,39234,1,6,0:3:0:0:
256,188,39410,1,2,0:3:0:0:
200,236,39587,1,10,0:3:0:0:
195,332,39940,22,0,L|318:332,1,123.750004720688,6|0,0:0|0:0,0:0:0:0:
336,332,40646,1,8,0:0:0:0:
256,384,40999,1,0,0:0:0:0:
176,332,41352,1,4,0:0:0:0:
256,128,42058,5,8,0:0:0:0:
256,128,42587,37,2,0:0:0:0:
336,192,42763,2,0,P|308:188|284:172,1,41.2500015735627,6|0,0:0|0:0,0:0:0:0:
215,182,43116,2,0,P|196:190|176:192,1,41.2500015735627,2|8,0:0|0:0,0:0:0:0:
140,104,43469,2,0,P|160:105|179:113,1,41.2500015735627,10|0,0:0|0:0,0:0:0:0:
260,236,43822,1,10,0:0:0:0:
260,236,43999,1,2,0:0:0:0:
332,113,44175,2,0,P|351:105|372:104,1,41.2500015735627,2|8,0:0|0:0,0:0:0:0:
348,256,44528,2,0,P|333:241|325:223,1,41.2500015735627,10|0,0:0|0:0,0:0:0:0:
186,223,44881,2,0,P|178:241|164:256,1,41.2500015735627,14|0,0:0|0:0,0:0:0:0:
139,104,45234,2,0,P|160:105|179:113,1,41.2500015735627,2|0,0:0|0:0,0:0:0:0:
289,164,45587,21,6,0:0:0:0:
312,283,45763,1,2,0:0:0:0:
396,188,45940,2,0,L|350:193,1,41.2500015735627,8|0,0:0|0:0,0:0:0:0:
219,160,46293,5,10,0:0:0:0:
193,293,46469,1,2,0:0:0:0:
99,187,46646,2,0,L|150:193,1,41.2500015735627,8|0,0:0|0:0,0:0:0:0:
297,156,46999,37,6,0:0:0:0:
326,306,47175,1,2,0:0:0:0:
431,186,47352,2,0,L|373:193,1,41.2500015735627,8|0,0:0|0:0,0:0:0:0:
209,152,47705,5,10,0:0:0:0:
177,319,47881,1,2,0:0:0:0:
59,186,48058,2,0,L|117:192,1,41.2500015735627,8|0,0:0|0:0,0:0:0:0:
307,147,48410,37,6,0:0:0:0:
344,335,48586,1,2,0:0:0:0:
476,185,48763,2,0,L|418:192,1,41.2500015735627,8|0,0:0|0:0,0:0:0:0:
256,212,49116,6,0,L|256:164,1,41.2500015735627,8|0,0:0|0:0,0:0:0:0:
256,96,49469,1,8,0:0:0:0:
256,96,49646,1,0,0:0:0:0:
320,216,49822,38,0,P|316:240|296:264,1,41.2500015735627,4|0,0:0|0:0,0:0:0:0:
204,254,50175,2,0,P|194:236|192:216,1,41.2500015735627,8|2,0:0|0:0,0:0:0:0:
256,170,50528,5,14,0:0:0:0:
307,254,50705,1,6,0:0:0:0:
256,336,50881,2,0,L|256:381,1,41.2500015735627,6|4,0:0|0:0,0:0:0:0:
365,222,51234,38,0,P|409:234|429:282,1,82.5000031471254,6|8,0:0|0:0,0:0:0:0:
368,284,51763,1,0,0:0:0:0:
440,181,51940,1,8,0:0:0:0:
324,328,52293,2,0,P|304:320|290:296,1,41.2500015735627,8|0,0:0|0:0,0:0:0:0:
256,192,52646,2,0,L|256:144,2,41.2500015735627,4|0|8,0:0|0:0|0:0,0:0:0:0:
219,304,53175,5,2,0:0:0:0:
319,235,53352,1,10,0:0:0:0:
193,235,53528,1,2,0:0:0:0:
292,304,53705,2,0,L|292:356,1,41.2500015735627,2|0,0:0|0:0,0:0:0:0:
140,304,54058,38,0,P|100:288|84:236,1,82.5000031471254,6|8,0:0|0:0,0:0:0:0:
76,190,54587,1,0,0:0:0:0:
45,327,54763,1,8,0:0:0:0:
163,177,55116,1,8,0:0:0:0:
163,177,55293,1,0,0:0:0:0:
145,240,55469,1,4,0:0:0:0:
256,93,55822,1,8,0:0:0:0:
256,93,55998,1,2,0:0:0:0:
238,156,56175,5,14,0:0:0:0:
318,79,56352,1,6,0:0:0:0:
220,217,56528,1,6,0:0:0:0:
300,140,56705,1,4,0:0:0:0:
202,278,56881,37,6,0:0:0:0:
86,251,57058,1,2,0:0:0:0:
139,155,57234,2,0,L|135:210,1,41.2500015735627,8|0,0:0|0:0,0:0:0:0:
301,285,57587,5,10,0:0:0:0:
434,254,57764,1,2,0:0:0:0:
373,144,57940,2,0,L|377:201,1,41.2500015735627,8|0,0:0|0:0,0:0:0:0:
206,294,58293,37,6,0:0:0:0:
59,260,58470,1,2,0:0:0:0:
126,139,58646,2,0,L|123:188,1,41.2500015735627,8|0,0:0|0:0,0:0:0:0:
309,303,58999,5,10,0:0:0:0:
467,266,59176,1,2,0:0:0:0:
395,135,59352,2,0,L|399:188,1,41.2500015735627,8|0,0:0|0:0,0:0:0:0:
198,311,59705,37,6,0:0:0:0:
27,272,59882,1,2,0:0:0:0:
105,130,60058,2,0,L|101:188,1,41.2500015735627,8|0,0:0|0:0,0:0:0:0:
256,276,60410,6,0,L|256:228,1,41.2500015735627,8|0,0:0|0:0,0:0:0:0:
357,165,60763,1,2,0:0:0:0:
256,219,60940,1,2,0:0:0:0:
155,165,61116,2,0,P|135:161|111:141,2,41.2500015735627,6|0|0,0:0|0:0|0:0,0:0:0:0:
300,136,61646,37,2,0:0:0:0:
256,52,61822,1,10,0:0:0:0:
212,136,61999,1,6,0:0:0:0:
256,220,62175,2,0,L|256:261,1,41.2500015735627,6|4,0:0|0:0,0:0:0:0:
376,340,62528,6,0,P|360:300|328:316,1,82.5000031471254,6|8,0:0|0:0,0:0:0:0:
323,372,63058,1,0,0:0:0:0:
399,250,63234,1,8,0:0:0:0:
300,84,63587,2,0,B|292:100|292:100|292:132,1,41.2500015735627,8|0,0:0|0:0,0:0:0:0:
256,240,63940,2,0,L|256:296,2,41.2500015735627,4|0|8,0:0|0:0|0:0,0:0:0:0:
220,123,64469,37,2,0:0:0:0:
328,192,64646,1,10,0:0:0:0:
292,123,64822,1,2,0:0:0:0:
184,192,64999,2,0,P|164:196|144:192,1,41.2500015735627,2|0,0:0|0:0,0:0:0:0:
88,143,65352,2,0,P|120:192|87:241,1,123.750004720688,6|0,0:0|0:0,0:0:0:0:
12,268,66058,5,10,0:0:0:0:
47,192,66234,1,2,0:0:0:0:
12,116,66410,1,2,0:0:0:0:
216,312,66763,6,0,B|244:296|266:327|295:312,1,82.5000031471254,6|0,0:0|0:0,0:0:0:0:
500,268,67293,37,2,0:0:0:0:
465,192,67469,1,10,0:0:0:0:
500,116,67645,1,6,0:0:0:0:
447,192,67822,2,0,L|399:192,1,41.2500015735627,6|4,0:0|0:0,0:0:0:0:
295,312,68175,6,0,B|266:327|244:296|216:312,1,82.5000031471254,6|0,0:0|0:0,0:0:0:0:
256,378,68881,1,8,0:0:0:0:
80,249,73822,5,4,0:0:0:0:
151,207,73998,1,0,0:0:0:0:
73,175,74175,1,0,0:0:0:0:
2,217,74351,1,0,0:0:0:0:
50,310,74528,2,0,B|88:327|88:327|121:302,1,82.5000031471254,8|2,0:0|0:0,0:0:0:0:
146,374,75057,1,2,0:0:0:0:
80,249,75233,1,6,0:0:0:0:
80,249,75410,1,2,0:0:0:0:
256,128,75939,37,8,0:0:0:0:
437,180,76293,6,0,L|433:221,1,41.2500015735627
383,150,76646,1,4,0:0:0:0:
383,150,76822,1,0,0:0:0:0:
488,252,76999,1,0,0:0:0:0:
488,252,77175,1,0,0:0:0:0:
423,326,77352,2,0,L|427:285,1,41.2500015735627,8|0,0:0|0:0,0:0:0:0:
432,221,77705,1,2,0:0:0:0:
360,356,77881,1,2,0:0:0:0:
480,372,78058,1,6,0:0:0:0:
480,372,78234,1,2,0:0:0:0:
184,192,78763,38,0,P|204:197|225:192,1,41.2500015735627,10|0,0:0|0:0,0:0:0:0:
328,192,79116,2,0,P|308:197|287:192,1,41.2500015735627,2|0,0:0|0:0,0:0:0:0:
220,92,79469,2,0,P|256:109|292:92,1,82.5000031471254,6|0,0:0|0:0,0:0:0:0:
300,80,79999,5,0,0:0:0:0:
212,80,80175,1,8,0:0:0:0:
352,125,80528,1,0,0:0:0:0:
256,0,80881,1,4,0:0:0:0:
256,235,81410,37,2,0:0:0:0:
184,192,81587,1,10,0:0:0:0:
256,149,81763,1,2,0:0:0:0:
328,192,81940,1,2,0:0:0:0:
304,292,82293,2,0,B|256:253|256:253|208:292,1,123.750004720688,6|0,0:0|0:0,0:0:0:0:
197,301,82999,5,10,0:0:0:0:
256,337,83175,1,2,0:0:0:0:
315,301,83352,1,2,0:0:0:0:
218,384,83705,38,0,L|162:384,1,41.2500015735627,4|0,0:0|0:0,0:0:0:0:
315,301,84058,2,0,L|357:301,1,41.2500015735627
183,229,84410,2,0,L|141:229,1,41.2500015735627,4|0,0:0|0:0,0:0:0:0:
353,172,84763,2,0,L|394:172,1,41.2500015735627,0|8,0:0|0:0,0:0:0:0:
160,132,85116,5,4,0:0:0:0:
80,148,85293,1,0,0:0:0:0:
160,132,85469,1,0,0:0:0:0:
80,148,85646,1,0,0:0:0:0:
212,169,85822,2,0,P|192:189|152:189,1,41.2500015735627,8|0,0:0|0:0,0:0:0:0:
113,101,86175,1,2,0:0:0:0:
113,101,86352,1,2,0:0:0:0:
85,211,86528,2,0,P|64:210|46:201,1,41.2500015735627,6|2,0:0|0:0,0:0:0:0:
256,235,87234,37,8,0:0:0:0:
400,100,87763,5,0,0:0:0:0:
342,138,87940,1,4,0:0:0:0:
438,157,88117,1,0,0:0:0:0:
457,61,88293,1,0,0:0:0:0:
361,42,88470,1,0,0:0:0:0:
333,189,88646,2,0,B|311:181|311:181|301:165,1,41.2500015735627,8|0,0:0|0:0,0:0:0:0:
400,100,88999,1,2,0:0:0:0:
400,100,89175,1,2,0:0:0:0:
426,208,89352,2,0,B|448:208|448:208|471:195,1,41.2500015735627,6|2,0:0|0:0,0:0:0:0:
256,149,89881,37,2,0:0:0:0:
184,192,90058,1,10,0:0:0:0:
256,235,90234,1,2,0:0:0:0:
328,192,90410,1,2,0:0:0:0:
295,52,90763,6,0,B|251:52|263:88|211:80,1,82.5000031471254,6|0,0:0|0:0,0:0:0:0:
206,80,91293,1,0,0:0:0:0:
309,52,91469,1,8,0:0:0:0:
256,140,91822,1,0,0:0:0:0:
256,0,92175,1,4,0:0:0:0:
256,235,92528,37,2,0:0:0:0:
184,192,92705,1,2,0:0:0:0:
256,149,92881,1,10,0:0:0:0:
328,192,93058,1,2,0:0:0:0:
256,192,93234,1,2,0:0:0:0:
217,332,93587,6,0,B|261:332|249:296|301:304,1,82.5000031471254,6|0,0:0|0:0,0:0:0:0:
306,304,94117,1,0,0:0:0:0:
203,332,94293,1,8,0:0:0:0:
256,244,94646,1,0,0:0:0:0:
256,384,94999,37,4,0:0:0:0:
373,304,95175,1,0,0:0:0:0:
256,244,95527,5,0,0:0:0:0:
139,164,95705,1,12,0:0:0:0:
205,115,95881,1,4,0:0:0:0:
256,179,96058,1,4,0:0:0:0:
307,115,96234,1,12,0:0:0:0:
373,164,96410,5,4,0:0:0:0:
292,234,96587,1,0,0:0:0:0:
256,179,96763,1,2,0:0:0:0:
220,234,96939,1,2,0:0:0:0:
256,308,97116,1,8,0:0:0:0:
303,229,97293,1,0,0:0:0:0:
209,229,97469,1,2,0:0:0:0:
256,323,97646,1,0,0:0:0:0:
300,242,97822,1,4,0:0:0:0:
256,340,97999,1,2,0:0:0:0:
209,255,98175,1,2,0:0:0:0:
256,357,98352,1,0,0:0:0:0:
303,265,98528,1,8,0:0:0:0:
201,287,98705,1,0,0:0:0:0:
310,286,98881,1,2,0:0:0:0:
209,265,99058,1,0,0:0:0:0:
256,340,99234,1,4,0:0:0:0:
303,265,99410,1,2,0:0:0:0:
220,200,99587,1,2,0:0:0:0:
209,265,99763,1,0,0:0:0:0:
292,200,99940,1,8,0:0:0:0:
256,135,100116,1,0,0:0:0:0:
220,200,100293,1,2,0:0:0:0:
321,141,100469,1,0,0:0:0:0:
222,78,100646,1,4,0:0:0:0:
290,78,100822,1,0,0:0:0:0:
191,141,100999,1,2,0:0:0:0:
256,203,101175,1,2,0:0:0:0:
209,265,101352,1,6,0:0:0:0:
303,265,101528,1,2,0:0:0:0:
256,135,101705,1,10,0:0:0:0:
297,330,102058,22,0,L|215:330,1,82.5000031471254,6|0,0:0|0:0,0:0:0:0:
198,329,102587,1,0,0:0:0:0:
314,329,102763,1,8,0:0:0:0:
256,250,103116,1,0,0:0:0:0:
256,384,103470,1,4,0:0:0:0:
256,94,104175,5,8,0:0:0:0:
325,271,104705,37,2,0:0:0:0:
187,271,104881,1,6,0:0:0:0:
335,286,105234,5,2,0:0:0:0:
256,330,105410,1,10,0:0:0:0:
177,286,105587,1,10,0:0:0:0:
345,301,105940,5,10,0:0:0:0:
256,348,106116,1,2,0:0:0:0:
167,301,106293,1,2,0:0:0:0:
256,266,106469,1,10,0:0:0:0:
363,373,106646,5,10,0:0:0:0:
149,373,106999,1,14,0:0:0:0:
256,149,107352,5,6,0:0:0:0:
256,149,107528,1,4,0:0:0:0:
322,282,107704,21,6,0:0:0:0:
394,187,107881,1,2,0:0:0:0:
341,99,108058,2,0,L|345:156,1,41.2500015735627,8|0,0:0|0:0,0:0:0:0:
194,295,108410,5,10,0:0:0:0:
111,186,108586,1,2,0:0:0:0:
172,85,108763,2,0,L|169:128,1,41.2500015735627,8|0,0:0|0:0,0:0:0:0:
324,308,109116,37,6,0:0:0:0:
417,186,109292,1,2,0:0:0:0:
349,72,109469,2,0,L|352:121,1,41.2500015735627,8|0,0:0|0:0,0:0:0:0:
181,317,109822,5,10,0:0:0:0:
81,185,109998,1,2,0:0:0:0:
155,63,110175,2,0,L|151:115,1,41.2500015735627,8|0,0:0|0:0,0:0:0:0:
334,324,110528,37,6,0:0:0:0:
440,185,110704,1,2,0:0:0:0:
362,55,110881,2,0,L|365:99,1,41.2500015735627,8|0,0:0|0:0,0:0:0:0:
256,303,111234,6,0,P|260:281|256:263,1,41.2500015735627,8|0,0:0|0:0,0:0:0:0:
205,213,111587,1,8,0:0:0:0:
205,213,111763,1,0,0:0:0:0:
256,165,111940,38,0,P|252:143|256:125,1,41.2500015735627,4|0,0:0|0:0,0:0:0:0:
307,75,112293,1,8,0:0:0:0:
307,75,112469,1,2,0:0:0:0:
307,213,112646,5,14,0:0:0:0:
256,124,112821,1,6,0:0:0:0:
205,213,112999,1,6,0:0:0:0:
205,213,113175,1,6,0:0:0:0:
356,116,113352,38,0,B|396:109|396:109|425:61,1,82.5000031471254,6|8,0:0|0:0,0:0:0:0:
357,52,113881,1,0,0:0:0:0:
433,162,114058,1,8,0:0:0:0:
324,328,114411,2,0,B|302:319|302:319|290:296,1,41.2500015735627,8|0,0:0|0:0,0:0:0:0:
256,192,114764,2,0,L|256:144,2,41.2500015735627,4|0|8,0:0|0:0|0:0,0:0:0:0:
219,304,115293,5,2,0:0:0:0:
319,235,115470,1,10,0:0:0:0:
193,235,115646,1,2,0:0:0:0:
292,304,115821,2,0,L|292:356,1,41.2500015735627,2|0,0:0|0:0,0:0:0:0:
159,307,116174,38,0,B|119:295|119:295|95:241,1,82.5000031471254,6|8,0:0|0:0,0:0:0:0:
165,239,116705,1,0,0:0:0:0:
41,275,116881,1,8,0:0:0:0:
188,164,117233,1,8,0:0:0:0:
188,164,117409,1,0,0:0:0:0:
125,182,117586,1,4,0:0:0:0:
272,71,117939,1,8,0:0:0:0:
272,71,118115,1,2,0:0:0:0:
209,89,118292,5,14,0:0:0:0:
286,9,118469,1,6,0:0:0:0:
148,107,118645,1,6,0:0:0:0:
225,27,118822,1,4,0:0:0:0:
87,125,118999,37,6,0:0:0:0:
168,201,119175,1,2,0:0:0:0:
176,278,119352,2,0,L|178:237,1,41.2500015735627,8|0,0:0|0:0,0:0:0:0:
430,117,119705,5,10,0:0:0:0:
341,200,119881,1,2,0:0:0:0:
332,285,120058,2,0,L|330:240,1,41.2500015735627,8|0,0:0|0:0,0:0:0:0:
67,111,120410,37,6,0:0:0:0:
163,201,120586,1,2,0:0:0:0:
173,293,120763,2,0,L|175:244,1,41.2500015735627,8|0,0:0|0:0,0:0:0:0:
447,106,121116,5,10,0:0:0:0:
346,201,121292,1,2,0:0:0:0:
337,302,121469,2,0,L|334:250,1,41.2500015735627,8|0,0:0|0:0,0:0:0:0:
54,102,121822,37,6,0:0:0:0:
160,202,121998,1,2,0:0:0:0:
171,308,122175,2,0,L|173:254,1,41.2500015735627,8|0,0:0|0:0,0:0:0:0:
256,85,122528,6,0,L|256:133,1,41.2500015735627,8|0,0:0|0:0,0:0:0:0:
363,230,122881,1,2,0:0:0:0:
256,142,123058,1,2,0:0:0:0:
149,230,123234,2,0,P|129:226|108:199,2,41.2500015735627,6|0|0,0:0|0:0|0:0,0:0:0:0:
300,225,123764,37,2,0:0:0:0:
256,309,123940,1,14,0:0:0:0:
212,225,124117,1,6,0:0:0:0:
256,141,124293,2,0,L|256:100,1,41.2500015735627,6|4,0:0|0:0,0:0:0:0:
376,44,124646,6,0,B|372:85|372:85|328:71,1,82.5000031471254,6|8,0:0|0:0,0:0:0:0:
322,10,125174,1,0,0:0:0:0:
409,136,125352,1,8,0:0:0:0:
300,300,125705,2,0,B|292:272|292:272|292:252,1,41.2500015735627,8|0,0:0|0:0,0:0:0:0:
256,144,126058,2,0,L|256:88,2,41.2500015735627,4|0|8,0:0|0:0|0:0,0:0:0:0:
220,261,126587,37,2,0:0:0:0:
292,261,126764,1,10,0:0:0:0:
184,192,126940,1,2,0:0:0:0:
328,192,127117,2,0,B|348:188|348:188|368:192,1,41.2500015735627,2|0,0:0|0:0,0:0:0:0:
424,241,127470,2,0,B|387:192|387:192|425:143,1,123.750004720688,6|0,0:0|0:0,0:0:0:0:
500,116,128174,5,10,0:0:0:0:
500,268,128352,1,2,0:0:0:0:
467,192,128528,1,2,0:0:0:0:
297,72,128881,6,0,B|272:76|272:76|240:68|240:68|217:72,1,82.5000031471254,6|0,0:0|0:0,0:0:0:0:
12,116,129411,37,2,0:0:0:0:
12,268,129587,1,14,0:0:0:0:
12,128,129763,1,6,0:0:0:0:
76,192,129940,2,0,L|124:192,1,41.2500015735627,6|4,0:0|0:0,0:0:0:0:
217,72,130293,6,0,B|240:68|240:68|272:76|272:76|297:72,1,82.5000031471254,6|0,0:0|0:0,0:0:0:0:
384,24,130763,6,0,L|380:67,1,27.5000010490418,2|2,0:0|0:0,0:0:0:0:
381,61,130999,2,0,L|375:117,1,55.0000020980836,10|0,0:0|0:0,0:0:0:0:
442,96,131528,38,0,L|438:134,1,20.6250007867813,2|2,0:0|0:0,0:0:0:0:
439,127,131705,2,0,L|434:174,1,41.2500015735627,6|0,0:0|0:0,0:0:0:0:
503,166,132128,6,0,L|499:209,1,23.5714294706072,2|2,0:0|0:0,0:0:0:0:
500,201,132352,2,0,L|496:235,2,26.0333320224508,2|2|2,0:0|0:0|0:0,0:0:0:0:
256,256,132940,37,0,0:0:0:0:
256,256,133116,1,4,0:0:0:0:
128,24,133646,5,2,0:0:0:0:
128,24,133822,2,0,L|135:90,1,58.5749970505144,10|2,0:0|0:0,0:0:0:0:
68,86,134352,38,0,L|71:119,1,26.0333320224508,2|2,0:0|0:0,0:0:0:0:
72,124,134586,2,0,L|78:188,1,65.0833300561271,2|0,0:0|0:0,0:0:0:0:
10,163,134999,6,0,L|13:196,1,26.0333320224508,2|2,0:0|0:0,0:0:0:0:
14,201,135234,2,0,L|17:234,2,31.239998426941,10|2|2,0:0|0:0|0:0,0:0:0:0:
256,320,135763,37,0,0:0:0:0:
256,320,135939,1,4,0:0:0:0:
432,219,136293,5,0,0:0:0:0:
368,236,136469,1,0,0:0:0:0:
333,179,136646,1,10,0:0:0:0:
375,129,136822,1,2,0:0:0:0:
436,153,136999,1,2,0:0:0:0:
361,343,137352,1,6,0:0:0:0:
72,179,138058,38,0,L|68:128,2,39.0499980336763,10|2|2,0:0|0:0|0:0,0:0:0:0:
84,292,138763,1,6,0:0:0:0:
439,179,139469,6,0,L|444:128,2,39.0499980336763,10|2|2,0:0|0:0|0:0,0:0:0:0:
428,292,140174,1,6,0:0:0:0:
255,320,140705,37,2,0:0:0:0:
285,229,140881,1,10,0:0:0:0:
226,154,141058,1,2,0:0:0:0:
255,63,141234,1,2,0:0:0:0:
124,196,141587,5,2,0:0:0:0:
163,118,141763,2,0,B|135:106|135:106|107:110,1,55,2|0,0:0|0:0,0:0:0:0:
408,228,142293,37,2,0:0:0:0:
366,142,142469,2,0,B|394:130|394:130|422:134,1,55,2|0,0:0|0:0,0:0:0:0:
88,280,142999,5,2,0:0:0:0:
127,181,143175,2,0,B|99:169|99:169|71:173,1,55,2|0,0:0|0:0,0:0:0:0:
452,312,143705,37,2,0:0:0:0:
406,204,143881,2,0,B|434:192|434:192|462:196,1,55,2|0,0:0|0:0,0:0:0:0:
76,348,144411,5,2,0:0:0:0:
90,244,144587,2,0,B|62:232|62:232|29:251|29:251|60:208|56:156|56:156|72:188,1,192.5,2|0,0:0|0:0,0:0:0:0:
300,236,146352,5,2,0:0:0:0:
300,236,146527,1,2,0:0:0:0:
367,210,146705,1,6,0:0:0:0:
345,350,146881,1,6,0:0:0:0:
367,210,147058,1,4,0:0:0:0:
479,298,147234,6,0,B|474:238|474:238|492:197,1,82.5000031471254,6|8,1:0|0:0,0:0:0:0:
512,163,147763,1,2,0:0:0:0:
437,118,147940,1,10,0:0:0:0:
372,175,148116,1,2,0:0:0:0:
406,254,148293,2,0,B|411:314,1,41.2500015735627,10|0,0:0|0:0,0:0:0:0:
348,356,148646,2,0,B|343:295|343:295|319:258,1,82.5000031471254,6|8,0:0|0:0,0:0:0:0:
256,184,149175,37,2,0:0:0:0:
275,322,149351,1,10,0:0:0:0:
216,258,149528,1,2,0:0:0:0:
160,324,149705,2,0,L|98:329,1,41.2500015735627,10|0,0:0|0:0,0:0:0:0:
135,242,150058,2,0,L|48:248,1,82.5000031471254,6|8,0:0|0:0,0:0:0:0:
28,334,150587,5,2,0:0:0:0:
118,327,150763,1,10,0:0:0:0:
186,384,150940,1,2,0:0:0:0:
199,243,151116,2,0,L|195:295,1,41.2500015735627,10|0,0:0|0:0,0:0:0:0:
279,307,151469,2,0,L|286:220,1,82.5000031471254,6|8,0:0|0:0,0:0:0:0:
332,55,151999,5,2,0:0:0:0:
302,140,152174,1,14,0:0:0:0:
212,140,152352,1,6,0:0:0:0:
183,54,152527,1,6,0:0:0:0:
256,2,152705,1,4,0:0:0:0:
302,140,152881,21,6,0:0:0:0:
310,226,153058,1,2,0:0:0:0:
394,130,153233,1,8,0:0:0:0:
402,216,153410,1,0,0:0:0:0:
219,162,153586,5,10,0:0:0:0:
211,248,153763,1,2,0:0:0:0:
127,152,153938,1,8,0:0:0:0:
119,238,154115,1,0,0:0:0:0:
317,178,154292,37,6,0:0:0:0:
325,264,154469,1,2,0:0:0:0:
409,168,154644,1,8,0:0:0:0:
417,254,154821,1,0,0:0:0:0:
204,193,154998,5,10,0:0:0:0:
196,279,155175,1,2,0:0:0:0:
112,183,155350,1,8,0:0:0:0:
104,269,155527,1,0,0:0:0:0:
326,202,155704,37,6,0:0:0:0:
334,288,155881,1,2,0:0:0:0:
418,192,156056,1,8,0:0:0:0:
426,278,156233,1,0,0:0:0:0:
316,135,156410,6,0,L|311:94,1,41.2500015735627,8|0,0:0|0:0,0:0:0:0:
382,12,156763,1,2,0:0:0:0:
256,59,156940,1,2,0:0:0:0:
130,12,157116,2,0,L|89:10,2,41.2500015735627,6|0|0,0:0|0:0|0:0,0:0:0:0:
98,133,157646,37,2,0:0:0:0:
167,236,157822,1,14,0:0:0:0:
256,177,157999,1,6,0:0:0:0:
345,236,158175,1,6,0:0:0:0:
414,133,158351,1,4,0:0:0:0:
380,303,158528,6,0,P|343:310|297:291,1,82.5000031471254,6|8,0:0|0:0,0:0:0:0:
256,220,159058,1,0,0:0:0:0:
233,351,159234,1,8,0:0:0:0:
189,276,159410,1,2,0:0:0:0:
256,220,159587,2,0,L|297:217,1,41.2500015735627,10|0,0:0|0:0,0:0:0:0:
382,213,159940,2,0,B|326:210|326:210|289:177,1,82.5000031471254,6|8,0:0|0:0,0:0:0:0:
220,106,160469,37,2,0:0:0:0:
256,26,160646,1,10,0:0:0:0:
292,106,160822,1,2,0:0:0:0:
205,192,160999,2,0,B|163:192,1,41.2500015735627,10|0,0:0|0:0,0:0:0:0:
88,143,161352,2,0,P|120:192|87:241,1,123.750004720688,6|0,0:0|0:0,0:0:0:0:
12,268,162058,5,10,0:0:0:0:
48,192,162234,1,2,0:0:0:0:
12,116,162410,1,2,0:0:0:0:
217,312,162763,6,0,B|246:327|268:296|296:312,1,82.5000031471254,6|0,0:0|0:0,0:0:0:0:
500,268,163293,37,2,0:0:0:0:
448,192,163469,1,14,0:0:0:0:
500,116,163645,1,6,0:0:0:0:
436,192,163822,1,6,0:0:0:0:
436,192,163999,1,4,0:0:0:0:
296,312,164175,6,0,B|267:295|244:327|215:312,1,83.5999989794922,6|0,0:0|0:0,0:0:0:0:
