osu file format v14

[General]
AudioFilename: audio.mp3
AudioLeadIn: 0
PreviewTime: 104561
Countdown: 0
SampleSet: Soft
StackLeniency: 0.6
Mode: 0
LetterboxInBreaks: 0
WidescreenStoryboard: 0

[Editor]
Bookmarks: 11735,34323,45617,68205,73852,96440,107735,130323,141617,147264,164205
DistanceSpacing: 0.9
BeatDivisor: 12
GridSize: 32
TimelineZoom: 2.699999

[Metadata]
Title:You Need To Calm Down
TitleUnicode:You Need To Calm Down
Artist:Taylor Swift
ArtistUnicode:Taylor Swift
Creator:Skubi
Version:Chill
Source:
Tags:Lover pop english cptsqbany lgbt gay pride
BeatmapID:2825148
BeatmapSetID:1365850

[Difficulty]
HPDrainRate:5
CircleSize:6.1
OverallDifficulty:8.5
ApproachRate:8.5
SliderMultiplier:2.2
SliderTickRate:1

[Events]
//Background and Video events
0,0,"1460614.jpg",0,0
//Break Periods
2,70293,73116
//Storyboard Layer 0 (Background)
//Storyboard Layer 1 (Fail)
//Storyboard Layer 2 (Pass)
//Storyboard Layer 3 (Foreground)
//Storyboard Layer 4 (Overlay)
//Storyboard Sound Samples

[TimingPoints]
-294,705.882352941176,4,2,1,40,1,8
58,-133.333333333333,4,2,1,40,0,0
411,705.882352941176,4,2,1,40,1,0
411,-133.333333333333,4,2,1,40,0,0
763,-133.333333333333,4,2,1,5,0,0
940,-133.333333333333,4,2,1,40,0,0
1293,-133.333333333333,4,2,1,5,0,0
1469,-133.333333333333,4,2,1,40,0,0
1646,-133.333333333333,4,2,1,5,0,0
1822,-133.333333333333,4,2,1,40,0,0
3587,-133.333333333333,4,2,1,5,0,0
3763,-133.333333333333,4,2,1,40,0,0
4116,-133.333333333333,4,2,1,5,0,0
4293,-133.333333333333,4,2,1,40,0,0
4469,-133.333333333333,4,2,1,5,0,0
4646,-133.333333333333,4,2,1,40,0,0
6410,-133.333333333333,4,2,1,5,0,0
6587,-133.333333333333,4,2,1,40,0,0
6940,-133.333333333333,4,2,1,5,0,0
7116,-133.333333333333,4,2,1,40,0,0
7293,-133.333333333333,4,2,1,5,0,0
7469,-133.333333333333,4,2,1,40,0,0
9234,-133.333333333333,4,2,1,5,0,0
9410,-133.333333333333,4,2,1,40,0,0
9763,-133.333333333333,4,2,1,5,0,0
9940,-133.333333333333,4,2,1,40,0,0
10116,-133.333333333333,4,2,1,5,0,0
10293,-133.333333333333,4,2,1,40,0,0
15410,-133.333333333333,4,2,1,5,0,0
15587,-133.333333333333,4,2,1,40,0,0
26705,-133.333333333333,4,2,1,5,0,0
26881,-133.333333333333,4,2,1,40,0,0
39234,-133.333333333333,4,3,4,40,0,0
39940,-133.333333333333,4,2,1,40,0,0
42940,-133.333333333333,4,2,1,5,0,0
43116,-133.333333333333,4,2,1,40,0,0
43293,-133.333333333333,4,2,2,40,0,0
43469,-133.333333333333,4,2,1,40,0,0
44352,-133.333333333333,4,2,2,40,0,0
44528,-133.333333333333,4,2,1,40,0,0
44705,-133.333333333333,4,2,1,5,0,0
44881,-133.333333333333,4,2,1,40,0,0
45058,-133.333333333333,4,2,1,5,0,0
45234,-133.333333333333,4,2,1,40,0,0
45410,-133.333333333333,4,2,1,5,0,0
45587,-133.333333333333,4,2,1,50,0,1
45940,-133.333333333333,4,2,3,50,0,1
46116,-133.333333333333,4,2,1,50,0,1
46646,-133.333333333333,4,2,3,50,0,1
46822,-133.333333333333,4,2,1,50,0,1
47352,-133.333333333333,4,2,3,50,0,1
47528,-133.333333333333,4,2,1,50,0,1
48058,-133.333333333333,4,2,3,50,0,1
48234,-133.333333333333,4,2,1,50,0,1
48763,-133.333333333333,4,2,3,50,0,1
48940,-133.333333333333,4,2,1,50,0,1
49293,-133.333333333333,4,2,1,5,0,1
49469,-133.333333333333,4,2,3,50,0,1
49822,-133.333333333333,4,2,1,50,0,1
49999,-133.333333333333,4,2,1,5,0,1
50175,-133.333333333333,4,2,3,50,0,1
50528,-133.333333333333,4,2,1,50,0,1
51587,-133.333333333333,4,2,3,50,0,1
51940,-133.333333333333,4,2,1,50,0,1
52293,-133.333333333333,4,2,3,50,0,1
52469,-133.333333333333,4,2,1,5,0,1
52646,-133.333333333333,4,2,1,50,0,1
52999,-133.333333333333,4,2,3,50,0,1
53175,-133.333333333333,4,2,1,50,0,1
53881,-133.333333333333,4,2,1,5,0,1
54058,-133.333333333333,4,2,1,50,0,1
54410,-133.333333333333,4,2,3,50,0,1
54587,-133.333333333333,4,2,1,50,0,1
55116,-133.333333333333,4,2,3,50,0,1
55293,-133.333333333333,4,2,1,50,0,1
55822,-133.333333333333,4,2,3,50,0,1
55999,-133.333333333333,4,2,1,50,0,1
57234,-133.333333333333,4,2,3,50,0,1
57410,-133.333333333333,4,2,1,50,0,1
57940,-133.333333333333,4,2,3,50,0,1
58116,-133.333333333333,4,2,1,50,0,1
58646,-133.333333333333,4,2,3,50,0,1
58822,-133.333333333333,4,2,1,50,0,1
59352,-133.333333333333,4,2,3,50,0,1
59528,-133.333333333333,4,2,1,50,0,1
60058,-133.333333333333,4,2,3,50,0,1
60234,-133.333333333333,4,2,1,50,0,1
60587,-133.333333333333,4,2,1,5,0,1
60763,-133.333333333333,4,2,1,50,0,1
62528,-133.333333333333,4,2,1,50,0,1
62881,-133.333333333333,4,2,3,50,0,1
63058,-133.333333333333,4,2,1,50,0,1
63587,-133.333333333333,4,2,3,50,0,1
63763,-133.333333333333,4,2,1,5,0,1
63940,-133.333333333333,4,2,1,50,0,1
64293,-133.333333333333,4,2,3,50,0,1
64469,-133.333333333333,4,2,1,50,0,1
65175,-133.333333333333,4,2,1,5,0,1
65352,-133.333333333333,4,2,1,50,0,1
66058,-133.333333333333,4,2,1,50,0,1
66763,-133.333333333333,4,2,1,50,0,1
67293,-133.333333333333,4,2,1,50,0,1
67999,-133.333333333333,4,2,1,50,0,1
68175,-200,4,2,1,40,0,0
73822,705.882352941176,4,2,1,40,1,0
73822,-133.333333333333,4,2,1,40,0,0
77528,-133.333333333333,4,2,1,5,0,0
77705,-133.333333333333,4,2,1,40,0,0
78940,-133.333333333333,4,2,1,5,0,0
79116,-133.333333333333,4,2,1,40,0,0
79293,-133.333333333333,4,2,1,5,0,0
79469,-133.333333333333,4,2,1,40,0,0
83881,-133.333333333333,4,2,1,5,0,0
84058,-133.333333333333,4,2,1,40,0,0
84234,-133.333333333333,4,2,1,5,0,0
84410,-133.333333333333,4,2,1,40,0,0
84587,-133.333333333333,4,2,1,5,0,0
84763,-133.333333333333,4,2,1,40,0,0
84940,-133.333333333333,4,2,1,5,0,0
85116,-133.333333333333,4,2,1,40,0,0
85999,-133.333333333333,4,2,1,5,0,0
86175,-133.333333333333,4,2,1,40,0,0
88822,-133.333333333333,4,2,1,5,0,0
88999,-133.333333333333,4,2,1,40,0,0
101352,-133.333333333333,4,3,4,40,0,0
102058,-133.333333333333,4,2,1,40,0,0
107704,-133.333333333333,4,2,1,50,0,1
108058,-133.333333333333,4,2,3,50,0,1
108234,-133.333333333333,4,2,1,50,0,1
108764,-133.333333333333,4,2,3,50,0,1
108940,-133.333333333333,4,2,1,50,0,1
109470,-133.333333333333,4,2,3,50,0,1
109646,-133.333333333333,4,2,1,50,0,1
110176,-133.333333333333,4,2,3,50,0,1
110352,-133.333333333333,4,2,1,50,0,1
110881,-133.333333333333,4,2,3,50,0,1
111058,-133.333333333333,4,2,1,50,0,1
111411,-133.333333333333,4,2,1,5,0,1
111587,-133.333333333333,4,2,3,50,0,1
111940,-133.333333333333,4,2,1,50,0,1
112117,-133.333333333333,4,2,1,5,0,1
112293,-133.333333333333,4,2,3,50,0,1
112646,-133.333333333333,4,2,1,50,0,1
113705,-133.333333333333,4,2,3,50,0,1
114058,-133.333333333333,4,2,1,50,0,1
114411,-133.333333333333,4,2,3,50,0,1
114587,-133.333333333333,4,2,1,5,0,1
114764,-133.333333333333,4,2,1,50,0,1
115117,-133.333333333333,4,2,3,50,0,1
115293,-133.333333333333,4,2,1,50,0,1
115999,-133.333333333333,4,2,1,5,0,1
116176,-133.333333333333,4,2,1,50,0,1
116528,-133.333333333333,4,2,3,50,0,1
116705,-133.333333333333,4,2,1,50,0,1
117234,-133.333333333333,4,2,3,50,0,1
117411,-133.333333333333,4,2,1,50,0,1
117940,-133.333333333333,4,2,3,50,0,1
118117,-133.333333333333,4,2,1,50,0,1
119352,-133.333333333333,4,2,3,50,0,1
119528,-133.333333333333,4,2,1,50,0,1
120058,-133.333333333333,4,2,3,50,0,1
120234,-133.333333333333,4,2,1,50,0,1
120764,-133.333333333333,4,2,3,50,0,1
120940,-133.333333333333,4,2,1,50,0,1
121470,-133.333333333333,4,2,3,50,0,1
121646,-133.333333333333,4,2,1,50,0,1
122176,-133.333333333333,4,2,3,50,0,1
122352,-133.333333333333,4,2,1,50,0,1
122705,-133.333333333333,4,2,1,5,0,1
122881,-133.333333333333,4,2,1,50,0,1
124646,-133.333333333333,4,2,1,50,0,1
124999,-133.333333333333,4,2,3,50,0,1
125176,-133.333333333333,4,2,1,50,0,1
125705,-133.333333333333,4,2,3,50,0,1
125881,-133.333333333333,4,2,1,5,0,1
126058,-133.333333333333,4,2,1,50,0,1
126411,-133.333333333333,4,2,3,50,0,1
126587,-133.333333333333,4,2,1,50,0,1
127293,-133.333333333333,4,2,1,5,0,1
127470,-133.333333333333,4,2,1,50,0,1
128176,-133.333333333333,4,2,1,50,0,1
128881,-133.333333333333,4,2,1,50,0,1
129411,-133.333333333333,4,2,1,50,0,1
130117,-133.333333333333,4,2,1,50,0,1
130292,-133.333333333333,4,2,1,50,0,0
130646,-133.333333333333,4,2,1,5,0,0
130734,-133.333333333333,4,2,1,40,0,0
141587,-200,4,2,1,40,0,0
142116,-200,4,2,1,5,0,0
142293,-200,4,2,1,40,0,0
142822,-200,4,2,1,5,0,0
142999,-200,4,2,1,40,0,0
143528,-200,4,2,1,5,0,0
143705,-200,4,2,1,40,0,0
144234,-200,4,2,1,5,0,0
144410,-200,4,2,1,40,0,0
145822,-200,4,2,1,5,0,0
146352,-200,4,2,1,40,0,0
147233,-133.333333333333,4,2,1,50,0,1
147587,-133.333333333333,4,2,3,50,0,1
147763,-133.333333333333,4,2,1,50,0,1
148293,-133.333333333333,4,2,3,50,0,1
148469,-133.333333333333,4,2,1,5,0,1
148646,-133.333333333333,4,2,1,50,0,1
148999,-133.333333333333,4,2,3,50,0,1
149175,-133.333333333333,4,2,1,50,0,1
149705,-133.333333333333,4,2,3,50,0,1
149881,-133.333333333333,4,2,1,5,0,1
150058,-133.333333333333,4,2,1,50,0,1
150410,-133.333333333333,4,2,3,50,0,1
150587,-133.333333333333,4,2,1,50,0,1
151116,-133.333333333333,4,2,3,50,0,1
151293,-133.333333333333,4,2,1,5,0,1
151469,-133.333333333333,4,2,1,50,0,1
151822,-133.333333333333,4,2,3,50,0,1
151999,-133.333333333333,4,2,1,50,0,1
153234,-133.333333333333,4,2,3,50,0,1
153410,-133.333333333333,4,2,1,50,0,1
153940,-133.333333333333,4,2,3,50,0,1
154116,-133.333333333333,4,2,1,50,0,1
154646,-133.333333333333,4,2,3,50,0,1
154822,-133.333333333333,4,2,1,50,0,1
155352,-133.333333333333,4,2,3,50,0,1
155528,-133.333333333333,4,2,1,50,0,1
156058,-133.333333333333,4,2,3,50,0,1
156234,-133.333333333333,4,2,1,50,0,1
156587,-133.333333333333,4,2,1,5,0,1
156763,-133.333333333333,4,2,1,50,0,1
158881,-133.333333333333,4,2,3,50,0,1
159058,-133.333333333333,4,2,1,50,0,1
159587,-133.333333333333,4,2,3,50,0,1
159763,-133.333333333333,4,2,1,5,0,1
159940,-133.333333333333,4,2,1,50,0,1
160293,-133.333333333333,4,2,3,50,0,1
160469,-133.333333333333,4,2,1,50,0,1
160999,-133.333333333333,4,2,3,50,0,1
161175,-133.333333333333,4,2,1,5,0,1
161352,-133.333333333333,4,2,1,50,0,1
164174,-263.157894736842,4,2,1,40,0,0
164881,-133.333333333333,4,2,1,5,0,0

[Colours]
Combo1 : 255,55,61
Combo2 : 194,231,226
Combo3 : 139,214,203
Combo4 : 250,121,253

[HitObjects]
73,204,235,5,0,0:0:0:0:
156,288,411,2,0,B|152:243|152:243|150:218|123:200,1,82.5000031471254,4|0,0:0|0:0,0:0:0:0:
55,147,940,1,0,0:0:0:0:
88,312,1116,2,0,L|138:309,1,41.2500015735627,8|0,0:0|0:0,0:0:0:0:
224,304,1469,2,0,L|182:306,1,41.2500015735627
160,360,1822,1,4,0:0:0:0:
256,94,2528,5,8,0:0:0:0:
439,204,3058,37,0,0:0:0:0:
356,288,3234,2,0,B|360:243|360:243|362:218|389:200,1,82.5000031471254,4|0,0:0|0:0,0:0:0:0:
457,147,3763,1,0,0:0:0:0:
424,312,3939,2,0,L|374:309,1,41.2500015735627,8|0,0:0|0:0,0:0:0:0:
288,304,4292,2,0,L|330:306,1,41.2500015735627
352,360,4645,1,4,0:0:0:0:
256,94,5352,5,8,0:0:0:0:
73,204,5881,37,0,0:0:0:0:
148,304,6058,2,0,B|127:281|127:281|123:229,1,82.5000031471254,4|0,0:0|0:0,0:0:0:0:
120,160,6587,1,0,0:0:0:0:
176,308,6763,2,0,L|224:304,1,41.2500015735627,8|0,0:0|0:0,0:0:0:0:
228,224,7116,2,0,L|186:227,1,41.2500015735627
152,360,7469,1,4,0:0:0:0:
256,94,8175,5,8,0:0:0:0:
439,204,8705,37,0,0:0:0:0:
364,304,8882,2,0,B|384:281|384:281|388:229,1,82.5000031471254,4|0,0:0|0:0,0:0:0:0:
392,160,9411,1,0,0:0:0:0:
336,308,9587,2,0,L|288:304,1,41.2500015735627,8|0,0:0|0:0,0:0:0:0:
284,224,9940,2,0,L|325:227,1,41.2500015735627
360,360,10293,1,4,0:0:0:0:
256,94,10999,5,8,0:0:0:0:
80,249,11705,37,4,0:0:0:0:
73,175,11881,1,0,0:0:0:0:
151,207,12058,1,0,0:0:0:0:
2,217,12234,1,0,0:0:0:0:
49,302,12410,2,0,B|86:318|86:318|120:295,1,82.5000031471254,8|2,0:0|0:0,0:0:0:0:
80,249,12940,1,2,0:0:0:0:
28,359,13116,1,6,0:0:0:0:
150,348,13293,1,2,0:0:0:0:
256,94,13822,5,8,0:0:0:0:
437,180,14175,38,0,L|433:227,1,41.2500015735627
376,244,14528,1,4,0:0:0:0:
383,150,14704,1,0,0:0:0:0:
495,156,14881,1,0,0:0:0:0:
488,252,15057,1,0,0:0:0:0:
426,319,15234,2,0,L|428:277,1,41.2500015735627,8|0,0:0|0:0,0:0:0:0:
481,348,15587,1,2,0:0:0:0:
369,340,15763,1,2,0:0:0:0:
431,249,15940,1,6,0:0:0:0:
421,372,16116,1,2,0:0:0:0:
256,290,16469,5,2,0:0:0:0:
184,192,16646,1,10,0:0:0:0:
328,192,16822,1,2,0:0:0:0:
256,94,16999,1,2,0:0:0:0:
316,312,17352,2,0,B|272:336|240:288|196:312,1,123.750004720688,6|0,0:0|0:0,0:0:0:0:
180,320,18058,37,8,0:0:0:0:
330,303,18410,1,0,0:0:0:0:
256,384,18763,1,4,0:0:0:0:
256,94,19293,5,2,0:0:0:0:
184,192,19470,1,10,0:0:0:0:
328,192,19646,1,2,0:0:0:0:
256,290,19823,1,2,0:0:0:0:
197,72,20175,2,0,B|240:64|240:64|272:80|272:80|315:72,1,123.750004720688,6|0,0:0|0:0,0:0:0:0:
332,69,20881,37,8,0:0:0:0:
182,75,21233,1,0,0:0:0:0:
256,0,21586,1,4,0:0:0:0:
256,290,22293,5,8,0:0:0:0:
244,192,22469,1,4,0:0:0:0:
256,180,22646,1,4,0:0:0:0:
268,192,22822,1,8,0:0:0:0:
167,336,22999,38,4,L|123:332,2,41.2500015735627,4|0|0,0:0|0:0|0:0,0:0:0:0:
223,342,23528,1,0,0:0:0:0:
95,376,23705,2,0,L|86:277,1,82.5000031471254,8|2,0:0|0:0,0:0:0:0:
133,193,24234,1,2,0:0:0:0:
86,279,24410,1,6,0:0:0:0:
25,201,24587,1,2,0:0:0:0:
256,94,25116,5,8,0:0:0:0:
312,275,25469,1,0,0:0:0:0:
200,275,25646,1,0,0:0:0:0:
345,336,25822,38,0,L|389:332,2,41.2500015735627,4|0|0,0:0|0:0|0:0,0:0:0:0:
289,342,26351,1,0,0:0:0:0:
417,376,26528,2,0,L|423:306,1,41.2500015735627,8|0,0:0|0:0,0:0:0:0:
375,234,26882,1,2,0:0:0:0:
422,320,27058,1,2,0:0:0:0:
483,242,27235,1,6,0:0:0:0:
436,156,27410,1,2,0:0:0:0:
256,290,27763,5,2,0:0:0:0:
184,192,27940,1,10,0:0:0:0:
328,192,28116,1,2,0:0:0:0:
256,94,28293,1,2,0:0:0:0:
204,330,28646,2,0,P|256:357|313:324,1,123.750004720688,6|0,0:0|0:0,0:0:0:0:
317,317,29352,37,8,0:0:0:0:
196,316,29705,1,0,0:0:0:0:
256,384,30058,1,4,0:0:0:0:
328,192,30763,5,10,0:0:0:0:
184,192,30939,1,2,0:0:0:0:
256,290,31116,1,2,0:0:0:0:
308,54,31469,2,0,B|256:18|256:18|199:60,1,123.750004720688,6|0,0:0|0:0,0:0:0:0:
194,64,32175,37,8,0:0:0:0:
318,64,32528,1,0,0:0:0:0:
256,0,32881,1,4,0:0:0:0:
256,290,33587,5,8,0:0:0:0:
268,192,33763,1,4,0:0:0:0:
244,192,33939,1,4,0:0:0:0:
319,247,34116,1,8,0:0:0:0:
256,94,34293,5,4,0:0:0:0:
199,138,34469,1,0,0:0:0:0:
313,138,34646,1,2,0:0:0:0:
256,62,34822,1,2,0:0:0:0:
256,192,34999,1,8,0:0:0:0:
198,161,35175,1,0,0:0:0:0:
314,161,35352,1,2,0:0:0:0:
198,223,35528,1,0,0:0:0:0:
256,160,35705,1,4,0:0:0:0:
314,255,35881,1,2,0:0:0:0:
256,192,36058,1,2,0:0:0:0:
198,287,36234,1,0,0:0:0:0:
256,224,36410,1,8,0:0:0:0:
314,287,36587,1,0,0:0:0:0:
256,350,36763,1,2,0:0:0:0:
198,287,36940,1,0,0:0:0:0:
314,287,37116,1,4,0:0:0:0:
186,306,37293,1,2,0:0:0:0:
325,306,37469,1,2,0:0:0:0:
256,363,37646,1,0,0:0:0:0:
209,267,37822,1,8,0:0:0:0:
303,267,37999,1,0,0:0:0:0:
324,373,38175,1,2,0:0:0:0:
188,373,38352,1,0,0:0:0:0:
256,227,38528,1,4,0:0:0:0:
303,267,38705,1,0,0:0:0:0:
256,307,38881,1,2,0:0:0:0:
209,267,39058,1,2,0:0:0:0:
296,160,39234,1,6,0:3:0:0:
256,227,39410,1,2,0:3:0:0:
216,160,39587,1,10,0:3:0:0:
317,52,39940,22,0,L|194:52,1,123.750004720688,6|0,0:0|0:0,0:0:0:0:
176,52,40646,1,8,0:0:0:0:
336,52,40999,1,0,0:0:0:0:
256,0,41352,1,4,0:0:0:0:
256,290,42058,5,8,0:0:0:0:
256,94,42587,37,2,0:0:0:0:
328,156,42763,2,0,P|300:152|276:136,1,41.2500015735627,6|0,0:0|0:0,0:0:0:0:
184,156,43116,2,0,P|212:152|236:136,1,41.2500015735627,2|8,0:0|0:0,0:0:0:0:
256,32,43469,2,0,L|256:88,1,41.2500015735627,10|0,0:0|0:0,0:0:0:0:
292,224,43822,1,10,0:0:0:0:
220,224,43999,1,2,0:0:0:0:
360,110,44175,2,0,P|378:131|385:159,1,41.2500015735627,2|8,0:0|0:0,0:0:0:0:
129,143,44528,2,0,P|137:124|152:110,1,41.2500015735627,10|0,0:0|0:0,0:0:0:0:
320,280,44881,2,0,L|320:326,1,41.2500015735627,14|0,0:0|0:0,0:0:0:0:
192,321,45234,2,0,L|192:280,1,41.2500015735627,2|0,0:0|0:0,0:0:0:0:
292,144,45587,21,6,0:0:0:0:
332,216,45763,1,2,0:0:0:0:
404,176,45940,1,8,0:0:0:0:
364,104,46116,1,0,0:0:0:0:
220,168,46293,5,10,0:0:0:0:
176,247,46469,1,2,0:0:0:0:
96,203,46646,1,8,0:0:0:0:
140,123,46822,1,0,0:0:0:0:
300,208,46999,37,6,0:0:0:0:
348,294,47175,1,2,0:0:0:0:
436,246,47352,1,8,0:0:0:0:
388,158,47528,1,0,0:0:0:0:
208,220,47705,5,10,0:0:0:0:
155,314,47881,1,2,0:0:0:0:
58,261,48058,1,8,0:0:0:0:
111,165,48234,1,0,0:0:0:0:
312,248,48410,37,6,0:0:0:0:
370,351,48586,1,2,0:0:0:0:
477,293,48763,1,8,0:0:0:0:
418,187,48939,1,0,0:0:0:0:
256,360,49116,6,0,L|256:312,1,41.2500015735627,8|0,0:0|0:0,0:0:0:0:
205,213,49469,1,8,0:0:0:0:
309,213,49646,1,0,0:0:0:0:
256,303,49822,38,0,L|256:255,1,41.2500015735627,4|0,0:0|0:0,0:0:0:0:
309,156,50175,1,8,0:0:0:0:
205,156,50352,1,2,0:0:0:0:
256,246,50528,5,14,0:0:0:0:
256,124,50705,1,6,0:0:0:0:
276,3,50881,2,0,L|228:3,1,41.2500015735627,6|4,0:0|0:0,0:0:0:0:
356,116,51234,38,0,P|400:104|420:56,1,82.5000031471254,6|8,0:0|0:0,0:0:0:0:
360,56,51763,1,0,0:0:0:0:
431,157,51940,1,8,0:0:0:0:
324,328,52293,2,0,P|304:320|290:296,1,41.2500015735627,8|0,0:0|0:0,0:0:0:0:
256,192,52646,2,0,L|256:144,2,41.2500015735627,4|0|8,0:0|0:0|0:0,0:0:0:0:
219,304,53175,5,2,0:0:0:0:
180,236,53352,1,10,0:0:0:0:
332,235,53528,1,2,0:0:0:0:
292,304,53705,2,0,L|292:356,1,41.2500015735627,2|0,0:0|0:0,0:0:0:0:
140,304,54058,38,0,P|100:288|84:236,1,82.5000031471254,6|8,0:0|0:0,0:0:0:0:
84,196,54587,1,0,0:0:0:0:
48,320,54763,1,8,0:0:0:0:
181,116,55116,1,8,0:0:0:0:
163,177,55292,1,0,0:0:0:0:
145,240,55469,1,4,0:0:0:0:
274,32,55822,1,8,0:0:0:0:
256,93,55998,1,2,0:0:0:0:
238,156,56175,5,14,0:0:0:0:
318,79,56352,1,6,0:0:0:0:
220,217,56528,1,6,0:0:0:0:
300,140,56705,1,4,0:0:0:0:
202,278,56881,37,6,0:0:0:0:
124,288,57058,1,2,0:0:0:0:
116,200,57234,1,8,0:0:0:0:
194,210,57411,1,0,0:0:0:0:
316,260,57587,5,10,0:0:0:0:
401,271,57764,1,2,0:0:0:0:
410,174,57940,1,8,0:0:0:0:
324,185,58117,1,0,0:0:0:0:
188,240,58293,37,6,0:0:0:0:
94,252,58470,1,2,0:0:0:0:
84,145,58646,1,8,0:0:0:0:
179,157,58823,1,0,0:0:0:0:
328,220,58999,5,10,0:0:0:0:
431,233,59176,1,2,0:0:0:0:
442,115,59352,1,8,0:0:0:0:
337,128,59529,1,0,0:0:0:0:
176,184,59705,37,6,0:0:0:0:
62,198,59882,1,2,0:0:0:0:
50,68,60058,1,8,0:0:0:0:
166,82,60235,1,0,0:0:0:0:
256,276,60410,6,0,L|256:228,1,41.2500015735627,8|0,0:0|0:0,0:0:0:0:
400,132,60763,1,2,0:0:0:0:
256,219,60940,1,2,0:0:0:0:
112,132,61116,2,0,P|92:128|68:108,2,41.2500015735627,6|0|0,0:0|0:0|0:0,0:0:0:0:
300,136,61646,37,2,0:0:0:0:
212,136,61822,1,10,0:0:0:0:
256,52,61999,1,6,0:0:0:0:
256,220,62175,2,0,L|256:261,1,41.2500015735627,6|4,0:0|0:0,0:0:0:0:
376,340,62528,6,0,P|360:300|328:316,1,82.5000031471254,6|8,0:0|0:0,0:0:0:0:
327,366,63058,1,0,0:0:0:0:
397,258,63234,1,8,0:0:0:0:
300,84,63587,2,0,B|292:100|292:100|292:132,1,41.2500015735627,8|0,0:0|0:0,0:0:0:0:
256,240,63940,2,0,L|256:296,2,41.2500015735627,4|0|8,0:0|0:0|0:0,0:0:0:0:
220,123,64469,37,2,0:0:0:0:
328,192,64646,1,10,0:0:0:0:
292,123,64822,1,2,0:0:0:0:
184,192,64999,2,0,P|164:196|144:192,1,41.2500015735627,2|0,0:0|0:0,0:0:0:0:
88,143,65352,2,0,P|120:192|87:241,1,123.750004720688,6|0,0:0|0:0,0:0:0:0:
12,268,66058,5,10,0:0:0:0:
64,192,66234,1,2,0:0:0:0:
12,116,66410,1,2,0:0:0:0:
216,312,66763,6,0,B|244:296|266:327|295:312,1,82.5000031471254,6|0,0:0|0:0,0:0:0:0:
500,268,67293,37,2,0:0:0:0:
448,192,67469,1,10,0:0:0:0:
500,116,67645,1,6,0:0:0:0:
436,192,67822,2,0,L|388:192,1,41.2500015735627,6|4,0:0|0:0,0:0:0:0:
295,312,68175,6,0,B|266:327|244:296|216:312,1,82.5000031471254,6|0,0:0|0:0,0:0:0:0:
256,372,68881,1,8,0:0:0:0:
80,249,73822,5,4,0:0:0:0:
151,207,73998,1,0,0:0:0:0:
73,175,74175,1,0,0:0:0:0:
2,217,74351,1,0,0:0:0:0:
49,302,74528,2,0,B|86:318|86:318|120:294,1,82.5000031471254,8|2,0:0|0:0,0:0:0:0:
80,249,75057,1,2,0:0:0:0:
90,377,75233,1,6,0:0:0:0:
79,237,75410,1,2,0:0:0:0:
256,94,75940,37,8,0:0:0:0:
437,180,76293,6,0,L|433:221,1,41.2500015735627
376,244,76646,1,4,0:0:0:0:
495,156,76822,1,0,0:0:0:0:
383,150,76999,1,0,0:0:0:0:
488,252,77175,1,0,0:0:0:0:
426,319,77352,2,0,L|428:277,1,41.2500015735627,8|0,0:0|0:0,0:0:0:0:
432,224,77705,1,2,0:0:0:0:
369,340,77881,1,2,0:0:0:0:
430,251,78058,1,6,0:0:0:0:
481,348,78234,1,2,0:0:0:0:
184,192,78763,38,0,P|204:197|225:192,1,41.2500015735627,10|0,0:0|0:0,0:0:0:0:
328,192,79116,2,0,P|308:197|287:192,1,41.2500015735627,2|0,0:0|0:0,0:0:0:0:
220,92,79469,2,0,P|256:109|292:92,1,82.5000031471254,6|0,0:0|0:0,0:0:0:0:
300,80,79999,5,0,0:0:0:0:
212,80,80175,1,8,0:0:0:0:
336,128,80528,1,0,0:0:0:0:
256,0,80881,1,4,0:0:0:0:
256,290,81410,37,2,0:0:0:0:
184,192,81587,1,10,0:0:0:0:
328,192,81763,1,2,0:0:0:0:
256,94,81940,1,2,0:0:0:0:
304,292,82293,2,0,B|256:253|256:253|208:292,1,123.750004720688,6|0,0:0|0:0,0:0:0:0:
197,301,82999,5,10,0:0:0:0:
256,324,83175,1,2,0:0:0:0:
315,301,83352,1,2,0:0:0:0:
224,384,83705,38,0,L|168:384,1,41.2500015735627,4|0,0:0|0:0,0:0:0:0:
314,301,84058,2,0,L|356:301,1,41.2500015735627
184,236,84410,2,0,L|142:236,1,41.2500015735627,4|0,0:0|0:0,0:0:0:0:
352,172,84763,2,0,L|393:172,1,41.2500015735627,0|8,0:0|0:0,0:0:0:0:
160,132,85116,5,4,0:0:0:0:
80,148,85293,1,0,0:0:0:0:
64,68,85469,1,0,0:0:0:0:
144,52,85646,1,0,0:0:0:0:
210,166,85822,2,0,P|190:186|150:186,1,41.2500015735627,8|0,0:0|0:0,0:0:0:0:
113,101,86175,1,2,0:0:0:0:
113,101,86352,1,2,0:0:0:0:
85,208,86528,2,0,P|64:207|46:198,1,41.2500015735627,6|2,0:0|0:0,0:0:0:0:
256,290,87234,37,8,0:0:0:0:
400,100,87763,5,0,0:0:0:0:
352,132,87940,1,4,0:0:0:0:
432,148,88117,1,0,0:0:0:0:
368,52,88293,1,0,0:0:0:0:
448,68,88470,1,0,0:0:0:0:
333,189,88646,2,0,B|311:181|311:181|301:165,1,41.2500015735627,8|0,0:0|0:0,0:0:0:0:
400,100,88999,1,2,0:0:0:0:
400,100,89175,1,2,0:0:0:0:
426,208,89352,2,0,B|448:208|448:208|471:195,1,41.2500015735627,6|2,0:0|0:0,0:0:0:0:
256,94,89881,37,2,0:0:0:0:
328,192,90058,1,10,0:0:0:0:
184,192,90234,1,2,0:0:0:0:
256,290,90411,1,2,0:0:0:0:
295,52,90763,2,0,B|251:52|263:88|211:80,1,82.5000031471254,6|0,0:0|0:0,0:0:0:0:
206,80,91293,1,0,0:0:0:0:
309,52,91469,1,8,0:0:0:0:
256,140,91822,1,0,0:0:0:0:
256,0,92175,1,4,0:0:0:0:
256,290,92528,5,2,0:0:0:0:
184,192,92705,1,2,0:0:0:0:
328,192,92881,1,10,0:0:0:0:
256,94,93058,1,2,0:0:0:0:
256,192,93234,1,2,0:0:0:0:
217,332,93587,2,0,B|261:332|249:296|301:304,1,82.5000031471254,6|0,0:0|0:0,0:0:0:0:
306,304,94117,1,0,0:0:0:0:
203,332,94293,1,8,0:0:0:0:
256,244,94646,1,0,0:0:0:0:
256,384,94999,37,4,0:0:0:0:
328,192,95175,1,0,0:0:0:0:
256,316,95528,5,0,0:0:0:0:
184,124,95704,1,12,0:0:0:0:
292,198,95881,1,4,0:0:0:0:
220,198,96058,1,4,0:0:0:0:
328,124,96234,1,12,0:0:0:0:
256,272,96411,5,4,0:0:0:0:
220,198,96587,1,0,0:0:0:0:
256,124,96763,1,2,0:0:0:0:
292,198,96939,1,2,0:0:0:0:
201,253,97116,1,8,0:0:0:0:
256,183,97293,1,0,0:0:0:0:
311,253,97469,1,2,0:0:0:0:
256,323,97646,1,0,0:0:0:0:
201,253,97822,1,4,0:0:0:0:
256,340,97999,1,2,0:0:0:0:
311,270,98175,1,2,0:0:0:0:
256,357,98352,1,0,0:0:0:0:
201,287,98528,1,8,0:0:0:0:
311,287,98705,1,0,0:0:0:0:
194,269,98881,1,2,0:0:0:0:
319,269,99058,1,0,0:0:0:0:
256,215,99234,1,4,0:0:0:0:
256,297,99410,1,2,0:0:0:0:
312,195,99587,1,2,0:0:0:0:
194,269,99763,1,0,0:0:0:0:
319,269,99940,1,8,0:0:0:0:
200,195,100116,1,0,0:0:0:0:
256,297,100293,1,2,0:0:0:0:
312,195,100469,1,0,0:0:0:0:
256,133,100646,1,4,0:0:0:0:
200,181,100822,1,0,0:0:0:0:
256,119,100999,1,2,0:0:0:0:
312,167,101175,1,2,0:0:0:0:
256,105,101352,1,6,0:0:0:0:
200,153,101528,1,2,0:0:0:0:
256,91,101705,1,10,0:0:0:0:
297,330,102058,22,0,L|215:330,1,82.5000031471254,6|0,0:0|0:0,0:0:0:0:
198,329,102587,1,0,0:0:0:0:
314,329,102763,1,8,0:0:0:0:
256,250,103116,1,0,0:0:0:0:
256,384,103470,1,4,0:0:0:0:
256,94,104175,5,8,0:0:0:0:
339,271,104705,37,2,0:0:0:0:
173,271,104881,1,6,0:0:0:0:
359,290,105234,5,2,0:0:0:0:
256,330,105410,1,10,0:0:0:0:
152,290,105587,1,10,0:0:0:0:
385,315,105940,5,10,0:0:0:0:
256,364,106116,1,2,0:0:0:0:
126,315,106293,1,2,0:0:0:0:
256,266,106469,1,10,0:0:0:0:
418,346,106646,5,10,0:0:0:0:
93,346,106999,1,14,0:0:0:0:
256,94,107352,5,6,0:0:0:0:
256,94,107528,1,4,0:0:0:0:
344,226,107704,21,6,0:0:0:0:
389,162,107881,1,2,0:0:0:0:
364,87,108058,1,8,0:0:0:0:
319,151,108234,1,0,0:0:0:0:
162,248,108410,5,10,0:0:0:0:
112,177,108586,1,2,0:0:0:0:
140,95,108763,1,8,0:0:0:0:
189,165,108939,1,0,0:0:0:0:
361,273,109116,37,6,0:0:0:0:
416,194,109292,1,2,0:0:0:0:
385,104,109469,1,8,0:0:0:0:
331,181,109645,1,0,0:0:0:0:
141,300,109822,5,10,0:0:0:0:
80,213,109998,1,2,0:0:0:0:
114,114,110175,1,8,0:0:0:0:
174,198,110351,1,0,0:0:0:0:
383,329,110528,37,6,0:0:0:0:
450,233,110704,1,2,0:0:0:0:
412,124,110881,1,8,0:0:0:0:
346,216,111057,1,0,0:0:0:0:
256,360,111234,6,0,P|260:338|256:320,1,41.2500015735627,8|0,0:0|0:0,0:0:0:0:
205,213,111587,1,8,0:0:0:0:
160,264,111764,1,0,0:0:0:0:
256,303,111940,38,0,P|252:281|256:263,1,41.2500015735627,4|0,0:0|0:0,0:0:0:0:
309,156,112293,1,8,0:0:0:0:
354,207,112470,1,2,0:0:0:0:
256,246,112646,5,14,0:0:0:0:
256,124,112821,1,6,0:0:0:0:
276,3,112999,2,0,B|255:-1|255:-1|232:3,1,41.2500015735627,6|6,0:0|0:0,0:0:0:0:
356,116,113352,38,0,B|396:109|396:109|425:61,1,82.5000031471254,6|8,0:0|0:0,0:0:0:0:
360,56,113881,1,0,0:0:0:0:
431,157,114058,1,8,0:0:0:0:
324,328,114411,2,0,B|302:319|302:319|290:296,1,41.2500015735627,8|0,0:0|0:0,0:0:0:0:
256,192,114764,2,0,L|256:144,2,41.2500015735627,4|0|8,0:0|0:0|0:0,0:0:0:0:
219,304,115293,5,2,0:0:0:0:
332,235,115470,1,10,0:0:0:0:
180,236,115646,1,2,0:0:0:0:
292,304,115821,2,0,L|292:356,1,41.2500015735627,2|0,0:0|0:0,0:0:0:0:
159,307,116174,38,0,B|119:295|119:295|95:241,1,82.5000031471254,6|8,0:0|0:0,0:0:0:0:
165,239,116705,1,0,0:0:0:0:
41,275,116881,1,8,0:0:0:0:
249,146,117233,1,8,0:0:0:0:
188,164,117409,1,0,0:0:0:0:
125,182,117586,1,4,0:0:0:0:
333,53,117939,1,8,0:0:0:0:
272,71,118115,1,2,0:0:0:0:
209,89,118292,5,14,0:0:0:0:
286,9,118469,1,6,0:0:0:0:
148,107,118645,1,6,0:0:0:0:
225,27,118822,1,4,0:0:0:0:
87,125,118999,37,6,0:0:0:0:
102,201,119175,1,2,0:0:0:0:
179,215,119352,1,8,0:0:0:0:
218,147,119528,1,0,0:0:0:0:
442,146,119705,5,10,0:0:0:0:
425,229,119881,1,2,0:0:0:0:
340,245,120058,1,8,0:0:0:0:
297,170,120234,1,0,0:0:0:0:
52,167,120410,37,6,0:0:0:0:
70,258,120586,1,2,0:0:0:0:
164,275,120763,1,8,0:0:0:0:
211,193,120939,1,0,0:0:0:0:
480,189,121116,5,10,0:0:0:0:
460,289,121292,1,2,0:0:0:0:
356,307,121469,1,8,0:0:0:0:
305,217,121645,1,0,0:0:0:0:
10,209,121822,37,6,0:0:0:0:
32,319,121998,1,2,0:0:0:0:
146,338,122175,1,8,0:0:0:0:
202,239,122351,1,0,0:0:0:0:
256,85,122528,6,0,L|256:133,1,41.2500015735627,8|0,0:0|0:0,0:0:0:0:
400,229,122881,1,2,0:0:0:0:
256,142,123058,1,2,0:0:0:0:
112,229,123234,2,0,P|92:225|71:198,2,41.2500015735627,6|0|0,0:0|0:0|0:0,0:0:0:0:
300,225,123764,37,2,0:0:0:0:
212,225,123940,1,14,0:0:0:0:
256,309,124117,1,6,0:0:0:0:
256,141,124293,2,0,L|256:100,1,41.2500015735627,6|4,0:0|0:0,0:0:0:0:
376,44,124646,6,0,B|372:85|372:85|328:71,1,82.5000031471254,6|8,0:0|0:0,0:0:0:0:
326,19,125174,1,0,0:0:0:0:
405,129,125352,1,8,0:0:0:0:
300,300,125705,2,0,B|292:272|292:272|292:252,1,41.2500015735627,8|0,0:0|0:0,0:0:0:0:
256,141,126058,2,0,L|256:85,2,41.2500015735627,4|0|8,0:0|0:0|0:0,0:0:0:0:
220,261,126587,37,2,0:0:0:0:
292,261,126764,1,10,0:0:0:0:
184,192,126940,1,2,0:0:0:0:
328,192,127117,2,0,B|348:188|348:188|368:192,1,41.2500015735627,2|0,0:0|0:0,0:0:0:0:
424,241,127470,2,0,B|387:192|387:192|425:143,1,123.750004720688,6|0,0:0|0:0,0:0:0:0:
500,116,128174,5,10,0:0:0:0:
500,268,128352,1,2,0:0:0:0:
455,192,128528,1,2,0:0:0:0:
297,72,128881,6,0,B|272:76|272:76|240:68|240:68|217:72,1,82.5000031471254,6|0,0:0|0:0,0:0:0:0:
12,116,129411,37,2,0:0:0:0:
12,268,129587,1,14,0:0:0:0:
12,128,129763,1,6,0:0:0:0:
76,192,129940,2,0,L|124:192,1,41.2500015735627,6|4,0:0|0:0,0:0:0:0:
217,72,130292,6,0,B|240:68|240:68|272:76|272:76|297:72,1,82.5000031471254,6|0,0:0|0:0,0:0:0:0:
384,24,130763,5,2,0:0:0:0:
380,64,130881,1,2,0:0:0:0:
376,104,130999,1,10,0:0:0:0:
448,192,131234,1,2,0:0:0:0:
376,104,131528,37,2,0:0:0:0:
373,132,131616,1,2,0:0:0:0:
370,160,131705,1,6,0:0:0:0:
370,160,132128,5,2,0:0:0:0:
367,188,132234,1,2,0:0:0:0:
364,216,132352,37,2,0:0:0:0:
368,224,132469,1,2,0:0:0:0:
372,232,132587,1,2,0:0:0:0:
256,320,132940,5,0,0:0:0:0:
256,256,133116,1,4,0:0:0:0:
128,24,133646,37,2,0:0:0:0:
136,104,133822,1,10,0:0:0:0:
64,192,134087,1,2,0:0:0:0:
136,104,134352,6,0,L|140:140,1,27.5000010490418,2|2,0:0|0:0,0:0:0:0:
142,160,134586,1,2,0:0:0:0:
142,160,134999,38,0,L|146:196,1,27.5000010490418,2|2,0:0|0:0,0:0:0:0:
148,216,135234,5,10,0:0:0:0:
140,233,135375,1,2,0:0:0:0:
131,249,135516,1,2,0:0:0:0:
256,256,135763,37,0,0:0:0:0:
256,320,135939,1,4,0:0:0:0:
432,219,136293,5,0,0:0:0:0:
333,179,136469,1,0,0:0:0:0:
436,153,136646,1,10,0:0:0:0:
368,236,136822,1,2,0:0:0:0:
375,129,136999,1,2,0:0:0:0:
361,343,137352,1,6,0:0:0:0:
72,179,138058,38,0,L|68:128,2,41.2500015735627,10|2|2,0:0|0:0|0:0,0:0:0:0:
84,292,138763,1,6,0:0:0:0:
439,179,139469,6,0,L|444:128,2,41.2500015735627,10|2|2,0:0|0:0|0:0,0:0:0:0:
428,292,140174,1,6,0:0:0:0:
256,384,140705,37,2,0:0:0:0:
300,248,140881,1,10,0:0:0:0:
212,136,141058,1,2,0:0:0:0:
256,0,141234,1,2,0:0:0:0:
336,160,141587,5,2,0:0:0:0:
208,120,141763,2,0,B|180:108|180:108|152:112,1,55,2|0,0:0|0:0,0:0:0:0:
168,192,142293,37,2,0:0:0:0:
328,142,142469,2,0,B|356:130|356:130|384:136,1,55,2|0,0:0|0:0,0:0:0:0:
364,240,142999,5,2,0:0:0:0:
164,177,143175,2,0,B|136:165|136:165|108:171,1,55,2|0,0:0|0:0,0:0:0:0:
120,304,143705,37,2,0:0:0:0:
370,225,143881,2,0,B|398:213|398:213|426:219,1,55,2|0,0:0|0:0,0:0:0:0:
416,384,144411,5,2,0:0:0:0:
117,289,144587,2,0,B|89:277|89:277|56:296|56:296|0:300|0:300|40:288|72:256,1,192.5,2|0,0:0|0:0,0:0:0:0:
300,236,146352,5,2,0:0:0:0:
356,280,146527,1,2,0:0:0:0:
367,210,146705,1,6,0:0:0:0:
233,262,146881,1,6,0:0:0:0:
345,350,147058,1,4,0:0:0:0:
479,298,147233,6,0,B|474:238|474:238|492:197,1,82.5000031471254,6|8,1:0|0:0,0:0:0:0:
512,170,147763,1,2,0:0:0:0:
425,319,147940,1,10,0:0:0:0:
352,265,148116,1,2,0:0:0:0:
415,199,148293,2,0,B|420:259,1,41.2500015735627,10|0,0:0|0:0,0:0:0:0:
356,326,148646,2,0,B|351:265|351:265|327:228,1,82.5000031471254,6|8,0:0|0:0,0:0:0:0:
279,178,149175,37,2,0:0:0:0:
265,313,149351,1,10,0:0:0:0:
332,238,149528,1,2,0:0:0:0:
356,339,149705,2,0,L|418:344,1,41.2500015735627,10|0,0:0|0:0,0:0:0:0:
253,312,150058,2,0,L|166:318,1,82.5000031471254,6|8,0:0|0:0,0:0:0:0:
68,326,150587,5,2,0:0:0:0:
158,319,150763,1,10,0:0:0:0:
197,237,150940,1,2,0:0:0:0:
107,244,151116,2,0,L|111:296,1,41.2500015735627,10|0,0:0|0:0,0:0:0:0:
196,223,151469,2,0,L|189:136,1,82.5000031471254,6|8,0:0|0:0,0:0:0:0:
332,55,151999,5,2,0:0:0:0:
212,140,152174,1,14,0:0:0:0:
256,2,152352,1,6,0:0:0:0:
302,140,152527,1,6,0:0:0:0:
183,54,152705,1,4,0:0:0:0:
117,153,152881,21,6,0:0:0:0:
207,155,153058,1,2,0:0:0:0:
305,229,153234,1,8,0:0:0:0:
395,231,153411,1,0,0:0:0:0:
421,137,153587,5,10,0:0:0:0:
322,139,153764,1,2,0:0:0:0:
190,245,153940,1,8,0:0:0:0:
91,247,154117,1,0,0:0:0:0:
74,131,154293,37,6,0:0:0:0:
183,133,154470,1,2,0:0:0:0:
328,250,154646,1,8,0:0:0:0:
437,252,154821,1,0,0:0:0:0:
455,125,154999,5,10,0:0:0:0:
335,127,155174,1,2,0:0:0:0:
176,256,155352,1,8,0:0:0:0:
56,258,155527,1,0,0:0:0:0:
36,118,155705,37,6,0:0:0:0:
168,121,155880,1,2,0:0:0:0:
343,262,156058,1,8,0:0:0:0:
475,265,156233,1,0,0:0:0:0:
405,105,156410,6,0,L|407:184,1,41.2500015735627,8|0,0:0|0:0,0:0:0:0:
409,264,156763,1,2,0:0:0:0:
256,192,156940,1,2,0:0:0:0:
103,264,157116,2,0,L|101:305,2,41.2500015735627,6|0|0,0:0|0:0|0:0,0:0:0:0:
105,146,157646,37,2,0:0:0:0:
213,232,157822,1,14,0:0:0:0:
299,152,157999,1,6,0:0:0:0:
191,66,158175,1,6,0:0:0:0:
296,235,158352,1,4,0:0:0:0:
410,155,158528,6,0,P|407:121|353:98,1,82.5000031471254,6|8,0:0|0:0,0:0:0:0:
350,152,159058,1,0,0:0:0:0:
455,85,159234,1,8,0:0:0:0:
342,36,159410,1,2,0:0:0:0:
346,94,159587,2,0,L|350:150,1,41.2500015735627,10|0,0:0|0:0,0:0:0:0:
163,135,159940,2,0,B|166:79|166:79|199:42,1,82.5000031471254,6|8,0:0|0:0,0:0:0:0:
292,123,160469,37,2,0:0:0:0:
184,192,160646,1,10,0:0:0:0:
292,261,160821,1,2,0:0:0:0:
184,192,160999,2,0,B|142:192,1,41.2500015735627,10|0,0:0|0:0,0:0:0:0:
88,143,161352,2,0,P|120:192|87:241,1,123.750004720688,6|0,0:0|0:0,0:0:0:0:
12,268,162058,5,10,0:0:0:0:
57,192,162234,1,2,0:0:0:0:
12,116,162410,1,2,0:0:0:0:
217,312,162763,6,0,B|246:327|268:296|296:312,1,82.5000031471254,6|0,0:0|0:0,0:0:0:0:
500,268,163293,37,2,0:0:0:0:
320,192,163469,1,14,0:0:0:0:
500,116,163645,1,6,0:0:0:0:
384,192,163822,1,6,0:0:0:0:
500,268,163999,1,4,0:0:0:0:
296,312,164175,6,0,B|267:295|244:327|215:312,1,83.5999989794922,6|0,0:0|0:0,0:0:0:0:
