osu file format v14

[General]
AudioFilename: audio.mp3
AudioLeadIn: 0
PreviewTime: 5282
Countdown: 1
SampleSet: Normal
StackLeniency: 0.7
Mode: 1
LetterboxInBreaks: 0
WidescreenStoryboard: 1

[Editor]
DistanceSpacing: 0.8
BeatDivisor: 4
GridSize: 32
TimelineZoom: 1.7

[Metadata]
Title:You Need To Calm Down (Clean Bandit Remix)
TitleUnicode:You Need To Calm Down (Clean Bandit Remix)
Artist:Taylor Swift
ArtistUnicode:Taylor Swift
Creator:-OvO-
Version:Oni
Source:
Tags:electro electronic pop british edm joel little english
BeatmapID:2167686
BeatmapSetID:1024669

[Difficulty]
HPDrainRate:5.5
CircleSize:2
OverallDifficulty:5.5
ApproachRate:10
SliderMultiplier:1.4
SliderTickRate:1

[Events]
//Background and Video events
0,0,"bg.jpg",0,0
//Break Periods
//Storyboard Layer 0 (Background)
//Storyboard Layer 1 (Fail)
//Storyboard Layer 2 (Pass)
//Storyboard Layer 3 (Foreground)
//Storyboard Layer 4 (Overlay)
//Storyboard Sound Samples

[TimingPoints]
230,315.789473684211,4,1,0,85,1,0
25493,-100,4,1,0,85,0,0
25808,-100.946372239748,4,1,0,85,0,0
25966,-101.426256012041,4,1,0,85,0,0
26124,-101.910828025478,4,1,0,85,0,0
26282,-102.400052428827,4,1,0,85,0,0
26361,-102.646324902306,4,1,0,85,0,0
26440,-102.893890675241,4,1,0,85,0,0
26756,-103.896103896104,4,1,0,85,0,0
26914,-104.404622201434,4,1,0,85,0,0
26993,-104.660643097788,4,1,0,85,0,0
27072,-104.918032786885,4,1,0,85,0,0
27230,-105.436628895752,4,1,0,85,0,0
27387,-105.960264900662,4,1,0,85,0,0
27545,-106.489241391942,4,1,0,85,0,0
27703,-107.023411371237,4,1,0,85,0,0
28019,-108.108108108108,4,1,0,85,0,0
28177,-108.658802666922,4,1,0,85,0,0
28335,-109.215017064846,4,1,0,85,0,0
28493,-109.77695518246,4,1,0,85,0,0
28651,-110.344827586207,4,1,0,85,0,0
28808,-110.918605708759,4,1,0,85,0,0
28966,-111.498257839721,4,1,0,85,0,0
29282,-112.676056338028,4,1,0,85,0,0
29440,-113.274400438598,4,1,0,85,0,0
29519,-113.575832879976,4,1,0,85,0,0
29598,-113.879003558719,4,1,0,85,0,0
29756,-114.490095461842,4,1,0,85,0,0
29914,-115.107913669065,4,1,0,85,0,0
30072,-115.732435866871,4,1,0,85,0,0
30230,-116.363636363636,4,1,0,85,0,0
30545,-117.647058823529,4,1,0,85,0,0
30861,-116.36526124583,4,1,0,85,0,0
31019,-115.734846836504,4,1,0,85,0,0
31335,-114.494159080475,4,1,0,85,0,0
31493,-113.883802079063,4,1,0,85,0,0
31651,-113.27978975271,4,1,0,85,0,0
31808,-112.682277669415,4,1,0,85,0,0
31966,-112.090910211818,4,1,0,85,0,0
32045,-111.797673043233,4,1,0,85,0,0
32124,-111.505841791051,4,1,0,85,0,0
32282,-110.926849289236,4,1,0,85,0,0
32440,-110.353716768358,4,1,0,85,0,0
32756,-109.2251567381,4,1,0,85,0,0
32914,-108.669547858612,4,1,0,85,0,0
32993,-108.393799007546,4,1,0,85,0,0
33072,-108.119562937479,4,1,0,85,0,0
33230,-107.5750012909,4,1,0,85,0,0
33387,-107.036012266327,4,1,0,85,0,0
33545,-106.502283941479,4,1,0,85,0,0
33703,-105.973964316447,4,1,0,85,0,0
33861,-105.450860426296,4,1,0,85,0,0
34019,-104.932785304373,4,1,0,85,0,0
34177,-104.419884887519,4,1,0,85,0,0
34335,-103.911866111639,4,1,0,85,0,0
34651,-102.910621096472,4,1,0,85,0,0
34808,-102.417251981262,4,1,0,85,0,0
34887,-102.172284950329,4,1,0,85,0,0
34966,-101.92859086781,4,1,0,85,0,0
35282,-100.965023696491,4,1,0,85,0,0
35598,-100,4,1,0,85,0,1
55808,-100,4,1,0,85,0,0
81072,-100,4,1,0,85,0,0
81387,-100.946372239748,4,1,0,85,0,0
81545,-101.426256012041,4,1,0,85,0,0
81703,-101.910828025478,4,1,0,85,0,0
81861,-102.400052428827,4,1,0,85,0,0
81940,-102.646324902306,4,1,0,85,0,0
82019,-102.893890675241,4,1,0,85,0,0
82335,-103.896103896104,4,1,0,85,0,0
82493,-104.404622201434,4,1,0,85,0,0
82572,-104.660643097788,4,1,0,85,0,0
82651,-104.918032786885,4,1,0,85,0,0
82808,-105.436628895752,4,1,0,85,0,0
82966,-105.960264900662,4,1,0,85,0,0
83124,-106.489241391942,4,1,0,85,0,0
83282,-107.023411371237,4,1,0,85,0,0
83598,-108.108108108108,4,1,0,85,0,0
83756,-108.658802666922,4,1,0,85,0,0
83914,-109.215017064846,4,1,0,85,0,0
84072,-109.77695518246,4,1,0,85,0,0
84230,-110.344827586207,4,1,0,85,0,0
84387,-110.918605708759,4,1,0,85,0,0
84545,-111.498257839721,4,1,0,85,0,0
84861,-112.676056338028,4,1,0,85,0,0
85019,-113.274400438598,4,1,0,85,0,0
85098,-113.575832879976,4,1,0,85,0,0
85177,-113.879003558719,4,1,0,85,0,0
85335,-114.490095461842,4,1,0,85,0,0
85493,-115.107913669065,4,1,0,85,0,0
85651,-115.732435866871,4,1,0,85,0,0
85808,-116.363636363636,4,1,0,85,0,0
86124,-117.647058823529,4,1,0,85,0,0
86440,-116.36526124583,4,1,0,85,0,0
86598,-115.734846836504,4,1,0,85,0,0
86756,-115.111093716546,4,1,0,85,0,0
86914,-114.494159080475,4,1,0,85,0,0
87072,-113.883802079063,4,1,0,85,0,0
87230,-113.27978975271,4,1,0,85,0,0
87387,-112.682277669415,4,1,0,85,0,0
87545,-112.090910211818,4,1,0,85,0,0
87624,-111.797673043233,4,1,0,85,0,0
87703,-111.505841791051,4,1,0,85,0,0
87861,-110.926849289236,4,1,0,85,0,0
88019,-110.353716768358,4,1,0,85,0,0
88335,-109.2251567381,4,1,0,85,0,0
88493,-108.669547858612,4,1,0,85,0,0
88572,-108.393799007546,4,1,0,85,0,0
88651,-108.119562937479,4,1,0,85,0,0
88808,-107.5750012909,4,1,0,85,0,0
88966,-107.036012266327,4,1,0,85,0,0
89124,-106.502283941479,4,1,0,85,0,0
89282,-105.973964316447,4,1,0,85,0,0
89440,-105.450860426296,4,1,0,85,0,0
89598,-104.932785304373,4,1,0,85,0,0
89756,-104.419884887519,4,1,0,85,0,0
89914,-103.911866111639,4,1,0,85,0,0
90230,-102.910621096472,4,1,0,85,0,0
90387,-102.417251981262,4,1,0,85,0,0
90466,-102.172284950329,4,1,0,85,0,0
90545,-101.92859086781,4,1,0,85,0,0
90703,-101.444467776672,4,1,0,85,0,0
90861,-100.965023696491,4,1,0,85,0,0
91177,-100,4,1,0,85,0,1
111387,-100,4,1,0,85,0,0
116440,-100,4,1,0,85,0,0
117072,-101.264182048696,4,1,0,85,0,0
117387,-101.908335490393,4,1,0,85,0,0
117703,-102.560631281198,4,1,0,85,0,0
118019,-103.221437853985,4,1,0,85,0,0
118335,-103.890814909163,4,1,0,85,0,0
118966,-105.25595617142,4,1,0,85,0,0
119598,-106.65745146286,4,1,0,85,0,0
119914,-107.372288715495,4,1,0,85,0,0
120230,-108.096655705666,4,1,0,85,0,0
120545,-108.830981133061,4,1,0,85,0,0
120861,-109.575351682091,4,1,0,85,0,0
121177,-110.329974888898,4,1,0,85,0,0
121335,-110.711197662665,4,1,0,85,0,0
121493,-111.095064046304,4,1,0,85,0,0
121808,-110.344827586207,4,1,0,85,0,0
121966,-109.965635738832,4,1,0,85,0,0
122124,-109.58904109589,4,1,0,85,0,0
122282,-109.215017064846,4,1,0,85,0,0
122440,-108.843537414966,4,1,0,85,0,0
122598,-108.474576271186,4,1,0,85,0,0
122756,-108.108108108108,4,1,0,85,0,0
122835,-107.925742771943,4,1,0,85,0,0
122914,-107.744107744108,4,1,0,85,0,0
123072,-107.38255033557,4,1,0,85,0,0
123387,-106.666666666667,4,1,0,85,0,0
123545,-106.312292358804,4,1,0,85,0,0
123703,-105.960264900662,4,1,0,85,0,0
123861,-105.610561056106,4,1,0,85,0,0
123940,-105.436517727042,4,1,0,85,0,0
124019,-105.263157894737,4,1,0,85,0,0
124335,-104.575163398693,4,1,0,85,0,0
124493,-104.234527687296,4,1,0,85,0,0
124651,-103.896103896104,4,1,0,85,0,0
124808,-103.559870550162,4,1,0,85,0,0
124966,-103.225806451613,4,1,0,85,0,0
125124,-102.893890675241,4,1,0,85,0,0
125282,-102.564102564103,4,1,0,85,0,0
125440,-102.23642172524,4,1,0,85,0,0
125598,-101.910828025478,4,1,0,85,0,0
125756,-101.587301587302,4,1,0,85,0,0
125835,-101.426256012041,4,1,0,85,0,0
125914,-101.26582278481,4,1,0,85,0,0
126072,-100.946372239748,4,1,0,85,0,0
126230,-100.62893081761,4,1,0,85,0,0
126387,-100.313479623824,4,1,0,85,0,0
126545,-100,4,1,0,85,0,0
126861,-100,4,1,0,85,0,1
146756,-100,4,1,0,85,0,0

[HitObjects]
256,192,230,5,0,0:0:0:0:
256,192,387,1,0,0:0:0:0:
256,192,545,1,8,0:0:0:0:
256,192,703,1,0,0:0:0:0:
256,192,861,1,8,0:0:0:0:
256,192,1177,1,8,0:0:0:0:
256,192,1335,1,8,0:0:0:0:
256,192,1493,1,0,0:0:0:0:
256,192,1808,1,0,0:0:0:0:
256,192,1966,1,8,0:0:0:0:
256,192,2440,1,8,0:0:0:0:
256,192,2756,1,0,0:0:0:0:
256,192,3072,1,8,0:0:0:0:
256,192,3230,1,8,0:0:0:0:
256,192,3387,1,0,0:0:0:0:
256,192,3545,1,0,0:0:0:0:
256,192,3703,1,8,0:0:0:0:
256,192,3861,1,0,0:0:0:0:
256,192,4019,1,8,0:0:0:0:
256,192,4335,1,8,0:0:0:0:
256,192,4493,1,0,0:0:0:0:
256,192,4572,1,0,0:0:0:0:
256,192,4651,1,8,0:0:0:0:
256,192,4808,1,8,0:0:0:0:
256,192,4966,1,0,0:0:0:0:
256,192,5282,1,0,0:0:0:0:
256,192,5440,1,8,0:0:0:0:
256,192,5598,1,8,0:0:0:0:
256,192,5756,1,0,0:0:0:0:
256,192,5914,1,8,0:0:0:0:
256,192,6230,1,0,0:0:0:0:
256,192,6387,1,0,0:0:0:0:
256,192,6545,1,8,0:0:0:0:
256,192,6703,1,8,0:0:0:0:
256,192,7019,1,0,0:0:0:0:
256,192,7493,1,8,0:0:0:0:
256,192,7651,1,0,0:0:0:0:
256,192,7808,1,8,0:0:0:0:
256,192,7966,1,0,0:0:0:0:
256,192,8124,1,0,0:0:0:0:
256,192,8282,1,8,0:0:0:0:
256,192,8440,1,8,0:0:0:0:
256,192,8756,1,8,0:0:0:0:
256,192,8914,1,0,0:0:0:0:
256,192,9072,1,0,0:0:0:0:
256,192,9230,1,8,0:0:0:0:
256,192,9545,1,0,0:0:0:0:
256,192,9703,1,8,0:0:0:0:
256,192,9861,1,8,0:0:0:0:
256,192,10019,1,0,0:0:0:0:
256,192,10335,1,4,0:0:0:0:
256,192,10651,1,8,0:0:0:0:
256,192,10808,1,0,0:0:0:0:
256,192,10966,1,8,0:0:0:0:
256,192,11124,1,8,0:0:0:0:
256,192,11282,1,0,0:0:0:0:
256,192,11598,1,8,0:0:0:0:
256,192,12072,1,0,0:0:0:0:
256,192,12230,1,8,0:0:0:0:
256,192,12387,1,8,0:0:0:0:
256,192,12545,1,8,0:0:0:0:
256,192,12861,1,4,0:0:0:0:
256,192,13177,1,8,0:0:0:0:
256,192,13335,1,8,0:0:0:0:
256,192,13493,1,0,0:0:0:0:
256,192,13651,1,0,0:0:0:0:
256,192,13808,1,8,0:0:0:0:
256,192,14124,1,8,0:0:0:0:
256,192,14440,1,0,0:0:0:0:
256,192,14598,1,8,0:0:0:0:
256,192,14677,1,8,0:0:0:0:
256,192,14756,1,8,0:0:0:0:
256,192,14914,1,0,0:0:0:0:
256,192,15072,1,8,0:0:0:0:
256,192,15230,1,0,0:0:0:0:
256,192,15387,1,12,0:0:0:0:
256,192,15703,1,0,0:0:0:0:
256,192,15861,1,0,0:0:0:0:
256,192,16019,1,8,0:0:0:0:
256,192,16177,1,0,0:0:0:0:
256,192,16256,1,0,0:0:0:0:
256,192,16335,1,8,0:0:0:0:
256,192,16493,1,8,0:0:0:0:
256,192,16651,1,0,0:0:0:0:
256,192,16808,1,8,0:0:0:0:
256,192,17124,1,8,0:0:0:0:
256,192,17282,1,0,0:0:0:0:
256,192,17598,1,0,0:0:0:0:
256,192,17756,1,0,0:0:0:0:
256,192,17914,1,8,0:0:0:0:
256,192,18072,1,8,0:0:0:0:
256,192,18151,1,0,0:0:0:0:
256,192,18230,1,8,0:0:0:0:
256,192,18387,1,0,0:0:0:0:
256,192,18545,1,8,0:0:0:0:
256,192,18703,1,0,0:0:0:0:
256,192,18782,1,0,0:0:0:0:
256,192,18861,1,8,0:0:0:0:
256,192,19019,1,8,0:0:0:0:
256,192,19177,1,0,0:0:0:0:
256,192,19335,1,8,0:0:0:0:
256,192,19651,1,8,0:0:0:0:
256,192,19808,1,0,0:0:0:0:
256,192,19966,1,8,0:0:0:0:
256,192,20124,1,8,0:0:0:0:
256,192,20440,1,4,0:0:0:0:
256,192,20756,1,8,0:0:0:0:
256,192,20914,1,0,0:0:0:0:
256,192,21072,1,8,0:0:0:0:
256,192,21230,1,8,0:0:0:0:
256,192,21387,1,0,0:0:0:0:
256,192,21703,1,8,0:0:0:0:
256,192,22019,1,0,0:0:0:0:
256,192,22177,1,8,0:0:0:0:
256,192,22335,1,0,0:0:0:0:
256,192,22493,1,0,0:0:0:0:
256,192,22572,1,0,0:0:0:0:
256,192,22651,1,8,0:0:0:0:
256,192,22966,1,4,0:0:0:0:
256,192,23282,1,8,0:0:0:0:
256,192,23440,1,8,0:0:0:0:
256,192,23598,1,0,0:0:0:0:
256,192,23756,1,0,0:0:0:0:
256,192,23914,1,8,0:0:0:0:
256,192,24230,1,0,0:0:0:0:
256,192,24387,1,8,0:0:0:0:
256,192,24466,1,8,0:0:0:0:
256,192,24545,1,8,0:0:0:0:
256,192,24703,1,0,0:0:0:0:
256,192,24861,1,8,0:0:0:0:
256,192,25019,1,8,0:0:0:0:
256,192,25098,1,0,0:0:0:0:
256,192,25177,1,8,0:0:0:0:
256,192,25493,1,12,0:0:0:0:
256,192,25808,1,0,0:0:0:0:
256,192,25966,1,8,0:0:0:0:
256,192,26124,1,0,0:0:0:0:
256,192,26282,1,8,0:0:0:0:
256,192,26361,1,0,0:0:0:0:
256,192,26440,1,8,0:0:0:0:
256,192,26756,1,8,0:0:0:0:
256,192,26914,1,0,0:0:0:0:
256,192,26993,1,0,0:0:0:0:
256,192,27072,1,8,0:0:0:0:
256,192,27230,1,0,0:0:0:0:
256,192,27387,1,8,0:0:0:0:
256,192,27545,1,8,0:0:0:0:
256,192,27703,1,0,0:0:0:0:
256,192,28019,1,0,0:0:0:0:
256,192,28177,1,8,0:0:0:0:
256,192,28335,1,8,0:0:0:0:
256,192,28493,1,8,0:0:0:0:
256,192,28651,1,0,0:0:0:0:
256,192,28808,1,0,0:0:0:0:
256,192,28966,1,8,0:0:0:0:
256,192,29282,1,8,0:0:0:0:
256,192,29440,1,8,0:0:0:0:
256,192,29519,1,0,0:0:0:0:
256,192,29598,1,8,0:0:0:0:
256,192,29756,1,0,0:0:0:0:
256,192,29914,1,8,0:0:0:0:
256,192,30072,1,0,0:0:0:0:
256,192,30230,1,8,0:0:0:0:
256,192,30545,1,4,0:0:0:0:
256,192,30861,1,0,0:0:0:0:
256,192,31019,1,8,0:0:0:0:
256,192,31335,1,0,0:0:0:0:
256,192,31493,1,8,0:0:0:0:
256,192,31651,1,0,0:0:0:0:
256,192,31808,1,0,0:0:0:0:
256,192,31966,1,8,0:0:0:0:
256,192,32045,1,0,0:0:0:0:
256,192,32124,1,8,0:0:0:0:
256,192,32282,1,0,0:0:0:0:
256,192,32440,1,8,0:0:0:0:
256,192,32756,1,8,0:0:0:0:
256,192,32914,1,0,0:0:0:0:
256,192,32993,1,0,0:0:0:0:
256,192,33072,1,8,0:0:0:0:
256,192,33230,1,0,0:0:0:0:
256,192,33387,1,8,0:0:0:0:
256,192,33545,1,8,0:0:0:0:
256,192,33703,1,0,0:0:0:0:
256,192,33861,1,0,0:0:0:0:
256,192,34019,1,8,0:0:0:0:
256,192,34177,1,0,0:0:0:0:
256,192,34335,1,8,0:0:0:0:
256,192,34651,1,8,0:0:0:0:
256,192,34808,1,8,0:0:0:0:
256,192,34887,1,8,0:0:0:0:
256,192,34966,1,0,0:0:0:0:
256,192,35282,1,8,0:0:0:0:
256,192,35598,1,4,0:0:0:0:
256,192,35756,1,0,0:0:0:0:
256,192,35835,1,0,0:0:0:0:
256,192,35914,1,8,0:0:0:0:
256,192,36072,1,0,0:0:0:0:
256,192,36230,1,8,0:0:0:0:
256,192,36308,1,8,0:0:0:0:
256,192,36387,1,0,0:0:0:0:
256,192,36545,1,8,0:0:0:0:
256,192,36703,1,0,0:0:0:0:
256,192,36782,1,0,0:0:0:0:
256,192,36861,1,8,0:0:0:0:
256,192,36940,1,8,0:0:0:0:
256,192,37019,1,8,0:0:0:0:
256,192,37177,1,0,0:0:0:0:
256,192,37335,1,0,0:0:0:0:
256,192,37493,1,8,0:0:0:0:
256,192,37808,1,8,0:0:0:0:
256,192,37966,1,0,0:0:0:0:
256,192,38045,1,8,0:0:0:0:
256,192,38124,1,0,0:0:0:0:
256,192,38282,1,0,0:0:0:0:
256,192,38440,1,8,0:0:0:0:
256,192,38519,1,8,0:0:0:0:
256,192,38598,1,0,0:0:0:0:
256,192,38756,1,8,0:0:0:0:
256,192,38914,1,0,0:0:0:0:
256,192,38993,1,0,0:0:0:0:
256,192,39072,1,8,0:0:0:0:
256,192,39151,1,8,0:0:0:0:
256,192,39230,1,8,0:0:0:0:
256,192,39387,1,0,0:0:0:0:
256,192,39703,1,8,0:0:0:0:
256,192,39861,1,0,0:0:0:0:
256,192,40019,1,8,0:0:0:0:
256,192,40098,1,8,0:0:0:0:
256,192,40177,1,0,0:0:0:0:
256,192,40335,1,8,0:0:0:0:
256,192,40414,1,0,0:0:0:0:
256,192,40493,1,8,0:0:0:0:
256,192,40651,1,4,0:0:0:0:
256,192,40966,1,8,0:0:0:0:
256,192,41124,1,8,0:0:0:0:
256,192,41203,1,8,0:0:0:0:
256,192,41282,1,8,0:0:0:0:
256,192,41598,1,0,0:0:0:0:
256,192,41756,1,8,0:0:0:0:
256,192,41835,1,0,0:0:0:0:
256,192,41914,1,8,0:0:0:0:
256,192,42072,1,0,0:0:0:0:
256,192,42230,1,8,0:0:0:0:
256,192,42308,1,8,0:0:0:0:
256,192,42387,1,0,0:0:0:0:
256,192,42545,1,8,0:0:0:0:
256,192,42703,1,0,0:0:0:0:
256,192,42782,1,0,0:0:0:0:
256,192,42861,1,8,0:0:0:0:
256,192,43177,1,4,0:0:0:0:
256,192,43335,1,0,0:0:0:0:
256,192,43414,1,0,0:0:0:0:
256,192,43493,1,8,0:0:0:0:
256,192,43651,1,8,0:0:0:0:
256,192,43808,1,0,0:0:0:0:
256,192,43966,1,8,0:0:0:0:
256,192,44124,1,0,0:0:0:0:
256,192,44203,1,0,0:0:0:0:
256,192,44282,1,8,0:0:0:0:
256,192,44361,1,8,0:0:0:0:
256,192,44440,1,0,0:0:0:0:
256,192,44598,1,0,0:0:0:0:
256,192,44756,1,8,0:0:0:0:
256,192,44914,1,8,0:0:0:0:
256,192,44993,1,8,0:0:0:0:
256,192,45072,1,0,0:0:0:0:
256,192,45230,1,0,0:0:0:0:
256,192,45387,1,8,0:0:0:0:
256,192,45703,1,4,0:0:0:0:
256,192,45861,1,0,0:0:0:0:
256,192,45940,1,0,0:0:0:0:
256,192,46019,1,8,0:0:0:0:
256,192,46177,1,0,0:0:0:0:
256,192,46335,1,8,0:0:0:0:
256,192,46414,1,8,0:0:0:0:
256,192,46493,1,0,0:0:0:0:
256,192,46651,1,8,0:0:0:0:
256,192,46808,1,0,0:0:0:0:
256,192,46887,1,0,0:0:0:0:
256,192,46966,1,8,0:0:0:0:
256,192,47045,1,8,0:0:0:0:
256,192,47124,1,8,0:0:0:0:
256,192,47282,1,0,0:0:0:0:
256,192,47440,1,0,0:0:0:0:
256,192,47598,1,8,0:0:0:0:
256,192,47914,1,8,0:0:0:0:
256,192,48072,1,0,0:0:0:0:
256,192,48151,1,8,0:0:0:0:
256,192,48230,1,0,0:0:0:0:
256,192,48387,1,0,0:0:0:0:
256,192,48545,1,8,0:0:0:0:
256,192,48624,1,8,0:0:0:0:
256,192,48703,1,0,0:0:0:0:
256,192,48861,1,8,0:0:0:0:
256,192,49019,1,0,0:0:0:0:
256,192,49098,1,0,0:0:0:0:
256,192,49177,1,8,0:0:0:0:
256,192,49256,1,8,0:0:0:0:
256,192,49335,1,8,0:0:0:0:
256,192,49493,1,0,0:0:0:0:
256,192,49808,1,8,0:0:0:0:
256,192,49966,1,0,0:0:0:0:
256,192,50124,1,8,0:0:0:0:
256,192,50203,1,8,0:0:0:0:
256,192,50282,1,0,0:0:0:0:
256,192,50440,1,8,0:0:0:0:
256,192,50519,1,0,0:0:0:0:
256,192,50598,1,8,0:0:0:0:
256,192,50756,1,4,0:0:0:0:
256,192,51072,1,8,0:0:0:0:
256,192,51230,1,8,0:0:0:0:
256,192,51308,1,8,0:0:0:0:
256,192,51387,1,8,0:0:0:0:
256,192,51703,1,0,0:0:0:0:
256,192,51861,1,8,0:0:0:0:
256,192,51940,1,0,0:0:0:0:
256,192,52019,1,8,0:0:0:0:
256,192,52177,1,0,0:0:0:0:
256,192,52335,1,8,0:0:0:0:
256,192,52414,1,8,0:0:0:0:
256,192,52493,1,0,0:0:0:0:
256,192,52651,1,8,0:0:0:0:
256,192,52808,1,0,0:0:0:0:
256,192,52887,1,0,0:0:0:0:
256,192,52966,1,8,0:0:0:0:
256,192,53282,1,4,0:0:0:0:
256,192,53440,1,0,0:0:0:0:
256,192,53519,1,0,0:0:0:0:
256,192,53598,1,8,0:0:0:0:
256,192,53756,1,8,0:0:0:0:
256,192,53914,1,0,0:0:0:0:
256,192,54072,1,8,0:0:0:0:
256,192,54230,1,0,0:0:0:0:
256,192,54308,1,0,0:0:0:0:
256,192,54387,1,8,0:0:0:0:
256,192,54466,1,8,0:0:0:0:
256,192,54545,1,0,0:0:0:0:
256,192,54703,1,0,0:0:0:0:
256,192,54861,1,8,0:0:0:0:
256,192,55019,1,8,0:0:0:0:
256,192,55098,1,8,0:0:0:0:
256,192,55177,1,0,0:0:0:0:
256,192,55335,1,0,0:0:0:0:
256,192,55493,1,8,0:0:0:0:
256,192,55651,1,8,0:0:0:0:
256,192,55808,1,4,0:0:0:0:
256,192,56124,1,8,0:0:0:0:
256,192,56282,1,0,0:0:0:0:
256,192,56361,1,0,0:0:0:0:
256,192,56440,1,8,0:0:0:0:
256,192,56598,1,0,0:0:0:0:
256,192,56756,1,8,0:0:0:0:
256,192,57072,1,0,0:0:0:0:
256,192,57230,1,0,0:0:0:0:
256,192,57387,1,8,0:0:0:0:
256,192,57545,1,0,0:0:0:0:
256,192,57703,1,8,0:0:0:0:
256,192,57861,1,8,0:0:0:0:
256,192,58019,1,0,0:0:0:0:
256,192,58098,1,0,0:0:0:0:
256,192,58177,1,8,0:0:0:0:
256,192,58256,1,0,0:0:0:0:
256,192,58335,1,8,0:0:0:0:
256,192,58493,1,8,0:0:0:0:
256,192,58651,1,0,0:0:0:0:
256,192,58808,1,0,0:0:0:0:
256,192,58966,1,8,0:0:0:0:
256,192,59282,1,8,0:0:0:0:
256,192,59361,1,8,0:0:0:0:
256,192,59440,1,0,0:0:0:0:
256,192,59519,1,0,0:0:0:0:
256,192,59598,1,8,0:0:0:0:
256,192,60072,1,0,0:0:0:0:
256,192,60151,1,0,0:0:0:0:
256,192,60230,1,8,0:0:0:0:
256,192,60545,1,8,0:0:0:0:
256,192,60861,1,4,0:0:0:0:
256,192,61177,1,8,0:0:0:0:
256,192,61335,1,0,0:0:0:0:
256,192,61493,1,8,0:0:0:0:
256,192,61651,1,8,0:0:0:0:
256,192,61808,1,0,0:0:0:0:
256,192,61966,1,0,0:0:0:0:
256,192,62124,1,8,0:0:0:0:
256,192,62282,1,8,0:0:0:0:
256,192,62598,1,8,0:0:0:0:
256,192,62756,1,0,0:0:0:0:
256,192,63072,1,8,0:0:0:0:
256,192,63230,1,0,0:0:0:0:
256,192,63387,1,8,0:0:0:0:
256,192,63545,1,0,0:0:0:0:
256,192,63703,1,0,0:0:0:0:
256,192,63861,1,8,0:0:0:0:
256,192,64019,1,8,0:0:0:0:
256,192,64335,1,8,0:0:0:0:
256,192,64493,1,0,0:0:0:0:
256,192,64651,1,8,0:0:0:0:
256,192,64808,1,8,0:0:0:0:
256,192,65124,1,0,0:0:0:0:
256,192,65282,1,8,0:0:0:0:
256,192,65440,1,0,0:0:0:0:
256,192,65598,1,0,0:0:0:0:
256,192,65914,1,12,0:0:0:0:
256,192,66230,1,0,0:0:0:0:
256,192,66387,1,0,0:0:0:0:
256,192,66545,1,8,0:0:0:0:
256,192,66703,1,0,0:0:0:0:
256,192,66861,1,8,0:0:0:0:
256,192,67177,1,0,0:0:0:0:
256,192,67493,1,8,0:0:0:0:
256,192,67651,1,0,0:0:0:0:
256,192,67808,1,8,0:0:0:0:
256,192,67966,1,8,0:0:0:0:
256,192,68124,1,8,0:0:0:0:
256,192,68440,1,12,0:0:0:0:
256,192,68598,1,0,0:0:0:0:
256,192,68677,1,0,0:0:0:0:
256,192,68756,1,8,0:0:0:0:
256,192,68914,1,0,0:0:0:0:
256,192,69072,1,8,0:0:0:0:
256,192,69230,1,0,0:0:0:0:
256,192,69387,1,8,0:0:0:0:
256,192,69545,1,8,0:0:0:0:
256,192,69624,1,8,0:0:0:0:
256,192,69703,1,0,0:0:0:0:
256,192,69861,1,8,0:0:0:0:
256,192,70177,1,0,0:0:0:0:
256,192,70256,1,0,0:0:0:0:
256,192,70335,1,8,0:0:0:0:
256,192,70493,1,0,0:0:0:0:
256,192,70651,1,8,0:0:0:0:
256,192,70966,1,4,0:0:0:0:
256,192,71124,1,0,0:0:0:0:
256,192,71203,1,0,0:0:0:0:
256,192,71282,1,8,0:0:0:0:
256,192,71440,1,8,0:0:0:0:
256,192,71598,1,8,0:0:0:0:
256,192,71677,1,8,0:0:0:0:
256,192,71756,1,0,0:0:0:0:
256,192,71914,1,8,0:0:0:0:
256,192,72072,1,0,0:0:0:0:
256,192,72151,1,8,0:0:0:0:
256,192,72230,1,0,0:0:0:0:
256,192,72387,1,8,0:0:0:0:
256,192,72703,1,8,0:0:0:0:
256,192,72861,1,0,0:0:0:0:
256,192,73177,1,8,0:0:0:0:
256,192,73335,1,8,0:0:0:0:
256,192,73493,1,0,0:0:0:0:
256,192,73651,1,8,0:0:0:0:
256,192,73730,1,0,0:0:0:0:
256,192,73808,1,8,0:0:0:0:
256,192,73966,1,8,0:0:0:0:
256,192,74124,1,0,0:0:0:0:
256,192,74203,1,0,0:0:0:0:
256,192,74282,1,8,0:0:0:0:
256,192,74440,1,8,0:0:0:0:
256,192,74598,1,8,0:0:0:0:
256,192,74677,1,8,0:0:0:0:
256,192,74756,1,0,0:0:0:0:
256,192,74914,1,8,0:0:0:0:
256,192,75230,1,0,0:0:0:0:
256,192,75387,1,8,0:0:0:0:
256,192,75545,1,8,0:0:0:0:
256,192,75703,1,0,0:0:0:0:
256,192,75861,1,0,0:0:0:0:
256,192,76019,1,12,0:0:0:0:
256,192,76335,1,8,0:0:0:0:
256,192,76493,1,8,0:0:0:0:
256,192,76651,1,0,0:0:0:0:
256,192,76808,1,0,0:0:0:0:
256,192,76966,1,8,0:0:0:0:
256,192,77124,1,8,0:0:0:0:
256,192,77203,1,8,0:0:0:0:
256,192,77282,1,0,0:0:0:0:
256,192,77598,1,8,0:0:0:0:
256,192,77756,1,0,0:0:0:0:
256,192,77914,1,8,0:0:0:0:
256,192,78072,1,8,0:0:0:0:
256,192,78151,1,0,0:0:0:0:
256,192,78230,1,8,0:0:0:0:
256,192,78387,1,0,0:0:0:0:
256,192,78545,1,12,0:0:0:0:
256,192,78861,1,0,0:0:0:0:
256,192,79019,1,8,0:0:0:0:
256,192,79177,1,8,0:0:0:0:
256,192,79335,1,0,0:0:0:0:
256,192,79493,1,8,0:0:0:0:
256,192,79651,1,8,0:0:0:0:
256,192,79730,1,8,0:0:0:0:
256,192,79808,1,0,0:0:0:0:
256,192,79966,1,0,0:0:0:0:
256,192,80124,1,8,0:0:0:0:
256,192,80282,1,8,0:0:0:0:
256,192,80440,1,0,0:0:0:0:
256,192,80519,1,0,0:0:0:0:
256,192,80598,1,8,0:0:0:0:
256,192,80677,1,8,0:0:0:0:
256,192,80756,1,0,0:0:0:0:
256,192,81072,1,12,0:0:0:0:
256,192,81387,1,0,0:0:0:0:
256,192,81545,1,8,0:0:0:0:
256,192,81703,1,0,0:0:0:0:
256,192,81861,1,8,0:0:0:0:
256,192,81940,1,0,0:0:0:0:
256,192,82019,1,8,0:0:0:0:
256,192,82335,1,8,0:0:0:0:
256,192,82493,1,0,0:0:0:0:
256,192,82572,1,0,0:0:0:0:
256,192,82651,1,8,0:0:0:0:
256,192,82808,1,0,0:0:0:0:
256,192,82966,1,8,0:0:0:0:
256,192,83124,1,8,0:0:0:0:
256,192,83282,1,0,0:0:0:0:
256,192,83598,1,0,0:0:0:0:
256,192,83756,1,8,0:0:0:0:
256,192,83914,1,8,0:0:0:0:
256,192,84072,1,8,0:0:0:0:
256,192,84230,1,0,0:0:0:0:
256,192,84387,1,0,0:0:0:0:
256,192,84545,1,8,0:0:0:0:
256,192,84861,1,8,0:0:0:0:
256,192,85019,1,0,0:0:0:0:
256,192,85098,1,0,0:0:0:0:
256,192,85177,1,8,0:0:0:0:
256,192,85335,1,0,0:0:0:0:
256,192,85493,1,8,0:0:0:0:
256,192,85651,1,0,0:0:0:0:
256,192,85808,1,8,0:0:0:0:
256,192,86124,1,4,0:0:0:0:
256,192,86440,1,0,0:0:0:0:
256,192,86598,1,8,0:0:0:0:
256,192,86756,1,0,0:0:0:0:
256,192,86914,1,0,0:0:0:0:
256,192,87072,1,8,0:0:0:0:
256,192,87230,1,0,0:0:0:0:
256,192,87387,1,0,0:0:0:0:
256,192,87545,1,8,0:0:0:0:
256,192,87624,1,8,0:0:0:0:
256,192,87703,1,8,0:0:0:0:
256,192,87861,1,0,0:0:0:0:
256,192,88019,1,8,0:0:0:0:
256,192,88335,1,8,0:0:0:0:
256,192,88493,1,0,0:0:0:0:
256,192,88572,1,0,0:0:0:0:
256,192,88651,1,8,0:0:0:0:
256,192,88808,1,0,0:0:0:0:
256,192,88966,1,8,0:0:0:0:
256,192,89124,1,8,0:0:0:0:
256,192,89282,1,0,0:0:0:0:
256,192,89440,1,0,0:0:0:0:
256,192,89598,1,8,0:0:0:0:
256,192,89756,1,0,0:0:0:0:
256,192,89914,1,8,0:0:0:0:
256,192,90230,1,8,0:0:0:0:
256,192,90387,1,0,0:0:0:0:
256,192,90466,1,0,0:0:0:0:
256,192,90545,1,8,0:0:0:0:
256,192,90703,1,0,0:0:0:0:
256,192,90861,1,8,0:0:0:0:
256,192,91177,1,4,0:0:0:0:
256,192,91335,1,0,0:0:0:0:
256,192,91414,1,0,0:0:0:0:
256,192,91493,1,8,0:0:0:0:
256,192,91651,1,0,0:0:0:0:
256,192,91808,1,8,0:0:0:0:
256,192,91887,1,8,0:0:0:0:
256,192,91966,1,0,0:0:0:0:
256,192,92124,1,8,0:0:0:0:
256,192,92282,1,0,0:0:0:0:
256,192,92361,1,0,0:0:0:0:
256,192,92440,1,8,0:0:0:0:
256,192,92519,1,8,0:0:0:0:
256,192,92598,1,8,0:0:0:0:
256,192,92756,1,0,0:0:0:0:
256,192,92914,1,0,0:0:0:0:
256,192,93072,1,8,0:0:0:0:
256,192,93387,1,8,0:0:0:0:
256,192,93545,1,0,0:0:0:0:
256,192,93624,1,8,0:0:0:0:
256,192,93703,1,0,0:0:0:0:
256,192,93861,1,0,0:0:0:0:
256,192,94019,1,8,0:0:0:0:
256,192,94098,1,8,0:0:0:0:
256,192,94177,1,0,0:0:0:0:
256,192,94335,1,8,0:0:0:0:
256,192,94493,1,0,0:0:0:0:
256,192,94572,1,0,0:0:0:0:
256,192,94651,1,8,0:0:0:0:
256,192,94730,1,8,0:0:0:0:
256,192,94808,1,8,0:0:0:0:
256,192,94966,1,0,0:0:0:0:
256,192,95282,1,8,0:0:0:0:
256,192,95440,1,0,0:0:0:0:
256,192,95598,1,8,0:0:0:0:
256,192,95677,1,8,0:0:0:0:
256,192,95756,1,0,0:0:0:0:
256,192,95914,1,8,0:0:0:0:
256,192,95993,1,0,0:0:0:0:
256,192,96072,1,8,0:0:0:0:
256,192,96230,1,4,0:0:0:0:
256,192,96545,1,8,0:0:0:0:
256,192,96703,1,8,0:0:0:0:
256,192,96782,1,8,0:0:0:0:
256,192,96861,1,8,0:0:0:0:
256,192,97177,1,0,0:0:0:0:
256,192,97335,1,8,0:0:0:0:
256,192,97414,1,0,0:0:0:0:
256,192,97493,1,8,0:0:0:0:
256,192,97651,1,0,0:0:0:0:
256,192,97808,1,8,0:0:0:0:
256,192,97887,1,8,0:0:0:0:
256,192,97966,1,0,0:0:0:0:
256,192,98124,1,8,0:0:0:0:
256,192,98282,1,0,0:0:0:0:
256,192,98361,1,0,0:0:0:0:
256,192,98440,1,8,0:0:0:0:
256,192,98756,1,4,0:0:0:0:
256,192,98914,1,0,0:0:0:0:
256,192,98993,1,0,0:0:0:0:
256,192,99072,1,8,0:0:0:0:
256,192,99230,1,8,0:0:0:0:
256,192,99387,1,0,0:0:0:0:
256,192,99545,1,8,0:0:0:0:
256,192,99703,1,0,0:0:0:0:
256,192,99782,1,0,0:0:0:0:
256,192,99861,1,8,0:0:0:0:
256,192,99940,1,8,0:0:0:0:
256,192,100019,1,0,0:0:0:0:
256,192,100177,1,0,0:0:0:0:
256,192,100335,1,8,0:0:0:0:
256,192,100493,1,8,0:0:0:0:
256,192,100572,1,8,0:0:0:0:
256,192,100651,1,0,0:0:0:0:
256,192,100808,1,0,0:0:0:0:
256,192,100966,1,8,0:0:0:0:
256,192,101282,1,4,0:0:0:0:
256,192,101440,1,0,0:0:0:0:
256,192,101519,1,0,0:0:0:0:
256,192,101598,1,8,0:0:0:0:
256,192,101756,1,0,0:0:0:0:
256,192,101914,1,8,0:0:0:0:
256,192,101993,1,8,0:0:0:0:
256,192,102072,1,0,0:0:0:0:
256,192,102230,1,8,0:0:0:0:
256,192,102387,1,0,0:0:0:0:
256,192,102466,1,0,0:0:0:0:
256,192,102545,1,8,0:0:0:0:
256,192,102624,1,8,0:0:0:0:
256,192,102703,1,8,0:0:0:0:
256,192,102861,1,0,0:0:0:0:
256,192,103019,1,0,0:0:0:0:
256,192,103177,1,8,0:0:0:0:
256,192,103493,1,8,0:0:0:0:
256,192,103651,1,0,0:0:0:0:
256,192,103730,1,8,0:0:0:0:
256,192,103808,1,0,0:0:0:0:
256,192,103966,1,0,0:0:0:0:
256,192,104124,1,8,0:0:0:0:
256,192,104203,1,8,0:0:0:0:
256,192,104282,1,0,0:0:0:0:
256,192,104440,1,8,0:0:0:0:
256,192,104598,1,0,0:0:0:0:
256,192,104677,1,0,0:0:0:0:
256,192,104756,1,8,0:0:0:0:
256,192,104835,1,8,0:0:0:0:
256,192,104914,1,8,0:0:0:0:
256,192,105072,1,0,0:0:0:0:
256,192,105387,1,8,0:0:0:0:
256,192,105545,1,0,0:0:0:0:
256,192,105703,1,8,0:0:0:0:
256,192,105782,1,8,0:0:0:0:
256,192,105861,1,0,0:0:0:0:
256,192,106019,1,8,0:0:0:0:
256,192,106098,1,0,0:0:0:0:
256,192,106177,1,8,0:0:0:0:
256,192,106335,1,4,0:0:0:0:
256,192,106651,1,8,0:0:0:0:
256,192,106808,1,8,0:0:0:0:
256,192,106887,1,8,0:0:0:0:
256,192,106966,1,8,0:0:0:0:
256,192,107124,1,0,0:0:0:0:
256,192,107282,1,8,0:0:0:0:
256,192,107361,1,8,0:0:0:0:
256,192,107440,1,0,0:0:0:0:
256,192,107519,1,0,0:0:0:0:
256,192,107598,1,8,0:0:0:0:
256,192,107756,1,0,0:0:0:0:
256,192,107914,1,8,0:0:0:0:
256,192,107993,1,8,0:0:0:0:
256,192,108072,1,0,0:0:0:0:
256,192,108230,1,8,0:0:0:0:
256,192,108387,1,0,0:0:0:0:
256,192,108466,1,0,0:0:0:0:
256,192,108545,1,8,0:0:0:0:
256,192,108861,1,4,0:0:0:0:
256,192,109019,1,0,0:0:0:0:
256,192,109098,1,0,0:0:0:0:
256,192,109177,1,8,0:0:0:0:
256,192,109335,1,8,0:0:0:0:
256,192,109493,1,0,0:0:0:0:
256,192,109651,1,8,0:0:0:0:
256,192,109808,1,0,0:0:0:0:
256,192,109887,1,0,0:0:0:0:
256,192,109966,1,8,0:0:0:0:
256,192,110045,1,8,0:0:0:0:
256,192,110124,1,0,0:0:0:0:
256,192,110282,1,8,0:0:0:0:
256,192,110361,1,0,0:0:0:0:
256,192,110440,1,8,0:0:0:0:
256,192,110598,1,8,0:0:0:0:
256,192,110677,1,8,0:0:0:0:
256,192,110756,1,0,0:0:0:0:
256,192,110914,1,0,0:0:0:0:
256,192,111072,1,8,0:0:0:0:
256,192,111230,1,8,0:0:0:0:
256,192,111387,1,4,0:0:0:0:
256,192,111703,1,8,0:0:0:0:
256,192,111861,1,0,0:0:0:0:
256,192,111940,1,0,0:0:0:0:
256,192,112019,1,8,0:0:0:0:
256,192,112177,1,0,0:0:0:0:
256,192,112335,1,8,0:0:0:0:
256,192,112651,1,0,0:0:0:0:
256,192,112808,1,0,0:0:0:0:
256,192,112966,1,8,0:0:0:0:
256,192,113124,1,0,0:0:0:0:
256,192,113282,1,8,0:0:0:0:
256,192,113440,1,8,0:0:0:0:
256,192,113598,1,0,0:0:0:0:
256,192,113677,1,0,0:0:0:0:
256,192,113756,1,8,0:0:0:0:
256,192,113835,1,0,0:0:0:0:
256,192,113914,1,8,0:0:0:0:
256,192,114072,1,8,0:0:0:0:
256,192,114230,1,0,0:0:0:0:
256,192,114387,1,8,0:0:0:0:
256,192,114545,1,0,0:0:0:0:
256,192,114861,1,8,0:0:0:0:
256,192,115019,1,0,0:0:0:0:
256,192,115177,1,8,0:0:0:0:
256,192,115335,1,0,0:0:0:0:
256,192,115414,1,0,0:0:0:0:
256,192,115493,1,8,0:0:0:0:
256,192,115651,1,8,0:0:0:0:
256,192,115808,1,0,0:0:0:0:
256,192,115966,1,8,0:0:0:0:
256,192,116124,1,0,0:0:0:0:
256,192,116440,1,4,0:0:0:0:
256,192,117072,1,8,0:0:0:0:
256,192,117387,1,8,0:0:0:0:
256,192,117703,1,0,0:0:0:0:
256,192,118019,1,8,0:0:0:0:
256,192,118335,1,0,0:0:0:0:
256,192,118966,1,8,0:0:0:0:
256,192,119598,1,0,0:0:0:0:
256,192,119914,1,8,0:0:0:0:
256,192,120230,1,8,0:0:0:0:
256,192,120545,1,0,0:0:0:0:
256,192,120861,1,8,0:0:0:0:
256,192,121177,1,8,0:0:0:0:
256,192,121335,1,0,0:0:0:0:
256,192,121493,1,8,0:0:0:0:
256,192,121808,1,0,0:0:0:0:
256,192,121966,1,8,0:0:0:0:
256,192,122124,1,8,0:0:0:0:
256,192,122282,1,0,0:0:0:0:
256,192,122440,1,8,0:0:0:0:
256,192,122598,1,0,0:0:0:0:
256,192,122756,1,8,0:0:0:0:
256,192,122835,1,8,0:0:0:0:
256,192,122914,1,0,0:0:0:0:
256,192,123072,1,8,0:0:0:0:
256,192,123387,1,0,0:0:0:0:
256,192,123545,1,8,0:0:0:0:
256,192,123703,1,0,0:0:0:0:
256,192,123861,1,8,0:0:0:0:
256,192,123940,1,0,0:0:0:0:
256,192,124019,1,8,0:0:0:0:
256,192,124335,1,0,0:0:0:0:
256,192,124493,1,8,0:0:0:0:
256,192,124651,1,0,0:0:0:0:
256,192,124808,1,0,0:0:0:0:
256,192,124966,1,8,0:0:0:0:
256,192,125124,1,0,0:0:0:0:
256,192,125282,1,8,0:0:0:0:
256,192,125440,1,0,0:0:0:0:
256,192,125598,1,8,0:0:0:0:
256,192,125756,1,0,0:0:0:0:
256,192,125835,1,0,0:0:0:0:
256,192,125914,1,8,0:0:0:0:
256,192,126072,1,8,0:0:0:0:
256,192,126230,1,8,0:0:0:0:
256,192,126387,1,8,0:0:0:0:
256,192,126545,1,4,0:0:0:0:
256,192,126861,1,8,0:0:0:0:
256,192,127019,1,8,0:0:0:0:
256,192,127098,1,0,0:0:0:0:
256,192,127177,1,8,0:0:0:0:
256,192,127335,1,0,0:0:0:0:
256,192,127493,1,8,0:0:0:0:
256,192,127572,1,8,0:0:0:0:
256,192,127651,1,0,0:0:0:0:
256,192,127730,1,0,0:0:0:0:
256,192,127808,1,8,0:0:0:0:
256,192,127966,1,0,0:0:0:0:
256,192,128124,1,8,0:0:0:0:
256,192,128282,1,8,0:0:0:0:
256,192,128440,1,0,0:0:0:0:
256,192,128756,1,8,0:0:0:0:
256,192,128835,1,0,0:0:0:0:
256,192,128914,1,0,0:0:0:0:
256,192,128993,1,0,0:0:0:0:
256,192,129072,1,8,0:0:0:0:
256,192,129230,1,0,0:0:0:0:
256,192,129387,1,8,0:0:0:0:
256,192,129466,1,0,0:0:0:0:
256,192,129545,1,8,0:0:0:0:
256,192,129703,1,0,0:0:0:0:
256,192,129861,1,8,0:0:0:0:
256,192,130019,1,8,0:0:0:0:
256,192,130098,1,8,0:0:0:0:
256,192,130177,1,0,0:0:0:0:
256,192,130256,1,0,0:0:0:0:
256,192,130335,1,8,0:0:0:0:
256,192,130651,1,8,0:0:0:0:
256,192,130808,1,8,0:0:0:0:
256,192,130887,1,0,0:0:0:0:
256,192,130966,1,8,0:0:0:0:
256,192,131045,1,8,0:0:0:0:
256,192,131124,1,0,0:0:0:0:
256,192,131282,1,0,0:0:0:0:
256,192,131440,1,8,0:0:0:0:
256,192,131598,1,4,0:0:0:0:
256,192,131914,1,8,0:0:0:0:
256,192,132072,1,0,0:0:0:0:
256,192,132151,1,0,0:0:0:0:
256,192,132230,1,8,0:0:0:0:
256,192,132387,1,0,0:0:0:0:
256,192,132545,1,8,0:0:0:0:
256,192,132703,1,8,0:0:0:0:
256,192,132782,1,8,0:0:0:0:
256,192,132861,1,0,0:0:0:0:
256,192,133019,1,0,0:0:0:0:
256,192,133177,1,8,0:0:0:0:
256,192,133335,1,0,0:0:0:0:
256,192,133414,1,0,0:0:0:0:
256,192,133493,1,8,0:0:0:0:
256,192,133651,1,8,0:0:0:0:
256,192,133730,1,8,0:0:0:0:
256,192,133808,1,0,0:0:0:0:
256,192,134124,1,4,0:0:0:0:
256,192,134282,1,8,0:0:0:0:
256,192,134361,1,8,0:0:0:0:
256,192,134440,1,8,0:0:0:0:
256,192,134598,1,0,0:0:0:0:
256,192,134756,1,8,0:0:0:0:
256,192,134914,1,0,0:0:0:0:
256,192,135072,1,8,0:0:0:0:
256,192,135151,1,8,0:0:0:0:
256,192,135230,1,0,0:0:0:0:
256,192,135308,1,0,0:0:0:0:
256,192,135387,1,8,0:0:0:0:
256,192,135545,1,0,0:0:0:0:
256,192,135703,1,8,0:0:0:0:
256,192,135861,1,8,0:0:0:0:
256,192,135940,1,8,0:0:0:0:
256,192,136019,1,0,0:0:0:0:
256,192,136177,1,0,0:0:0:0:
256,192,136335,1,8,0:0:0:0:
256,192,136651,1,4,0:0:0:0:
256,192,136966,1,8,0:0:0:0:
256,192,137124,1,8,0:0:0:0:
256,192,137203,1,0,0:0:0:0:
256,192,137282,1,8,0:0:0:0:
256,192,137440,1,0,0:0:0:0:
256,192,137598,1,8,0:0:0:0:
256,192,137677,1,8,0:0:0:0:
256,192,137756,1,0,0:0:0:0:
256,192,137835,1,0,0:0:0:0:
256,192,137914,1,8,0:0:0:0:
256,192,138072,1,0,0:0:0:0:
256,192,138230,1,8,0:0:0:0:
256,192,138387,1,8,0:0:0:0:
256,192,138545,1,0,0:0:0:0:
256,192,138861,1,8,0:0:0:0:
256,192,138940,1,0,0:0:0:0:
256,192,139019,1,0,0:0:0:0:
256,192,139098,1,0,0:0:0:0:
256,192,139177,1,8,0:0:0:0:
256,192,139335,1,0,0:0:0:0:
256,192,139493,1,8,0:0:0:0:
256,192,139572,1,0,0:0:0:0:
256,192,139651,1,8,0:0:0:0:
256,192,139808,1,0,0:0:0:0:
256,192,139966,1,8,0:0:0:0:
256,192,140124,1,8,0:0:0:0:
256,192,140203,1,8,0:0:0:0:
256,192,140282,1,0,0:0:0:0:
256,192,140361,1,0,0:0:0:0:
256,192,140440,1,8,0:0:0:0:
256,192,140756,1,8,0:0:0:0:
256,192,140914,1,8,0:0:0:0:
256,192,140993,1,0,0:0:0:0:
256,192,141072,1,8,0:0:0:0:
256,192,141151,1,8,0:0:0:0:
256,192,141230,1,0,0:0:0:0:
256,192,141387,1,0,0:0:0:0:
256,192,141545,1,8,0:0:0:0:
256,192,141703,1,4,0:0:0:0:
256,192,142019,1,8,0:0:0:0:
256,192,142177,1,0,0:0:0:0:
256,192,142256,1,0,0:0:0:0:
256,192,142335,1,8,0:0:0:0:
256,192,142493,1,0,0:0:0:0:
256,192,142651,1,8,0:0:0:0:
256,192,142808,1,8,0:0:0:0:
256,192,142887,1,8,0:0:0:0:
256,192,142966,1,0,0:0:0:0:
256,192,143124,1,0,0:0:0:0:
256,192,143282,1,8,0:0:0:0:
256,192,143440,1,0,0:0:0:0:
256,192,143519,1,0,0:0:0:0:
256,192,143598,1,8,0:0:0:0:
256,192,143756,1,8,0:0:0:0:
256,192,143835,1,8,0:0:0:0:
256,192,143914,1,0,0:0:0:0:
256,192,144230,1,4,0:0:0:0:
256,192,144387,1,8,0:0:0:0:
256,192,144466,1,8,0:0:0:0:
256,192,144545,1,8,0:0:0:0:
256,192,144703,1,0,0:0:0:0:
256,192,144861,1,8,0:0:0:0:
256,192,145019,1,0,0:0:0:0:
256,192,145177,1,8,0:0:0:0:
256,192,145256,1,8,0:0:0:0:
256,192,145335,1,0,0:0:0:0:
256,192,145414,1,0,0:0:0:0:
256,192,145493,1,8,0:0:0:0:
256,192,145651,1,0,0:0:0:0:
256,192,145808,1,8,0:0:0:0:
256,192,145966,1,8,0:0:0:0:
256,192,146045,1,8,0:0:0:0:
256,192,146124,1,0,0:0:0:0:
256,192,146282,1,0,0:0:0:0:
256,192,146440,1,8,0:0:0:0:
256,192,146598,1,8,0:0:0:0:
256,192,146756,1,0,0:0:0:0:
