osu file format v14

[General]
AudioFilename: audio.mp3
AudioLeadIn: 0
PreviewTime: 5282
Countdown: 1
SampleSet: Normal
StackLeniency: 0.7
Mode: 1
LetterboxInBreaks: 0
WidescreenStoryboard: 1

[Editor]
DistanceSpacing: 0.8
BeatDivisor: 4
GridSize: 32
TimelineZoom: 1.7

[Metadata]
Title:You Need To Calm Down (Clean Bandit Remix)
TitleUnicode:You Need To Calm Down (Clean Bandit Remix)
Artist:Taylor Swift
ArtistUnicode:Taylor Swift
Creator:-OvO-
Version:Muzukashii
Source:
Tags:electro electronic pop british edm joel little english
BeatmapID:2210846
BeatmapSetID:1024669

[Difficulty]
HPDrainRate:6
CircleSize:2
OverallDifficulty:5
ApproachRate:10
SliderMultiplier:1.4
SliderTickRate:1

[Events]
//Background and Video events
0,0,"bg.jpg",0,0
//Break Periods
//Storyboard Layer 0 (Background)
//Storyboard Layer 1 (Fail)
//Storyboard Layer 2 (Pass)
//Storyboard Layer 3 (Foreground)
//Storyboard Layer 4 (Overlay)
//Storyboard Sound Samples

[TimingPoints]
230,315.789473684211,4,1,0,85,1,0
35598,-100,4,1,0,85,0,1
55808,-100,4,1,0,85,0,0
91177,-100,4,1,0,85,0,1
111387,-100,4,1,0,85,0,0
126861,-100,4,1,0,85,0,1
146756,-100,4,1,0,85,0,0

[HitObjects]
256,192,230,5,0,0:0:0:0:
256,192,545,1,8,0:0:0:0:
256,192,703,1,0,0:0:0:0:
256,192,861,1,8,0:0:0:0:
256,192,1177,1,8,0:0:0:0:
256,192,1335,1,8,0:0:0:0:
256,192,1493,1,0,0:0:0:0:
256,192,1808,1,0,0:0:0:0:
256,192,1966,1,8,0:0:0:0:
256,192,2440,1,8,0:0:0:0:
256,192,2756,1,0,0:0:0:0:
256,192,3072,1,8,0:0:0:0:
256,192,3230,1,8,0:0:0:0:
256,192,3387,1,0,0:0:0:0:
256,192,3703,1,8,0:0:0:0:
256,192,3861,1,0,0:0:0:0:
256,192,4019,1,8,0:0:0:0:
256,192,4335,1,8,0:0:0:0:
256,192,4493,1,0,0:0:0:0:
256,192,4651,1,8,0:0:0:0:
256,192,4808,1,8,0:0:0:0:
256,192,4966,1,0,0:0:0:0:
256,192,5282,1,0,0:0:0:0:
256,192,5598,1,8,0:0:0:0:
256,192,5756,1,0,0:0:0:0:
256,192,5914,1,8,0:0:0:0:
256,192,6230,1,0,0:0:0:0:
256,192,6387,1,0,0:0:0:0:
256,192,6545,1,8,0:0:0:0:
256,192,6703,1,8,0:0:0:0:
256,192,7019,1,0,0:0:0:0:
256,192,7493,1,8,0:0:0:0:
256,192,7651,1,0,0:0:0:0:
256,192,7808,1,8,0:0:0:0:
256,192,8124,1,0,0:0:0:0:
256,192,8282,1,8,0:0:0:0:
256,192,8440,1,8,0:0:0:0:
256,192,8756,1,8,0:0:0:0:
256,192,8914,1,0,0:0:0:0:
256,192,9072,1,0,0:0:0:0:
256,192,9230,1,8,0:0:0:0:
256,192,9703,1,8,0:0:0:0:
256,192,9861,1,8,0:0:0:0:
256,192,10019,1,0,0:0:0:0:
256,192,10335,1,4,0:0:0:0:
256,192,10651,1,8,0:0:0:0:
256,192,10808,1,0,0:0:0:0:
256,192,10966,1,8,0:0:0:0:
256,192,11282,1,0,0:0:0:0:
256,192,11598,1,8,0:0:0:0:
256,192,12072,1,0,0:0:0:0:
256,192,12230,1,8,0:0:0:0:
256,192,12545,1,8,0:0:0:0:
256,192,12861,1,4,0:0:0:0:
256,192,13335,1,0,0:0:0:0:
256,192,13493,1,8,0:0:0:0:
256,192,13808,1,8,0:0:0:0:
256,192,14124,1,0,0:0:0:0:
256,192,14440,1,0,0:0:0:0:
256,192,14598,1,8,0:0:0:0:
256,192,14756,1,8,0:0:0:0:
256,192,14914,1,0,0:0:0:0:
256,192,15072,1,8,0:0:0:0:
256,192,15387,1,12,0:0:0:0:
256,192,15703,1,0,0:0:0:0:
256,192,15861,1,0,0:0:0:0:
256,192,16019,1,8,0:0:0:0:
256,192,16177,1,0,0:0:0:0:
256,192,16256,1,0,0:0:0:0:
256,192,16335,1,0,0:0:0:0:
256,192,16493,1,8,0:0:0:0:
256,192,16651,1,0,0:0:0:0:
256,192,16808,1,8,0:0:0:0:
256,192,17124,1,8,0:0:0:0:
256,192,17282,1,0,0:0:0:0:
256,192,17598,1,0,0:0:0:0:
256,192,17914,1,8,0:0:0:0:
256,192,18230,1,0,0:0:0:0:
256,192,18387,1,8,0:0:0:0:
256,192,18466,1,8,0:0:0:0:
256,192,18545,1,8,0:0:0:0:
256,192,18703,1,0,0:0:0:0:
256,192,18861,1,8,0:0:0:0:
256,192,19019,1,8,0:0:0:0:
256,192,19177,1,0,0:0:0:0:
256,192,19335,1,8,0:0:0:0:
256,192,19651,1,8,0:0:0:0:
256,192,19808,1,0,0:0:0:0:
256,192,20124,1,8,0:0:0:0:
256,192,20440,1,4,0:0:0:0:
256,192,20914,1,8,0:0:0:0:
256,192,21072,1,0,0:0:0:0:
256,192,21230,1,0,0:0:0:0:
256,192,21387,1,8,0:0:0:0:
256,192,21703,1,8,0:0:0:0:
256,192,22019,1,0,0:0:0:0:
256,192,22177,1,8,0:0:0:0:
256,192,22335,1,8,0:0:0:0:
256,192,22493,1,0,0:0:0:0:
256,192,22572,1,0,0:0:0:0:
256,192,22651,1,0,0:0:0:0:
256,192,22808,1,8,0:0:0:0:
256,192,22966,1,4,0:0:0:0:
256,192,23282,1,8,0:0:0:0:
256,192,23440,1,8,0:0:0:0:
256,192,23598,1,0,0:0:0:0:
256,192,23756,1,0,0:0:0:0:
256,192,23914,1,8,0:0:0:0:
256,192,24230,1,0,0:0:0:0:
256,192,24861,1,8,0:0:0:0:
256,192,25019,1,0,0:0:0:0:
256,192,25177,1,8,0:0:0:0:
256,192,25493,1,12,0:0:0:0:
256,192,25966,1,8,0:0:0:0:
256,192,26282,1,0,0:0:0:0:
256,192,26440,1,8,0:0:0:0:
256,192,26598,1,8,0:0:0:0:
256,192,26756,1,0,0:0:0:0:
256,192,27072,1,8,0:0:0:0:
256,192,27230,1,0,0:0:0:0:
256,192,27387,1,8,0:0:0:0:
256,192,27545,1,8,0:0:0:0:
256,192,27703,1,0,0:0:0:0:
256,192,28019,1,0,0:0:0:0:
256,192,28493,1,8,0:0:0:0:
256,192,28808,1,0,0:0:0:0:
256,192,28966,1,8,0:0:0:0:
256,192,29282,1,8,0:0:0:0:
256,192,29598,1,0,0:0:0:0:
256,192,29914,1,8,0:0:0:0:
256,192,30072,1,0,0:0:0:0:
256,192,30230,1,8,0:0:0:0:
256,192,30545,1,4,0:0:0:0:
256,192,30861,1,0,0:0:0:0:
256,192,31019,1,8,0:0:0:0:
256,192,31335,1,0,0:0:0:0:
256,192,31493,1,8,0:0:0:0:
256,192,31651,1,0,0:0:0:0:
256,192,31808,1,0,0:0:0:0:
256,192,32124,1,8,0:0:0:0:
256,192,32440,1,8,0:0:0:0:
256,192,32756,1,8,0:0:0:0:
256,192,32914,1,0,0:0:0:0:
256,192,33072,1,8,0:0:0:0:
256,192,33387,1,8,0:0:0:0:
256,192,33545,1,8,0:0:0:0:
256,192,33703,1,0,0:0:0:0:
256,192,33861,1,0,0:0:0:0:
256,192,34019,1,8,0:0:0:0:
256,192,34335,1,8,0:0:0:0:
256,192,34808,1,8,0:0:0:0:
256,192,34966,1,0,0:0:0:0:
256,192,35282,1,8,0:0:0:0:
256,192,35598,1,4,0:0:0:0:
256,192,35914,1,0,0:0:0:0:
256,192,36072,1,0,0:0:0:0:
256,192,36230,1,8,0:0:0:0:
256,192,36387,1,0,0:0:0:0:
256,192,36545,1,8,0:0:0:0:
256,192,36624,1,8,0:0:0:0:
256,192,36703,1,8,0:0:0:0:
256,192,36861,1,0,0:0:0:0:
256,192,37177,1,8,0:0:0:0:
256,192,37335,1,0,0:0:0:0:
256,192,37493,1,8,0:0:0:0:
256,192,37651,1,8,0:0:0:0:
256,192,37808,1,0,0:0:0:0:
256,192,37966,1,0,0:0:0:0:
256,192,38124,1,8,0:0:0:0:
256,192,38598,1,0,0:0:0:0:
256,192,38756,1,8,0:0:0:0:
256,192,38914,1,0,0:0:0:0:
256,192,39072,1,8,0:0:0:0:
256,192,39151,1,8,0:0:0:0:
256,192,39230,1,8,0:0:0:0:
256,192,39387,1,0,0:0:0:0:
256,192,39703,1,8,0:0:0:0:
256,192,39861,1,8,0:0:0:0:
256,192,40019,1,0,0:0:0:0:
256,192,40177,1,0,0:0:0:0:
256,192,40335,1,8,0:0:0:0:
256,192,40651,1,4,0:0:0:0:
256,192,40966,1,8,0:0:0:0:
256,192,41124,1,8,0:0:0:0:
256,192,41282,1,8,0:0:0:0:
256,192,41598,1,0,0:0:0:0:
256,192,41756,1,0,0:0:0:0:
256,192,41914,1,0,0:0:0:0:
256,192,42387,1,8,0:0:0:0:
256,192,42545,1,8,0:0:0:0:
256,192,42703,1,0,0:0:0:0:
256,192,42861,1,8,0:0:0:0:
256,192,43177,1,4,0:0:0:0:
256,192,43493,1,8,0:0:0:0:
256,192,43651,1,0,0:0:0:0:
256,192,43808,1,8,0:0:0:0:
256,192,43966,1,8,0:0:0:0:
256,192,44124,1,0,0:0:0:0:
256,192,44282,1,0,0:0:0:0:
256,192,44440,1,8,0:0:0:0:
256,192,44914,1,8,0:0:0:0:
256,192,45072,1,0,0:0:0:0:
256,192,45230,1,0,0:0:0:0:
256,192,45387,1,8,0:0:0:0:
256,192,45703,1,4,0:0:0:0:
256,192,46019,1,0,0:0:0:0:
256,192,46177,1,0,0:0:0:0:
256,192,46335,1,8,0:0:0:0:
256,192,46493,1,0,0:0:0:0:
256,192,46651,1,8,0:0:0:0:
256,192,46730,1,8,0:0:0:0:
256,192,46808,1,8,0:0:0:0:
256,192,46966,1,0,0:0:0:0:
256,192,47282,1,8,0:0:0:0:
256,192,47440,1,0,0:0:0:0:
256,192,47598,1,8,0:0:0:0:
256,192,47756,1,8,0:0:0:0:
256,192,47914,1,0,0:0:0:0:
256,192,48072,1,0,0:0:0:0:
256,192,48230,1,8,0:0:0:0:
256,192,48703,1,0,0:0:0:0:
256,192,48861,1,8,0:0:0:0:
256,192,49019,1,0,0:0:0:0:
256,192,49177,1,8,0:0:0:0:
256,192,49256,1,8,0:0:0:0:
256,192,49335,1,8,0:0:0:0:
256,192,49493,1,0,0:0:0:0:
256,192,49808,1,8,0:0:0:0:
256,192,49966,1,8,0:0:0:0:
256,192,50124,1,0,0:0:0:0:
256,192,50282,1,0,0:0:0:0:
256,192,50440,1,8,0:0:0:0:
256,192,50756,1,4,0:0:0:0:
256,192,51072,1,8,0:0:0:0:
256,192,51230,1,8,0:0:0:0:
256,192,51387,1,8,0:0:0:0:
256,192,51703,1,0,0:0:0:0:
256,192,51861,1,0,0:0:0:0:
256,192,52019,1,0,0:0:0:0:
256,192,52493,1,8,0:0:0:0:
256,192,52651,1,8,0:0:0:0:
256,192,52808,1,0,0:0:0:0:
256,192,52966,1,8,0:0:0:0:
256,192,53124,1,8,0:0:0:0:
256,192,53282,1,4,0:0:0:0:
256,192,53598,1,8,0:0:0:0:
256,192,53756,1,0,0:0:0:0:
256,192,53914,1,8,0:0:0:0:
256,192,54072,1,8,0:0:0:0:
256,192,54230,1,0,0:0:0:0:
256,192,54387,1,8,0:0:0:0:
256,192,54545,1,0,0:0:0:0:
256,192,55019,1,0,0:0:0:0:
256,192,55177,1,8,0:0:0:0:
256,192,55335,1,0,0:0:0:0:
256,192,55493,1,8,0:0:0:0:
256,192,55651,1,8,0:0:0:0:
256,192,55808,1,4,0:0:0:0:
256,192,56282,1,0,0:0:0:0:
256,192,56440,1,8,0:0:0:0:
256,192,56598,1,8,0:0:0:0:
256,192,56756,1,0,0:0:0:0:
256,192,56914,1,0,0:0:0:0:
256,192,57072,1,8,0:0:0:0:
256,192,57387,1,8,0:0:0:0:
256,192,57545,1,0,0:0:0:0:
256,192,57703,1,8,0:0:0:0:
256,192,58019,1,8,0:0:0:0:
256,192,58098,1,8,0:0:0:0:
256,192,58177,1,8,0:0:0:0:
256,192,58335,1,0,0:0:0:0:
256,192,58493,1,8,0:0:0:0:
256,192,58651,1,8,0:0:0:0:
256,192,58808,1,0,0:0:0:0:
256,192,59124,1,8,0:0:0:0:
256,192,59282,1,0,0:0:0:0:
256,192,59598,1,8,0:0:0:0:
256,192,60072,1,0,0:0:0:0:
256,192,60151,1,0,0:0:0:0:
256,192,60230,1,8,0:0:0:0:
256,192,60545,1,8,0:0:0:0:
256,192,60861,1,4,0:0:0:0:
256,192,61177,1,8,0:0:0:0:
256,192,61335,1,0,0:0:0:0:
256,192,61493,1,8,0:0:0:0:
256,192,61808,1,0,0:0:0:0:
256,192,61966,1,0,0:0:0:0:
256,192,62124,1,8,0:0:0:0:
256,192,62282,1,8,0:0:0:0:
256,192,62598,1,0,0:0:0:0:
256,192,62756,1,8,0:0:0:0:
256,192,63072,1,8,0:0:0:0:
256,192,63230,1,0,0:0:0:0:
256,192,63387,1,8,0:0:0:0:
256,192,63703,1,0,0:0:0:0:
256,192,63861,1,8,0:0:0:0:
256,192,64019,1,8,0:0:0:0:
256,192,64335,1,8,0:0:0:0:
256,192,64493,1,0,0:0:0:0:
256,192,64651,1,0,0:0:0:0:
256,192,64808,1,8,0:0:0:0:
256,192,65282,1,8,0:0:0:0:
256,192,65440,1,0,0:0:0:0:
256,192,65598,1,0,0:0:0:0:
256,192,65914,1,12,0:0:0:0:
256,192,66230,1,0,0:0:0:0:
256,192,66387,1,0,0:0:0:0:
256,192,66545,1,8,0:0:0:0:
256,192,66861,1,0,0:0:0:0:
256,192,67177,1,8,0:0:0:0:
256,192,67651,1,0,0:0:0:0:
256,192,67808,1,8,0:0:0:0:
256,192,67966,1,8,0:0:0:0:
256,192,68124,1,0,0:0:0:0:
256,192,68440,1,12,0:0:0:0:
256,192,68756,1,8,0:0:0:0:
256,192,68914,1,0,0:0:0:0:
256,192,69072,1,8,0:0:0:0:
256,192,69230,1,8,0:0:0:0:
256,192,69387,1,0,0:0:0:0:
256,192,69545,1,8,0:0:0:0:
256,192,69703,1,0,0:0:0:0:
256,192,69861,1,8,0:0:0:0:
256,192,70177,1,0,0:0:0:0:
256,192,70335,1,8,0:0:0:0:
256,192,70493,1,8,0:0:0:0:
256,192,70651,1,0,0:0:0:0:
256,192,70808,1,8,0:0:0:0:
256,192,70966,1,4,0:0:0:0:
256,192,71282,1,8,0:0:0:0:
256,192,71440,1,0,0:0:0:0:
256,192,71598,1,8,0:0:0:0:
256,192,71756,1,0,0:0:0:0:
256,192,71835,1,0,0:0:0:0:
256,192,71914,1,0,0:0:0:0:
256,192,72072,1,8,0:0:0:0:
256,192,72230,1,0,0:0:0:0:
256,192,72387,1,8,0:0:0:0:
256,192,72703,1,0,0:0:0:0:
256,192,72861,1,8,0:0:0:0:
256,192,73177,1,0,0:0:0:0:
256,192,73493,1,8,0:0:0:0:
256,192,73808,1,0,0:0:0:0:
256,192,73966,1,8,0:0:0:0:
256,192,74045,1,8,0:0:0:0:
256,192,74124,1,8,0:0:0:0:
256,192,74282,1,0,0:0:0:0:
256,192,74440,1,8,0:0:0:0:
256,192,74598,1,8,0:0:0:0:
256,192,74756,1,0,0:0:0:0:
256,192,74914,1,8,0:0:0:0:
256,192,75230,1,0,0:0:0:0:
256,192,75387,1,8,0:0:0:0:
256,192,75545,1,8,0:0:0:0:
256,192,75703,1,0,0:0:0:0:
256,192,76019,1,4,0:0:0:0:
256,192,76493,1,8,0:0:0:0:
256,192,76651,1,0,0:0:0:0:
256,192,76808,1,0,0:0:0:0:
256,192,76966,1,8,0:0:0:0:
256,192,77282,1,8,0:0:0:0:
256,192,77598,1,0,0:0:0:0:
256,192,77756,1,8,0:0:0:0:
256,192,77914,1,0,0:0:0:0:
256,192,78072,1,0,0:0:0:0:
256,192,78230,1,8,0:0:0:0:
256,192,78387,1,0,0:0:0:0:
256,192,78545,1,12,0:0:0:0:
256,192,78861,1,8,0:0:0:0:
256,192,79019,1,8,0:0:0:0:
256,192,79177,1,0,0:0:0:0:
256,192,79493,1,8,0:0:0:0:
256,192,79808,1,0,0:0:0:0:
256,192,80440,1,8,0:0:0:0:
256,192,80598,1,0,0:0:0:0:
256,192,80756,1,8,0:0:0:0:
256,192,81072,1,12,0:0:0:0:
256,192,81545,1,8,0:0:0:0:
256,192,81861,1,0,0:0:0:0:
256,192,82019,1,8,0:0:0:0:
256,192,82177,1,8,0:0:0:0:
256,192,82335,1,0,0:0:0:0:
256,192,82651,1,8,0:0:0:0:
256,192,82808,1,0,0:0:0:0:
256,192,82966,1,8,0:0:0:0:
256,192,83124,1,8,0:0:0:0:
256,192,83282,1,0,0:0:0:0:
256,192,83598,1,0,0:0:0:0:
256,192,84072,1,8,0:0:0:0:
256,192,84387,1,0,0:0:0:0:
256,192,84545,1,8,0:0:0:0:
256,192,84703,1,0,0:0:0:0:
256,192,84861,1,8,0:0:0:0:
256,192,85177,1,0,0:0:0:0:
256,192,85493,1,8,0:0:0:0:
256,192,85651,1,0,0:0:0:0:
256,192,85808,1,8,0:0:0:0:
256,192,86124,1,4,0:0:0:0:
256,192,86440,1,0,0:0:0:0:
256,192,86598,1,8,0:0:0:0:
256,192,86914,1,0,0:0:0:0:
256,192,87072,1,8,0:0:0:0:
256,192,87230,1,0,0:0:0:0:
256,192,87387,1,0,0:0:0:0:
256,192,87703,1,8,0:0:0:0:
256,192,88019,1,8,0:0:0:0:
256,192,88335,1,8,0:0:0:0:
256,192,88493,1,0,0:0:0:0:
256,192,88651,1,8,0:0:0:0:
256,192,88966,1,8,0:0:0:0:
256,192,89124,1,8,0:0:0:0:
256,192,89282,1,0,0:0:0:0:
256,192,89440,1,0,0:0:0:0:
256,192,89598,1,8,0:0:0:0:
256,192,89914,1,8,0:0:0:0:
256,192,90387,1,0,0:0:0:0:
256,192,90545,1,8,0:0:0:0:
256,192,90861,1,8,0:0:0:0:
256,192,91177,1,4,0:0:0:0:
256,192,91493,1,0,0:0:0:0:
256,192,91651,1,0,0:0:0:0:
256,192,91808,1,8,0:0:0:0:
256,192,91966,1,0,0:0:0:0:
256,192,92124,1,8,0:0:0:0:
256,192,92203,1,8,0:0:0:0:
256,192,92282,1,8,0:0:0:0:
256,192,92440,1,0,0:0:0:0:
256,192,92756,1,8,0:0:0:0:
256,192,92914,1,0,0:0:0:0:
256,192,93072,1,8,0:0:0:0:
256,192,93230,1,8,0:0:0:0:
256,192,93387,1,0,0:0:0:0:
256,192,93545,1,0,0:0:0:0:
256,192,93703,1,8,0:0:0:0:
256,192,94177,1,0,0:0:0:0:
256,192,94335,1,8,0:0:0:0:
256,192,94493,1,0,0:0:0:0:
256,192,94651,1,8,0:0:0:0:
256,192,94730,1,8,0:0:0:0:
256,192,94808,1,8,0:0:0:0:
256,192,94966,1,0,0:0:0:0:
256,192,95282,1,8,0:0:0:0:
256,192,95440,1,8,0:0:0:0:
256,192,95598,1,0,0:0:0:0:
256,192,95756,1,0,0:0:0:0:
256,192,95914,1,8,0:0:0:0:
256,192,96230,1,4,0:0:0:0:
256,192,96545,1,8,0:0:0:0:
256,192,96703,1,8,0:0:0:0:
256,192,96861,1,8,0:0:0:0:
256,192,97177,1,0,0:0:0:0:
256,192,97335,1,0,0:0:0:0:
256,192,97493,1,0,0:0:0:0:
256,192,97966,1,8,0:0:0:0:
256,192,98124,1,8,0:0:0:0:
256,192,98282,1,0,0:0:0:0:
256,192,98440,1,8,0:0:0:0:
256,192,98756,1,4,0:0:0:0:
256,192,99072,1,8,0:0:0:0:
256,192,99230,1,0,0:0:0:0:
256,192,99387,1,8,0:0:0:0:
256,192,99545,1,8,0:0:0:0:
256,192,99703,1,0,0:0:0:0:
256,192,99861,1,0,0:0:0:0:
256,192,100019,1,8,0:0:0:0:
256,192,100493,1,8,0:0:0:0:
256,192,100651,1,0,0:0:0:0:
256,192,100808,1,0,0:0:0:0:
256,192,100966,1,8,0:0:0:0:
256,192,101282,1,4,0:0:0:0:
256,192,101598,1,0,0:0:0:0:
256,192,101756,1,0,0:0:0:0:
256,192,101914,1,8,0:0:0:0:
256,192,102072,1,0,0:0:0:0:
256,192,102230,1,8,0:0:0:0:
256,192,102308,1,8,0:0:0:0:
256,192,102387,1,8,0:0:0:0:
256,192,102545,1,0,0:0:0:0:
256,192,102861,1,8,0:0:0:0:
256,192,103019,1,0,0:0:0:0:
256,192,103177,1,8,0:0:0:0:
256,192,103335,1,8,0:0:0:0:
256,192,103493,1,0,0:0:0:0:
256,192,103651,1,0,0:0:0:0:
256,192,103808,1,8,0:0:0:0:
256,192,104282,1,0,0:0:0:0:
256,192,104440,1,8,0:0:0:0:
256,192,104598,1,0,0:0:0:0:
256,192,104756,1,8,0:0:0:0:
256,192,104835,1,8,0:0:0:0:
256,192,104914,1,8,0:0:0:0:
256,192,105072,1,0,0:0:0:0:
256,192,105387,1,8,0:0:0:0:
256,192,105545,1,8,0:0:0:0:
256,192,105703,1,0,0:0:0:0:
256,192,105861,1,0,0:0:0:0:
256,192,106019,1,8,0:0:0:0:
256,192,106335,1,4,0:0:0:0:
256,192,106651,1,8,0:0:0:0:
256,192,106808,1,8,0:0:0:0:
256,192,106966,1,8,0:0:0:0:
256,192,107282,1,0,0:0:0:0:
256,192,107440,1,0,0:0:0:0:
256,192,107598,1,0,0:0:0:0:
256,192,107914,1,8,0:0:0:0:
256,192,108072,1,0,0:0:0:0:
256,192,108230,1,8,0:0:0:0:
256,192,108387,1,8,0:0:0:0:
256,192,108545,1,0,0:0:0:0:
256,192,108703,1,8,0:0:0:0:
256,192,108861,1,4,0:0:0:0:
256,192,109177,1,8,0:0:0:0:
256,192,109335,1,0,0:0:0:0:
256,192,109493,1,8,0:0:0:0:
256,192,109651,1,8,0:0:0:0:
256,192,109808,1,0,0:0:0:0:
256,192,109966,1,0,0:0:0:0:
256,192,110124,1,8,0:0:0:0:
256,192,110440,1,8,0:0:0:0:
256,192,110598,1,0,0:0:0:0:
256,192,110677,1,0,0:0:0:0:
256,192,110756,1,0,0:0:0:0:
256,192,110914,1,0,0:0:0:0:
256,192,111072,1,8,0:0:0:0:
256,192,111230,1,8,0:0:0:0:
256,192,111387,1,4,0:0:0:0:
256,192,111861,1,0,0:0:0:0:
256,192,112019,1,8,0:0:0:0:
256,192,112177,1,8,0:0:0:0:
256,192,112335,1,0,0:0:0:0:
256,192,112493,1,0,0:0:0:0:
256,192,112651,1,8,0:0:0:0:
256,192,112966,1,8,0:0:0:0:
256,192,113124,1,0,0:0:0:0:
256,192,113282,1,8,0:0:0:0:
256,192,113598,1,8,0:0:0:0:
256,192,113677,1,8,0:0:0:0:
256,192,113756,1,8,0:0:0:0:
256,192,113914,1,0,0:0:0:0:
256,192,114072,1,8,0:0:0:0:
256,192,114230,1,8,0:0:0:0:
256,192,114387,1,0,0:0:0:0:
256,192,114703,1,8,0:0:0:0:
256,192,114861,1,0,0:0:0:0:
256,192,115177,1,8,0:0:0:0:
256,192,115493,1,8,0:0:0:0:
256,192,115651,1,0,0:0:0:0:
256,192,115808,1,8,0:0:0:0:
256,192,115966,1,8,0:0:0:0:
256,192,116124,1,0,0:0:0:0:
256,192,116440,1,4,0:0:0:0:
256,192,117072,1,8,0:0:0:0:
256,192,117387,1,8,0:0:0:0:
256,192,117703,1,0,0:0:0:0:
256,192,118335,1,8,0:0:0:0:
256,192,118966,1,0,0:0:0:0:
256,192,119598,1,8,0:0:0:0:
256,192,119914,1,0,0:0:0:0:
256,192,120230,1,8,0:0:0:0:
256,192,120861,1,0,0:0:0:0:
256,192,121177,1,8,0:0:0:0:
256,192,121493,1,8,0:0:0:0:
256,192,121808,1,0,0:0:0:0:
256,192,121966,1,8,0:0:0:0:
256,192,122124,1,8,0:0:0:0:
256,192,122440,1,0,0:0:0:0:
256,192,122756,1,8,0:0:0:0:
256,192,122914,1,0,0:0:0:0:
256,192,123072,1,8,0:0:0:0:
256,192,123387,1,8,0:0:0:0:
256,192,123703,1,0,0:0:0:0:
256,192,123861,1,0,0:0:0:0:
256,192,124019,1,8,0:0:0:0:
256,192,124493,1,8,0:0:0:0:
256,192,124651,1,0,0:0:0:0:
256,192,124808,1,0,0:0:0:0:
256,192,124966,1,8,0:0:0:0:
256,192,125282,1,8,0:0:0:0:
256,192,125440,1,0,0:0:0:0:
256,192,125598,1,0,0:0:0:0:
256,192,125756,1,8,0:0:0:0:
256,192,125835,1,8,0:0:0:0:
256,192,125914,1,8,0:0:0:0:
224,192,126072,1,0,0:0:0:0:
224,192,126230,1,8,0:0:0:0:
256,192,126545,1,4,0:0:0:0:
256,192,126861,1,8,0:0:0:0:
256,192,127019,1,8,0:0:0:0:
256,192,127177,1,8,0:0:0:0:
256,192,127335,1,0,0:0:0:0:
256,192,127493,1,8,0:0:0:0:
256,192,127572,1,8,0:0:0:0:
256,192,127651,1,8,0:0:0:0:
256,192,127808,1,0,0:0:0:0:
256,192,128124,1,8,0:0:0:0:
256,192,128282,1,0,0:0:0:0:
256,192,128440,1,8,0:0:0:0:
256,192,128756,1,8,0:0:0:0:
256,192,128914,1,8,0:0:0:0:
256,192,129072,1,0,0:0:0:0:
256,192,129387,1,8,0:0:0:0:
256,192,129545,1,8,0:0:0:0:
256,192,129703,1,0,0:0:0:0:
256,192,129861,1,8,0:0:0:0:
256,192,129940,1,8,0:0:0:0:
256,192,130019,1,8,0:0:0:0:
256,192,130177,1,8,0:0:0:0:
256,192,130335,1,0,0:0:0:0:
256,192,130651,1,8,0:0:0:0:
256,192,130808,1,8,0:0:0:0:
256,192,130966,1,0,0:0:0:0:
256,192,131124,1,8,0:0:0:0:
256,192,131282,1,0,0:0:0:0:
256,192,131598,1,4,0:0:0:0:
256,192,131914,1,8,0:0:0:0:
256,192,132072,1,8,0:0:0:0:
256,192,132230,1,0,0:0:0:0:
256,192,132387,1,0,0:0:0:0:
256,192,132545,1,8,0:0:0:0:
256,192,132703,1,0,0:0:0:0:
256,192,132861,1,8,0:0:0:0:
256,192,133335,1,0,0:0:0:0:
256,192,133493,1,8,0:0:0:0:
256,192,133651,1,8,0:0:0:0:
256,192,133808,1,0,0:0:0:0:
256,192,133966,1,8,0:0:0:0:
256,192,134124,1,4,0:0:0:0:
256,192,134440,1,8,0:0:0:0:
256,192,134598,1,8,0:0:0:0:
256,192,134756,1,0,0:0:0:0:
256,192,134914,1,0,0:0:0:0:
256,192,135072,1,8,0:0:0:0:
256,192,135230,1,8,0:0:0:0:
256,192,135387,1,0,0:0:0:0:
256,192,135861,1,0,0:0:0:0:
256,192,136019,1,8,0:0:0:0:
256,192,136177,1,0,0:0:0:0:
256,192,136335,1,8,0:0:0:0:
256,192,136493,1,8,0:0:0:0:
256,192,136651,1,4,0:0:0:0:
256,192,136966,1,8,0:0:0:0:
256,192,137124,1,8,0:0:0:0:
256,192,137282,1,8,0:0:0:0:
256,192,137440,1,0,0:0:0:0:
256,192,137598,1,8,0:0:0:0:
256,192,137677,1,8,0:0:0:0:
256,192,137756,1,8,0:0:0:0:
256,192,137914,1,0,0:0:0:0:
256,192,138230,1,8,0:0:0:0:
256,192,138387,1,0,0:0:0:0:
256,192,138545,1,8,0:0:0:0:
256,192,138861,1,8,0:0:0:0:
256,192,139019,1,8,0:0:0:0:
256,192,139177,1,0,0:0:0:0:
256,192,139493,1,8,0:0:0:0:
256,192,139651,1,8,0:0:0:0:
256,192,139808,1,0,0:0:0:0:
256,192,139966,1,8,0:0:0:0:
256,192,140045,1,8,0:0:0:0:
256,192,140124,1,8,0:0:0:0:
256,192,140282,1,8,0:0:0:0:
256,192,140440,1,0,0:0:0:0:
256,192,140756,1,8,0:0:0:0:
256,192,140914,1,8,0:0:0:0:
256,192,141072,1,0,0:0:0:0:
256,192,141230,1,8,0:0:0:0:
256,192,141387,1,0,0:0:0:0:
256,192,141703,1,4,0:0:0:0:
256,192,142019,1,8,0:0:0:0:
256,192,142177,1,8,0:0:0:0:
256,192,142335,1,0,0:0:0:0:
256,192,142493,1,0,0:0:0:0:
256,192,142651,1,8,0:0:0:0:
256,192,142808,1,0,0:0:0:0:
256,192,142966,1,8,0:0:0:0:
256,192,143440,1,0,0:0:0:0:
256,192,143598,1,8,0:0:0:0:
256,192,143756,1,8,0:0:0:0:
256,192,143914,1,0,0:0:0:0:
256,192,144072,1,8,0:0:0:0:
256,192,144230,1,4,0:0:0:0:
256,192,144545,1,8,0:0:0:0:
256,192,144703,1,8,0:0:0:0:
256,192,144861,1,0,0:0:0:0:
256,192,145019,1,0,0:0:0:0:
256,192,145177,1,8,0:0:0:0:
256,192,145335,1,0,0:0:0:0:
256,192,145493,1,8,0:0:0:0:
256,192,145966,1,0,0:0:0:0:
256,192,146124,1,8,0:0:0:0:
256,192,146282,1,0,0:0:0:0:
256,192,146440,1,8,0:0:0:0:
256,192,146598,1,8,0:0:0:0:
256,192,146756,1,0,0:0:0:0:
