osu file format v14

[General]
AudioFilename: audio.mp3
AudioLeadIn: 0
PreviewTime: 41521
Countdown: 0
SampleSet: Soft
StackLeniency: 0.7
Mode: 0
LetterboxInBreaks: 0
WidescreenStoryboard: 1

[Editor]
Bookmarks: 28343,41628,55343,72486,86200,99914,113628,127343,141057,158200,187343,201057
DistanceSpacing: 1.4
BeatDivisor: 4
GridSize: 4
TimelineZoom: 1

[Metadata]
Title:Wildest Dreams
TitleUnicode:Wildest Dreams
Artist:Taylor Swift
ArtistUnicode:Taylor Swift
Creator:BoatKrab
Version:Wild
Source:
Tags:1989 ezek Big Machine Single country dream
BeatmapID:934658
BeatmapSetID:433614

[Difficulty]
HPDrainRate:6
CircleSize:4
OverallDifficulty:6
ApproachRate:8.5
SliderMultiplier:1.3
SliderTickRate:1

[Events]
//Background and Video events
0,0,"Tiger.jpg",0,0
Video,54,"BootyKrabby.avi"
//Break Periods
2,158400,171914
//Storyboard Layer 0 (Background)
//Storyboard Layer 1 (Fail)
//Storyboard Layer 2 (Pass)
//Storyboard Layer 3 (Foreground)
Sprite,Foreground,Centre,"BoatKrab.png",320,240 M,0,14200,,212.3036,450.0965 F,0,14200,,0 S,0,14200,,0.5 F,0,99914,100343,1,0 S,0,99914,100343,0.5,0.6 F,0,127343,127771,1,0 S,0,127343,127771,0.5,0.6 F,0,173628,174057,1,0 S,0,173628,174057,0.5,0.6 F,0,201057,201486,1,0 S,0,201057,201486,0.5,0.6
Sprite,Foreground,Centre,"BoatKrab.png",320,240 M,0,12485,,212.3036,450.0965 F,0,12485,14200,0,1 S,0,14200,,0.5 F,0,14200,27914,1 F,0,27914,28343,1,0 F,0,41628,42057,0,1 F,0,42057,54914,1 F,0,54914,55343,1,0 F,0,72486,72700,0,1 F,0,72700,86200,1 F,0,86200,86414,1,0 F,0,99914,113628,1 F,0,113628,113843,1,0 F,0,127343,141057,1 F,0,141057,,1,0 F,0,141057,141271,1,0 F,0,173628,187343,1 F,0,187343,187771,1,0 F,0,201057,207914,1 F,0,207914,213057,1 F,0,213057,214557,1,0
Sprite,Foreground,Centre,"ezek.png",320,240 M,0,27914,,396.4793,449.2138 F,0,27914,,0 S,0,27914,,0.6 F,0,141057,141486,1,0 S,0,141057,141486,0.6,0.75 F,0,187343,187771,1,0 S,0,187343,187771,0.6,0.75
Sprite,Foreground,Centre,"ezek.png",320,240 M,0,27914,,396.4793,449.2138 S,0,27914,,0.6 F,0,27914,28343,0,1 F,0,28343,39914,1 F,0,39914,41200,1,0 F,0,41200,42057,0 F,0,55343,55557,0,1 F,0,55557,71628,1 F,0,71628,72057,1,0 F,0,86200,86414,0,1 F,0,86414,98200,1 F,0,98200,99486,1,0 F,0,113628,113843,0,1 F,0,113843,127343,1 F,0,127343,,1,0 F,0,127343,127557,1,0 F,0,141057,158200,1 F,0,158200,159057,1,0 F,0,187343,201057,1 F,0,201057,201485,1,0
//Storyboard Sound Samples

[TimingPoints]
14200,428.571428571429,4,2,0,50,1,0
25771,-100,4,2,0,50,0,0
41628,-100,4,2,1,50,0,0
97986,-100,4,2,1,25,0,0
99914,-100,4,2,1,70,0,1
127342,-100,4,2,2,70,0,0
127450,-100,4,2,1,70,0,0
141057,-100,4,2,1,70,0,1
141164,-100,4,2,1,70,0,0
158200,-100,4,2,2,30,0,0
173628,-100,4,2,1,70,0,1
185628,-100,4,2,1,100,0,0
187342,-100,4,2,1,70,0,1
200200,-100,4,2,1,100,0,0
201057,-100,4,2,1,100,0,1
201164,-100,4,2,1,70,0,1
207914,-100,4,2,1,30,0,0

[Colours]
Combo1 : 255,0,0
Combo2 : 0,128,255
Combo3 : 32,32,255
Combo4 : 255,128,64
Combo5 : 255,128,0
Combo6 : 255,128,128

[HitObjects]
56,224,13557,5,0,0:0:0:0:
144,248,13771,1,0,0:0:0:0:
144,248,14200,6,0,P|208:228|264:272,1,130
304,336,14843,1,0,0:0:0:0:
155,340,15057,2,0,P|123:340|94:326,1,65,2|0,0:0|0:0,0:0:0:0:
348,256,15485,2,0,P|384:288|388:368,2,130
304,336,16557,1,0,0:0:0:0:
304,176,16771,6,0,L|300:104,1,65,2|0,0:0|0:0,0:0:0:0:
391,71,17200,2,0,L|388:136,1,65
316,20,17628,1,0,0:0:0:0:
228,56,17842,2,0,P|165:65|111:31,1,130
72,116,18486,6,0,L|84:248,1,130,2|0,0:0|0:0,0:0:0:0:
120,328,19128,1,0,0:0:0:0:
192,272,19343,2,0,P|240:232|303:240,1,130
372,300,19985,1,0,0:0:0:0:
460,196,20200,1,2,0:0:0:0:
352,88,20414,2,0,L|355:152,1,65
428,52,20843,1,0,0:0:0:0:
268,135,21057,6,0,P|235:138|204:128,1,65
248,51,21486,2,0,P|278:42|311:44,1,65
205,128,21914,2,0,P|145:149|81:120,1,130,2|0,0:0|0:0,0:0:0:0:
148,56,22557,1,0,0:0:0:0:
205,128,22771,2,0,B|213:184|213:184|205:220|205:220|210:256,1,130
280,312,23414,1,0,0:0:0:0:
356,264,23628,2,0,L|428:260,2,65,2|0|0,0:0|0:0|0:0,0:0:0:0:
288,204,24271,1,0,0:0:0:0:
180,328,24486,6,0,P|118:339|69:300,2,130,0|0|2,0:0|0:0|0:0,0:0:0:0:
180,328,25771,1,0,0:0:0:0:
253,272,25986,1,0,0:0:0:0:
152,240,26200,1,2,0:0:0:0:
152,240,26414,1,2,0:0:0:0:
264,364,26628,1,0,0:0:0:0:
228,184,26843,1,2,0:0:0:0:
336,311,27057,2,0,P|396:321|456:282,1,130,2|0,0:0|0:0,0:0:0:0:
425,145,27700,2,0,P|362:136|309:170,1,130,2|0,0:0|0:0,0:0:0:0:
380,228,28343,5,0,0:0:0:0:
380,228,28771,2,0,L|252:208,1,130,2|0,0:0|0:0,0:0:0:0:
136,104,29414,1,0,0:0:0:0:
168,252,29628,5,0,0:0:0:0:
239,112,29843,1,0,0:0:0:0:
89,190,30057,1,0,0:0:0:0:
89,190,30485,1,2,0:0:0:0:
309,346,30914,1,0,0:0:0:0:
309,346,31343,6,0,P|341:350|377:346,1,65
436,281,31771,1,0,0:0:0:0:
372,215,31985,1,0,0:0:0:0:
432,146,32200,2,0,P|381:124|311:145,1,130,2|0,0:0|0:0,0:0:0:0:
202,218,32843,1,0,0:0:0:0:
202,218,33057,6,0,P|236:222|268:212,1,65
220,134,33485,1,0,0:0:0:0:
286,71,33700,1,0,0:0:0:0:
373,122,33914,1,2,0:0:0:0:
373,122,34128,1,0,0:0:0:0:
373,122,34342,1,0,0:0:0:0:
136,160,34771,6,0,L|152:96,1,65
108,248,35200,1,0,0:0:0:0:
215,148,35414,1,0,0:0:0:0:
48,188,35628,2,0,P|24:240|48:308,1,130,2|0,0:0|0:0,0:0:0:0:
249,321,36486,6,0,L|313:325,1,65
397,277,36914,2,0,L|461:281,1,65
337,213,37343,1,2,0:0:0:0:
337,213,37771,2,0,P|305:193|289:169,1,65
238,20,38200,6,0,P|292:35|331:101,1,130
240,111,38842,1,0,0:0:0:0:
306,183,39057,1,2,0:0:0:0:
306,183,39271,2,0,B|338:231|310:275|306:275|302:275|274:319|306:367,1,195
464,108,41628,6,0,L|460:176,1,65,2|0,0:0|0:0,0:0:0:0:
308,188,42057,1,0,0:0:0:0:
388,228,42271,1,2,0:0:0:0:
344,104,42485,2,0,P|280:99|231:140,1,130,2|0,0:0|0:0,0:0:0:0:
308,188,43128,1,0,0:0:0:0:
224,292,43342,2,0,L|228:228,1,65,2|0,0:0|0:0,0:0:0:0:
140,252,43771,2,0,L|136:316,1,65,0|2,0:0|0:0,0:0:0:0:
292,360,44200,2,0,P|324:368|357:360,1,65,2|0,0:0|0:0,0:0:0:0:
392,276,44628,2,0,P|360:268|327:276,1,65
452,340,45057,6,0,P|479:283|463:222,2,130,2|0|2,0:0|0:0|0:0,0:0:0:0:
392,276,46128,1,0,0:0:0:0:
368,144,46343,2,0,L|432:137,1,65
308,223,46771,2,0,P|248:244|184:216,2,130,2|0|2,0:0|0:0|0:0,0:0:0:0:
308,224,48057,1,0,0:0:0:0:
250,153,48271,1,0,0:0:0:0:
108,192,48486,6,0,L|108:257,1,65,2|0,0:0|0:0,0:0:0:0:
52,328,48914,1,0,0:0:0:0:
200,264,49128,1,2,0:0:0:0:
171,127,49342,2,0,P|114:101|53:119,1,130,2|0,0:0|0:0,0:0:0:0:
108,192,49986,1,0,0:0:0:0:
256,92,50200,2,0,L|248:27,1,65,2|0,0:0|0:0,0:0:0:0:
348,88,50628,2,0,L|356:153,1,65,0|2,0:0|0:0,0:0:0:0:
376,304,51057,1,2,0:0:0:0:
448,172,51271,1,0,0:0:0:0:
316,236,51486,1,0,0:0:0:0:
460,264,51700,1,0,0:0:0:0:
298,325,51914,6,0,P|243:292|226:231,2,130,2|0|2,0:0|0:0|0:0,0:0:0:0:
316,236,52986,1,0,0:0:0:0:
275,155,53200,2,0,P|245:144|213:143,1,65
147,264,53628,2,0,P|85:272|36:232,2,130,2|0|2,0:0|0:0|0:0,0:0:0:0:
147,264,54914,1,0,0:0:0:0:
213,143,55128,1,0,0:0:0:0:
363,215,55342,6,0,P|419:184|442:124,1,130,2|0,0:0|0:0,0:0:0:0:
352,124,55985,1,2,0:0:0:0:
232,220,56200,2,0,L|224:360,1,130,2|0,0:0|0:0,0:0:0:0:
112,256,56842,1,0,0:0:0:0:
112,256,57057,2,0,L|124:117,1,130,2|0,0:0|0:0,0:0:0:0:
132,36,57700,1,2,0:0:0:0:
48,4,57914,1,2,0:0:0:0:
388,126,58342,1,0,0:0:0:0:
388,126,58771,6,0,L|400:256,1,130,2|0,0:0|0:0,0:0:0:0:
412,348,59414,1,2,0:0:0:0:
316,236,59628,2,0,B|288:220|256:212|256:212|224:220|196:236,1,130,2|0,0:0|0:0,0:0:0:0:
112,276,60271,1,0,0:0:0:0:
32,236,60485,2,0,L|12:168,1,65,2|0,0:0|0:0,0:0:0:0:
96,48,60914,2,0,L|114:110,1,65,0|2,0:0|0:0,0:0:0:0:
196,236,61342,2,0,B|224:252|256:260|256:260|288:252|316:236,1,130,2|0,0:0|0:0,0:0:0:0:
388,176,61985,1,0,0:0:0:0:
316,32,62200,6,0,B|288:16|256:8|256:8|224:16|196:32,1,130,2|0,0:0|0:0,0:0:0:0:
256,100,62842,1,2,0:0:0:0:
256,248,63057,2,0,L|256:380,1,130,2|0,0:0|0:0,0:0:0:0:
140,284,63700,1,0,0:0:0:0:
140,284,63914,2,0,L|140:152,1,130,2|0,0:0|0:0,0:0:0:0:
188,76,64557,1,2,0:0:0:0:
96,76,64771,1,2,0:0:0:0:
256,360,65200,1,0,0:0:0:0:
256,360,65628,6,0,B|288:372|316:360|316:360|344:348|384:360,1,130,2|0,0:0|0:0,0:0:0:0:
472,380,66271,1,2,0:0:0:0:
392,252,66485,2,0,B|372:192|372:192|392:128,1,130,2|0,0:0|0:0,0:0:0:0:
388,36,67128,1,0,0:0:0:0:
320,100,67342,2,0,L|300:164,1,65,2|0,0:0|0:0,0:0:0:0:
156,192,67771,2,0,L|176:128,1,65,0|2,0:0|0:0,0:0:0:0:
216,268,68200,2,0,P|160:292|96:268,1,130,2|0,0:0|0:0,0:0:0:0:
32,208,68842,1,0,0:0:0:0:
144,104,69057,5,0,0:0:0:0:
144,104,69485,1,0,0:0:0:0:
230,72,69700,1,2,0:0:0:0:
316,41,69914,1,2,0:0:0:0:
61,134,70342,1,0,0:0:0:0:
80,344,70771,5,0,0:0:0:0:
80,344,71200,2,0,L|88:280,1,65,0|2,0:0|0:0,0:0:0:0:
204,176,71628,2,0,L|196:240,1,65,2|0,0:0|0:0,0:0:0:0:
155,93,72057,1,0,0:0:0:0:
155,93,72486,5,2,0:0:0:0:
300,108,72700,1,0,0:0:0:0:
232,48,72914,1,0,0:2:0:0:
224,160,73128,1,2,0:0:0:0:
372,163,73343,2,0,P|384:134|388:101,1,65,0|0,1:0|0:0,0:0:0:0:
452,208,73771,2,0,P|456:288|484:332,2,130,2|2|0,0:0|0:0|0:0,0:0:0:0:
504,132,74843,1,2,0:0:0:0:
388,101,75057,2,0,L|323:96,1,65,0|0,1:0|0:0,0:0:0:0:
236,128,75486,1,2,0:0:0:0:
304,188,75700,1,0,0:0:0:0:
252,40,75914,6,0,P|192:16|128:40,1,130,2|0,0:0|0:0,0:0:0:0:
64,100,76557,1,2,0:0:0:0:
140,152,76771,2,0,L|132:236,1,65,0|0,1:0|0:0,0:0:0:0:
217,280,77200,2,0,L|224:216,1,65,2|0,0:0|0:0,0:0:0:0:
155,347,77628,2,0,P|214:372|274:352,1,130,2|0,0:0|0:0,0:0:0:0:
368,216,78271,1,2,0:0:0:0:
217,280,78486,1,0,1:0:0:0:
364,344,78700,2,0,L|428:340,2,65,0|2|0,0:0|0:0|0:0,0:0:0:0:
308,272,79343,6,0,P|288:208|320:152,1,130,2|0,0:0|0:0,0:0:0:0:
388,104,79985,1,2,0:0:0:0:
432,219,80200,2,0,L|368:216,1,65,0|0,1:0|0:0,0:0:0:0:
324,101,80628,2,0,L|388:104,1,65,2|0,0:0|0:0,0:0:0:0:
228,116,81057,6,0,P|188:152|112:136,1,130,2|0,0:0|0:0,0:0:0:0:
56,72,81700,1,2,0:0:0:0:
96,228,81914,2,0,L|88:304,1,65,0|0,1:0|0:0,0:0:0:0:
156,356,82343,1,2,0:0:0:0:
236,308,82557,1,0,0:0:0:0:
316,348,82771,6,0,L|456:344,2,130,2|0|0,0:0|0:0|1:0,0:0:0:0:
316,348,84057,1,2,0:0:0:0:
364,188,84271,1,0,0:0:0:0:
420,260,84486,1,2,0:0:0:0:
259,276,84700,2,0,P|227:279|196:271,1,65,2|0,0:0|0:0,0:0:0:0:
120,220,85128,1,2,0:0:0:0:
336,200,85343,6,0,L|340:265,1,65,0|0,1:0|0:0,0:0:0:0:
264,144,85771,2,0,L|267:79,1,65,0|0,1:0|0:0,0:0:0:0:
204,216,86200,5,2,0:0:0:0:
120,256,86414,1,0,0:0:0:0:
244,296,86628,1,0,0:0:0:0:
244,296,87057,2,0,B|288:300|288:300|320:284|320:284|372:288,1,130,0|2,1:0|0:0,0:0:0:0:
436,352,87700,1,0,0:0:0:0:
400,212,87914,6,0,P|396:180|400:148,1,65,2|0,0:0|0:0,0:0:0:0:
484,180,88343,1,0,0:0:0:0:
484,180,88771,2,0,L|352:180,1,130,0|2,1:0|0:0,0:0:0:0:
176,300,89628,5,2,0:0:0:0:
260,336,89843,1,0,0:0:0:0:
200,216,90057,1,0,0:0:0:0:
200,216,90486,2,0,P|225:154|200:100,1,130,0|2,1:0|0:0,0:0:0:0:
124,52,91128,1,0,0:0:0:0:
208,12,91343,6,0,P|240:8|272:12,1,65,2|0,0:0|0:0,0:0:0:0:
392,80,91771,1,0,0:0:0:0:
332,148,91985,1,2,0:0:0:0:
336,240,92200,1,0,1:0:0:0:
384,316,92414,1,0,0:0:0:0:
476,344,92628,1,2,0:0:0:0:
476,344,93057,6,0,L|408:348,1,65,2|0,0:0|0:0,0:0:0:0:
324,272,93486,2,0,L|392:276,1,65,0|2,0:0|0:0,0:0:0:0:
272,340,93914,2,0,P|240:288|252:224,1,130,0|2,1:0|0:0,0:0:0:0:
316,156,94557,1,0,0:0:0:0:
228,48,94771,6,0,P|192:32|160:32,1,65,2|0,0:0|0:0,0:0:0:0:
68,116,95200,2,0,P|104:132|136:132,1,65,0|2,0:0|0:0,0:0:0:0:
292,116,95628,2,0,B|356:140|356:140|384:196,1,130,0|2,1:0|0:0,0:0:0:0:
380,300,96271,5,0,0:0:0:0:
380,300,96486,1,2,0:0:0:0:
308,76,96914,6,0,L|240:84,1,65,0|2,0:0|0:0,0:0:0:0:
368,128,97343,1,2,0:0:0:0:
368,128,97771,1,0,0:0:0:0:
292,188,97986,5,2,0:0:0:0:
200,164,98200,1,2,0:0:0:0:
200,164,99914,6,0,P|192:200|204:236,1,65,4|0,0:0|0:0,0:0:0:0:
274,337,100343,2,0,P|282:306|276:275,1,65,0|2,0:0|0:0,0:0:0:0:
200,164,100771,2,0,L|70:156,1,130,0|2,1:0|0:0,0:0:0:0:
8,224,101414,1,0,0:0:0:0:
76,288,101628,1,2,0:0:0:0:
160,252,101843,1,0,0:0:0:0:
160,252,102057,2,0,L|224:255,1,65,0|2,0:0|0:0,0:0:0:0:
200,100,102486,2,0,L|124:96,1,65,0|0,1:0|0:0,0:0:0:0:
328,52,102914,2,0,L|392:48,1,65,2|0,0:0|0:0,0:0:0:0:
412,188,103343,6,0,P|351:203|295:173,2,130,2|0|0,0:0|0:0|1:0,0:0:0:0:
492,140,104414,1,0,0:0:0:0:
472,256,104628,2,0,P|480:284|468:328,1,65,2|0,0:0|0:0,0:0:0:0:
368,253,105057,2,0,L|361:124,2,130,2|0|0,0:0|0:0|1:0,0:0:0:0:
369,254,106342,1,2,0:0:0:0:
448,168,106557,1,0,0:0:0:0:
332,100,106771,6,0,L|267:100,1,65,2|0,0:0|0:0,0:0:0:0:
180,128,107200,1,0,0:0:0:0:
247,189,107414,1,2,0:0:0:0:
93,155,107628,2,0,P|69:215|93:279,1,130,0|2,1:0|0:0,0:0:0:0:
152,340,108271,1,0,0:0:0:0:
250,253,108486,6,0,L|247:189,1,65,2|0,0:0|0:0,0:0:0:0:
331,154,108914,2,0,L|334:218,1,65,0|2,0:0|0:0,0:0:0:0:
339,310,109343,1,0,1:0:0:0:
247,189,109557,1,0,0:0:0:0:
407,102,109771,1,2,0:0:0:0:
203,30,109986,1,0,0:0:0:0:
380,21,110200,6,0,P|444:28|486:75,2,130,2|0|0,0:0|0:0|1:0,0:0:0:0:
332,96,111271,1,0,0:0:0:0:
248,64,111486,2,0,L|183:60,1,65,2|0,0:0|0:0,0:0:0:0:
60,124,111914,6,0,P|40:176|68:248,2,130,2|0|0,0:0|0:0|1:0,0:0:0:0:
60,124,113200,2,0,L|124:120,1,65,2|0,0:0|0:0,0:0:0:0:
316,132,113628,6,0,B|316:164|337:193|337:193|316:220|316:252,1,130,2|0,0:0|0:0,0:0:0:0:
256,376,114271,1,2,0:0:0:0:
195,252,114485,2,0,B|196:220|174:193|174:193|196:164|196:132,1,130,0|2,1:0|0:0,0:0:0:0:
256,8,115128,1,0,0:0:0:0:
292,192,115342,6,0,P|352:216|412:192,1,130,2|0,0:0|0:0,0:0:0:0:
512,96,115985,1,2,0:0:0:0:
512,96,116200,2,0,P|456:72|392:96,1,130,0|2,1:0|0:0,0:0:0:0:
304,344,117057,5,2,0:0:0:0:
304,344,117485,1,0,0:0:0:0:
394,232,117700,1,2,0:0:0:0:
325,107,117914,2,0,P|267:86|199:93,1,130,0|2,1:0|0:0,0:0:0:0:
208,344,118771,5,2,0:0:0:0:
208,344,119199,1,0,0:0:0:0:
118,232,119414,1,2,0:0:0:0:
187,107,119628,2,0,P|245:86|313:93,1,130,0|2,1:0|0:0,0:0:0:0:
491,332,120485,6,0,P|433:353|365:346,1,130,2|0,0:0|0:0,0:0:0:0:
258,266,121128,1,2,0:0:0:0:
152,184,121342,2,0,P|87:177|27:198,1,130,0|2,1:0|0:0,0:0:0:0:
45,356,121985,1,0,0:0:0:0:
45,356,122200,6,0,P|109:362|169:341,1,130,2|0,0:0|0:0,0:0:0:0:
152,184,122842,1,2,0:0:0:0:
152,184,123057,2,0,P|88:178|28:199,1,130,0|2,1:0|0:0,0:0:0:0:
340,332,123914,5,2,0:0:0:0:
340,332,124343,2,0,L|408:316,1,65,0|2,0:0|0:0,0:0:0:0:
262,349,124771,1,0,1:0:0:0:
144,76,125200,1,2,0:0:0:0:
144,76,125628,6,0,P|184:80|180:156,1,130,2|0,0:0|0:0,0:0:0:0:
120,220,126271,1,2,0:0:0:0:
120,220,126486,2,0,P|168:204|244:220,1,130,0|2,1:0|0:0,0:0:0:0:
312,280,127128,1,0,0:0:0:0:
372,212,127342,6,0,L|360:108,2,97.5,6|0|2,0:0|0:0|0:0,0:0:0:0:
312,280,128200,2,0,P|268:300|236:296,1,65,0|0,1:0|0:0,0:0:0:0:
192,232,128628,2,0,P|196:183|216:158,1,65,2|0,0:0|0:0,0:0:0:0:
260,44,129057,6,0,L|180:52,1,65,2|0,0:0|0:0,0:0:0:0:
160,76,129378,2,0,L|80:68,1,65
60,40,129700,1,2,0:0:0:0:
24,124,129914,2,0,P|16:176|24:200,1,65,0|0,1:0|0:0,0:0:0:0:
86,303,130343,2,0,P|95:272|92:240,1,65,2|0,0:0|0:0,0:0:0:0:
124,156,130771,6,0,L|192:152,1,65,2|0,0:0|0:0,0:0:0:0:
264,204,131200,1,0,0:0:0:0:
328,140,131414,1,2,0:0:0:0:
400,194,131628,2,0,P|424:252|398:309,1,130,0|2,1:0|0:0,0:0:0:0:
328,140,132486,2,0,P|381:105|450:118,1,130,2|0,0:0|0:0,0:0:0:0:
400,194,133128,1,2,0:0:0:0:
332,252,133343,2,0,L|192:240,1,130,0|2,1:0|0:0,0:0:0:0:
128,296,133986,1,0,0:0:0:0:
47,203,134200,6,0,P|43:156|66:113,2,97.5,2|0|2,0:0|0:0|0:0,0:0:0:0:
120,172,135057,2,0,L|192:168,1,65,0|0,1:0|0:0,0:0:0:0:
264,216,135486,2,0,L|328:219,1,65,2|0,0:0|0:0,0:0:0:0:
391,127,135914,2,0,P|375:82|385:35,2,97.5,2|0|2,0:0|0:0|0:0,0:0:0:0:
468,180,136771,2,0,P|473:211|466:243,1,65,0|0,1:0|0:0,0:0:0:0:
380,275,137200,2,0,P|374:243|381:211,1,65,2|0,0:0|0:0,0:0:0:0:
431,336,137628,6,0,P|372:355|316:325,1,130,2|0,0:0|0:0,0:0:0:0:
236,364,138271,1,2,0:0:0:0:
264,200,138485,2,0,P|324:180|380:211,1,130,0|2,1:0|0:0,0:0:0:0:
465,243,139128,1,0,0:0:0:0:
448,152,139343,2,0,L|440:76,1,65,2|0,0:0|0:0,0:0:0:0:
388,16,139771,1,0,0:0:0:0:
352,100,139986,1,2,0:0:0:0:
263,80,140200,2,0,P|202:96|143:71,1,130,0|0,1:0|1:0,0:0:0:0:
80,8,140843,1,0,0:0:0:0:
160,176,141057,6,0,L|156:276,2,97.5,6|0|2,0:0|0:0|0:0,0:0:0:0:
36,152,141914,2,0,L|28:292,1,130,0|2,1:0|0:0,0:0:0:0:
24,372,142557,1,0,0:0:0:0:
144,344,142771,2,0,L|208:344,1,65,2|0,0:0|0:0,0:0:0:0:
244,312,143093,2,0,L|308:311,1,65
348,336,143414,1,2,0:0:0:0:
444,276,143628,2,0,P|448:244|444:212,1,65,0|0,1:0|0:0,0:0:0:0:
360,140,144057,2,0,P|356:172|360:204,1,65,2|0,0:0|0:0,0:0:0:0:
356,64,144486,6,0,B|324:76|324:76|296:64,1,65,2|0,0:0|0:0,0:0:0:0:
156,40,144914,2,0,B|188:28|188:28|216:40,1,65,0|2,0:0|0:0,0:0:0:0:
256,152,145343,2,0,B|268:192|256:220|256:220|244:244|256:280,1,130,0|2,1:0|0:0,0:0:0:0:
256,364,145986,1,0,0:0:0:0:
180,240,146200,2,0,L|168:176,1,65,2|0,0:0|0:0,0:0:0:0:
344,176,146628,2,0,L|332:240,1,65,0|2,0:0|0:0,0:0:0:0:
256,20,147057,1,0,1:0:0:0:
72,208,147486,1,2,0:0:0:0:
72,208,147914,6,0,P|56:160|72:116,2,97.5,2|0|2,0:0|0:0|0:0,0:0:0:0:
160,304,148771,2,0,L|228:304,1,65,0|0,1:0|0:0,0:0:0:0:
296,184,149200,2,0,L|228:184,1,65,2|0,0:0|0:0,0:0:0:0:
336,272,149628,2,0,P|376:252|396:204,2,97.5,2|0|2,0:0|0:0|0:0,0:0:0:0:
364,136,150486,2,0,P|396:128|428:136,1,65,0|0,1:0|0:0,0:0:0:0:
292,80,150914,2,0,P|260:88|228:80,1,65,2|0,0:0|0:0,0:0:0:0:
108,24,151343,6,0,P|92:76|108:148,1,130,2|0,0:0|0:0,0:0:0:0:
204,276,151986,1,2,0:0:0:0:
204,276,152200,2,0,B|136:276|136:276|100:328,1,130,0|2,1:0|0:0,0:0:0:0:
308,276,152843,1,0,0:0:0:0:
308,276,153057,2,0,B|376:276|376:276|412:328,1,130,2|2,0:0|0:0,0:0:0:0:
256,352,153700,1,2,0:0:0:0:
256,192,153914,1,0,1:0:0:0:
256,192,154128,12,4,158200,0:0:0:0:
408,312,173628,6,0,L|402:247,1,65,4|0,1:0|0:0,0:0:0:0:
360,164,174057,1,0,0:0:0:0:
452,168,174271,1,2,0:0:0:0:
309,243,174486,2,0,P|263:285|200:282,1,130,8|0,1:0|0:0,0:0:0:0:
163,196,175128,2,0,L|228:196,1,65,2|0,0:0|0:0,0:0:0:0:
116,116,175557,1,2,0:0:0:0:
116,116,175771,2,0,L|51:116,1,65,2|0,0:0|0:0,0:0:0:0:
288,84,176200,5,8,1:0:0:0:
420,176,176414,1,0,0:0:0:0:
248,208,176628,1,0,0:0:0:0:
380,92,176843,1,0,0:0:0:0:
368,252,177057,2,0,L|362:316,1,65,2|0,0:0|0:0,0:0:0:0:
277,368,177485,2,0,L|272:304,1,65,0|2,0:0|0:0,0:0:0:0:
444,356,177914,5,8,1:0:0:0:
328,168,178128,1,0,0:0:0:0:
271,303,178342,1,0,0:0:0:0:
432,200,178557,1,2,0:0:0:0:
224,136,178771,2,0,L|228:200,1,65,0|2,0:0|0:0,0:0:0:0:
108,332,179200,2,0,L|118:202,1,130,2|8,0:0|1:0,0:0:0:0:
118,202,180057,1,0,0:0:0:0:
200,128,180271,1,0,0:0:0:0:
267,298,180486,6,0,P|235:294|204:303,1,65,2|0,0:0|0:0,0:0:0:0:
348,340,180914,1,0,0:0:0:0:
304,220,181128,1,2,0:0:0:0:
456,192,181343,2,0,L|444:256,1,65,8|0,1:0|0:0,0:0:0:0:
468,364,181771,1,2,0:0:0:0:
360,292,181986,2,0,B|312:284|312:284|231:294,1,130,2|2,0:0|0:0,0:0:0:0:
140,308,182628,1,2,0:0:0:0:
172,224,182843,1,0,0:0:0:0:
196,380,183057,2,0,L|260:384,1,65,8|0,1:0|0:0,0:0:0:0:
356,272,183486,2,0,L|291:268,1,65
441,307,183914,6,0,P|448:275|444:244,1,65,2|0,0:0|0:0,0:0:0:0:
314,132,184342,2,0,P|308:164|316:196,1,65,0|2,0:0|0:0,0:0:0:0:
344,44,184771,2,0,P|312:38|280:45,1,65,8|0,1:0|0:0,0:0:0:0:
120,149,185200,2,0,P|152:155|184:148,1,65,0|2,0:0|0:0,0:0:0:0:
148,80,185628,5,0,1:0:0:0:
76,296,185843,1,2,0:0:0:0:
300,256,186057,1,2,0:0:0:0:
148,376,186271,1,0,1:0:0:0:
148,376,186485,1,0,1:0:0:0:
120,184,186700,1,0,0:0:0:0:
300,256,186914,2,0,L|293:320,1,65,8|8,1:0|1:0,0:0:0:0:
378,136,187343,6,0,P|322:106|259:120,1,130,4|0,1:0|0:0,0:0:0:0:
296,324,187986,1,2,0:0:0:0:
296,324,188200,2,0,L|312:192,1,130,8|0,1:0|0:0,0:0:0:0:
424,72,188843,1,2,0:0:0:0:
262,36,189057,1,0,0:0:0:0:
311,194,189271,1,2,0:0:0:0:
351,20,189486,1,2,0:0:0:0:
226,328,189914,2,0,B|186:340|162:324|162:324|134:304|98:316,1,130,8|0,1:0|0:0,0:0:0:0:
248,32,190771,6,0,L|383:50,1,130,2|0,0:0|0:0,0:0:0:0:
484,181,191414,1,2,0:0:0:0:
484,181,191628,2,0,L|348:162,1,130,8|0,1:0|0:0,0:0:0:0:
265,151,192271,1,2,0:0:0:0:
334,336,192486,2,0,L|398:345,1,65,0|2,0:0|0:0,0:0:0:0:
291,243,192914,2,0,L|227:235,1,65,2|0,0:0|0:0,0:0:0:0:
36,349,193343,2,0,P|98:332|135:278,1,130,8|0,1:0|0:0,0:0:0:0:
46,257,193986,1,0,0:0:0:0:
120,124,194200,6,0,L|251:138,1,130,6|0,0:0|0:0,0:0:0:0:
365,25,194843,1,2,0:0:0:0:
365,25,195057,2,0,L|236:38,1,130,8|0,1:0|0:0,0:0:0:0:
176,196,195700,1,2,0:0:0:0:
330,99,195914,1,0,0:0:0:0:
200,116,196128,1,2,0:0:0:0:
389,166,196342,1,2,0:0:0:0:
389,166,196771,2,0,B|453:146|453:146|513:166,1,130,8|0,1:0|0:0,0:0:0:0:
320,336,197628,6,0,B|256:356|256:356|196:336,1,130,2|0,0:0|0:0,0:0:0:0:
256,268,198271,1,2,0:0:0:0:
328,212,198486,2,0,B|348:188|348:188|356:156,1,65,8|0,1:0|0:0,0:0:0:0:
184,212,198914,2,0,B|164:188|164:188|156:156,1,65,0|2,0:0|0:0,0:0:0:0:
256,208,199343,2,0,B|256:78,2,130,0|2|0,0:0|0:0|1:0,0:0:0:0:
293,345,200414,1,0,0:0:0:0:
435,321,200628,1,0,1:0:0:0:
336,215,200843,1,0,1:0:0:0:
148,344,201057,6,0,P|84:352|32:312,1,130,4|0,1:0|0:0,0:0:0:0:
88,240,201700,1,2,0:0:0:0:
16,184,201914,2,0,L|28:48,1,130,8|0,1:0|0:0,0:0:0:0:
104,8,202557,1,2,0:0:0:0:
164,76,202771,2,0,P|212:76|240:64,1,65,0|2,0:0|0:0,0:0:0:0:
385,171,203200,2,0,P|333:136|272:152,2,130,2|8|0,0:0|1:0|0:0,0:0:0:0:
424,252,204271,1,0,0:0:0:0:
480,180,204486,6,0,L|472:48,1,130,2|0,0:0|0:0,0:0:0:0:
388,12,205128,1,2,0:0:0:0:
316,68,205343,2,0,P|264:88|196:44,1,130,8|0,1:0|0:0,0:0:0:0:
116,24,205986,1,2,0:0:0:0:
56,92,206200,2,0,L|56:172,1,65,0|2,0:0|0:0,0:0:0:0:
100,236,206628,2,0,P|168:228|228:280,1,130,2|8,0:0|1:0,0:0:0:0:
268,336,207271,1,0,0:0:0:0:
324,264,207486,2,0,L|316:188,1,65
256,192,207914,12,0,214771,0:0:0:0:
