osu file format v14

[General]
AudioFilename: audio.mp3
AudioLeadIn: 0
PreviewTime: 41521
Countdown: 0
SampleSet: Soft
StackLeniency: 0.7
Mode: 0
LetterboxInBreaks: 0
WidescreenStoryboard: 1

[Editor]
DistanceSpacing: 1.3
BeatDivisor: 4
GridSize: 4
TimelineZoom: 1

[Metadata]
Title:Wildest Dreams
TitleUnicode:Wildest Dreams
Artist:Taylor Swift
ArtistUnicode:Taylor Swift
Creator:BoatKrab
Version:Normal
Source:
Tags:1989 ezek Big Machine Single country dream
BeatmapID:934657
BeatmapSetID:433614

[Difficulty]
HPDrainRate:4
CircleSize:3.5
OverallDifficulty:3
ApproachRate:4.5
SliderMultiplier:0.7
SliderTickRate:1

[Events]
//Background and Video events
0,0,"Deer.jpg",0,0
Video,54,"BootyKrabby.avi"
//Break Periods
2,69257,71226
2,158400,171914
//Storyboard Layer 0 (Background)
//Storyboard Layer 1 (Fail)
//Storyboard Layer 2 (Pass)
//Storyboard Layer 3 (Foreground)
//Storyboard Sound Samples

[TimingPoints]
14200,428.571428571429,4,2,0,50,1,0
41628,-100,4,2,1,50,0,0
96486,-100,4,2,1,20,0,0
99914,-100,4,2,1,70,0,1
127342,-100,4,2,2,50,0,0
127450,-100,4,2,1,50,0,0
141057,-100,4,2,1,60,0,1
141164,-100,4,2,1,60,0,0
158200,-100,4,2,2,30,0,0
173628,-100,4,2,1,70,0,1
185628,-100,4,2,1,100,0,0
187342,-100,4,2,1,70,0,1
200200,-100,4,2,1,100,0,0
201057,-100,4,2,1,70,0,1
207914,-100,4,2,1,50,0,0

[Colours]
Combo1 : 255,0,0
Combo2 : 0,128,255
Combo3 : 32,32,255
Combo4 : 255,128,64
Combo5 : 255,128,0
Combo6 : 255,128,128

[HitObjects]
63,303,14199,6,0,P|102:338|153:335,1,105
192,308,15057,2,0,L|192:238,1,70,2|0,0:0|0:0,0:0:0:0:
128,170,15914,2,0,P|173:146|225:149,1,105
260,180,16771,2,0,L|329:173,1,70,2|0,0:0|0:0,0:0:0:0:
415,199,17628,6,0,P|432:249|416:298,1,105
380,324,18486,2,0,L|310:320,1,70,2|0,0:0|0:0,0:0:0:0:
223,352,19343,2,0,P|159:373|96:336,1,140,0|2,0:0|0:0,0:0:0:0:
166,279,20628,1,0,0:0:0:0:
97,219,21057,6,0,L|104:114,1,105
124,72,21914,2,0,P|159:71|193:81,1,70,2|0,0:0|0:0,0:0:0:0:
236,160,22771,2,0,P|285:173|330:148,1,105
356,108,23628,2,0,L|425:111,1,70,2|0,0:0|0:0,0:0:0:0:
471,191,24486,6,0,P|496:254|469:317,1,140,0|2,0:0|0:0,0:0:0:0:
408,252,25771,1,0,0:0:0:0:
324,292,26200,2,0,L|254:292,1,70
171,332,27057,2,0,P|122:345|74:325,2,105,2|2|0,0:0|0:0|0:0,0:0:0:0:
128,252,28771,6,0,L|136:112,1,140,2|0,0:0|0:0,0:0:0:0:
184,36,30057,1,0,0:0:0:0:
248,104,30486,2,0,P|307:135|367:105,1,140,2|0,0:0|0:0,0:0:0:0:
436,48,31771,5,0,0:0:0:0:
456,136,32200,2,0,L|448:275,1,140,2|0,0:0|0:0,0:0:0:0:
384,340,33486,1,0,0:0:0:0:
299,300,33914,2,0,P|265:305|232:296,1,70,2|0,0:0|0:0,0:0:0:0:
176,224,34771,6,0,L|183:84,1,140,0|2,0:0|0:0,0:0:0:0:
256,28,36057,1,0,0:0:0:0:
328,84,36486,2,0,L|335:223,1,140,0|2,0:0|0:0,0:0:0:0:
256,268,37771,1,0,0:0:0:0:
191,331,38200,6,0,P|254:359|318:333,2,140,0|2|0,0:0|0:0|0:0,0:0:0:0:
96,104,41628,6,0,P|127:144|177:152,1,105,2|2,0:0|0:0,0:0:0:0:
215,128,42486,2,0,P|249:120|284:125,1,70,2|0,0:0|0:0,0:0:0:0:
368,163,43343,2,0,L|356:267,1,105,2|2,0:0|0:0,0:0:0:0:
348,312,44200,1,2,0:0:0:0:
276,256,44628,1,0,0:0:0:0:
228,332,45057,6,0,P|176:333|132:306,1,105,2|2,0:0|0:0,0:0:0:0:
100,272,45914,2,0,L|93:341,2,70,2|0|2,0:0|0:0|0:0,0:0:0:0:
40,204,47200,1,2,0:0:0:0:
129,187,47628,2,0,P|137:153|131:118,1,70,2|0,0:0|0:0,0:0:0:0:
196,56,48486,6,0,L|300:63,1,105,2|2,0:0|0:0,0:0:0:0:
343,75,49343,2,0,P|355:108|349:142,1,70,2|0,0:0|0:0,0:0:0:0:
278,198,50200,2,0,P|317:230|369:229,1,105,2|2,0:0|0:0,0:0:0:0:
400,192,51057,2,0,P|433:180|468:182,1,70,2|0,0:0|0:0,0:0:0:0:
444,272,51914,6,0,L|440:341,2,70,2|0|2,0:0|0:0|0:0,0:0:0:0:
467,181,53200,1,0,0:0:0:0:
404,116,53628,2,0,P|369:121|336:110,1,70,2|2,0:0|0:0,0:0:0:0:
260,60,54485,2,0,P|226:49|192:54,1,70,2|0,0:0|0:0,0:0:0:0:
120,108,55343,6,0,L|112:212,1,105,2|2,0:0|0:0,0:0:0:0:
96,256,56200,2,0,P|131:261|165:253,1,70,2|0,0:0|0:0,0:0:0:0:
232,196,57057,2,0,P|275:169|326:175,1,105,2|2,0:0|0:0,0:0:0:0:
352,216,57914,2,0,L|421:222,1,70,2|0,0:0|0:0,0:0:0:0:
456,308,58771,6,0,L|351:297,1,105,2|2,0:0|0:0,0:0:0:0:
308,291,59628,2,0,P|274:299|243:317,1,70,2|0,0:0|0:0,0:0:0:0:
164,360,60486,2,0,P|113:363|70:334,1,105,2|2,0:0|0:0,0:0:0:0:
92,292,61343,2,0,L|88:222,1,70,2|0,0:0|0:0,0:0:0:0:
24,155,62200,6,0,P|67:128|118:133,1,105,2|2,0:0|0:0,0:0:0:0:
160,156,63057,2,0,P|192:167|226:160,1,70,2|0,0:0|0:0,0:0:0:0:
300,108,63914,2,0,L|304:212,1,105,2|2,0:0|0:0,0:0:0:0:
339,239,64771,2,0,P|362:266|372:299,1,70,2|2,0:0|0:0,0:0:0:0:
291,304,65628,6,0,P|254:339|202:341,1,105,2|2,0:0|0:0,0:0:0:0:
160,320,66486,2,0,P|128:305|93:303,1,70,2|0,0:0|0:0,0:0:0:0:
8,336,67343,2,0,L|19:196,2,140,2|2|0,0:0|0:0|0:0,0:0:0:0:
391,124,72486,6,0,P|351:154|300:146,1,105,2|2,0:0|0:0,0:0:0:0:
268,116,73343,2,0,L|198:119,1,70,0|2,1:0|0:0,0:0:0:0:
111,84,74200,2,0,P|103:135|123:183,1,105,2|2,0:0|0:0,0:0:0:0:
156,212,75057,2,0,L|149:246,2,35,0|0|2,1:0|0:0|0:0,0:0:0:0:
232,163,75914,6,0,P|279:143|329:154,1,105,2|2,0:0|0:0,0:0:0:0:
368,184,76771,2,0,L|361:218,2,35,0|0|2,1:0|0:0|0:0,0:0:0:0:
452,216,77628,2,0,L|432:319,1,105,2|2,0:0|0:0,0:0:0:0:
408,359,78485,2,0,P|372:368|338:359,1,70,0|2,1:0|0:0,0:0:0:0:
300,280,79343,6,0,P|256:253|205:256,1,105,2|2,0:0|0:0,0:0:0:0:
168,284,80200,2,0,P|135:296|100:294,1,70,0|2,1:0|0:0,0:0:0:0:
36,228,81057,2,0,L|43:123,1,105,2|2,0:0|0:0,0:0:0:0:
48,76,81914,2,0,P|82:79|111:98,1,70,0|2,1:0|0:0,0:0:0:0:
172,168,82771,6,0,P|237:185|291:145,2,140,2|0|2,0:0|1:0|0:0,0:0:0:0:
108,232,84914,2,0,L|105:266,2,35,0|2|0,0:0|0:0|1:0,0:0:0:0:
84,144,85771,1,0,1:0:0:0:
152,84,86200,6,0,L|221:80,1,70,2|2,0:0|0:0,0:0:0:0:
268,76,86843,2,0,P|278:89|286:105,1,35,2|0,0:0|1:0,0:0:0:0:
320,188,87486,1,2,0:0:0:0:
272,268,87914,2,0,L|202:258,1,70,2|2,0:0|0:0,0:0:0:0:
164,280,88557,2,0,L|129:282,1,35,2|0,0:0|1:0,0:0:0:0:
40,272,89200,1,2,0:0:0:0:
96,200,89628,6,0,P|107:168|103:133,1,70,2|2,0:0|0:0,0:0:0:0:
76,96,90271,2,0,L|79:61,1,35,2|0,0:0|1:0,0:0:0:0:
160,20,90914,1,2,0:0:0:0:
236,72,91343,2,0,L|305:65,2,70,2|2|0,0:0|0:0|1:0,0:0:0:0:
196,156,92628,1,2,0:0:0:0:
159,239,93057,6,0,P|192:251|226:245,1,70,2|2,0:0|0:0,0:0:0:0:
268,228,93700,2,0,L|302:234,1,35,2|0,0:0|1:0,0:0:0:0:
372,292,94343,1,2,0:0:0:0:
436,228,94771,2,0,L|439:158,1,70,2|2,0:0|0:0,0:0:0:0:
440,112,95414,2,0,L|442:77,1,35,2|0,0:0|1:0,0:0:0:0:
372,20,96057,1,2,0:0:0:0:
300,76,96485,6,0,L|160:64,2,140,0|2|0,0:0|0:0|0:0,0:0:0:0:
448,247,99914,6,0,P|430:277|400:294,1,70,4|0,0:0|0:0,0:0:0:0:
356,296,100557,2,0,L|321:292,1,35,2|0,0:0|1:0,0:0:0:0:
240,252,101200,1,2,0:0:0:0:
168,307,101628,2,0,P|134:315|100:305,1,70,2|2,0:0|0:0,0:0:0:0:
68,276,102271,1,2,0:0:0:0:
48,236,102486,2,0,L|51:201,2,35,0|0|2,1:0|0:0|0:0,0:0:0:0:
139,228,103343,6,0,P|173:220|207:230,1,70,2|2,0:0|0:0,0:0:0:0:
240,264,103986,1,2,0:0:0:0:
276,288,104200,2,0,L|310:285,2,35,0|0|2,1:0|0:0|0:0,0:0:0:0:
207,230,105057,2,0,L|211:160,1,70,2|2,0:0|0:0,0:0:0:0:
224,116,105700,2,0,L|220:81,1,35,2|0,0:0|1:0,0:0:0:0:
140,36,106343,1,2,0:0:0:0:
60,79,106771,6,0,P|48:112|51:147,1,70,2|0,0:0|0:0,0:0:0:0:
84,180,107414,2,0,L|118:176,1,35,2|0,0:0|1:0,0:0:0:0:
208,164,108057,1,2,0:0:0:0:
275,223,108486,2,0,P|309:231|343:221,1,70,2|0,0:0|0:0,0:0:0:0:
372,188,109128,1,2,0:0:0:0:
400,152,109343,2,0,L|434:154,2,35,0|0|2,1:0|0:0|0:0,0:0:0:0:
356,72,110200,6,0,L|286:64,1,70,2|2,0:0|0:0,0:0:0:0:
240,60,110843,2,0,L|205:60,1,35,2|0,0:0|1:0,0:0:0:0:
132,116,111486,1,2,0:0:0:0:
48,79,111914,2,0,P|39:113|46:148,1,70,2|2,0:0|0:0,0:0:0:0:
84,172,112557,2,0,L|80:206,1,35,2|0,0:0|1:0,0:0:0:0:
76,296,113200,1,2,0:0:0:0:
156,255,113628,6,0,P|203:234|254:243,1,105,2|2,0:0|0:0,0:0:0:0:
288,276,114485,2,0,L|291:345,1,70,0|2,1:0|0:0,0:0:0:0:
376,308,115343,2,0,L|372:203,1,105,2|2,0:0|0:0,0:0:0:0:
392,160,116200,1,0,1:0:0:0:
320,108,116628,1,2,0:0:0:0:
255,176,117057,6,0,P|206:187|162:160,1,105,2|2,0:0|0:0,0:0:0:0:
136,124,117914,2,0,L|66:130,1,70,0|2,1:0|0:0,0:0:0:0:
36,216,118771,2,0,P|72:252|80:303,1,105,2|2,0:0|0:0,0:0:0:0:
64,344,119628,2,0,L|133:346,1,70,0|2,1:0|0:0,0:0:0:0:
196,280,120486,6,0,P|245:296|295:281,1,105,2|2,0:0|0:0,0:0:0:0:
324,248,121343,1,0,1:0:0:0:
412,272,121771,1,2,0:0:0:0:
416,180,122200,2,0,P|400:132|416:82,1,105,2|2,0:0|0:0,0:0:0:0:
440,44,123057,2,0,L|370:37,1,70,0|2,1:0|0:0,0:0:0:0:
288,72,123914,6,0,P|246:101|195:97,1,105,2|2,0:0|0:0,0:0:0:0:
156,68,124771,2,0,L|149:137,1,70,0|2,1:0|0:0,0:0:0:0:
74,191,125628,2,0,P|58:240|72:290,1,105,2|2,0:0|0:0,0:0:0:0:
104,324,126485,2,0,L|173:327,1,70,0|2,1:0|0:0,0:0:0:0:
228,256,127343,6,0,P|277:240|326:256,1,105,6|2,0:0|0:0,0:0:0:0:
348,296,128200,2,0,L|417:292,1,70,0|2,1:0|0:0,0:0:0:0:
471,219,129057,2,0,P|456:170|468:120,1,105,2|2,0:0|0:0,0:0:0:0:
488,80,129914,2,0,L|418:80,1,70,0|2,1:0|0:0,0:0:0:0:
340,123,130771,6,0,P|332:56|375:2,2,140,2|0|2,0:0|1:0|0:0,0:0:0:0:
400,192,132914,2,0,L|434:189,2,35,0|2|0,0:0|0:0|1:0,0:0:0:0:
344,264,133771,1,2,0:0:0:0:
275,203,134200,6,0,P|229:181|177:184,1,105,2|2,0:0|0:0,0:0:0:0:
144,216,135057,2,0,L|147:285,1,70,0|2,1:0|0:0,0:0:0:0:
220,344,135914,2,0,P|267:364|314:346,1,105,2|2,0:0|0:0,0:0:0:0:
331,304,136771,2,0,P|363:288|398:288,1,70,0|2,1:0|0:0,0:0:0:0:
475,239,137628,6,0,P|488:307|451:365,2,140,2|0|2,0:0|1:0|0:0,0:0:0:0:
408,180,139771,2,0,L|413:145,2,35,0|2|0,0:0|0:0|1:0,0:0:0:0:
352,252,140628,1,0,1:0:0:0:
304,176,141057,6,0,P|273:160|238:158,1,70,6|0,0:0|0:0,0:0:0:0:
196,180,141700,2,0,L|161:180,1,35,2|0,0:0|1:0,0:0:0:0:
76,208,142343,1,2,0:0:0:0:
23,283,142771,2,0,P|54:301|88:303,1,70,2|0,0:0|0:0,0:0:0:0:
128,284,143414,2,0,L|163:284,1,35,2|0,0:0|1:0,0:0:0:0:
244,324,144057,1,2,0:0:0:0:
308,263,144486,6,0,P|362:223|429:234,2,140,2|0|2,0:0|1:0|0:0,0:0:0:0:
256,340,146628,2,0,L|253:374,2,35,0|2|0,0:0|0:0|1:0,0:0:0:0:
208,264,147486,1,2,0:0:0:0:
148,331,147914,6,0,P|113:336|81:324,1,70,2|0,0:0|0:0,0:0:0:0:
52,292,148557,2,0,L|52:257,1,35,2|0,0:0|1:0,0:0:0:0:
92,176,149200,1,2,0:0:0:0:
163,231,149628,2,0,P|197:239|232:235,1,70,2|0,0:0|0:0,0:0:0:0:
264,204,150271,2,0,L|264:169,1,35,2|0,0:0|1:0,0:0:0:0:
296,84,150914,1,2,0:0:0:0:
359,147,151343,6,0,P|421:176|483:147,2,140,2|0|2,0:0|1:0|0:0,0:0:0:0:
296,84,153486,2,0,L|298:49,2,35,0|2|0,0:0|0:0|1:0,0:0:0:0:
264,169,154343,1,0,0:0:0:0:
256,192,154771,12,4,158200,0:0:0:0:
363,79,173628,6,0,P|368:114|363:149,1,70,4|2,1:0|0:0,0:0:0:0:
332,184,174271,2,0,L|297:178,1,35,2|8,0:0|1:0,0:0:0:0:
220,128,174914,1,2,0:0:0:0:
143,171,175343,2,0,P|136:204|140:239,1,70,0|2,0:0|0:0,0:0:0:0:
208,300,176200,2,0,L|205:334,2,35,8|0|0,1:0|0:0|0:0,0:0:0:0:
287,256,177057,6,0,P|318:239|353:236,1,70,2|2,0:0|0:0,0:0:0:0:
392,256,177700,2,0,L|426:259,1,35,2|8,0:0|1:0,0:0:0:0:
492,192,178343,1,2,0:0:0:0:
428,128,178771,2,0,P|419:94|427:60,2,70,2|2|8,0:0|0:0|1:0,0:0:0:0:
492,192,180057,1,0,0:0:0:0:
426,258,180486,6,0,P|391:263|359:251,1,70,2|2,0:0|0:0,0:0:0:0:
332,216,181128,2,0,L|297:216,1,35,2|8,0:0|1:0,0:0:0:0:
216,256,181771,1,2,0:0:0:0:
140,303,182200,2,0,P|105:308|73:296,1,70,2|2,0:0|0:0,0:0:0:0:
24,220,183057,2,0,L|17:185,2,35,8|0|0,1:0|0:0|0:0,0:0:0:0:
115,216,183914,6,0,P|150:211|182:223,1,70,2|0,0:0|0:0,0:0:0:0:
208,260,184557,2,0,L|243:260,1,35,2|8,0:0|1:0,0:0:0:0:
324,304,185200,1,2,0:0:0:0:
416,315,185628,6,0,P|409:264|374:225,2,105,0|0|8,1:0|1:0|1:0,0:0:0:0:
323,304,187343,6,0,P|277:327|227:318,1,105,4|2,1:0|0:0,0:0:0:0:
192,288,188200,2,0,L|122:291,1,70,8|2,1:0|0:0,0:0:0:0:
79,210,189057,2,0,L|148:206,1,70,0|2,0:0|0:0,0:0:0:0:
220,147,189914,2,0,P|228:114|220:80,1,70,8|0,1:0|0:0,0:0:0:0:
299,31,190771,6,0,P|334:69|386:71,1,105,2|2,0:0|0:0,0:0:0:0:
428,52,191628,2,0,L|424:121,1,70,8|0,1:0|0:0,0:0:0:0:
420,168,192271,2,0,L|422:202,1,35,2|0,0:0|0:0,0:0:0:0:
432,292,192914,1,2,0:0:0:0:
344,264,193343,2,0,P|313:247|278:241,1,70,8|0,1:0|0:0,0:0:0:0:
199,292,194200,6,0,P|156:319|106:308,1,105,6|2,0:0|0:0,0:0:0:0:
80,272,195057,2,0,L|83:202,1,70,8|2,1:0|0:0,0:0:0:0:
140,132,195914,1,0,0:0:0:0:
212,188,196343,1,2,0:0:0:0:
280,128,196771,2,0,L|283:58,1,70,8|0,1:0|0:0,0:0:0:0:
376,48,197628,6,0,L|372:152,1,105,2|2,0:0|0:0,0:0:0:0:
356,196,198485,2,0,P|390:200|420:220,1,70,8|0,1:0|0:0,0:0:0:0:
356,284,199343,2,0,L|280:280,1,70,2|2,0:0|0:0,0:0:0:0:
220,216,200200,2,0,L|144:212,1,70,2|2,0:0|0:0,0:0:0:0:
116,244,200843,1,0,1:0:0:0:
84,275,201057,6,0,P|88:241|84:206,1,70,4|0,1:0|0:0,0:0:0:0:
72,164,201700,2,0,P|89:163|106:159,1,35,2|8,0:0|1:0,0:0:0:0:
180,104,202343,1,0,0:0:0:0:
256,152,202771,2,0,L|325:155,2,70,0|2|8,0:0|0:0|1:0,0:0:0:0:
192,216,204057,1,0,0:0:0:0:
131,283,204486,6,0,P|177:307|228:299,1,105,2|2,0:0|0:0,0:0:0:0:
256,264,205343,2,0,L|325:270,1,70,8|0,1:0|0:0,0:0:0:0:
388,204,206200,2,0,L|457:210,2,70,0|2|8,0:0|0:0|1:0,0:0:0:0:
328,136,207486,1,0,0:0:0:0:
256,192,207914,12,0,214771,0:0:0:0:
