osu file format v14

[General]
AudioFilename: audio.mp3
AudioLeadIn: 0
PreviewTime: 41521
Countdown: 0
SampleSet: Soft
StackLeniency: 0.7
Mode: 0
LetterboxInBreaks: 0
WidescreenStoryboard: 1

[Editor]
DistanceSpacing: 1.6
BeatDivisor: 4
GridSize: 4
TimelineZoom: 1

[Metadata]
Title:Wildest Dreams
TitleUnicode:Wildest Dreams
Artist:Taylor Swift
ArtistUnicode:Taylor Swift
Creator:BoatKrab
Version:Hard
Source:
Tags:1989 ezek Big Machine Single country dream
BeatmapID:934656
BeatmapSetID:433614

[Difficulty]
HPDrainRate:5
CircleSize:4
OverallDifficulty:5
ApproachRate:7.5
SliderMultiplier:1
SliderTickRate:1

[Events]
//Background and Video events
0,0,"Lion.jpg",0,0
Video,54,"BootyKrabby.avi"
//Break Periods
2,158400,171914
//Storyboard Layer 0 (Background)
//Storyboard Layer 1 (Fail)
//Storyboard Layer 2 (Pass)
//Storyboard Layer 3 (Foreground)
//Storyboard Sound Samples

[TimingPoints]
14200,428.571428571429,4,2,0,50,1,0
41628,-100,4,2,1,50,0,0
99914,-100,4,2,1,70,0,1
127342,-100,4,2,2,70,0,0
127450,-100,4,2,1,70,0,0
141057,-100,4,2,1,70,0,1
141164,-100,4,2,1,70,0,0
158200,-100,4,2,2,30,0,0
173628,-100,4,2,1,70,0,1
185628,-100,4,2,1,100,0,0
187342,-100,4,2,1,70,0,1
200200,-100,4,2,1,100,0,0
201057,-100,4,2,1,70,0,1
207914,-100,4,2,1,30,0,0

[Colours]
Combo1 : 255,0,0
Combo2 : 0,128,255
Combo3 : 32,32,255
Combo4 : 255,128,64
Combo5 : 255,128,0
Combo6 : 255,128,128

[HitObjects]
328,236,13557,5,0,0:0:0:0:
364,164,13771,1,0,0:0:0:0:
364,164,14200,6,0,P|320:156|264:188,1,100
240,252,14843,1,0,0:0:0:0:
176,204,15057,2,0,L|112:196,1,50,2|0,0:0|0:0,0:0:0:0:
72,140,15485,2,0,P|48:188|64:244,2,100
228,96,16771,6,0,L|224:40,1,50,2|0,0:0|0:0,0:0:0:0:
304,56,17200,2,0,L|307:105,1,50
264,172,17628,1,0,0:0:0:0:
196,216,17843,2,0,P|232:248|284:252,1,100
348,208,18486,6,0,P|384:176|436:172,1,100,2|0,0:0|0:0,0:0:0:0:
416,248,19128,1,0,0:0:0:0:
416,248,19343,2,0,L|408:356,1,100
264,276,20200,1,2,0:0:0:0:
212,336,20414,1,0,0:0:0:0:
184,260,20628,1,0,0:0:0:0:
184,260,21057,6,0,L|177:210,1,50
123,152,21486,2,0,P|168:130|216:140,2,100,0|2|0,0:0|0:0|0:0,0:0:0:0:
48,180,22557,2,0,L|36:68,1,100
96,24,23200,1,0,0:0:0:0:
252,52,23628,5,2,0:0:0:0:
324,88,23843,1,0,0:0:0:0:
388,40,24057,2,0,P|416:36|448:40,1,50
484,104,24486,2,0,L|480:212,2,100,0|0|2,0:0|0:0|0:0,0:0:0:0:
348,24,25771,1,0,0:0:0:0:
348,24,25986,1,0,0:0:0:0:
408,132,26200,6,0,P|383:135|358:134,1,50,2|2,0:0|0:0,0:0:0:0:
292,88,26628,1,0,0:0:0:0:
280,168,26843,1,2,0:0:0:0:
216,120,27057,2,0,P|168:108|108:128,1,100,2|0,0:0|0:0,0:0:0:0:
68,180,27700,2,0,L|72:288,1,100,2|0,0:0|0:0,0:0:0:0:
120,344,28343,6,0,P|180:360|224:336,2,100,0|2|0,0:0|0:0|0:0,0:0:0:0:
168,280,29414,1,0,0:0:0:0:
248,272,29628,2,0,L|244:216,1,50
288,156,30057,2,0,P|334:141|380:158,2,100,0|2|0,0:0|0:0|0:0,0:0:0:0:
136,212,31343,6,0,L|132:148,1,50
60,128,31771,2,0,P|44:84|60:32,2,100,0|2|0,0:0|0:0|0:0,0:0:0:0:
124,80,32843,1,0,0:0:0:0:
192,36,33057,2,0,L|244:36,1,50
248,116,33486,2,0,L|198:116,1,50
176,192,33914,2,0,L|226:192,2,50,2|0|0,0:0|0:0|0:0,0:0:0:0:
296,300,34771,6,0,P|332:304|356:300,1,50
373,226,35200,2,0,P|348:222|324:224,1,50
448,260,35628,2,0,L|452:148,1,100,2|0,0:0|0:0,0:0:0:0:
292,136,36486,6,0,L|242:132,1,50
154,64,36914,2,0,L|204:60,1,50
95,115,37342,2,0,P|76:71|87:23,1,100,2|0,0:0|0:0,0:0:0:0:
154,64,37986,1,0,0:0:0:0:
172,144,38200,6,0,P|142:183|95:197,1,100
24,164,38843,1,0,0:0:0:0:
32,244,39057,2,0,L|34:293,1,50,2|0,0:0|0:0,0:0:0:0:
112,316,39486,2,0,P|158:301|205:315,1,100
205,315,41628,6,0,P|251:329|298:313,1,100,2|0,0:0|0:0,0:0:0:0:
352,252,42271,1,2,0:0:0:0:
352,252,42486,2,0,L|348:152,1,100,2|0,0:0|0:0,0:0:0:0:
212,64,43343,2,0,P|172:76|116:52,1,100,2|0,0:0|0:0,0:0:0:0:
48,20,43986,1,2,0:0:0:0:
28,96,44200,2,0,L|32:152,1,50,2|0,0:0|0:0,0:0:0:0:
104,217,44628,2,0,L|108:168,1,50
24,232,45057,6,0,L|32:340,2,100,2|0|2,0:0|0:0|0:0,0:0:0:0:
104,217,46128,1,0,0:0:0:0:
164,272,46343,2,0,P|204:280|228:272,1,50
276,232,46771,2,0,P|328:220|376:240,2,100,2|0|2,0:0|0:0|0:0,0:0:0:0:
276,232,48057,1,0,0:0:0:0:
276,232,48271,1,0,0:0:0:0:
204,200,48486,6,0,L|208:128,1,50,2|0,0:0|0:0,0:0:0:0:
252,84,48914,1,0,0:0:0:0:
172,76,49128,1,2,0:0:0:0:
128,144,49343,2,0,P|72:152|24:116,1,100,2|0,0:0|0:0,0:0:0:0:
92,72,49986,1,0,0:0:0:0:
172,76,50200,2,0,L|240:72,1,50,2|0,0:0|0:0,0:0:0:0:
284,124,50628,1,0,0:0:0:0:
344,72,50843,1,2,0:0:0:0:
408,120,51057,6,0,P|412:152|404:180,1,50,2|0,0:0|0:0,0:0:0:0:
339,257,51486,2,0,P|335:232|339:208,1,50
400,312,51914,2,0,L|288:308,1,100,2|0,0:0|0:0,0:0:0:0:
224,336,52557,1,2,0:0:0:0:
160,288,52771,6,0,L|156:224,1,50,2|0,0:0|0:0,0:0:0:0:
76,224,53200,2,0,L|79:273,1,50
124,160,53628,2,0,P|140:112|124:60,1,100,2|0,0:0|0:0,0:0:0:0:
60,112,54271,1,2,0:0:0:0:
60,112,54486,2,0,P|44:160|60:212,1,100,2|0,0:0|0:0,0:0:0:0:
188,300,55343,6,0,P|236:284|288:304,1,100,2|0,0:0|0:0,0:0:0:0:
344,348,55986,1,2,0:0:0:0:
344,348,56200,2,0,P|390:363|437:349,1,100,2|0,0:0|0:0,0:0:0:0:
440,188,57057,2,0,P|393:172|346:186,1,100,2|0,0:0|0:0,0:0:0:0:
284,236,57700,1,2,0:0:0:0:
284,236,57914,2,0,L|164:228,1,100,2|0,0:0|0:0,0:0:0:0:
116,84,58771,6,0,L|215:90,1,100,2|0,0:0|0:0,0:0:0:0:
275,145,59414,1,2,0:0:0:0:
348,108,59628,2,0,P|356:144|324:212,1,100,2|0,0:0|0:0,0:0:0:0:
224,316,60485,2,0,B|172:304|172:304|125:310,1,100,2|0,0:0|0:0,0:0:0:0:
60,356,61128,1,2,0:0:0:0:
59,355,61342,2,0,P|46:308|62:262,1,100,2|0,0:0|0:0,0:0:0:0:
188,164,62200,6,0,P|244:172|280:148,1,100,2|0,0:0|0:0,0:0:0:0:
320,80,62843,1,2,0:0:0:0:
320,80,63057,2,0,L|419:87,1,100,2|0,0:0|0:0,0:0:0:0:
456,244,63914,2,0,L|356:236,1,100,2|0,0:0|0:0,0:0:0:0:
296,292,64557,1,2,0:0:0:0:
236,240,64771,2,0,P|200:208|140:212,1,100,2|0,0:0|0:0,0:0:0:0:
20,304,65628,6,0,L|16:196,1,100,2|0,0:0|0:0,0:0:0:0:
68,136,66271,1,2,0:0:0:0:
68,136,66486,2,0,L|72:28,1,100,2|0,0:0|0:0,0:0:0:0:
204,124,67343,2,0,P|224:144|292:148,1,100,2|0,0:0|0:0,0:0:0:0:
348,92,67986,1,2,0:0:0:0:
364,172,68200,2,0,L|356:284,1,100,2|0,0:0|0:0,0:0:0:0:
200,292,69057,5,0,0:0:0:0:
200,292,69486,2,0,P|160:288|140:280,2,50,0|2|2,0:0|0:0|0:0,0:0:0:0:
256,140,70343,1,0,0:0:0:0:
356,271,70771,1,0,0:0:0:0:
356,271,71200,2,0,P|396:275|416:283,2,50,0|2|2,0:0|0:0|0:0,0:0:0:0:
296,324,71843,1,0,0:0:0:0:
276,248,72057,1,0,0:0:0:0:
276,248,72486,6,0,L|272:180,1,50,2|0,0:0|0:0,0:0:0:0:
196,184,72914,2,0,L|198:233,1,50,0|2,0:0|0:0,0:0:0:0:
224,108,73343,2,0,P|196:100|168:108,1,50,0|0,1:0|0:0,0:0:0:0:
116,160,73771,2,0,P|60:156|24:116,2,100,2|2|0,0:0|0:0|0:0,0:0:0:0:
96,84,74843,1,2,0:0:0:0:
164,44,75057,2,0,L|220:44,1,50,0|0,1:0|0:0,0:0:0:0:
314,108,75486,2,0,L|264:108,1,50,2|0,0:0|0:0,0:0:0:0:
380,63,75914,6,0,P|391:112|375:158,1,100,2|0,0:0|0:0,0:0:0:0:
314,108,76557,1,2,0:0:0:0:
268,172,76771,2,0,L|266:221,1,50,0|0,1:0|0:0,0:0:0:0:
342,285,77200,2,0,L|344:236,1,50,2|0,0:0|0:0,0:0:0:0:
288,344,77628,2,0,P|332:364|380:353,1,100,2|0,0:0|0:0,0:0:0:0:
452,316,78271,1,2,0:0:0:0:
420,244,78485,2,0,L|418:195,1,50,0|0,1:0|0:0,0:0:0:0:
408,116,78914,1,2,0:0:0:0:
408,116,79128,1,0,0:0:0:0:
408,116,79343,6,0,P|368:136|312:112,1,100,2|0,0:0|0:0,0:0:0:0:
284,44,79986,1,2,0:0:0:0:
212,68,80200,2,0,L|156:68,1,50,0|0,1:0|0:0,0:0:0:0:
92,108,80628,2,0,P|84:140|92:168,1,50,2|0,0:0|0:0,0:0:0:0:
156,200,81057,6,0,P|172:248|148:308,1,100,2|0,0:0|0:0,0:0:0:0:
92,248,81700,1,2,0:0:0:0:
156,200,81914,2,0,L|224:196,1,50,0|0,1:0|0:0,0:0:0:0:
280,224,82343,2,0,L|329:226,1,50,2|0,0:0|0:0,0:0:0:0:
392,276,82771,6,0,P|408:232|392:176,1,100,2|0,0:0|0:0,0:0:0:0:
344,120,83414,1,2,0:0:0:0:
268,140,83628,1,0,1:0:0:0:
268,140,84057,2,0,L|208:136,1,50,2|0,0:0|0:0,0:0:0:0:
144,108,84486,5,2,0:0:0:0:
148,188,84700,1,2,0:0:0:0:
116,260,84914,2,0,P|84:264|56:260,1,50,0|2,0:0|0:0,0:0:0:0:
216,232,85343,2,0,P|264:220|328:244,1,100,0|0,1:0|1:0,0:0:0:0:
364,296,85986,1,0,0:0:0:0:
420,240,86200,6,0,L|416:184,1,50,2|0,0:0|0:0,0:0:0:0:
468,128,86628,2,0,L|476:24,2,100,0|0|2,0:0|1:0|0:0,0:0:0:0:
392,108,87700,1,0,0:0:0:0:
328,156,87914,2,0,P|296:156|276:144,1,50,2|0,0:0|0:0,0:0:0:0:
216,104,88343,2,0,L|222:203,1,100,0|0,0:0|1:0,0:0:0:0:
226,207,89200,1,2,0:0:0:0:
226,207,89628,6,0,P|188:212|164:208,1,50,2|0,0:0|0:0,0:0:0:0:
108,156,90057,2,0,L|111:106,1,50,0|2,0:0|0:0,0:0:0:0:
68,40,90486,2,0,P|112:24|168:48,1,100,0|2,1:0|0:0,0:0:0:0:
216,96,91128,1,0,0:0:0:0:
288,56,91343,2,0,L|344:52,1,50,2|0,0:0|0:0,0:0:0:0:
404,96,91771,2,0,P|408:120|404:156,1,50,0|2,0:0|0:0,0:0:0:0:
352,204,92200,2,0,P|392:224|456:212,1,100,0|2,1:0|0:0,0:0:0:0:
308,132,93057,5,2,0:0:0:0:
264,200,93271,1,0,0:0:0:0:
188,172,93486,2,0,L|132:168,1,50,0|2,0:0|0:0,0:0:0:0:
60,192,93914,2,0,P|40:240|56:292,1,100,0|2,1:0|0:0,0:0:0:0:
116,332,94557,1,0,0:0:0:0:
180,284,94771,6,0,L|240:280,1,50,2|0,0:0|0:0,0:0:0:0:
292,332,95200,2,0,P|332:356|392:344,2,100,0|0|2,0:0|1:0|0:0,0:0:0:0:
348,276,96271,1,0,0:0:0:0:
348,276,96486,6,0,B|368:172|368:172|352:112,1,150,0|2,0:0|0:0,0:0:0:0:
300,71,97343,2,0,P|241:115|172:94,1,150,2|2,0:0|0:0,0:0:0:0:
228,36,98200,1,2,0:0:0:0:
228,36,99914,6,0,L|224:96,1,50,4|0,0:2|0:0,0:0:0:0:
291,185,100343,2,0,L|288:136,1,50,0|2,0:0|0:0,0:0:0:0:
348,80,100771,2,0,P|400:68|452:100,1,100,0|2,1:0|0:0,0:0:0:0:
488,152,101414,1,0,0:0:0:0:
428,204,101628,2,0,L|432:264,1,50,2|0,0:0|0:0,0:0:0:0:
359,325,102057,2,0,L|356:276,1,50,0|2,0:0|0:0,0:0:0:0:
304,216,102486,5,0,1:0:0:0:
252,276,102700,1,0,0:0:0:0:
177,249,102914,2,0,P|153:242|128:241,1,50,2|0,0:0|0:0,0:0:0:0:
67,295,103343,2,0,P|48:250|58:202,1,100,2|0,0:0|0:0,0:0:0:0:
116,148,103986,1,2,0:0:0:0:
180,100,104200,6,0,L|180:50,1,50,0|0,1:0|0:0,0:0:0:0:
104,20,104628,2,0,L|104:70,1,50,2|0,0:0|0:0,0:0:0:0:
116,148,105057,2,0,P|156:180|208:176,2,100,2|0|0,0:0|0:0|1:0,0:0:0:0:
116,148,106343,1,2,0:0:0:0:
64,208,106557,1,0,0:0:0:0:
120,264,106771,6,0,L|192:268,1,50,2|0,0:0|0:0,0:0:0:0:
232,320,107200,1,0,0:0:0:0:
296,272,107414,1,2,0:0:0:0:
356,324,107628,2,0,P|404:336|456:308,1,100,0|2,1:0|0:0,0:0:0:0:
396,256,108271,1,0,0:0:0:0:
448,196,108486,2,0,L|452:140,1,50,2|0,0:0|0:0,0:0:0:0:
383,62,108914,2,0,L|380:112,1,50,0|2,0:0|0:0,0:0:0:0:
332,176,109343,5,0,1:0:0:0:
264,216,109557,1,0,0:0:0:0:
204,164,109771,2,0,L|144:156,1,50,2|0,0:0|0:0,0:0:0:0:
104,96,110200,2,0,P|80:128|84:192,1,100,2|0,0:0|0:0,0:0:0:0:
144,236,110843,1,2,0:0:0:0:
68,264,111057,6,0,L|60:324,1,50,0|0,1:0|0:0,0:0:0:0:
128,360,111486,2,0,L|134:310,1,50,2|0,0:0|0:0,0:0:0:0:
208,284,111914,2,0,P|252:264|308:276,1,100,2|0,0:0|0:0,0:0:0:0:
372,320,112557,1,2,0:0:0:0:
372,320,112771,2,0,P|420:328|465:308,1,100,0|2,1:0|0:0,0:0:0:0:
496,152,113628,6,0,L|488:52,1,100,2|0,0:0|0:0,0:0:0:0:
416,88,114271,1,2,0:0:0:0:
344,124,114486,2,0,P|292:128|256:100,1,100,0|2,1:0|0:0,0:0:0:0:
100,60,115343,2,0,L|96:168,1,100,2|0,0:0|0:0,0:0:0:0:
144,224,115986,1,2,0:0:0:0:
68,252,116200,2,0,P|96:292|145:307,1,100,0|2,1:0|0:0,0:0:0:0:
288,248,117057,6,0,P|332:220|384:232,1,100,2|0,0:0|0:0,0:0:0:0:
436,280,117700,1,2,0:0:0:0:
436,280,117914,2,0,P|392:308|340:296,1,100,0|2,1:0|0:0,0:0:0:0:
232,188,118771,2,0,L|236:88,1,100,2|0,0:0|0:0,0:0:0:0:
176,36,119414,1,2,0:0:0:0:
160,112,119628,2,0,L|156:212,1,100,0|2,1:0|0:0,0:0:0:0:
288,304,120486,6,0,P|336:324|388:300,1,100,2|0,0:0|0:0,0:0:0:0:
424,244,121128,1,2,0:0:0:0:
364,192,121343,2,0,L|368:88,1,100,0|2,1:0|0:0,0:0:0:0:
212,64,122200,2,0,L|208:163,1,100,2|0,0:0|0:0,0:0:0:0:
160,228,122843,1,2,0:0:0:0:
200,300,123057,2,0,P|228:316|296:300,1,100,0|2,1:0|0:0,0:0:0:0:
436,236,123914,6,0,L|440:340,1,100,2|0,0:0|0:0,0:0:0:0:
364,368,124557,1,2,0:0:0:0:
364,368,124771,2,0,L|360:268,1,100,0|2,1:0|0:0,0:0:0:0:
256,148,125628,2,0,P|212:128|160:140,1,100,2|0,0:0|0:0,0:0:0:0:
108,196,126271,1,2,0:0:0:0:
108,196,126486,2,0,L|112:296,1,100,0|0,1:0|1:0,0:0:0:0:
180,340,127128,1,0,0:0:0:0:
280,276,127342,6,0,P|316:268|368:284,2,75,6|0|2,0:0|0:0|0:0,0:0:0:0:
212,232,128200,2,0,L|216:176,1,50,0|0,1:0|0:0,0:0:0:0:
160,124,128628,2,0,P|128:116|100:116,1,50,2|0,0:0|0:0,0:0:0:0:
44,164,129057,2,0,L|48:224,1,50,2|0,0:0|0:0,0:0:0:0:
64,252,129378,2,0,L|60:312,1,50
56,344,129700,1,2,0:0:0:0:
132,320,129914,2,0,P|172:304|228:316,1,100,0|2,1:0|0:0,0:0:0:0:
288,364,130557,1,0,0:0:0:0:
364,336,130771,6,0,L|360:224,1,100,2|0,0:0|0:0,0:0:0:0:
416,176,131414,1,2,0:0:0:0:
416,176,131628,2,0,P|368:156|316:168,1,100,0|2,1:0|0:0,0:0:0:0:
208,276,132486,2,0,P|159:284|114:264,1,100,2|0,0:0|0:0,0:0:0:0:
76,196,133128,1,2,0:0:0:0:
140,148,133343,2,0,L|136:36,1,100,0|2,1:0|0:0,0:0:0:0:
296,76,134200,6,0,P|324:60|376:60,2,75,2|0|2,0:0|0:0|0:0,0:0:0:0:
348,136,135057,2,0,L|344:192,1,50,0|0,1:0|0:0,0:0:0:0:
420,208,135485,2,0,L|423:158,1,50,2|0,0:0|0:0,0:0:0:0:
364,268,135914,2,0,P|395:287|432:288,2,75,2|0|2,0:0|0:0|0:0,0:0:0:0:
300,316,136771,2,0,L|248:320,1,50,0|0,1:0|0:0,0:0:0:0:
220,244,137200,2,0,L|269:240,1,50,2|0,0:0|0:0,0:0:0:0:
156,292,137628,6,0,P|140:244|156:196,1,100,2|0,0:0|0:0,0:0:0:0:
224,164,138271,1,2,0:0:0:0:
224,164,138486,2,0,P|240:116|224:68,1,100,0|2,1:0|0:0,0:0:0:0:
156,28,139128,1,0,0:0:0:0:
96,84,139343,6,0,L|92:192,1,100,2|0,0:0|0:0,0:0:0:0:
148,240,139986,1,2,0:0:0:0:
148,240,140200,2,0,P|192:264|240:248,1,100,0|0,1:0|1:0,0:0:0:0:
284,184,140843,1,0,0:0:0:0:
380,256,141057,6,0,L|472:252,2,75,4|0|2,0:0|0:0|0:0,0:0:0:0:
304,227,141914,2,0,P|300:252|301:277,1,50,0|0,1:0|0:0,0:0:0:0:
364,176,142343,2,0,P|368:148|364:112,1,50,2|0,0:0|0:0,0:1:0:0:
299,84,142771,2,0,P|275:87|250:86,1,50,2|0,0:0|0:0,0:0:0:0:
220,60,143093,2,0,P|195:57|170:61,1,50
140,88,143414,1,2,0:0:0:0:
80,140,143628,2,0,P|92:187|76:234,1,100,0|2,1:0|0:0,0:0:0:0:
24,296,144271,1,0,0:0:0:0:
156,252,144485,6,0,L|216:248,1,50,2|0,0:0|0:0,0:0:0:0:
272,296,144914,2,0,L|321:292,1,50,0|2,0:0|0:0,0:0:0:0:
388,244,145343,2,0,P|404:192|388:148,1,100,0|2,1:0|0:0,0:0:0:0:
336,88,145986,1,0,0:0:0:0:
268,132,146200,2,0,B|216:144|216:144|168:132,1,100,2|0,0:0|0:0,0:0:0:0:
108,80,146843,1,2,0:0:0:0:
52,140,147057,2,0,L|56:248,1,100,0|2,1:0|0:0,0:1:0:0:
192,328,147914,6,0,P|236:348|280:336,2,75,2|0|2,0:0|0:0|0:0,0:0:0:0:
144,264,148771,2,0,L|140:212,1,50,0|0,1:0|0:0,0:0:0:0:
204,168,149200,2,0,L|200:118,1,50,2|0,0:0|0:0,0:1:0:0:
248,52,149628,2,0,P|280:68|328:64,2,75,2|0|2,0:0|0:0|0:0,0:0:0:0:
168,40,150486,2,0,L|104:44,1,50,0|0,1:0|0:0,0:0:0:0:
48,84,150914,2,0,P|44:112|48:140,1,50,2|0,0:0|0:0,0:1:0:0:
116,172,151343,6,0,P|128:220|112:272,1,100,2|0,0:0|0:0,0:0:0:0:
60,324,151986,1,2,0:0:0:0:
60,323,152200,2,0,P|106:307|152:324,1,100,0|2,1:0|0:0,0:0:0:0:
224,360,152842,1,0,0:0:0:0:
292,316,153057,2,0,P|344:332|392:308,1,100,2|0,0:0|0:0,0:0:0:0:
430,249,153700,1,2,0:0:0:0:
430,249,153914,2,0,P|384:233|338:250,1,100,0|2,1:0|0:0,0:0:0:0:
256,192,154771,12,4,158200,0:0:0:0:
404,100,173628,6,0,L|332:92,1,50,4|0,1:0|0:0,0:0:0:0:
292,144,174057,2,0,L|242:149,1,50,0|2,0:0|0:0,0:0:0:0:
176,104,174486,2,0,P|164:148|184:204,1,100,8|0,1:0|0:0,0:0:0:0:
252,232,175128,2,0,L|301:226,1,50,2|0,0:0|0:0,0:0:0:0:
368,268,175557,1,2,0:0:0:0:
440,232,175771,2,0,P|444:196|440:176,1,50,2|0,0:0|0:0,0:0:0:0:
396,116,176200,6,0,L|336:116,1,50,8|0,1:0|0:0,0:0:0:0:
250,52,176628,2,0,L|300:52,1,50
236,132,177057,2,0,P|188:144|144:120,1,100,2|0,0:0|0:0,0:0:0:0:
80,76,177700,1,2,0:0:0:0:
20,128,177914,6,0,L|24:192,1,50,8|0,1:0|0:0,0:0:0:0:
76,236,178343,1,0,0:0:0:0:
36,308,178557,1,2,0:0:0:0:
96,364,178771,2,0,L|148:360,1,50,0|2,0:0|0:0,0:0:0:0:
224,344,179200,2,0,P|204:304|148:280,1,100,2|8,0:0|1:0,0:0:0:0:
155,280,180057,1,0,0:0:0:0:
145,360,180271,1,0,0:0:0:0:
224,344,180486,6,0,L|284:340,1,50,2|0,0:0|0:0,0:0:0:0:
352,348,180914,1,0,0:0:0:0:
408,292,181128,1,0,0:0:0:0:
352,236,181343,2,0,P|336:188|352:140,1,100,8|0,1:0|0:0,0:0:0:0:
416,96,181986,2,0,P|430:48|414:2,1,100,2|2,0:0|0:0,0:0:0:0:
352,52,182628,2,0,L|296:44,1,50,2|0,0:0|0:0,0:0:0:0:
232,80,183057,1,8,1:0:0:0:
220,160,183271,1,0,0:0:0:0:
156,108,183486,2,0,P|124:112|92:104,1,50
220,160,183914,6,0,P|264:144|316:160,1,100,2|0,0:0|0:0,0:0:0:0:
376,208,184557,1,2,0:0:0:0:
324,268,184771,2,0,L|274:264,1,50,8|0,1:0|0:0,0:0:0:0:
388,320,185200,2,0,L|437:323,1,50,0|2,0:0|0:0,0:0:0:0:
375,207,185628,6,0,P|369:183|367:158,1,50,8|2,1:0|0:0,0:0:0:0:
412,92,186057,1,2,0:0:0:0:
484,128,186271,2,0,P|490:104|492:79,1,50,8|2,1:0|0:0,0:0:0:0:
440,16,186700,1,2,0:0:0:0:
340,56,186914,2,0,L|290:62,1,50,8|8,1:0|1:0,0:0:0:0:
212,68,187342,6,0,P|197:114|211:162,1,100,4|0,1:0|0:0,0:0:0:0:
260,228,187986,1,2,0:0:0:0:
320,176,188200,2,0,L|372:172,1,50,8|0,1:0|0:0,0:0:0:0:
416,240,188628,1,0,0:0:0:0:
480,188,188843,2,0,P|492:140|480:88,1,100,2|2,0:0|0:0,0:0:0:0:
400,88,189486,2,0,L|350:91,1,50,2|0,0:0|0:0,0:0:0:0:
300,152,189914,2,0,P|251:156|211:126,1,100,8|0,1:0|0:0,0:0:0:0:
212,127,190771,6,0,L|208:233,1,100,2|0,0:0|0:0,0:0:0:0:
148,276,191414,1,2,0:0:0:0:
188,344,191628,2,0,P|232:364|292:348,1,100,8|0,1:0|0:0,0:0:0:0:
340,296,192271,2,0,P|372:288|404:292,1,50,2|0,0:0|0:0,0:0:0:0:
448,344,192700,1,2,0:0:0:0:
492,280,192914,2,0,L|488:172,2,100,2|8|0,0:0|1:0|0:0,0:0:0:0:
336,300,194200,6,0,P|288:320|240:296,1,100,6|0,0:0|0:0,0:0:0:0:
212,228,194843,1,2,0:0:0:0:
212,228,195057,2,0,P|166:210|122:230,1,100,8|0,1:0|0:0,0:0:0:0:
48,260,195700,2,0,L|44:148,1,100,2|2,0:0|0:0,0:0:0:0:
84,92,196343,2,0,P|136:96|180:56,2,100,2|8|0,0:0|1:0|0:0,0:0:0:0:
140,244,197628,6,0,L|244:244,1,100,2|0,0:0|0:0,0:0:0:0:
312,284,198271,1,2,0:0:0:0:
376,236,198486,2,0,L|384:164,1,50,8|0,1:0|0:0,0:0:0:0:
360,108,198914,1,0,0:0:0:0:
440,124,199128,1,2,0:0:0:0:
416,48,199343,2,0,P|380:28|320:36,1,100,0|2,0:0|0:0,0:0:0:0:
280,104,199986,1,2,0:0:0:0:
232,168,200200,2,0,P|193:182|135:166,1,100,0|0,1:0|1:0,0:0:0:0:
84,108,200843,1,0,1:0:0:0:
84,228,201057,6,0,L|88:336,1,100,4|0,1:0|0:0,0:0:0:0:
156,368,201700,1,2,0:0:0:0:
156,368,201914,2,0,P|212:376|248:352,1,100,8|0,1:0|0:0,0:0:0:0:
224,276,202557,2,0,L|332:284,1,100,2|2,0:0|0:0,0:0:0:0:
392,240,203200,2,0,P|404:292|380:344,2,100,2|8|0,0:0|1:0|0:0,0:0:0:0:
260,152,204486,6,0,P|248:100|272:48,1,100,2|0,0:0|0:0,0:0:0:0:
328,108,205128,1,2,0:0:0:0:
332,188,205343,2,0,L|324:296,1,100,8|0,1:0|0:0,0:0:0:0:
264,340,205986,2,0,P|220:356|160:332,1,100,2|2,0:0|0:0,0:0:0:0:
120,280,206628,2,0,P|164:264|224:288,1,100,2|8,0:0|1:0,0:0:0:0:
264,340,207271,1,0,0:0:0:0:
296,268,207486,1,0,0:0:0:0:
256,192,207914,12,0,214771,0:0:0:0:
